osu file format v14

[General]
AudioFilename: audio.mp3
AudioLeadIn: 0
PreviewTime: 57350
Countdown: 0
SampleSet: Soft
StackLeniency: 0.7
Mode: 0
LetterboxInBreaks: 0
WidescreenStoryboard: 1

[Editor]
Bookmarks: 18167,31228,41024,50820,56534,57350,63881,70411,76942,82678,83494
DistanceSpacing: 1
BeatDivisor: 6
GridSize: 8
TimelineZoom: 3.499999

[Metadata]
Title:Sayonara Gokko
TitleUnicode:さよならごっこ
Artist:Amazarashi
ArtistUnicode:Amazarashi
Creator:danielexus
Version:Normal
Source:
Tags:
BeatmapID:2006101
BeatmapSetID:957236

[Difficulty]
HPDrainRate:3
CircleSize:3.5
OverallDifficulty:3
ApproachRate:4
SliderMultiplier:2
SliderTickRate:1

[Events]
//Background and Video events
0,0,"bg.jpg",0,0
//Break Periods
2,44489,49500
//Storyboard Layer 0 (Background)
//Storyboard Layer 1 (Fail)
//Storyboard Layer 2 (Pass)
//Storyboard Layer 3 (Foreground)
//Storyboard Sound Samples

[TimingPoints]
208,816.326530612245,4,2,0,25,1,0
208,-100,4,2,0,25,0,0
6330,-100,4,2,0,25,0,0
14357,-100,4,2,0,25,0,0
17350,-100,4,2,0,5,0,0
18167,816.326530612245,4,2,0,30,1,0
18167,-100,4,2,0,30,0,0
18983,-100,4,2,0,30,0,0
19391,-100,4,2,0,30,0,0
23473,-100,4,2,0,30,0,0
24153,-100,4,2,0,30,0,0
25513,-100,4,2,0,30,0,0
25786,-100,4,2,0,30,0,0
31228,-100,4,2,0,30,0,0
38575,-100,4,2,0,30,0,0
38847,-100,4,2,0,30,0,0
41024,-100,4,2,0,35,0,0
44289,-100,4,2,0,25,0,0
50820,-100,4,3,0,25,0,0
51092,-100,4,2,0,30,0,0
51330,-100,4,2,0,40,0,0
51432,-100,4,2,0,50,0,0
52044,-100,4,2,0,30,0,0
52452,-100,4,3,0,30,0,0
52724,-100,4,2,0,30,0,0
54085,-100,4,2,0,40,0,0
54901,-90.9090909090909,4,2,0,50,0,0
55718,-83.3333333333333,4,2,0,60,0,0
56534,-71.4285714285714,4,2,0,70,0,0
57350,-80,4,2,0,60,0,1
69595,-80,4,2,0,40,0,0
70411,-80,4,2,0,60,0,1
82678,816.326530612245,4,3,0,20,1,0
83494,-125,4,3,0,20,0,0
84582,-125,4,3,0,20,0,0
86351,-100,4,2,0,20,0,0
87984,-100,4,2,0,10,0,0
89208,-100,4,2,0,5,0,0

[Colours]
Combo1 : 63,71,173
Combo2 : 210,126,108
Combo3 : 163,52,97
Combo4 : 165,84,78

[HitObjects]
33,307,208,6,0,B|80:330|133:318|133:318,1,100
216,267,1024,1,0,0:0:0:0:
302,317,1432,2,0,B|249:251|254:283|371:114,1,200
443,135,2656,2,0,B|460:184|457:242|457:242,2,100
372,64,3881,2,0,B|340:51|297:52|297:52,1,66.6666666666667
274,60,4289,1,0,0:0:0:0:
183,102,4697,1,0,0:0:0:0:
87,74,5105,6,0,B|62:119|91:170|121:214|97:280,1,200
26,336,6330,2,0,B|73:276|47:290|234:303,1,200
280,369,7554,2,0,B|343:366|377:328|377:328,1,100
443,263,8371,1,0,0:0:0:0:
292,131,9187,2,0,B|262:178|259:234|259:234,1,100
225,318,10003,5,0,0:0:0:0:
137,269,10412,2,0,B|89:211|6:265|57:182|-3:135,1,200
46,49,11636,2,0,B|98:76|132:129|132:129,1,100
206,166,12452,2,0,B|195:181|229:128|281:101,1,100
371,77,13269,1,0,0:0:0:0:
442,146,13677,2,0,B|439:208|434:220|434:220,1,66.6666666666667
421,243,14085,5,0,0:0:0:0:
255,355,14901,1,0,0:0:0:0:
435,234,18167,6,0,B|351:220|290:231|290:231,1,100
263,296,18983,2,0,B|207:309|155:293|155:293,1,100
86,232,19799,2,0,L|69:62,1,166.666666666667
97,48,20615,2,0,B|120:97|173:117|173:117,1,100
260,74,21432,5,0,0:0:0:0:
350,116,21840,2,0,B|389:121|449:113|449:113,1,100
512,191,22656,2,0,P|474:207|443:214,1,66.6666666666667
418,225,23064,2,0,B|471:254|474:332|414:363|340:334,1,200
271,294,24289,1,0,0:0:0:0:
178,330,24697,6,0,L|62:338,1,100
6,267,25513,2,0,L|57:162,1,100
146,149,26330,2,0,B|189:230|249:283|249:283,1,166.666666666667
275,298,27146,6,0,B|333:290|375:290|375:290,2,100
178,324,28371,1,0,0:0:0:0:
109,250,28779,2,0,B|94:184|90:139|90:139,1,100
159,78,29595,2,0,B|192:130|258:146|314:118|335:63,1,200
421,113,30820,1,0,0:0:0:0:
471,218,31228,6,0,L|503:312,1,100
429,380,32044,2,0,L|330:360,1,100
309,262,32860,2,0,L|374:186,1,100
330,96,33677,1,0,0:0:0:0:
237,134,34085,2,0,B|198:125|170:107|170:107,1,66.6666666666667
149,86,34493,6,0,B|111:60|54:81|90:233,1,200
155,298,35718,1,0,0:0:0:0:
245,255,36126,2,0,B|328:254|333:317|391:332,1,166.666666666667
427,336,36942,1,0,0:0:0:0:
454,239,37350,1,0,0:0:0:0:
394,158,37758,6,0,B|340:198|268:204|289:126|214:132,1,200
122,169,38983,1,0,0:0:0:0:
56,93,39391,1,0,0:0:0:0:
249,40,40207,2,0,B|300:60|339:81|339:81,1,100
408,154,41024,6,0,B|455:155|480:123|483:77|525:88|532:160|517:236|479:200|467:273|497:323,1,300
396,343,42656,2,0,B|336:330|293:333|293:333,1,100
213,276,43473,2,0,B|171:321|157:354|157:354,1,66.6666666666667
142,343,43881,2,0,B|111:328|49:321|49:321,1,66.6666666666667
47,336,44289,1,0,0:0:0:0:
59,325,50820,6,0,B|50:286|71:242|114:221|163:241|183:286,1,200
253,357,52044,1,0,0:0:0:0:
323,286,52452,2,0,B|366:267|421:284|421:284,2,100
146,195,54085,6,0,L|163:294,1,100
253,357,54901,2,0,L|361:338,1,110.000003356934
430,240,55718,2,0,L|409:122,1,119.999996337891
294,42,56534,1,0,0:0:0:0:
294,42,57350,6,0,B|238:16|217:25|197:77,1,125
296,154,58167,2,0,B|346:118|349:95|314:52,1,125
190,90,58983,2,0,B|120:175|125:222|226:293,1,250
350,311,60207,2,0,L|433:299,1,83.3333333333333
471,313,60615,6,0,B|446:263|444:185|444:185,1,125
479,71,61432,1,0,0:0:0:0:
359,33,61840,1,0,0:0:0:0:
317,150,62248,2,0,B|266:185|244:180|215:132,1,125
102,185,63064,2,0,B|51:149|29:154|0:202,1,125
66,308,63881,6,0,B|129:340|202:314|202:314,1,125
304,272,64697,1,0,0:0:0:0:
448,362,65513,2,0,B|526:313|534:276|476:191,1,208.333333333333
437,174,66330,2,0,B|408:221|386:226|335:191,1,125
238,107,67146,6,0,B|172:44|109:107|100:173|168:227,1,250
255,315,68371,1,0,0:0:0:0:
369,265,68779,2,0,B|421:250|410:246|448:292|437:289|483:273,2,125
365,261,70411,6,0,B|339:205|348:184|400:164,1,125
488,75,71228,2,0,B|403:133|366:125|317:47,1,208.333333333333
284,20,72044,2,0,B|214:49|160:91|160:91,1,125
72,152,72860,1,0,0:0:0:0:
179,216,73269,1,0,0:0:0:0:
256,314,73677,6,0,B|307:349|329:344|358:297,1,125
446,208,74493,2,0,B|450:146|435:129|380:128,1,125
259,96,75309,2,0,B|203:122|196:144|222:192,1,125
346,212,76126,1,0,0:0:0:0:
358,336,76534,1,0,0:0:0:0:
223,331,76942,6,0,B|159:294|84:284|84:284,1,125
11,206,77758,2,0,B|47:141|107:95|107:95,1,125
183,26,78575,2,0,B|242:110|282:115|353:56,1,208.333333333333
389,75,79391,2,0,B|418:28|440:23|491:58,1,125
465,180,80207,6,0,B|528:246|465:309|399:318|344:250,1,250
230,199,81432,1,0,0:0:0:0:
117,254,81840,2,0,B|65:239|76:235|37:281|49:278|3:262,2,125
339,306,83494,6,0,L|430:295,2,80
254,266,84718,1,0,0:0:0:0:
170,314,85126,2,0,B|142:351|132:384|132:384,2,80
256,384,86351,1,0,0:0:0:0:
256,192,86555,12,0,89208,0:0:0:0:
