osu file format v14

[General]
AudioFilename: audio.mp3
AudioLeadIn: 0
PreviewTime: 54778
Countdown: 0
SampleSet: Soft
StackLeniency: 0.5
Mode: 0
LetterboxInBreaks: 0
WidescreenStoryboard: 1

[Editor]
Bookmarks: 4932,15496,25342,35188,45034,54880,74573,79496,89342,99188,109034,118880,128727,148419,153342,163188,177957,184111,203803,213650,223496,228419,238470
DistanceSpacing: 1.4
BeatDivisor: 6
GridSize: 32
TimelineZoom: 1.950002

[Metadata]
Title:Readymade
TitleUnicode:レディメイド
Artist:Amatsuki
ArtistUnicode:天月
Creator:Kirishima-
Version:Hyokar's Insane
Source:
Tags:surii suri three 3 すりぃ 狂言 Kyougen あまつき ado japanese pop jpop j-pop jazz swing 1/3 utaite cover male vocalist pepekcz hyokar reform kujinn
BeatmapID:3664365
BeatmapSetID:1756375

[Difficulty]
HPDrainRate:4.5
CircleSize:4
OverallDifficulty:8
ApproachRate:9
SliderMultiplier:1.6
SliderTickRate:1

[Events]
//Background and Video events
0,0,"background.jpg",0,0
Video,-322,"video.mp4"
//Break Periods
2,109234,118280
//Storyboard Layer 0 (Background)
//Storyboard Layer 1 (Fail)
//Storyboard Layer 2 (Pass)
//Storyboard Layer 3 (Foreground)
//Storyboard Layer 4 (Overlay)
//Storyboard Sound Samples

[TimingPoints]
727,307.692307692308,4,2,22,50,1,0
4932,-66.6666666666667,4,2,22,80,0,0
5650,-83.3333333333333,4,2,22,70,0,0
7393,-83.3333333333333,4,2,22,70,0,0
8111,-90.9090909090909,4,2,22,70,0,0
9855,-66.6666666666667,4,2,22,70,0,0
10573,-66.6666666666667,4,2,22,70,0,0
10880,-90.9090909090909,4,2,22,70,0,0
12316,-76.9230769230769,4,2,22,70,0,0
13034,-100,4,2,22,70,0,0
14265,-83.3333333333333,4,2,22,70,0,0
14778,-66.6666666666667,4,2,22,70,0,0
15496,-166.666666666667,4,2,22,50,0,0
18573,-133.333333333333,4,2,22,50,0,0
25342,-111.111111111111,4,2,22,65,0,0
35188,-125,4,2,22,60,0,0
45034,-111.111111111111,4,2,22,65,0,0
47496,-105.263157894737,4,2,22,65,0,0
49957,-111.111111111111,4,2,22,65,0,0
52419,-80,4,2,22,70,0,0
53239,-200,4,2,22,70,0,0
53547,-66.6666666666667,4,2,22,70,0,0
53957,-100,4,2,22,70,0,0
54880,-58.8235294117647,4,2,22,75,0,1
55188,-71.4285714285714,4,2,22,75,0,1
58573,-58.8235294117647,4,2,22,75,0,1
58880,-71.4285714285714,4,2,22,75,0,1
63496,-66.6666666666667,4,2,22,75,0,1
64624,-66.6666666666667,4,2,22,75,0,0
64727,-71.4285714285714,4,2,22,75,0,1
68111,-200,4,2,22,75,0,1
68316,-200,4,2,22,75,0,0
68419,-66.6666666666667,4,2,22,75,0,1
69547,-66.6666666666667,4,2,22,75,0,0
69650,-50,4,2,22,75,0,1
69957,-71.4285714285714,4,2,22,75,0,1
73342,-66.6666666666667,4,2,22,75,0,1
74573,-100,4,2,22,70,0,0
79188,-200,4,2,22,70,0,0
79496,-83.3333333333333,4,2,22,70,0,0
79803,-83.3333333333333,4,2,22,70,0,0
81239,-83.3333333333333,4,2,22,70,0,0
81957,-90.9090909090909,4,2,22,70,0,0
83701,-66.6666666666667,4,2,22,70,0,0
84419,-200,4,2,22,70,0,0
84727,-90.9090909090909,4,2,22,70,0,0
85034,-90.9090909090909,4,2,22,70,0,0
86162,-76.9230769230769,4,2,22,70,0,0
86880,-90.9090909090909,4,2,22,70,0,0
88111,-83.3333333333333,4,2,22,70,0,0
88624,-66.6666666666667,4,2,22,70,0,0
89342,-153.846153846154,4,2,22,40,0,0
99188,-66.6666666666667,4,2,22,80,0,1
99803,-83.3333333333333,4,2,22,75,0,1
101034,-74.0740740740741,4,2,22,75,0,1
101650,-66.6666666666667,4,2,22,75,0,1
102265,-83.3333333333333,4,2,22,75,0,1
102880,-74.0740740740741,4,2,22,75,0,1
104111,-66.6666666666667,4,2,22,75,0,1
104727,-100,4,2,22,75,0,1
105342,-74.0740740740741,4,2,22,75,0,1
105650,-83.3333333333333,4,2,22,75,0,1
106265,-333.333333333333,4,2,22,75,0,1
106573,-83.3333333333333,4,2,22,75,0,1
106880,-66.6666666666667,4,2,22,75,0,1
107188,-83.3333333333333,4,2,22,75,0,1
107803,-66.6666666666667,4,2,22,75,0,1
109034,-133.333333333333,4,2,22,50,0,0
113650,-133.333333333333,4,2,2,75,0,0
113957,-133.333333333333,4,2,22,50,0,0
118880,-111.111111111111,4,2,22,65,0,0
121342,-111.111111111111,4,2,22,65,0,0
126265,-80,4,2,22,70,0,0
127085,-200,4,2,22,70,0,0
127393,-66.6666666666667,4,2,22,70,0,0
127803,-100,4,2,22,70,0,0
128727,-58.8235294117647,4,2,22,75,0,1
129034,-71.4285714285714,4,2,22,75,0,1
132419,-58.8235294117647,4,2,22,75,0,1
132727,-71.4285714285714,4,2,22,75,0,1
137342,-66.6666666666667,4,2,22,75,0,1
138470,-66.6666666666667,4,2,22,75,0,1
138573,-71.4285714285714,4,2,22,75,0,1
141957,-200,4,2,22,75,0,1
142162,-200,4,2,22,75,0,1
142265,-66.6666666666667,4,2,22,75,0,1
143393,-66.6666666666667,4,2,22,75,0,1
143496,-50,4,2,22,75,0,1
143803,-71.4285714285714,4,2,22,75,0,1
147188,-66.6666666666667,4,2,22,75,0,1
148419,-100,4,2,22,70,0,0
153342,-90.9090909090909,4,2,22,75,0,0
163188,-111.111111111111,4,2,22,65,0,0
177957,-111.111111111111,4,2,22,65,0,0
180419,-83.3333333333333,4,2,22,70,0,0
181239,-200,4,2,22,70,0,0
181547,-66.6666666666667,4,2,22,70,0,0
181957,-100,4,2,22,70,0,0
184111,-58.8235294117647,4,2,22,75,0,1
184419,-71.4285714285714,4,2,22,75,0,1
187803,-58.8235294117647,4,2,22,75,0,1
188111,-71.4285714285714,4,2,22,75,0,1
192727,-66.6666666666667,4,2,22,75,0,1
193855,-66.6666666666667,4,2,22,75,0,0
193957,-71.4285714285714,4,2,22,75,0,1
197342,-200,4,2,22,75,0,1
197547,-200,4,2,22,75,0,0
197650,-66.6666666666667,4,2,22,75,0,1
198778,-66.6666666666667,4,2,22,75,0,0
198880,-50,4,2,22,75,0,1
199188,-71.4285714285714,4,2,22,75,0,1
202573,-66.6666666666667,4,2,22,75,0,1
203803,-250,4,2,22,50,0,0
204111,-58.8235294117647,4,2,22,75,0,0
204419,-250,4,2,22,50,0,0
204727,-58.8235294117647,4,2,22,75,0,0
205034,-250,4,2,22,50,0,0
205342,-58.8235294117647,4,2,22,75,0,0
205650,-250,4,2,22,50,0,0
205957,-58.8235294117647,4,2,22,75,0,0
206265,-250,4,2,22,50,0,0
206573,-58.8235294117647,4,2,22,75,0,0
206880,-250,4,2,22,50,0,0
207188,-58.8235294117647,4,2,22,75,0,0
207496,-250,4,2,22,50,0,0
207803,-58.8235294117647,4,2,22,75,0,0
208727,-250,4,2,22,50,0,0
209034,-66.6666666666667,4,2,22,70,0,0
209342,-100,4,2,22,70,0,0
213650,-83.3333333333333,4,2,22,75,0,1
217034,-200,4,2,22,75,0,1
217342,-66.6666666666667,4,2,22,75,0,1
218470,-66.6666666666667,4,2,22,75,0,0
218573,-50,4,2,22,75,0,1
218880,-83.3333333333333,4,2,22,75,0,1
222265,-66.6666666666667,4,2,22,75,0,1
223496,-100,4,2,22,70,0,0
228111,-200,4,2,22,70,0,0
228419,-83.3333333333333,4,2,22,70,0,1
228727,-83.3333333333333,4,2,22,70,0,0
230162,-83.3333333333333,4,2,22,70,0,0
230880,-90.9090909090909,4,2,22,70,0,0
232624,-66.6666666666667,4,2,22,70,0,0
233342,-66.6666666666667,4,2,22,70,0,0
233650,-90.9090909090909,4,2,22,70,0,0
235085,-76.9230769230769,4,2,22,70,0,0
235803,-90.9090909090909,4,2,22,70,0,0
237547,-133.333333333333,4,2,22,70,0,0
237855,-133.333333333333,4,2,22,5,0,0
238470,-133.333333333333,4,2,22,5,0,0

[Colours]
Combo1 : 207,159,255
Combo2 : 128,128,255
Combo3 : 69,89,228
Combo4 : 149,43,255

[HitObjects]
490,326,4932,6,0,B|335:376|335:376|380:362|394:302,1,240.000009155274,6|8,1:2|0:3,0:0:0:0:
365,254,5342,2,0,P|410:249|445:283,2,80.0000030517579,10|2|10,0:2|1:2|0:3,0:0:0:0:
309,303,5650,6,0,B|270:289|237:313|267:324|229:351|187:336,1,127.99999609375,6|2,1:2|1:2,0:0:0:0:
107,367,5957,2,0,P|117:334|133:289,1,63.9999980468751,10|0,0:2|0:0,0:0:0:0:
164,222,6162,1,10,0:2:0:0:
176,229,6265,6,0,P|238:233|272:181,1,127.99999609375,2|2,3:2|1:2,0:0:0:0:
281,168,6573,1,10,0:2:0:0:
59,259,6778,1,2,0:2:0:0:
51,247,6880,2,0,P|69:185|89:124,1,127.99999609375,2|2,1:2|1:2,0:0:0:0:
82,106,7188,1,8,0:2:0:0:
269,189,7393,5,10,0:2:0:0:
279,197,7496,2,0,P|343:184|395:234,1,127.99999609375,0|2,3:2|1:2,0:0:0:0:
512,269,7803,2,0,L|377:300,1,127.99999609375,10|2,0:2|0:2,0:0:0:0:
374,310,8111,1,0,1:2:0:0:
148,376,8316,5,2,1:2:0:0:
141,362,8419,2,0,L|168:226,1,117.333336914063,10|10,0:2|0:2,0:0:0:0:
207,129,8727,2,0,P|155:167|97:150,1,117.333336914063,2|2,3:2|1:2,0:0:0:0:
93,143,9034,1,10,0:2:0:0:
289,191,9239,1,2,0:2:0:0:
295,176,9342,2,0,L|268:40,1,117.333336914063,10|2,0:2|1:2,0:0:0:0:
282,47,9650,1,8,0:2:0:0:
207,129,9855,5,10,0:2:0:0:
202,144,9957,2,0,B|178:186|200:241|220:196|246:259|210:305,1,160.000006103516,0|2,3:2|1:2,0:0:0:0:
161,349,10265,2,0,P|190:375|241:363,2,80.0000030517579,10|0|2,0:2|0:0|0:2,0:0:0:0:
218,292,10573,1,4,1:2:0:0:
354,379,10778,5,2,1:2:0:0:
363,366,10880,2,0,P|409:322|466:344,1,117.333336914063,10|10,0:2|0:2,0:0:0:0:
512,241,11188,2,0,P|456:250|418:208,1,117.333336914063,2|2,3:2|1:2,0:0:0:0:
412,193,11496,1,10,0:2:0:0:
494,40,11701,5,2,0:2:0:0:
487,52,11803,2,0,P|434:71|356:97,1,117.333336914063,2|2,1:2|1:2,0:0:0:0:
363,86,12111,1,8,0:2:0:0:
217,24,12316,5,10,0:2:0:0:
202,18,12419,2,0,B|155:56|155:56|199:145,1,138.666660319011,0|2,3:2|1:2,0:0:0:0:
223,210,12727,2,0,B|183:245|95:198|169:181|89:137|35:169,1,207.999990478516,10|0,0:2|1:2,0:0:0:0:
0,318,13239,5,2,1:2:0:0:
12,307,13342,2,0,P|65:290|135:274,1,106.666666666667,10|10,0:2|0:2,0:0:0:0:
392,168,13855,5,2,1:2:0:0:
379,179,13958,2,0,P|327:166|277:150,1,106.666666666667,10|2,0:2|0:2,0:0:0:0:
214,77,14265,2,0,P|161:119|94:86,1,127.99999609375,2|10,3:2|0:2,0:0:0:0:
96,87,14573,1,10,0:2:0:0:
171,226,14778,6,0,B|141:229|130:252|130:252|200:242|257:264|300:320,1,240.000009155274,6|8,1:2|0:3,0:0:0:0:
361,273,15188,2,0,P|422:255|488:327,1,160.000006103516,10|10,0:2|0:2,0:0:0:0:
400,369,15496,5,4,1:2:0:0:
297,316,15803,2,0,P|288:283|272:239,1,63.9999980468751,8|0,0:3|0:0,0:0:0:0:
316,190,16111,2,0,P|323:171|314:190,1,63.9999980468751,6|4,0:3|0:3,0:0:0:0:
317,179,16419,2,0,P|269:154|226:186,2,95.9999970703126,2|8|8,0:2|0:3|0:3,0:0:0:0:
182,259,17342,6,0,P|189:278|180:259,1,63.9999980468751,10|0,0:3|0:0,0:0:0:0:
183,270,17650,2,0,P|135:295|92:263,2,95.9999970703126,10|4|8,0:3|0:3|0:3,0:0:0:0:
129,195,18470,1,2,0:2:0:0:
129,195,18573,2,0,P|138:162|155:115,1,80.0000030517579,6|10,0:3|0:3,0:0:0:0:
183,31,18880,2,0,P|204:55|242:89,1,80.0000030517579,2|0,0:2|0:0,0:0:0:0:
297,161,19188,2,0,P|265:167|210:185,1,80.0000030517579,6|6,0:3|0:3,0:0:0:0:
211,193,19496,1,8,0:3:0:0:
135,327,19701,5,2,0:2:0:0:
142,339,19803,2,0,P|180:362|228:344,1,80.0000030517579,4|2,0:3|0:2,0:0:0:0:
265,299,20111,2,0,P|303:276|351:294,1,80.0000030517579,8|2,0:3|0:2,0:0:0:0:
403,322,20419,2,0,P|419:274|451:201,1,120.000004577637,4|8,0:3|0:3,0:0:0:0:
503,27,21034,6,0,L|454:44,1,40.000001525879,6|0,0:3|0:0,0:0:0:0:
409,89,21239,1,4,0:3:0:0:
398,99,21342,2,0,P|366:89|312:80,1,80.0000030517579,2|0,0:2|0:0,0:0:0:0:
256,7,21650,2,0,P|213:42|231:108,1,120.000004577637,6|10,0:3|0:3,0:0:0:0:
295,207,22162,1,6,0:3:0:0:
304,221,22265,2,0,P|292:256|276:310,1,80.0000030517579,8|0,0:3|0:0,0:0:0:0:
216,376,22573,2,0,P|204:337|191:299,1,80.0000030517579,10|0,0:3|0:0,0:0:0:0:
121,234,22880,6,0,B|51:227|81:273|5:259,1,120.000004577637,6|8,0:3|0:3,0:0:0:0:
23,162,23393,1,2,0:2:0:0:
11,142,23496,2,0,P|13:104|54:75,1,80.0000030517579,6|10,0:3|0:3,0:0:0:0:
76,9,23803,2,0,P|107:29|112:79,1,80.0000030517579,2|0,0:2|0:0,0:0:0:0:
158,132,24111,2,0,P|124:149|78:128,1,80.0000030517579,6|6,0:3|0:3,0:0:0:0:
42,77,24419,1,8,0:3:0:0:
191,31,24624,5,2,0:2:0:0:
204,22,24727,2,0,L|285:38,1,80.0000030517579,4|10,0:3|0:3,0:0:0:0:
338,85,25034,2,0,L|429:68,1,80.0000030517579,4|10,0:3|0:3,0:0:0:0:
480,194,25342,6,0,B|508:232|508:232|471:321,1,143.999995605469,4|8,1:2|0:2,0:0:0:0:
392,255,25855,1,2,0:2:0:0:
378,264,25957,2,0,B|336:250|297:271|325:291|284:313|243:298,1,143.999995605469,2|8,1:2|0:2,0:0:0:0:
154,384,26573,2,0,B|187:354|188:310|157:324|158:278|192:250,1,143.999995605469,2|8,1:2|0:2,0:0:0:0:
164,131,27188,2,0,B|172:174|210:197|213:163|253:187|260:230,1,143.999995605469,2|8,1:2|0:2,0:0:0:0:
237,93,27803,6,0,P|207:46|125:56,1,143.999995605469,0|8,1:2|0:2,0:0:0:0:
30,46,28316,1,2,0:2:0:0:
21,59,28419,2,0,P|37:105|54:158,1,95.9999970703126,2|2,1:2|0:2,0:0:0:0:
122,186,28727,2,0,P|106:232|89:285,1,95.9999970703126,10|2,0:2|0:2,0:0:0:0:
13,326,29034,2,0,P|61:375|137:348,1,143.999995605469,2|8,1:2|0:2,0:0:0:0:
208,304,29547,1,2,0:2:0:0:
220,295,29650,2,0,L|317:313,1,95.9999970703126,0|2,1:2|0:2,0:0:0:0:
382,355,29957,2,0,L|475:331,1,95.9999970703126,8|2,0:2|0:2,0:0:0:0:
372,215,30265,6,0,P|389:147|413:70,1,143.999995605469,4|8,1:2|0:2,0:0:0:0:
490,18,30778,1,2,0:2:0:0:
501,33,30880,2,0,P|514:70|473:124,1,95.9999970703126,2|2,1:2|0:2,0:0:0:0:
428,166,31188,2,0,P|390:175|339:130,1,95.9999970703126,10|2,0:2|0:2,0:0:0:0:
269,78,31496,6,0,B|185:64|217:126|125:108,1,143.999995605469,2|10,1:2|0:2,0:0:0:0:
45,26,32009,1,2,0:2:0:0:
33,34,32111,2,0,P|1:69|15:124,1,95.9999970703126,0|0,1:2|0:0,0:0:0:0:
6,190,32419,2,0,P|34:227|91:223,1,95.9999970703126,10|0,0:2|0:0,0:0:0:0:
151,195,32727,6,0,B|193:187|215:220|215:220|243:192|292:210,1,143.999995605469,2|8,1:2|0:2,0:0:0:0:
373,258,33239,1,2,0:2:0:0:
380,270,33342,2,0,P|399:220|419:175,1,95.9999970703126,2|2,1:2|0:2,0:0:0:0:
470,262,33650,2,0,P|483:302|431:338,1,95.9999970703126,10|2,0:2|0:2,0:0:0:0:
383,373,33957,5,2,1:2:0:0:
275,263,34162,1,10,0:2:0:0:
263,273,34265,2,0,P|234:286|208:294,1,47.9999985351563,8|0,0:2|0:0,0:0:0:0:
159,361,34470,2,0,P|111:339|68:326,1,95.9999970703126,10|0,0:3|0:0,0:0:0:0:
14,271,34778,1,10,0:2:0:0:
10,256,34880,2,0,P|3:214|59:178,1,95.9999970703126,10|0,0:3|0:0,0:0:0:0:
123,87,35188,5,4,3:2:0:0:
219,211,35393,1,2,0:2:0:0:
229,198,35496,2,0,P|270:182|314:169,1,85.3333333333333,8|2,0:1|0:2,0:0:0:0:
322,160,35803,2,0,P|363:176|375:226,1,85.3333333333333,2|2,3:2|0:2,0:0:0:0:
372,227,36111,1,10,0:1:0:0:
422,309,36316,5,2,0:2:0:0:
432,322,36419,2,0,P|445:285|466:230,1,85.3333333333333,2|2,3:2|0:2,0:0:0:0:
471,233,36727,2,0,P|455:193|441:152,1,85.3333333333333,10|2,0:1|0:2,0:0:0:0:
445,138,37034,1,2,3:2:0:0:
499,20,37342,1,8,0:1:0:0:
373,9,37650,5,0,3:2:0:0:
303,66,37855,1,2,0:2:0:0:
294,78,37957,2,0,P|260:102|206:85,1,85.3333333333333,10|2,0:1|0:2,0:0:0:0:
208,85,38265,2,0,P|174:61|120:78,1,85.3333333333333,2|2,3:2|0:2,0:0:0:0:
121,78,38573,1,10,0:1:0:0:
31,124,38778,5,2,0:2:0:0:
25,138,38880,2,0,L|51:226,1,85.3333333333333,2|2,3:2|0:2,0:0:0:0:
61,226,39188,2,0,L|44:314,1,85.3333333333333,10|2,0:1|0:2,0:0:0:0:
41,325,39496,1,2,3:2:0:0:
157,375,39803,1,8,0:1:0:0:
225,267,40111,5,0,3:2:0:0:
161,196,40316,1,2,0:2:0:0:
152,182,40419,2,0,P|134:148|162:105,1,85.3333333333333,10|2,0:1|0:2,0:0:0:0:
156,92,40727,2,0,P|176:59|227:62,1,85.3333333333333,2|2,3:2|0:2,0:0:0:0:
235,60,41034,1,10,0:1:0:0:
320,20,41239,5,2,0:2:0:0:
334,14,41342,2,0,P|396:33|461:46,1,128,2|10,3:2|0:1,0:0:0:0:
368,134,41855,1,0,0:0:0:0:
357,144,41957,2,0,P|314:153|263:169,1,85.3333333333333,2|0,3:2|0:0,0:0:0:0:
258,177,42265,2,0,P|320:189|381:208,1,128,10|0,0:1|3:2,0:0:0:0:
504,236,42880,6,0,P|517:280|488:322,1,85.3333333333333,10|0,0:1|0:0,0:0:0:0:
484,327,43188,2,0,P|442:347|396:326,1,85.3333333333333,2|0,3:2|0:0,0:0:0:0:
396,324,43496,1,10,0:1:0:0:
318,267,43701,1,2,0:2:0:0:
308,279,43803,2,0,L|212:300,1,85.3333333333333,2|0,3:2|0:0,0:0:0:0:
215,311,44111,2,0,P|183:293|135:309,1,85.3333333333333,10|2,0:1|0:2,0:0:0:0:
51,358,44419,6,0,L|3:371,2,42.6666666666667,8|4|4,0:3|0:3|0:3,0:3:0:0:
64,267,44727,5,8,0:2:0:0:
102,216,44829,1,4,0:3:0:0:
90,152,44932,1,8,0:3:0:0:
28,114,45034,6,0,P|87:133|145:147,1,95.9999970703126,4|0,1:2|0:0,0:0:0:0:
177,186,45342,2,0,P|215:157|269:178,1,95.9999970703126,10|0,0:2|0:0,0:0:0:0:
271,181,45650,1,2,1:2:0:0:
311,65,45855,1,0,1:2:0:0:
320,54,45957,2,0,P|367:73|403:45,1,95.9999970703126,10|0,0:2|0:0,0:0:0:0:
471,34,46265,6,0,B|488:69|461:118|450:78|422:129|440:170,1,143.999995605469,2|10,1:2|0:2,0:0:0:0:
499,286,46880,1,2,1:2:0:0:
442,360,47085,1,2,1:2:0:0:
430,350,47188,2,0,P|381:362|331:322,1,95.9999970703126,10|0,0:2|0:0,0:0:0:0:
254,251,47496,6,0,B|231:232|235:203|235:203|214:303,1,151.999995941162,6|8,1:2|0:2,0:0:0:0:
214,298,48111,6,0,B|174:280|128:315|166:327|116:360|71:340,1,151.999995941162,6|8,1:2|0:2,0:0:0:0:
80,343,48727,6,0,P|33:302|71:230,1,151.999995941162,6|8,1:2|0:2,0:0:0:0:
67,231,49342,5,2,1:2:0:0:
126,157,49547,1,8,0:3:0:0:
120,142,49650,1,8,0:2:0:0:
54,79,49855,1,8,0:2:0:0:
59,65,49957,6,0,P|108:51|172:28,1,95.9999970703126,4|0,1:2|0:0,0:0:0:0:
159,25,50265,1,10,0:2:0:0:
237,83,50470,1,4,0:3:0:0:
246,95,50573,2,0,P|295:106|332:72,1,95.9999970703126,2|4,1:2|0:3,0:0:0:0:
378,23,50880,1,10,0:2:0:0:
396,29,50983,1,8,0:3:0:0:
414,35,51085,1,4,0:3:0:0:
432,40,51188,6,0,B|473:62|473:62|448:134,1,95.9999970703126,0|0,1:2|0:0,0:0:0:0:
452,123,51496,1,10,0:2:0:0:
471,232,51701,1,4,0:3:0:0:
466,219,51803,2,0,P|428:191|383:203,1,95.9999970703126,2|4,1:2|0:3,0:0:0:0:
339,266,52111,1,10,0:2:0:0:
321,274,52214,1,8,0:3:0:0:
303,282,52316,1,4,0:3:0:0:
260,308,52419,6,0,B|226:299|226:299|223:300|223:300|181:290,1,66.6666666666667,14|0,1:2|0:0,0:0:0:0:
13,374,52727,6,0,B|36:349|36:349|38:345|38:345|68:314,1,66.6666666666667,10|0,1:2|0:0,0:0:0:0:
72,125,53034,6,0,B|81:157|81:157|83:161|83:161|95:202,1,66.6666666666667,10|0,1:2|0:0,0:0:0:0:
117,260,53239,2,0,P|120:278|118:260,1,53.3333333333333,10|0,1:2|0:0,0:0:0:0:
119,260,53547,2,0,B|162:282|215:250|171:238|224:209|265:226,1,160.000006103516,14|0,1:2|0:0,0:0:0:0:
346,285,53855,5,8,0:2:0:0:
396,228,53957,2,0,P|388:204|374:162,1,53.3333333333333,8|0,0:3|0:0,0:0:0:0:
301,127,54162,5,4,0:3:0:0:
251,70,54264,2,0,P|259:46|273:4,1,53.3333333333333,8|0,0:2|0:0,0:0:0:0:
36,305,54880,6,0,B|-20:318|6:394|83:405|120:320,1,181.333336791992,6|8,1:2|0:2,0:0:0:0:
161,263,55188,2,0,B|243:249|209:313|308:298,1,149.333328776042,2|8,1:2|0:2,0:0:0:0:
373,353,55496,2,0,B|462:321|462:321|426:318|410:284,1,149.333328776042,2|8,1:2|0:2,0:0:0:0:
433,227,55803,6,0,P|392:219|363:259,1,74.6666643880209,2|0,1:2|0:0,0:0:0:0:
299,299,56009,1,10,0:2:0:0:
286,322,56111,2,0,P|243:333|206:305,1,74.6666643880209,2|0,1:2|0:0,0:0:0:0:
149,261,56316,1,10,0:2:0:0:
156,243,56419,2,0,P|180:173|203:96,1,149.333328776042,2|8,1:2|0:2,0:0:0:0:
205,8,56727,2,0,B|254:17|267:54|267:54|294:24|345:46,1,149.333328776042,2|8,1:2|0:2,0:0:0:0:
345,49,57034,1,0,1:2:0:0:
465,3,57239,5,8,0:2:0:0:
475,14,57342,2,0,P|494:47|477:91,1,74.6666643880209,0|0,1:2|0:0,0:0:0:0:
463,169,57547,1,10,0:2:0:0:
453,180,57650,2,0,B|416:169|369:196|400:210|357:237|315:216,1,149.333328776042,2|8,1:2|0:2,0:0:0:0:
251,157,57957,2,0,B|219:174|178:162|178:162|220:174|233:223,1,149.333328776042,2|8,1:2|0:2,0:0:0:0:
128,217,58265,2,0,P|95:145|147:95,1,149.333328776042,2|8,1:2|0:2,0:0:0:0:
258,54,58573,6,0,B|252:39|229:36|229:36|271:17|310:62|274:63|321:102|363:82,1,181.333336791992,2|8,1:2|0:2,0:0:0:0:
479,34,58880,2,0,P|462:8|392:22,1,74.6666643880209,2|0,1:2|0:0,0:0:0:0:
428,129,59085,1,10,0:2:0:0:
439,118,59188,2,0,P|468:60|414:-2,1,149.333328776042,2|8,1:2|0:2,3:0:0:0:
353,85,59496,2,0,P|316:95|271:110,1,74.6666643880209,2|0,1:2|0:0,0:0:0:0:
215,182,59701,5,8,0:2:0:0:
204,195,59803,2,0,B|160:192|141:231|141:231|112:203|70:217,1,149.333328776042,6|8,1:2|0:2,0:0:0:0:
16,264,60111,2,0,P|49:291|99:281,1,74.6666643880209,0|0,1:2|0:0,0:0:0:0:
74,215,60316,1,8,0:2:0:0:
7,156,60419,2,0,B|-18:123|14:71|25:106|55:59|36:20,1,149.333328776042,2|8,1:2|0:2,0:0:0:0:
27,9,60727,1,0,1:2:0:0:
204,27,60932,5,8,0:2:0:0:
212,39,61034,2,0,P|286:63|376:84,1,149.333328776042,2|8,1:2|0:2,0:0:0:0:
446,70,61342,2,0,P|447:109|420:137,1,74.6666643880209,0|0,1:2|0:0,0:0:0:0:
384,199,61547,1,8,0:2:0:0:
324,268,61650,2,0,P|396:242|480:216,1,149.333328776042,0|8,1:2|0:2,0:0:0:0:
426,135,61957,2,0,P|354:161|270:187,1,149.333328776042,0|8,1:2|0:2,0:0:0:0:
180,215,62265,6,0,P|142:212|115:238,1,74.6666643880209,2|0,1:2|0:0,0:0:0:0:
173,311,62470,1,10,0:2:0:0:
162,317,62573,2,0,P|152:353|173:385,1,74.6666643880209,2|0,1:2|0:0,0:0:0:0:
258,361,62778,1,10,0:2:0:0:
274,368,62880,2,0,B|312:384|357:349|323:336|366:303|420:320,1,149.333328776042,2|8,1:2|0:2,0:0:0:0:
466,360,63188,2,0,P|511:302|484:238,1,149.333328776042,2|8,1:2|0:2,0:0:0:0:
408,175,63496,6,0,B|364:179|352:223|352:223|312:190|273:223,1,160.000006103516,10|8,1:2|0:2,0:0:0:0:
204,273,63803,2,0,P|154:229|185:146,1,160.000006103516,2|8,1:2|0:2,0:0:0:0:
263,80,64111,2,0,P|175:62|86:38,1,160.000006103516,2|8,1:2|0:2,0:0:0:0:
95,30,64419,1,10,0:2:0:0:
25,159,64624,5,8,0:2:0:0:
34,175,64727,2,0,P|63:199|113:179,1,74.6666643880209,6|0,1:2|0:0,0:0:0:0:
180,149,64932,1,10,0:2:0:0:
192,160,65034,2,0,B|277:152|236:212|342:197,1,149.333328776042,2|8,1:2|0:2,0:0:0:0:
420,217,65342,2,0,B|433:187|410:165|410:165|459:192|431:258,1,149.333328776042,2|8,1:2|0:2,0:0:0:0:
432,263,65650,1,2,1:2:0:0:
502,368,65855,5,10,0:2:0:0:
494,352,65957,2,0,P|423:377|352:317,1,149.333328776042,2|8,1:2|0:2,0:0:0:0:
290,277,66265,2,0,P|220:298|144:319,1,149.333328776042,2|8,1:2|0:2,0:0:0:0:
72,377,66573,2,0,P|48:342|61:298,1,74.6666643880209,2|0,1:2|0:0,0:0:0:0:
25,188,66778,1,8,0:2:0:0:
37,180,66880,2,0,B|81:178|93:135|93:135|81:178|120:205,1,149.333328776042,0|8,1:2|0:2,0:0:0:0:
122,208,67188,1,0,1:2:0:0:
233,98,67393,5,10,0:2:0:0:
244,110,67496,2,0,B|286:130|331:92|295:85|336:38|381:60,1,149.333328776042,2|10,1:2|0:2,0:0:0:0:
444,60,67803,2,0,P|442:20|400:-3,1,74.6666643880209,2|0,2:2|2:0,2:0:0:0:
368,55,68009,1,10,0:2:0:0:
286,1,68111,6,0,L|215:26,1,53.3333333333333,2|8,1:2|0:2,0:0:0:0:
132,79,68419,6,0,B|87:91|53:68|53:68|73:111|120:103,2,160.000006103516,14|10|10,1:2|1:2|1:2,0:0:0:0:
260,177,69034,6,0,B|305:165|338:187|338:187|319:145|272:153,2,160.000006103516,10|10|10,1:2|1:2|1:2,0:0:0:0:
155,261,69650,6,0,P|184:155|221:37,1,213.333333333333,6|0,1:2|0:0,0:0:0:0:
273,6,69957,2,0,P|290:38|281:87,1,74.6666643880209,8|0,0:2|0:0,0:0:0:0:
233,131,70162,1,8,0:2:0:0:
221,144,70265,2,0,B|134:129|170:192|70:172,1,149.333328776042,2|0,3:2|1:2,0:0:0:0:
68,162,70573,1,8,0:2:0:0:
14,278,70778,5,0,0:0:0:0:
23,295,70880,2,0,P|88:328|149:277,1,149.333328776042,2|0,1:2|1:2,0:0:0:0:
218,224,71188,2,0,P|295:246|370:263,1,149.333328776042,8|8,0:2|0:2,0:0:0:0:
444,209,71496,2,0,B|494:251|494:251|435:351,1,149.333328776042,2|0,3:2|1:2,0:0:0:0:
445,338,71803,1,8,0:2:0:0:
293,374,72111,6,0,P|281:337|266:292,1,74.6666643880209,2|0,1:2|0:0,0:0:0:0:
218,224,72316,1,2,1:2:0:0:
208,213,72419,2,0,B|177:181|128:186|128:186|165:195|174:237,1,149.333328776042,10|10,0:2|0:2,0:0:0:0:
100,254,72727,2,0,P|48:191|75:133,1,149.333328776042,2|0,3:2|1:2,0:0:0:0:
81,124,73034,1,10,0:2:0:0:
167,28,73239,5,0,0:0:0:0:
179,38,73342,2,0,B|277:26|230:91|335:70,1,160.000006103516,2|8,1:2|0:2,0:0:0:0:
399,5,73650,2,0,P|436:41|398:134,1,160.000006103516,2|8,1:2|0:2,0:0:0:0:
305,159,73957,2,0,P|272:236|252:314,1,160.000006103516,2|8,1:2|0:2,0:0:0:0:
192,360,74265,2,0,P|155:342|96:325,2,80.0000030517579,10|8|8,0:2|0:2|0:2,0:0:0:0:
252,309,74573,5,4,1:2:0:0:
405,370,74880,2,0,P|423:322|386:275,1,106.666666666667,8|0,0:2|0:0,0:0:0:0:
384,269,75188,2,0,P|355:226|373:177,1,106.666666666667,0|4,1:2|0:3,0:0:0:0:
385,168,75496,1,8,0:3:0:0:
475,121,75701,5,4,0:3:0:0:
472,103,75803,2,0,P|406:82|301:38,1,160,0|8,1:2|0:2,0:0:0:0:
230,15,76316,1,2,0:2:0:0:
215,23,76419,1,0,1:2:0:0:
141,78,76624,1,4,0:3:0:0:
127,69,76727,2,0,P|75:56|41:92,1,106.666666666667,8|0,0:2|0:0,0:0:0:0:
36,106,77034,6,0,B|51:181|51:181|57:186|57:186|73:279,1,160,0|8,1:2|0:2,0:0:0:0:
12,374,77650,2,0,P|61:355|126:335,1,106.666666666667,0|8,1:2|0:3,0:0:0:0:
174,286,77957,1,8,0:2:0:0:
188,293,78060,1,8,0:3:0:0:
202,300,78162,1,4,0:3:0:0:
253,322,78265,6,0,B|326:303|317:373|412:345,2,160,0|0|0,1:2|1:2|1:2,0:0:0:0:
372,272,79188,2,0,P|375:255|371:272,1,53.3333333333333,0|0,3:2|0:0,0:0:0:0:
372,272,79496,6,0,P|392:189|411:128,1,127.99999609375,6|2,1:2|1:2,0:0:0:0:
448,51,79803,2,0,P|417:61|387:70,1,63.9999980468751,10|0,0:2|0:0,0:0:0:0:
318,134,80008,1,10,0:2:0:0:
310,148,80111,6,0,P|267:109|202:133,1,127.99999609375,2|2,3:2|1:2,0:0:0:0:
195,137,80419,1,10,0:2:0:0:
188,375,80624,1,2,0:2:0:0:
198,365,80726,2,0,P|215:303|235:242,1,127.99999609375,2|2,1:2|1:2,0:0:0:0:
241,229,81034,1,8,0:2:0:0:
399,339,81239,5,10,0:2:0:0:
414,337,81342,2,0,P|437:272|371:229,1,127.99999609375,0|2,3:2|1:2,0:0:0:0:
334,169,81650,2,0,P|268:147|207:124,1,127.99999609375,10|2,0:2|0:2,0:0:0:0:
204,114,81957,1,0,1:2:0:0:
141,37,82162,5,2,1:2:0:0:
126,42,82265,2,0,P|75:81|93:144,1,117.333336914063,10|10,0:2|0:2,0:0:0:0:
152,196,82573,2,0,P|128:257|111:320,1,117.333336914063,2|2,3:2|1:2,0:0:0:0:
106,319,82880,1,10,0:2:0:0:
285,383,83085,1,2,0:2:0:0:
292,371,83188,2,0,P|319:308|277:262,1,117.333336914063,10|2,0:2|1:2,0:0:0:0:
281,264,83496,1,8,0:2:0:0:
206,325,83701,5,10,0:2:0:0:
197,340,83803,2,0,B|155:316|100:338|145:358|82:384|36:348,1,160.000006103516,0|2,3:2|1:2,0:0:0:0:
1,276,84111,2,0,P|-1:241|43:212,1,80.0000030517579,10|0,0:2|0:0,0:0:0:0:
74,277,84316,1,2,0:2:0:0:
199,138,84624,5,2,0:2:0:0:
212,125,84727,2,0,L|328:155,1,117.333336914063,14|10,0:2|0:2,0:0:0:0:
337,167,85034,2,0,P|381:129|435:140,1,117.333336914063,2|2,3:2|1:2,0:0:0:0:
447,152,85342,1,10,0:2:0:0:
501,36,85547,5,2,0:2:0:0:
490,24,85649,2,0,L|360:51,1,117.333336914063,2|2,1:2|1:2,0:0:0:0:
359,38,85957,1,8,0:2:0:0:
232,23,86162,5,10,0:2:0:0:
214,18,86265,2,0,P|164:80|192:132,1,138.666660319011,0|2,3:2|1:2,0:0:0:0:
161,220,86573,2,0,B|243:197|243:197|292:216|292:216|388:188,1,207.999990478516,10|0,0:2|1:2,0:0:0:0:
476,132,87085,5,2,1:2:0:0:
488,144,87188,2,0,P|469:200|450:266,1,117.333336914063,10|10,0:2|0:2,0:0:0:0:
255,372,87701,5,2,1:2:0:0:
263,356,87804,2,0,P|246:299|227:244,1,117.333336914063,10|2,0:2|0:2,0:0:0:0:
262,153,88111,2,0,P|199:141|154:189,1,127.99999609375,2|10,3:2|0:2,0:0:0:0:
151,197,88419,1,10,0:2:0:0:
52,333,88624,6,0,B|39:358|4:357|4:357|53:384|111:349|63:339|123:297|172:326,1,240.000009155274,6|8,1:2|0:3,0:0:0:0:
253,369,89034,2,0,B|296:340|296:340|239:243,1,160.000006103516,10|10,0:2|0:2,0:0:0:0:
168,144,89342,6,0,P|212:129|278:104,1,103.999995239258,4|0,1:2|0:0,0:0:0:0:
298,22,89957,2,0,P|330:42|368:35,1,69.3333301595054,2|0,1:2|0:0,0:0:0:0:
413,95,90265,2,0,P|445:75|483:82,1,69.3333301595054,2|0,0:2|0:0,0:0:0:0:
463,157,90573,2,0,L|491:266,1,103.999995239258,0|0,1:2|0:0,0:0:0:0:
405,360,91188,6,0,P|373:340|335:347,1,69.3333301595054,2|0,1:2|0:0,0:0:0:0:
290,287,91496,2,0,P|258:307|220:300,1,69.3333301595054,2|0,0:2|0:0,0:0:0:0:
240,225,91804,2,0,L|212:116,1,103.999995239258,0|0,1:2|0:0,0:0:0:0:
240,28,92316,5,2,0:2:0:0:
229,35,92419,2,0,P|185:53|148:64,1,69.3333301595054,2|2,1:2|0:2,0:0:0:0:
102,109,92727,2,0,P|70:84|25:100,1,69.3333301595054,2|2,0:2|0:2,0:0:0:0:
1,152,93034,2,0,B|2:216|41:193|33:265,1,103.999995239258,2|0,1:2|0:0,0:0:0:0:
0,336,93547,1,2,0:2:0:0:
15,346,93650,2,0,P|59:353|101:304,1,103.999995239258,0|0,1:2|0:0,0:0:0:0:
190,229,94265,6,0,P|245:243|322:258,1,103.999995239258,0|0,1:2|0:0,0:0:0:0:
383,347,94880,2,0,P|394:310|411:261,1,69.3333301595054,2|0,1:2|0:0,0:0:0:0:
365,214,95188,2,0,P|354:177|337:128,1,69.3333301595054,2|0,0:2|0:0,0:0:0:0:
286,93,95496,2,0,P|319:68|366:80,1,69.3333301595054,2|0,1:2|0:0,0:0:0:0:
363,71,95803,1,2,0:2:0:0:
481,20,96009,1,2,0:2:0:0:
491,33,96111,2,0,L|473:156,1,103.999995239258,0|2,1:2|0:2,0:0:0:0:
505,275,96727,6,0,P|454:261|376:245,1,103.999995239258,2|0,1:2|0:0,0:0:0:0:
328,193,97239,1,2,0:2:0:0:
314,183,97342,2,0,P|285:190|242:199,1,69.3333301595054,0|2,1:2|0:2,0:0:0:0:
190,255,97650,2,0,P|159:231|114:244,1,69.3333301595054,2|0,0:2|0:0,0:0:0:0:
115,242,97957,1,2,1:2:0:0:
14,357,98162,6,0,L|134:337,1,103.999995239258,2|2,0:2|0:2,0:0:0:0:
128,330,98573,1,0,1:2:0:0:
225,369,98778,1,2,0:2:0:0:
235,355,98880,2,0,P|274:368|312:342,1,69.3333301595054,0|2,0:0|0:2,0:0:0:0:
433,279,99188,6,0,B|454:242|500:244|500:244|372:212|372:212|342:235|342:235|339:233|339:233|308:255|308:255|190:222,1,400.00001525879,12|0,1:2|0:0,0:0:0:0:
101,211,99803,2,0,B|68:236|68:236|106:127|106:127|123:174,1,191.999994140625,6|2,0:1|0:2,0:0:0:0:
286,151,100419,6,0,B|284:156|284:156|279:152|279:152|281:159|281:159|275:158|275:158|281:162|281:162|276:165|276:165|284:165|284:165|282:171|282:171|288:165|288:165|292:171|292:171|290:162|290:162|298:165|298:165|290:159|290:159|298:156|298:156|290:157|290:157|292:152|292:152|286:156|286:156|286:151,1,127.99999609375,2|2,1:2|0:2,0:0:0:0:
286,153,100727,2,0,P|306:91|329:29,1,127.99999609375,2|0,1:2|0:0,0:0:0:0:
232,62,101034,2,0,B|206:41|165:49|141:82|141:82|136:97|136:97|129:128|85:140|55:124,1,216.000000823975,6|2,0:1|0:2,0:0:0:0:
0,306,101650,6,0,B|115:280|115:280|119:285|119:285|237:258,1,240.000009155274,2|2,1:2|0:2,0:0:0:0:
371,334,102162,1,2,0:2:0:0:
387,327,102265,2,0,P|434:278|412:209,1,127.99999609375,6|2,0:1|0:2,0:0:0:0:
373,171,102573,2,0,P|326:122|348:53,1,127.99999609375,2|2,0:2|0:2,0:0:0:0:
412,103,102880,6,0,B|316:88|367:162|249:131,1,144.000000549316,2|2,1:2|0:2,0:0:0:0:
235,80,103188,2,0,B|201:65|201:65|148:75,1,72.0000002746582,0|0,1:2|0:0,0:0:0:0:
113,130,103393,1,2,0:2:0:0:
102,145,103496,2,0,B|68:152|68:152|34:137,1,72.0000002746582,4|0,0:1|0:0,0:0:0:0:
193,149,103701,2,0,B|183:215|183:215|186:221|186:221|175:296,1,144.000000549316,2|0,0:2|0:0,0:0:0:0:
173,308,104009,1,2,0:2:0:0:
283,370,104111,6,0,B|318:385|353:378|367:332|367:332|378:345|378:345|390:269|471:246|514:306|514:306|476:279|426:290|417:334,1,400.00001525879,0|0,1:2|0:0,0:0:0:0:
320,248,104727,2,0,B|297:200|297:200|328:155,1,106.666666666667,6|0,0:1|0:0,0:0:0:0:
390,106,105034,2,0,B|413:58|413:58|382:13,1,106.666666666667,2|0,0:2|0:0,0:0:0:0:
320,63,105342,6,0,P|252:89|169:114,1,144.000000549316,2|2,1:2|0:2,0:0:0:0:
135,190,105650,2,0,P|106:180|68:171,1,63.9999980468751,2|0,1:2|0:0,0:0:0:0:
0,153,105855,1,2,0:2:0:0:
84,254,105957,2,0,P|150:275|195:237,1,127.99999609375,6|2,0:1|0:2,0:0:0:0:
255,196,106265,2,0,L|294:203,1,31.9999990234375,2|0,0:2|0:0,0:0:0:0:
447,133,106573,6,0,P|381:112|336:150,1,127.99999609375,2|2,1:2|0:2,0:0:0:0:
399,196,106880,2,0,B|423:233|471:223|471:223|423:234|419:288,1,160.000006103516,2|2,0:2|0:2,0:0:0:0:
363,355,107188,2,0,P|325:341|283:329,1,63.9999980468751,6|0,0:1|0:0,0:0:0:0:
223,287,107393,1,2,0:2:0:0:
210,279,107496,2,0,P|172:293|126:305,1,63.9999980468751,2|0,0:2|0:0,0:0:0:0:
99,359,107701,1,2,0:2:0:0:
52,242,107803,6,0,B|29:250|15:283|15:283|45:160,1,160.000006103516,2|2,1:2|0:2,0:0:0:0:
19,111,108111,2,0,P|55:102|95:143,1,80.0000030517579,2|0,1:2|0:0,0:0:0:0:
159,156,108316,1,2,0:2:0:0:
250,200,108419,2,0,B|274:170|253:102|231:157|207:86|237:52,1,160.000006103516,4|0,0:1|1:2,0:0:0:0:
249,52,108727,2,0,B|220:84|244:155|265:101|287:168|262:198,1,160.000006103516,0|0,1:2|1:2,0:0:0:0:
210,279,109034,5,4,1:2:0:0:
16,20,118880,6,0,P|31:67|46:131,1,95.9999970703126,4|0,1:2|0:0,0:0:0:0:
45,131,119188,1,10,0:2:0:0:
10,220,119393,1,0,0:0:0:0:
8,231,119496,1,2,1:2:0:0:
88,287,119701,1,0,1:2:0:0:
92,301,119803,2,0,P|136:329|192:300,1,95.9999970703126,10|0,0:2|0:0,0:0:0:0:
215,249,120111,6,0,P|263:233|334:217,1,95.9999970703126,2|0,1:2|0:0,0:0:0:0:
353,159,120419,2,0,P|403:175|449:187,1,95.9999970703126,10|0,0:2|0:0,0:0:0:0:
503,241,120727,1,2,1:2:0:0:
479,344,120932,1,2,1:2:0:0:
469,328,121034,2,0,P|430:299|370:322,1,95.9999970703126,10|0,0:2|0:0,0:0:0:0:
275,363,121342,6,0,B|232:375|187:343|230:338|184:304|130:319,1,143.999995605469,6|8,1:2|0:2,0:0:0:0:
147,315,121957,6,0,P|100:283|132:200,1,143.999995605469,6|8,1:2|0:2,0:0:0:0:
118,207,122573,6,0,P|95:131|67:58,1,143.999995605469,6|8,1:2|0:2,0:0:0:0:
72,70,123188,5,2,1:2:0:0:
169,111,123393,1,8,0:3:0:0:
177,101,123496,1,8,0:2:0:0:
243,31,123701,1,8,0:2:0:0:
255,37,123803,6,0,P|305:50|357:60,1,95.9999970703126,4|0,1:2|0:0,0:0:0:0:
361,51,124111,1,10,0:2:0:0:
452,17,124316,1,4,0:3:0:0:
465,27,124419,2,0,P|494:66|455:122,1,95.9999970703126,2|4,1:2|0:3,0:0:0:0:
435,173,124727,1,10,0:2:0:0:
417,180,124829,1,8,0:3:0:0:
399,188,124932,1,4,0:3:0:0:
382,197,125034,6,0,P|332:208|281:222,1,95.9999970703126,0|0,1:2|0:0,0:0:0:0:
279,233,125342,1,10,0:2:0:0:
200,172,125547,1,4,0:3:0:0:
187,182,125650,2,0,P|158:221|197:277,1,95.9999970703126,2|4,1:2|0:3,0:0:0:0:
232,337,125957,1,10,0:2:0:0:
250,344,126059,1,8,0:3:0:0:
268,352,126162,1,4,0:3:0:0:
319,363,126265,6,0,B|354:349|354:349|376:302,1,66.6666666666667,14|0,1:2|0:0,0:0:0:0:
263,148,126573,6,0,B|257:185|257:185|287:227,1,66.6666666666667,10|0,1:2|0:0,0:0:0:0:
496,219,126880,6,0,B|466:195|466:195|414:200,1,66.6666666666667,10|0,1:2|0:0,0:0:0:0:
366,222,127085,2,0,P|364:237|367:223,1,53.3333333333333,10|0,1:2|0:0,0:0:0:0:
366,222,127393,6,0,B|341:188|367:129|387:163|412:112|390:73,1,160.000006103516,14|0,1:2|0:0,0:0:0:0:
311,8,127701,1,8,0:2:0:0:
261,70,127803,2,0,P|229:59|188:48,1,53.3333333333333,8|0,0:3|0:0,0:0:0:0:
155,131,128009,5,4,0:3:0:0:
87,91,128111,2,0,P|61:98|36:107,1,53.3333333333333,8|0,0:2|0:0,0:0:0:0:
113,209,128419,5,8,0:2:0:0:
160,233,128521,1,0,0:0:0:0:
211,216,128624,1,8,0:2:0:0:
241,175,128727,6,0,B|283:131|340:172|340:172|355:217|308:242,1,181.333336791992,6|8,1:2|0:2,0:0:0:0:
267,315,129034,2,0,B|228:298|177:326|212:341|166:369|117:350,1,149.333328776042,2|8,1:2|0:2,0:0:0:0:
34,369,129342,2,0,P|55:296|79:211,1,149.333328776042,2|8,1:2|0:2,0:0:0:0:
69,100,129650,6,0,P|110:97|146:135,1,74.6666643880209,2|0,1:2|0:0,0:0:0:0:
191,171,129855,1,10,0:2:0:0:
271,154,129957,6,0,P|273:195|236:231,1,74.6666643880209,2|0,1:2|0:0,0:0:0:0:
198,275,130162,1,10,0:2:0:0:
74,225,130265,2,0,B|33:220|15:182|15:182|33:218|14:267,1,149.333328776042,2|8,1:2|0:2,0:0:0:0:
78,303,130573,2,0,B|123:293|165:329|123:338|172:373|234:349,1,149.333328776042,2|8,1:2|0:2,0:0:0:0:
225,354,130880,1,0,1:2:0:0:
312,304,131085,5,8,0:2:0:0:
325,293,131188,2,0,P|344:251|319:206,1,74.6666643880209,0|0,1:2|0:0,0:0:0:0:
275,151,131393,1,10,0:2:0:0:
262,159,131496,2,0,P|189:180|112:198,1,149.333328776042,2|8,1:2|0:2,0:0:0:0:
35,159,131803,2,0,P|-5:106|36:38,1,149.333328776042,2|8,1:2|0:2,0:0:0:0:
48,36,132111,1,2,1:2:0:0:
125,98,132316,5,8,0:2:0:0:
137,106,132419,2,0,B|162:118|189:109|200:84|200:84|204:72|204:72|216:44|254:35|283:56,1,181.333336791992,2|8,1:2|0:2,0:0:0:0:
359,35,132727,2,0,B|381:68|381:68|368:108,1,74.6666643880209,2|0,1:2|0:0,0:0:0:0:
361,177,132932,1,10,0:2:0:0:
482,229,133034,2,0,B|449:295|449:295|372:311,1,149.333328776042,2|8,1:2|0:2,0:0:0:0:
309,271,133342,2,0,L|235:257,1,74.6666643880209,2|0,1:2|0:0,0:0:0:0:
155,206,133547,5,8,0:2:0:0:
142,199,133650,2,0,P|83:255|121:315,1,149.333328776042,6|8,1:2|0:2,0:0:0:0:
159,365,133957,2,0,L|233:351,1,74.6666643880209,0|0,1:2|0:0,0:0:0:0:
308,364,134162,1,8,0:2:0:0:
398,268,134266,2,0,B|415:231|385:184|374:219|342:167|367:134,1,149.333328776042,2|8,1:2|0:2,0:0:0:0:
378,124,134574,1,0,1:2:0:0:
466,75,134779,5,8,0:2:0:0:
458,61,134881,2,0,P|385:43|314:20,1,149.333328776042,2|8,1:2|0:2,0:0:0:0:
259,74,135188,2,0,P|223:84|177:102,1,74.6666643880209,0|0,1:2|0:0,0:0:0:0:
143,161,135394,1,8,0:2:0:0:
53,75,135497,2,0,P|3:128|45:193,1,149.333328776042,2|8,1:2|0:2,0:0:0:0:
96,257,135803,2,0,B|189:236|143:313|263:282,1,149.333328776042,0|8,1:2|0:2,0:0:0:0:
299,209,136111,6,0,P|340:205|356:153,1,74.6666643880209,2|0,1:2|0:0,0:0:0:0:
418,111,136316,1,10,0:2:0:0:
409,98,136419,2,0,P|412:56|363:32,1,74.6666643880209,2|0,1:2|0:0,0:0:0:0:
306,8,136624,1,10,0:2:0:0:
290,0,136727,2,0,B|240:41|240:41|288:125,1,149.333328776042,2|8,1:2|0:2,0:0:0:0:
357,179,137034,2,0,B|341:244|341:244|342:250|342:250|320:336,1,149.333328776042,2|8,1:2|0:2,0:0:0:0:
213,370,137342,6,0,B|176:380|126:336|169:334|125:294|78:307,1,160.000006103516,10|8,1:2|0:2,0:0:0:0:
10,237,137650,2,0,P|1:156|70:126,1,160.000006103516,2|8,1:2|0:2,0:0:0:0:
122,206,137957,2,0,P|198:179|292:150,1,160.000006103516,2|8,1:2|0:2,0:0:0:0:
324,77,138265,1,10,0:2:0:0:
338,83,138368,1,8,0:2:0:0:
352,89,138470,1,8,0:2:0:0:
402,104,138573,6,0,P|414:67|434:22,1,74.6666643880209,6|0,1:2|0:0,0:0:0:0:
486,112,138778,1,10,0:2:0:0:
493,127,138880,2,0,P|484:207|413:223,1,149.333328776042,2|8,1:2|0:2,0:0:0:0:
336,203,139188,2,0,B|240:238|240:238|270:230|292:249,1,149.333328776042,2|8,1:2|0:2,0:0:0:0:
296,256,139496,1,2,1:2:0:0:
263,345,139701,5,10,0:2:0:0:
247,352,139803,2,0,P|179:332|96:310,1,149.333328776042,2|8,1:2|0:2,0:0:0:0:
21,358,140111,2,0,P|6:286|79:233,1,149.333328776042,2|8,1:2|0:2,0:0:0:0:
132,183,140419,2,0,P|171:172|210:160,1,74.6666643880209,2|0,1:2|0:0,0:0:0:0:
330,203,140624,1,8,0:2:0:0:
341,192,140727,2,0,P|356:122|306:70,1,149.333328776042,0|8,1:2|0:2,0:0:0:0:
294,63,141034,1,0,1:2:0:0:
213,17,141239,5,10,0:2:0:0:
198,29,141342,2,0,B|156:-11|115:22|115:22|154:19|176:57,1,149.333328776042,2|10,1:2|0:2,0:0:0:0:
114,102,141650,2,0,P|68:97|53:55,1,74.6666643880209,2|0,1:2|0:0,0:0:0:0:
2,19,141855,1,10,0:2:0:0:
3,192,141957,6,0,P|20:172|46:172,1,53.3333333333333,2|8,1:2|0:2,0:0:0:0:
144,189,142265,6,0,B|195:207|243:156|243:156|220:182|231:213,2,160.000006103516,14|10|10,1:2|1:2|1:2,0:0:0:0:
86,336,142880,6,0,B|77:355|101:380|101:380|52:330|2:347,2,160.000006103516,10|10|10,1:2|1:2|1:2,0:0:0:0:
239,292,143496,6,0,P|139:269|20:240,1,213.333333333333,6|0,1:2|0:0,0:0:0:0:
6,170,143803,2,0,P|34:160|74:184,1,74.6666643880209,8|0,0:2|0:0,0:0:0:0:
161,199,144009,1,8,0:2:0:0:
174,189,144111,2,0,B|212:201|260:174|224:160|269:133|309:145,1,149.333328776042,2|0,3:2|1:2,0:0:0:0:
319,151,144419,1,8,0:2:0:0:
349,40,144624,5,0,0:0:0:0:
361,29,144727,2,0,P|439:25|468:89,1,149.333328776042,2|0,1:2|1:2,0:0:0:0:
512,163,145034,2,0,P|488:238|468:314,1,149.333328776042,8|8,0:2|0:2,0:0:0:0:
398,366,145342,2,0,B|349:374|319:327|319:327|345:310|336:263,1,149.333328776042,2|0,3:2|1:2,0:0:0:0:
326,264,145650,1,8,0:2:0:0:
238,235,145855,5,0,0:0:0:0:
228,220,145957,2,0,P|208:147|185:76,1,149.333328776042,2|2,1:2|1:2,0:0:0:0:
176,67,146265,1,10,0:2:0:0:
101,11,146470,1,10,0:2:0:0:
85,17,146573,1,2,3:2:0:0:
31,92,146778,1,0,1:2:0:0:
19,103,146880,2,0,P|1:174|58:218,1,149.333328776042,10|0,0:2|0:0,0:0:0:0:
159,223,147188,6,0,B|195:201|230:232|230:232|245:185|289:185,1,160.000006103516,2|8,1:2|0:2,0:0:0:0:
373,126,147496,2,0,B|426:163|426:163|376:260,1,160.000006103516,2|8,1:2|0:2,0:0:0:0:
323,326,147803,2,0,B|280:307|233:336|270:353|223:383|181:364,1,160.000006103516,2|8,1:2|0:2,0:0:0:0:
128,306,148111,2,0,P|99:328|106:377,2,80.0000030517579,10|8|8,0:2|0:2|0:2,0:0:0:0:
181,364,148419,5,4,1:2:0:0:
288,239,148727,2,0,L|410:202,1,106.666666666667,8|0,0:2|0:0,0:0:0:0:
400,195,149034,2,0,P|412:141|357:113,1,106.666666666667,0|4,1:2|0:3,0:0:0:0:
363,105,149342,1,8,0:3:0:0:
282,44,149547,5,4,0:3:0:0:
271,56,149650,2,0,L|160:92,1,106.666666666667,0|0,1:2|0:0,0:0:0:0:
155,82,149957,1,8,0:2:0:0:
77,22,150162,1,2,0:2:0:0:
64,31,150265,1,0,1:2:0:0:
10,112,150470,1,4,0:3:0:0:
23,121,150573,2,0,P|35:151|50:195,1,53.3333333333333,8|0,0:2|0:0,0:0:0:0:
117,228,150778,1,2,0:2:0:0:
118,242,150880,6,0,P|80:278|18:270,1,106.666666666667,0|0,1:2|0:0,0:0:0:0:
168,307,151188,2,0,P|218:321|242:379,1,106.666666666667,8|0,0:2|0:0,0:0:0:0:
199,235,151496,2,0,P|186:184|224:134,1,106.666666666667,0|8,1:2|0:3,0:0:0:0:
228,130,151803,5,8,0:2:0:0:
288,210,152009,1,4,0:3:0:0:
298,222,152111,2,0,P|349:206|408:191,1,106.666666666667,0|0,1:2|0:0,0:0:0:0:
415,197,152419,1,0,1:2:0:0:
512,95,152727,2,0,P|460:81|409:65,1,106.666666666667,0|0,1:2|0:0,0:0:0:0:
400,52,153034,1,2,3:2:0:0:
213,19,153342,6,0,P|178:18|157:50,1,58.6666684570313,6|0,1:2|0:0,0:0:0:0:
115,96,153547,1,10,0:2:0:0:
225,151,153650,6,0,P|208:120|170:118,1,58.6666684570313,2|0,1:2|0:0,0:0:0:0:
109,104,153855,1,10,0:2:0:0:
123,239,153957,6,0,P|141:209|124:175,1,58.6666684570313,2|0,1:2|0:0,0:0:0:0:
105,115,154162,1,10,0:2:0:0:
36,204,154265,2,0,L|72:332,1,117.333336914063,2|10,1:2|0:2,0:0:0:0:
77,333,154573,1,0,1:2:0:0:
222,374,154778,5,10,0:2:0:0:
237,360,154880,2,0,B|312:369|278:319|358:331,1,117.333336914063,2|10,1:2|0:2,0:0:0:0:
417,360,155188,1,2,1:2:0:0:
451,352,155291,1,2,0:2:0:0:
465,334,155393,1,10,0:2:0:0:
472,324,155496,2,0,P|477:266|426:239,1,117.333336914063,2|8,1:2|0:2,0:0:0:0:
416,225,155803,1,0,1:2:0:0:
310,117,156009,5,10,0:2:0:0:
256,172,156111,2,0,P|224:185|195:201,1,58.6666684570313,2|0,1:2|0:0,0:0:0:0:
169,62,156316,5,10,0:2:0:0:
149,136,156418,2,0,P|127:163|110:191,1,58.6666684570313,2|0,1:2|0:0,0:0:0:0:
16,102,156624,5,10,0:2:0:0:
35,176,156726,2,0,P|30:210|29:243,1,58.6666684570313,2|0,1:2|0:0,0:0:0:0:
85,357,156932,5,10,0:2:0:0:
99,348,157034,2,0,B|170:359|141:310|228:322,1,117.333336914063,2|10,1:2|0:2,0:0:0:0:
296,364,157342,2,0,B|328:305|328:305|285:270,1,117.333336914063,2|10,1:2|0:2,0:0:0:0:
214,211,157650,6,0,B|145:221|174:172|103:183,1,117.333336914063,2|10,1:2|0:2,0:0:0:0:
30,236,157958,2,0,B|-8:204|-8:204|23:145,1,117.333336914063,2|10,1:2|0:2,0:0:0:0:
22,17,158265,6,0,P|64:63|120:49,1,117.333336914063,2|8,1:2|0:2,0:0:0:0:
126,44,158573,1,0,1:2:0:0:
206,98,158778,1,8,0:2:0:0:
221,105,158880,1,0,1:2:0:0:
290,35,159085,1,10,0:2:0:0:
303,26,159188,2,0,P|369:49|420:61,1,117.333336914063,2|10,1:2|0:2,0:0:0:0:
497,10,159496,6,0,P|514:71|457:122,1,117.333336914063,2|8,1:2|0:2,0:0:0:0:
473,122,159803,1,2,1:2:0:0:
392,174,160009,1,10,0:2:0:0:
375,164,160111,1,0,1:2:0:0:
289,115,160316,1,10,0:2:0:0:
236,141,160419,1,2,1:2:0:0:
227,186,160521,1,2,0:2:0:0:
239,218,160624,1,10,0:2:0:0:
256,233,160727,6,0,B|183:232|212:284|132:270,1,117.333336914063,2|8,1:2|0:2,0:0:0:0:
38,338,161034,5,2,1:2:0:0:
15,315,161137,1,2,0:2:0:0:
8,273,161239,1,10,0:2:0:0:
36,227,161342,1,2,1:2:0:0:
94,202,161444,1,2,0:2:0:0:
135,139,161547,1,10,0:2:0:0:
105,66,161650,2,0,P|45:82|41:136,1,117.333336914063,2|10,1:2|0:2,0:0:0:0:
43,143,161957,1,2,1:2:0:0:
135,139,162162,5,10,0:2:0:0:
151,148,162265,2,0,P|203:131|266:113,1,117.333336914063,6|10,1:2|0:2,0:0:0:0:
323,41,162573,2,0,P|375:58|441:74,1,117.333336914063,2|10,1:2|0:2,0:0:0:0:
488,128,162880,1,8,0:2:0:0:
511,181,162983,1,8,0:2:0:0:
495,237,163085,1,8,0:2:0:0:
454,262,163188,6,0,P|410:273|366:235,1,95.9999970703126,6|0,1:2|0:0,0:0:0:0:
345,173,163496,2,0,P|308:144|254:159,1,95.9999970703126,10|0,0:2|0:0,0:0:0:0:
197,194,163803,1,2,1:2:0:0:
114,146,164009,1,2,1:2:0:0:
107,131,164111,1,10,0:2:0:0:
37,214,164316,5,2,0:2:0:0:
26,227,164419,2,0,P|75:244|129:270,1,95.9999970703126,2|0,1:2|0:0,0:0:0:0:
158,330,164727,2,0,P|201:310|247:294,1,95.9999970703126,10|0,0:2|0:0,0:0:0:0:
291,229,165034,1,2,1:2:0:0:
369,290,165239,1,2,1:2:0:0:
384,298,165342,2,0,P|414:256|401:195,1,95.9999970703126,10|2,0:2|0:2,0:0:0:0:
401,195,165650,1,2,1:2:0:0:
298,84,165855,5,2,0:2:0:0:
283,70,165957,2,0,P|238:55|195:35,1,95.9999970703126,10|0,0:2|0:0,0:0:0:0:
130,80,166265,1,2,1:2:0:0:
41,56,166470,1,2,1:2:0:0:
28,64,166573,1,10,0:2:0:0:
56,155,166778,5,2,0:2:0:0:
62,170,166881,2,0,P|105:200|160:173,1,95.9999970703126,2|2,1:2|0:2,0:0:0:0:
204,233,167188,2,0,P|247:203|302:230,1,95.9999970703126,10|0,0:2|0:0,0:0:0:0:
353,255,167496,1,2,1:2:0:0:
445,200,167701,1,2,1:2:0:0:
454,188,167803,1,10,0:2:0:0:
374,134,168009,5,2,0:2:0:0:
363,122,168111,2,0,P|337:78|314:33,1,95.9999970703126,6|0,1:2|0:0,0:0:0:0:
271,122,168419,2,0,P|245:166|218:208,1,95.9999970703126,10|0,0:2|0:0,0:0:0:0:
322,202,168727,2,0,P|373:201|423:204,1,95.9999970703126,2|0,1:2|1:2,0:0:0:0:
432,215,169034,1,10,0:2:0:0:
345,345,169342,6,0,P|299:362|246:318,1,95.9999970703126,2|0,1:2|0:0,0:0:0:0:
213,282,169650,2,0,P|167:265|114:309,1,95.9999970703126,10|0,0:2|0:0,0:0:0:0:
85,351,169957,1,2,1:2:0:0:
13,284,170162,1,0,1:2:0:0:
7,269,170265,1,10,0:2:0:0:
79,204,170470,5,0,0:0:0:0:
86,189,170573,2,0,L|119:83,1,95.9999970703126,2|0,1:2|0:0,0:0:0:0:
124,81,170880,1,10,0:2:0:0:
188,157,171085,5,0,0:0:0:0:
195,172,171188,2,0,L|228:278,1,95.9999970703126,2|0,1:2|1:2,0:0:0:0:
231,278,171495,1,10,0:2:0:0:
334,291,171701,1,0,0:0:0:0:
345,282,171803,2,0,P|355:224|288:188,1,143.999995605469,2|8,1:2|0:2,0:0:0:0:
288,187,172419,1,2,1:2:0:0:
223,263,172624,1,0,1:2:0:0:
212,273,172727,2,0,P|161:254|109:242,1,95.9999970703126,8|0,0:2|0:0,0:0:0:0:
46,254,173034,6,0,B|28:215|59:169|72:204|103:157|88:128,2,143.999995605469,2|8|0,1:2|0:2|1:2,0:0:0:0:
25,382,173957,2,0,L|95:311,1,95.9999970703126,10|0,0:2|0:0,0:0:0:0:
152,358,174265,6,0,B|190:377|236:345|201:332|247:301|277:317,2,143.999995605469,2|8|0,1:2|0:2|1:2,0:0:0:0:
196,255,175085,1,0,1:2:0:0:
207,246,175188,2,0,P|222:193|240:137,1,95.9999970703126,8|0,0:2|0:0,0:0:0:0:
246,142,175496,1,0,1:2:0:0:
255,46,175701,5,2,0:2:0:0:
268,37,175803,1,10,0:2:0:0:
359,62,176009,1,2,0:2:0:0:
372,73,176111,2,0,P|424:60|454:91,1,95.9999970703126,2|0,1:2|1:2,0:0:0:0:
461,99,176419,1,10,0:2:0:0:
499,195,176624,5,2,0:2:0:0:
506,209,176727,2,0,P|458:191|405:178,1,95.9999970703126,2|0,1:2|0:0,0:0:0:0:
320,128,177034,2,0,P|328:178|343:230,1,95.9999970703126,10|0,0:2|0:0,0:0:0:0:
340,323,177342,2,0,P|379:290|417:251,1,95.9999970703126,2|0,1:2|1:2,0:0:0:0:
426,258,177650,1,8,0:2:0:0:
261,368,177957,6,0,P|237:326|260:280,1,95.9999970703126,4|0,1:2|0:0,0:0:0:0:
265,273,178265,1,10,0:2:0:0:
341,213,178470,1,4,0:3:0:0:
346,198,178573,2,0,L|319:100,1,95.9999970703126,2|4,1:2|0:3,0:0:0:0:
259,36,178880,1,10,0:2:0:0:
244,23,178983,1,8,0:3:0:0:
224,23,179085,1,4,0:3:0:0:
211,33,179188,6,0,L|94:61,1,95.9999970703126,0|0,1:2|0:0,0:0:0:0:
107,66,179496,1,10,0:2:0:0:
35,131,179701,1,4,0:3:0:0:
43,146,179803,2,0,P|88:170|141:146,1,95.9999970703126,2|4,1:2|0:3,0:0:0:0:
219,152,180111,1,10,0:2:0:0:
234,139,180214,1,8,0:3:0:0:
254,139,180316,1,4,0:3:0:0:
301,166,180419,6,0,B|331:174|331:174|334:179|334:179|376:192,1,63.9999980468751,14|0,1:2|0:0,0:0:0:0:
198,325,180727,6,0,B|167:333|167:333|164:338|164:338|139:346,1,63.9999980468751,10|0,1:2|0:0,0:0:0:0:
297,178,181034,6,0,B|327:186|327:186|330:191|330:191|372:204,1,63.9999980468751,10|0,1:2|0:0,0:0:0:0:
194,336,181239,6,0,B|166:343|166:343|164:348|164:348|142:354,1,53.3333333333333,10|0,1:2|0:0,0:0:0:0:
69,359,181547,6,0,B|43:326|56:294|105:277|91:307|155:271|157:194|75:180|59:219,1,240.000009155274,14|8,1:2|0:2,0:0:0:0:
50,224,181957,2,0,P|74:212|102:197,1,53.3333333333333,8|0,0:3|0:0,0:0:0:0:
167,108,182162,5,4,0:3:0:0:
231,70,182265,2,0,P|255:82|283:97,1,53.3333333333333,8|0,0:2|0:0,0:0:0:0:
467,344,184111,6,0,B|474:360|490:364|490:364|419:341|419:341|393:297|444:268,1,181.333336791992,6|8,1:2|0:2,0:0:0:0:
499,206,184419,2,0,P|432:173|375:225,1,149.333328776042,2|8,1:2|0:2,0:0:0:0:
324,295,184727,2,0,B|291:275|240:307|281:320|231:351|175:324,1,149.333328776042,2|8,1:2|0:2,0:0:0:0:
118,359,185034,6,0,P|107:322|147:276,1,74.6666643880209,2|0,1:2|0:0,0:0:0:0:
198,225,185239,1,10,0:2:0:0:
212,212,185342,2,0,P|228:174|210:131,1,74.6666643880209,2|0,1:2|0:0,0:0:0:0:
139,101,185547,1,10,0:2:0:0:
127,109,185650,2,0,B|114:148|74:159|74:159|112:148|157:175,1,149.333328776042,2|8,1:2|0:2,0:0:0:0:
219,143,185958,2,0,B|264:133|306:169|264:178|313:213|375:189,1,149.333328776042,2|8,1:2|0:2,0:0:0:0:
361,185,186265,1,0,1:2:0:0:
465,130,186470,5,8,0:2:0:0:
477,143,186573,2,0,P|490:178|478:211,1,74.6666643880209,0|0,1:2|0:0,0:0:0:0:
491,308,186778,1,10,0:2:0:0:
482,318,186881,2,0,P|409:297|332:279,1,149.333328776042,2|8,1:2|0:2,0:0:0:0:
262,230,187188,2,0,P|197:259|117:287,1,149.333328776042,2|8,1:2|0:2,0:0:0:0:
113,297,187496,1,2,1:2:0:0:
35,192,187701,5,8,0:2:0:0:
25,178,187803,2,0,B|15:167|-7:172|-7:172|25:140|77:169|44:182|101:202|126:176,1,181.333336791992,2|8,1:2|0:2,0:0:0:0:
205,163,188111,2,0,P|199:133|156:111,1,74.6666643880209,2|0,1:2|0:0,0:0:0:0:
90,100,188317,1,10,0:2:0:0:
170,239,188419,2,0,P|232:253|283:185,1,149.333328776042,2|8,1:2|0:2,0:0:0:0:
324,132,188727,2,0,P|359:141|405:153,1,74.6666643880209,2|0,1:2|0:0,0:0:0:0:
498,123,188932,5,8,0:2:0:0:
509,137,189034,2,0,P|485:215|465:289,1,149.333328776042,6|8,1:2|0:2,0:0:0:0:
473,357,189342,2,0,P|441:364|416:330,1,74.6666643880209,0|0,1:2|0:0,0:0:0:0:
366,276,189547,1,8,0:2:0:0:
264,197,189650,2,0,B|226:185|175:213|215:224|162:253|121:233,1,149.333328776042,2|8,1:2|0:2,0:0:0:0:
117,224,189957,1,0,1:2:0:0:
21,144,190162,5,8,0:2:0:0:
10,156,190265,2,0,B|14:188|40:202|40:202|10:296,1,149.333328776042,2|8,1:2|0:2,0:0:0:0:
23,364,190573,2,0,P|59:355|81:313,1,74.6666643880209,0|0,1:2|0:0,0:0:0:0:
128,269,190779,1,8,0:2:0:0:
86,140,190880,2,0,B|121:119|112:73|112:73|129:117|181:116,1,149.333328776042,2|8,1:2|0:2,0:0:0:0:
149,192,191188,2,0,B|242:171|196:248|316:217,1,149.333328776042,0|8,1:2|0:2,0:0:0:0:
362,249,191496,6,0,B|375:213|375:213|338:160,1,74.6666643880209,2|0,1:2|0:0,0:0:0:0:
280,125,191701,1,10,0:2:0:0:
270,110,191803,2,0,B|257:74|257:74|294:21,1,74.6666643880209,2|0,1:2|0:0,0:0:0:0:
366,9,192009,1,10,0:2:0:0:
382,4,192111,2,0,P|436:58|409:116,1,149.333328776042,2|8,1:2|0:2,0:0:0:0:
394,115,192419,1,2,1:2:0:0:
294,40,192624,5,8,0:2:0:0:
280,29,192727,2,0,B|243:19|193:63|236:65|192:105|145:92,1,160.000006103516,10|8,1:2|0:2,0:0:0:0:
67,39,193034,2,0,B|20:79|20:79|74:164,1,160.000006103516,2|8,1:2|0:2,0:0:0:0:
61,263,193342,2,0,B|101:235|132:264|132:264|129:218|180:201,1,160.000006103516,2|8,1:2|0:2,0:0:0:0:
252,153,193650,1,10,0:2:0:0:
266,159,193753,1,8,0:2:0:0:
281,164,193855,1,8,0:2:0:0:
335,173,193957,6,0,P|358:204|345:249,1,74.6666643880209,6|0,1:2|0:0,0:0:0:0:
291,309,194162,1,10,0:2:0:0:
277,320,194265,2,0,P|204:335|110:364,1,149.333328776042,2|8,1:2|0:2,0:0:0:0:
55,368,194573,2,0,P|23:315|95:306,1,149.333328776042,2|8,1:2|0:2,0:0:0:0:
96,291,194880,1,2,1:2:0:0:
169,229,195086,5,10,0:2:0:0:
179,219,195188,2,0,B|201:186|191:132|165:166|151:111|187:62,1,149.333328776042,2|8,1:2|0:2,0:0:0:0:
237,7,195496,2,0,P|292:48|252:118,1,149.333328776042,2|8,1:2|0:2,0:0:0:0:
177,77,195804,2,0,B|146:54|146:54|106:57,1,74.6666643880209,2|0,1:2|0:0,0:0:0:0:
10,155,196009,1,8,0:2:0:0:
6,175,196111,2,0,B|63:226|63:226|133:207,1,149.333328776042,0|8,1:2|0:2,0:0:0:0:
142,195,196419,1,0,1:2:0:0:
224,273,196624,5,10,0:2:0:0:
235,260,196727,2,0,B|276:240|327:269|288:284|350:314|392:288,1,149.333328776042,2|10,1:2|0:2,0:0:0:0:
427,242,197034,2,0,B|454:270|454:270|446:319,1,74.6666643880209,2|0,1:2|0:0,0:0:0:0:
412,373,197239,1,10,0:2:0:0:
355,216,197342,6,0,P|364:184|375:148,1,53.3333333333333,2|8,1:2|0:2,0:0:0:0:
413,80,197650,6,0,B|401:54|444:38|469:71|439:119|439:119|449:94|486:93,2,160.000006103516,14|10|10,1:2|1:2|1:2,0:0:0:0:
283,175,198265,6,0,B|294:200|251:216|227:183|256:135|256:135|246:160|210:161,2,160.000006103516,10|10|10,1:2|1:2|1:2,0:0:0:0:
337,46,198880,6,0,B|304:87|337:163|373:109|410:187|363:234,1,213.333333333333,6|0,1:2|0:0,0:0:0:0:
370,308,199188,2,0,P|335:309|304:273,1,74.6666643880209,8|0,0:2|0:0,0:0:0:0:
221,254,199394,1,8,0:2:0:0:
209,247,199496,2,0,P|142:278|67:304,1,149.333328776042,2|0,3:2|1:2,0:0:0:0:
64,315,199803,1,8,0:2:0:0:
124,196,200009,5,0,0:0:0:0:
132,185,200111,2,0,P|182:133|259:163,1,149.333328776042,2|0,1:2|1:2,0:0:0:0:
313,81,200419,2,0,P|363:133|440:103,1,149.333328776042,8|8,0:2|0:2,0:0:0:0:
507,58,200727,2,0,P|476:151|460:224,1,149.333328776042,2|0,3:2|1:2,0:0:0:0:
466,214,201034,1,8,0:2:0:0:
499,334,201240,5,0,0:0:0:0:
489,345,201342,2,0,B|452:364|404:336|440:322|397:295|346:312,1,149.333328776042,2|2,1:2|1:2,0:0:0:0:
343,321,201650,1,10,0:2:0:0:
263,373,201855,1,10,0:2:0:0:
252,364,201958,1,2,3:2:0:0:
183,300,202162,1,0,1:2:0:0:
168,291,202265,2,0,P|149:218|125:148,1,149.333328776042,10|0,0:2|0:0,0:0:0:0:
123,22,202573,6,0,B|92:-11|28:16|28:16|60:16|75:47,1,160.000006103516,2|8,1:2|0:2,0:0:0:0:
7,123,202880,2,0,P|58:179|127:144,1,160.000006103516,2|8,1:2|0:2,0:0:0:0:
199,86,203188,2,0,B|226:71|255:77|278:102|278:102|282:113|282:113|292:139|325:149|352:133,1,160.000006103516,2|8,1:2|0:2,0:0:0:0:
347,130,203496,1,10,0:2:0:0:
452,57,203803,6,0,L|463:112,1,42.6666666666667,2|0,0:2|0:0,0:0:0:0:
508,157,204111,2,0,B|472:186|433:170|433:170|382:203|420:264,1,181.333336791992,10|0,3:2|0:0,0:0:0:0:
474,331,204419,6,0,L|428:341,1,42.6666666666667,2|0,0:2|0:0,0:0:0:0:
372,382,204727,2,0,B|341:363|347:327|347:327|267:307|267:307|292:325|292:357,1,181.333336791992,10|2,3:2|0:2,0:0:0:0:
205,369,205034,6,0,L|157:354,1,42.6666666666667,2|2,0:2|0:2,0:0:0:0:
91,373,205342,2,0,P|102:297|197:289,1,181.333336791992,10|0,3:2|0:0,0:0:0:0:
267,217,205650,6,0,L|315:202,1,42.6666666666667,2|0,0:2|0:0,0:0:0:0:
381,221,205958,2,0,P|370:145|275:137,1,181.333336791992,10|0,3:2|0:0,0:0:0:0:
265,132,206265,1,2,0:2:0:0:
56,61,206573,6,0,B|96:63|128:8|128:8|112:71|144:99,1,181.333336791992,10|0,3:2|0:0,0:0:0:0:
75,136,206880,2,0,L|56:182,1,42.6666666666667,2|0,0:2|0:0,0:0:0:0:
0,224,207188,2,0,B|24:244|8:307|8:307|40:252|80:254,1,181.333336791992,10|0,3:2|0:0,0:0:0:0:
89,257,207496,1,2,0:2:0:0:
314,216,207803,6,0,B|323:167|384:171|384:171|342:189|370:215|314:216,1,181.333336791992,10|2,3:2|0:2,0:0:0:0:
175,166,208111,6,0,B|127:181|100:127|100:127|137:154|145:117|175:166,1,181.333336791992,10|0,3:2|0:0,0:0:0:0:
207,300,208419,6,0,B|244:333|210:383|210:383|215:338|179:349|207:300,1,181.333336791992,10|0,3:2|0:0,0:0:0:0:
231,229,208727,6,0,P|239:217|229:228,1,42.6666666666667,2|0,0:2|0:0,0:0:0:0:
240,218,209034,6,0,B|328:229|284:156|410:175,1,160.000006103516,4|8,1:2|0:2,0:0:0:0:
459,201,209342,2,0,P|472:137|425:113,1,106.666666666667,2|0,3:2|1:2,0:0:0:0:
437,102,209650,1,8,0:2:0:0:
366,33,209855,5,0,0:0:0:0:
348,24,209957,2,0,P|300:43|238:77,1,106.666666666667,2|0,1:2|1:2,0:0:0:0:
208,131,210265,2,0,P|160:106|111:86,1,106.666666666667,8|8,0:2|0:2,0:0:0:0:
54,34,210573,2,0,B|16:72|16:72|41:126,1,106.666666666667,2|0,3:2|1:2,0:0:0:0:
45,136,210880,1,8,0:2:0:0:
117,190,211085,5,0,0:0:0:0:
129,200,211188,2,0,L|152:315,1,106.666666666667,2|0,1:2|1:2,0:0:0:0:
153,320,211496,1,10,0:2:0:0:
74,371,211701,1,10,0:2:0:0:
59,372,211803,2,0,P|16:335|48:276,1,106.666666666667,2|0,3:2|1:2,0:0:0:0:
20,216,212111,2,0,P|30:160|97:158,1,106.666666666667,10|0,0:2|0:0,0:0:0:0:
90,150,212419,1,2,1:2:0:0:
137,230,212624,5,0,0:0:0:0:
145,240,212727,2,0,B|214:249|177:200|268:209,1,106.666666666667,10|8,0:2|0:3,0:0:0:0:
306,248,213034,2,0,P|357:222|408:209,1,106.666666666667,6|8,0:3|0:2,0:0:0:0:
480,226,213342,1,10,0:2:0:0:
493,209,213444,1,8,0:2:0:0:
494,187,213547,1,8,0:2:0:0:
465,145,213650,6,0,P|430:136|379:117,1,63.9999980468751,6|0,1:2|0:0,0:0:0:0:
338,62,213855,1,10,0:2:0:0:
327,46,213957,2,0,P|260:29|221:86,1,127.99999609375,2|8,1:2|0:2,0:0:0:0:
217,80,214265,1,2,1:2:0:0:
289,144,214470,1,8,0:2:0:0:
297,159,214573,2,0,P|315:227|331:292,1,127.99999609375,2|10,1:2|0:2,0:0:0:0:
389,359,214880,2,0,P|456:376|495:319,1,127.99999609375,2|8,1:2|0:2,0:0:0:0:
503,254,215188,6,0,L|432:278,1,63.9999980468751,2|0,1:2|0:0,0:0:0:0:
384,224,215393,1,8,0:2:0:0:
295,360,215496,2,0,B|216:372|245:315|173:333,1,127.99999609375,2|8,1:2|0:2,0:0:0:0:
89,375,215803,2,0,P|67:319|115:269,1,127.99999609375,0|8,1:2|0:2,0:0:0:0:
119,263,216111,1,0,1:2:0:0:
206,189,216316,5,10,0:2:0:0:
217,177,216419,2,0,P|239:106|260:46,1,127.99999609375,2|10,1:2|0:2,0:0:0:0:
315,10,216727,2,0,P|333:35|323:75,1,63.9999980468751,2|0,1:2|0:0,0:0:0:0:
314,141,216932,1,10,0:2:0:0:
168,86,217034,6,0,L|103:104,1,53.3333333333333,2|8,1:2|0:2,0:0:0:0:
41,160,217342,6,0,B|3:141|-8:94|32:56|32:56|16:73|25:101,2,160.000006103516,14|10|10,1:2|1:2|1:2,0:0:0:0:
171,263,217957,6,0,B|209:244|220:197|180:159|180:159|196:176|187:204,2,160.000006103516,10|10|10,1:2|1:2|1:2,0:0:0:0:
38,341,218573,6,0,B|103:204|103:204|78:241|34:231,1,213.333333333333,6|0,1:2|0:0,0:0:0:0:
41,160,218880,2,0,P|66:131|114:138,1,63.9999980468751,8|0,0:2|0:0,0:0:0:0:
158,64,219085,1,8,0:2:0:0:
170,72,219188,2,0,P|228:91|305:107,1,127.99999609375,2|0,3:2|1:2,0:0:0:0:
304,113,219496,1,8,0:2:0:0:
371,41,219701,5,0,0:0:0:0:
385,35,219803,2,0,P|437:83|411:145,1,127.99999609375,2|0,1:2|1:2,0:0:0:0:
395,199,220111,2,0,P|363:205|333:215,1,63.9999980468751,8|0,0:2|0:0,0:0:0:0:
286,277,220316,1,8,0:2:0:0:
191,361,220419,2,0,P|135:331|68:307,1,127.99999609375,2|0,3:2|1:2,0:0:0:0:
63,316,220727,1,8,0:2:0:0:
158,255,220932,5,0,0:0:0:0:
168,241,221034,2,0,P|198:222|236:230,1,63.9999980468751,2|0,1:2|0:0,0:0:0:0:
286,277,221239,1,2,1:2:0:0:
355,204,221342,2,0,P|323:205|297:187,1,63.9999980468751,10|0,0:2|0:0,0:0:0:0:
233,150,221547,1,10,0:2:0:0:
227,135,221650,2,0,B|206:127|206:127|205:86|205:86|236:118|236:118|227:135,1,127.99999609375,2|0,3:2|1:2,0:0:0:0:
134,55,221957,2,0,P|176:11|252:37,1,127.99999609375,10|0,0:2|0:0,0:0:0:0:
322,93,222265,6,0,B|363:75|421:108|374:117|432:146|479:125,1,160.000006103516,2|8,1:2|0:2,0:0:0:0:
436,41,222573,2,0,P|397:106|366:199,1,160.000006103516,2|8,1:2|0:2,0:0:0:0:
273,238,222880,2,0,B|314:243|326:290|326:290|369:260|399:287,1,160.000006103516,2|8,1:2|0:2,0:0:0:0:
489,261,223188,1,10,0:2:0:0:
506,277,223291,1,8,0:2:0:0:
512,299,223393,1,8,0:2:0:0:
507,314,223496,6,0,P|481:365|421:368,1,106.666666666667,4|0,1:2|0:0,0:0:0:0:
365,380,223803,2,0,P|312:360|249:350,1,106.666666666667,8|0,0:2|0:0,0:0:0:0:
253,358,224111,1,0,1:2:0:0:
179,301,224316,1,4,0:3:0:0:
164,291,224419,2,0,P|134:302|106:311,1,53.3333333333333,8|8,0:3|0:3,0:0:0:0:
48,344,224624,1,4,0:3:0:0:
33,335,224727,6,0,P|0:291|32:236,1,106.666666666667,0|0,1:2|0:0,0:0:0:0:
24,233,225034,1,8,0:2:0:0:
97,169,225239,1,2,0:2:0:0:
91,155,225342,1,0,1:2:0:0:
21,86,225547,1,4,0:3:0:0:
26,73,225650,2,0,L|161:45,1,106.666666666667,8|0,0:2|0:0,0:0:0:0:
141,40,225957,1,0,1:2:0:0:
227,90,226162,5,2,0:2:0:0:
237,102,226265,2,0,P|288:131|332:110,1,106.666666666667,8|0,0:2|0:0,0:0:0:0:
388,158,226573,2,0,P|439:129|483:150,1,106.666666666667,0|8,1:2|0:3,0:0:0:0:
439,228,226880,1,8,0:2:0:0:
434,243,226983,1,8,0:3:0:0:
429,258,227085,1,4,0:3:0:0:
424,271,227188,6,0,B|382:263|336:295|370:310|319:347|264:321,2,160,0|0|0,1:2|1:2|1:2,0:0:0:0:
296,233,228111,2,0,P|283:224|296:232,1,53.3333333333333,0|0,3:2|0:0,0:0:0:0:
298,225,228419,6,0,P|274:153|246:88,1,127.99999609375,6|2,1:2|1:2,0:0:0:0:
246,28,228726,2,0,L|169:55,1,63.9999980468751,10|0,0:2|0:0,0:0:0:0:
143,112,228931,1,10,0:2:0:0:
133,123,229034,6,0,P|89:79|27:99,1,127.99999609375,2|2,3:2|1:2,0:0:0:0:
144,209,229342,2,0,P|173:196|203:186,1,63.9999980468751,10|0,0:2|0:0,0:0:0:0:
128,361,229650,2,0,P|67:336|5:315,1,127.99999609375,2|2,1:2|1:2,0:0:0:0:
5,304,229957,1,8,0:2:0:0:
46,209,230162,5,10,0:2:0:0:
56,195,230265,2,0,B|56:122|103:152|100:57,1,127.99999609375,0|2,3:2|1:2,0:0:0:0:
52,2,230572,2,0,P|109:41|169:10,1,127.99999609375,10|2,0:2|0:2,0:0:0:0:
169,17,230880,1,0,1:2:0:0:
230,104,231085,5,2,1:2:0:0:
240,114,231188,2,0,P|301:96|361:83,1,117.333336914063,10|10,0:2|0:2,0:0:0:0:
408,28,231496,2,0,B|454:69|454:69|426:127,1,117.333336914063,2|2,3:2|1:2,0:0:0:0:
422,130,231803,1,10,0:2:0:0:
375,286,232111,2,0,B|327:246|327:246|356:179,1,117.333336914063,10|2,0:2|1:2,0:0:0:0:
355,182,232419,1,8,0:2:0:0:
300,323,232624,5,10,0:2:0:0:
286,315,232727,2,0,B|238:304|191:332|234:346|183:378|128:360,1,160.000006103516,0|2,3:2|1:2,0:0:0:0:
79,326,233034,2,0,P|110:290|158:300,2,80.0000030517579,10|0|2,0:2|0:0|0:2,0:0:0:0:
143,363,233342,1,4,1:2:0:0:
221,245,233547,5,2,1:2:0:0:
228,231,233650,2,0,P|210:168|193:97,1,117.333336914063,10|10,0:2|0:2,0:0:0:0:
235,48,233957,2,0,P|176:33|135:73,1,117.333336914063,2|2,3:2|1:2,0:0:0:0:
131,81,234265,1,10,0:2:0:0:
50,141,234470,1,2,0:2:0:0:
39,128,234573,2,0,P|57:65|74:-6,1,117.333336914063,2|2,1:2|1:2,0:0:0:0:
59,4,234880,1,8,0:2:0:0:
131,81,235085,5,10,0:2:0:0:
144,88,235188,2,0,B|183:79|207:113|207:113|237:88|290:104,1,138.666660319011,0|2,3:2|1:2,0:0:0:0:
333,165,235496,2,0,B|316:183|293:182|293:182|333:202|393:166|344:163|404:128|444:151,1,207.999990478516,10|4,0:2|1:2,0:0:0:0:
512,240,236009,5,2,0:2:0:0:
504,252,236111,2,0,P|434:258|419:214,1,117.333336914063,10|10,0:2|0:2,0:0:0:0:
442,149,236419,1,8,0:2:0:0:
427,130,236521,1,10,0:2:0:0:
392,120,236624,1,10,0:2:0:0:
345,128,236727,1,10,0:2:0:0:
317,179,236829,1,10,0:2:0:0:
256,201,236932,1,10,0:2:0:0:
190,177,237034,6,0,L|206:113,1,58.6666684570313,2|0,1:2|0:0,0:0:0:0:
132,231,237239,1,10,0:2:0:0:
32,103,237342,6,0,L|16:39,1,58.6666684570313,10|0,0:2|0:0,0:0:0:0:
0,169,237547,6,0,B|28:198|91:184|107:115|107:115|128:123|128:123|141:54|190:31|235:38|261:78,1,360.000013732911,6|0,1:2|0:0,0:0:0:0:
