osu file format v14

[General]
AudioFilename: audio.mp3
AudioLeadIn: 0
PreviewTime: 9386
Countdown: 1
SampleSet: Normal
StackLeniency: 0.6
Mode: 0
LetterboxInBreaks: 0
WidescreenStoryboard: 0

[Editor]
DistanceSpacing: 1.1
BeatDivisor: 4
GridSize: 16
TimelineZoom: 3.499999

[Metadata]
Title:Searchlight to Tsukiakari (TV Size)
TitleUnicode:Searchlight to Tsukiakari (TV Size)
Artist:Amatsuki Mashiro (CV: Minase Inori)
ArtistUnicode:Amatsuki Mashiro (CV: Minase Inori)
Creator:- Satori
Version:234 stanze
Source:
Tags:
BeatmapID:2071868
BeatmapSetID:990525

[Difficulty]
HPDrainRate:5
CircleSize:4.2
OverallDifficulty:9
ApproachRate:9.6
SliderMultiplier:2.22
SliderTickRate:1

[Events]
//Background and Video events
0,0,"8a005915fb775bd70602bb219d27c3c51536571691_main.png",0,0
//Break Periods
//Storyboard Layer 0 (Background)
//Storyboard Layer 1 (Fail)
//Storyboard Layer 2 (Pass)
//Storyboard Layer 3 (Foreground)
//Storyboard Sound Samples

[TimingPoints]
-1869.20472440945,468.750944881889,4,1,0,100,1,0
9380,-50,4,1,0,100,0,1
15005,468.750944881889,4,1,0,100,1,1
15864,-66.6666666666667,4,1,0,100,0,1
24380,-100,4,1,0,100,0,0

[HitObjects]
112,320,5,5,0,0:0:0:0:
224,224,240,2,0,P|192:288|192:288,1,55.5
144,128,474,2,0,P|112:192|112:192,1,55.5
80,240,708,1,0,0:0:0:0:
288,128,943,6,0,P|320:192|320:192,1,55.5
448,224,1177,2,0,P|480:288|480:288,2,55.5
128,48,1880,5,0,0:0:0:0:
84,100,1997,1,0,0:0:0:0:
82,168,2114,1,0,0:0:0:0:
122,222,2231,1,0,0:0:0:0:
188,240,2349,2,0,L|204:304,3,55.5
144,320,2818,5,0,0:0:0:0:
196,363,2935,1,0,0:0:0:0:
264,365,3052,1,0,0:0:0:0:
318,325,3169,1,0,0:0:0:0:
336,259,3287,2,0,L|399:243,3,55.5
432,144,3755,5,0,0:0:0:0:
336,144,3872,1,0,0:0:0:0:
384,64,3990,1,0,0:0:0:0:
432,144,4107,2,0,L|400:224,4,55.5
224,256,4693,1,0,0:0:0:0:
314,223,4810,1,0,0:0:0:0:
296,314,4928,1,0,0:0:0:0:
224,256,5045,2,0,L|226:169,4,55.5
64,144,5630,6,0,L|96:176,7,27.75
125,98,6099,6,0,L|137:141,7,27.75
204,88,6568,6,0,L|193:132,7,27.75
274,128,7037,6,0,L|242:160,7,27.75
304,192,7505,1,0,0:0:0:0:
256,272,8208,5,0,0:0:0:0:
176,320,8443,1,0,0:0:0:0:
176,229,8560,1,0,0:0:0:0:
256,275,8677,1,0,0:0:0:0:
96,176,8912,2,0,L|64:288,1,111
448,160,9380,6,0,B|455:260|397:295|366:288|339:264|351:218|385:210,1,222
320,80,9849,1,0,0:0:0:0:
160,208,10083,1,0,0:0:0:0:
240,163,10317,1,0,0:0:0:0:
432,336,10552,6,0,B|336:336|304:288|304:254|336:224|384:240|384:272,1,222
256,320,11021,1,0,0:0:0:0:
160,128,11255,5,0,0:0:0:0:
256,320,11490,1,0,0:0:0:0:
304,32,11724,5,0,0:0:0:0:
208,224,11959,1,0,0:0:0:0:
112,32,12193,1,0,0:0:0:0:
400,96,12662,5,0,0:0:0:0:
448,192,12779,1,0,0:0:0:0:
112,160,13013,2,0,B|112:256|160:352|240:368|288:336|256:256|224:224|192:224,1,333
208,96,13482,1,0,0:0:0:0:
112,160,13599,1,0,0:0:0:0:
303,255,13833,1,0,0:0:0:0:
208,208,13950,1,0,0:0:0:0:
409,182,14068,2,0,B|409:278|361:374|281:390|233:358|265:278|297:246|329:246,1,333
160,48,14537,6,0,B|144:144|128:192|144:272|192:288|224:272,1,222
277,76,15005,1,0,0:0:0:0:
379,31,15083,1,0,0:0:0:0:
311,143,15239,1,0,0:0:0:0:
430,128,15317,1,0,0:0:0:0:
313,221,15473,5,0,0:0:0:0:
430,230,15551,1,0,0:0:0:0:
274,288,15708,1,0,0:0:0:0:
383,337,15786,1,0,0:0:0:0:
190,300,15942,2,0,B|234:220|238:113|176:60|118:65|108:150|120:194|130:189,1,333,0|0,0:3|0:3,0:3:0:0:
194,215,16880,6,0,B|166:269|179:303|202:363|241:346|234:259|220:268,1,166.500006351471
267,208,17231,1,0,0:0:0:0:
313,291,17348,1,0,0:0:0:0:
229,288,17465,1,0,0:0:0:0:
267,208,17583,1,0,0:0:0:0:
353,207,17700,1,0,0:0:0:0:
181,98,17817,6,0,B|65:121|65:247|131:317|161:181,1,249.750009527207
267,35,18286,5,0,0:0:0:0:
189,329,18520,1,0,0:0:0:0:
407,99,18755,1,0,0:0:0:0:
82,65,18989,1,0,0:0:0:0:
324,34,19223,1,0,0:0:0:0:
262,328,19458,1,0,0:0:0:0:
384,282,19692,1,0,0:0:0:0:
184,256,20161,5,0,0:0:0:0:
91,313,20278,1,0,0:0:0:0:
273,262,20512,6,0,P|423:333|424:166,1,333.000012702942
334,139,21098,1,0,0:0:0:0:
371,251,21216,1,0,0:0:0:0:
334,139,21333,1,0,0:0:0:0:
419,129,21567,6,0,B|471:97|358:-7|188:97,1,249.750009527207
236,158,22036,1,0,0:0:0:0:
328,135,22153,1,0,0:0:0:0:
304,231,22270,1,0,0:0:0:0:
123,142,22387,6,0,B|182:107|156:57,1,83.2500031757356
163,76,22622,2,0,B|172:143|228:139,1,83.2500031757356
208,138,22856,2,0,B|263:104|244:73,1,83.2500031757356
244,73,23090,2,0,B|257:140|313:131,1,83.2500031757356,0|0,0:3|0:3,0:3:0:0:
293,132,23325,2,0,B|348:98|329:67,1,83.2500031757356
256,192,23559,12,0,24262,0:3:0:0:
189,266,24380,5,0,0:0:0:0:
284,285,24731,1,0,0:0:0:0:
372,315,25083,5,0,0:0:0:0:
425,246,25317,1,0,0:0:0:0:
360,187,25551,1,0,0:0:0:0:
430,130,25786,1,0,0:0:0:0:
344,96,26020,1,0,0:0:0:0:
215,287,26489,5,0,0:0:0:0:
109,248,27192,5,0,0:0:0:0:
97,220,28012,5,0,0:0:0:0:
194,225,28481,1,0,0:0:0:0:
290,144,28833,5,0,0:0:0:0:
214,299,29067,1,0,0:0:0:0:
289,239,29301,1,0,0:0:0:0:
202,207,29536,1,0,0:0:0:0:
121,274,29770,1,0,0:0:0:0:
