osu file format v14

[General]
AudioFilename: audio.ogg
AudioLeadIn: 0
PreviewTime: 9273
Countdown: 0
SampleSet: Normal
StackLeniency: 0.7
Mode: 1
LetterboxInBreaks: 0
WidescreenStoryboard: 1

[Editor]
DistanceSpacing: 1.3
BeatDivisor: 2
GridSize: 8
TimelineZoom: 1.7

[Metadata]
Title:Searchlight to Tsukiakari (TV Size)
TitleUnicode:サーチライトと月灯り (TV Size)
Artist:Amatsuki Mashiro (CV: Inori Minase)
ArtistUnicode:天月真白 (CV: 水瀬いのり)
Creator:Yui Funami
Version:Futsuu
Source:One Room セカンドシーズン
Tags:bigh bighzonda second 2nd season ending three oneroom ed 3 japanese anime jpop j-pop pop ed3 eba 稲葉エミ Inaba Emi OneRoom
BeatmapID:3863742
BeatmapSetID:1877167

[Difficulty]
HPDrainRate:9.5
CircleSize:2
OverallDifficulty:3
ApproachRate:10
SliderMultiplier:1.4
SliderTickRate:1

[Events]
//Background and Video events
0,0,"bg.jpg",0,50
//Break Periods
//Storyboard Layer 0 (Background)
//Storyboard Layer 1 (Fail)
//Storyboard Layer 2 (Pass)
//Storyboard Layer 3 (Foreground)
//Storyboard Layer 4 (Overlay)
//Storyboard Sound Samples

[TimingPoints]
32,468.75,4,1,0,60,1,0
1907,468.75,4,1,0,60,1,0
1907,-100,4,1,0,70,0,0
9407,-100,4,1,0,80,0,1
24407,-100,4,1,0,60,0,0
26750,-100,4,1,0,50,0,0
29914,-100,4,1,0,30,0,0
30500,-100,4,1,0,20,0,0
30969,-100,4,1,0,10,0,0
31907,-100,4,1,0,5,0,0

[HitObjects]
235,217,32,5,8,0:0:0:0:
235,217,500,1,0,0:0:0:0:
235,217,1203,1,0,0:0:0:0:
324,199,1438,1,12,0:0:0:0:
235,217,1907,1,0,0:0:0:0:
414,243,2375,1,8,0:0:0:0:
414,243,2610,1,0,0:0:0:0:
263,237,3313,1,8,0:0:0:0:
235,217,3782,1,0,0:0:0:0:
381,329,4250,1,8,0:0:0:0:
468,358,4485,1,0,0:0:0:0:
272,202,5188,1,0,0:0:0:0:
235,217,5657,1,8,0:0:0:0:
73,300,6125,1,0,0:0:0:0:
158,268,6360,1,8,0:0:0:0:
250,179,6594,1,0,0:0:0:0:
250,179,7063,1,0,0:0:0:0:
192,249,7532,1,8,0:0:0:0:
281,186,9407,1,12,0:0:0:0:
414,308,9875,1,0,0:0:0:0:
200,329,10110,1,0,0:0:0:0:
281,186,10344,1,8,0:0:0:0:
429,291,10813,1,0,0:0:0:0:
234,361,11282,1,0,0:0:0:0:
256,272,11516,1,8,0:0:0:0:
281,186,11750,1,0,0:0:0:0:
340,309,11985,1,0,0:0:0:0:
281,186,12219,1,8,0:0:0:0:
391,331,12688,1,0,0:0:0:0:
281,186,13157,1,8,0:0:0:0:
254,365,13625,1,0,0:0:0:0:
9,212,13860,1,0,0:0:0:0:
281,186,14094,1,8,0:0:0:0:
116,264,14563,1,0,0:0:0:0:
281,186,15032,1,8,0:0:0:0:
222,255,15266,1,8,0:0:0:0:
281,186,15500,1,0,0:0:0:0:
281,186,15969,1,8,0:0:0:0:
281,186,16907,1,12,0:0:0:0:
426,294,17375,1,0,0:0:0:0:
163,300,17610,1,0,0:0:0:0:
281,186,17844,1,8,0:0:0:0:
128,285,18313,1,0,0:0:0:0:
281,186,18782,1,8,0:0:0:0:
351,242,19016,1,0,0:0:0:0:
281,186,19250,1,8,0:0:0:0:
281,186,19719,1,8,0:0:0:0:
435,282,20188,1,0,0:0:0:0:
281,186,20422,1,0,0:0:0:0:
234,191,20657,1,8,0:0:0:0:
411,152,21125,1,0,0:0:0:0:
234,191,21360,1,8,0:0:0:0:
234,191,21594,1,8,0:0:0:0:
359,322,22063,1,0,0:0:0:0:
234,191,22532,1,8,0:0:0:0:
234,191,22766,1,0,0:0:0:0:
234,191,23000,1,8,0:0:0:0:
234,191,23469,1,8,0:0:0:0:
60,247,23938,1,0,0:0:0:0:
234,191,24407,1,12,0:0:0:0:
261,241,25344,1,0,0:0:0:0:
234,191,26047,1,8,0:0:0:0:
274,242,27219,1,0,0:0:0:0:
450,254,28157,1,8,0:0:0:0:
234,191,29094,1,0,0:0:0:0:
13,280,29797,1,0,0:0:0:0:
256,192,30032,12,0,31907,0:0:0:0:
