osu file format v14

[General]
AudioFilename: audio.mp3
AudioLeadIn: 0
PreviewTime: 208110
Countdown: 0
SampleSet: Soft
StackLeniency: 0.7
Mode: 0
LetterboxInBreaks: 0
WidescreenStoryboard: 1

[Editor]
Bookmarks: 41975,226272
DistanceSpacing: 1.3
BeatDivisor: 4
GridSize: 4
TimelineZoom: 1.2

[Metadata]
Title:Summertime Record
TitleUnicode:サマータイムレコード
Artist:Amatsuki
ArtistUnicode:天月
Creator:Tari
Version:Normal
Source:
Tags:vocaloid jin utaite kagerou project mekakucity actors メカクシティアクターズ ending battle snownino_
BeatmapID:1091027
BeatmapSetID:502672

[Difficulty]
HPDrainRate:4
CircleSize:3.4
OverallDifficulty:5
ApproachRate:5
SliderMultiplier:1.2
SliderTickRate:1

[Events]
//Background and Video events
0,0,"kageroubg.jpg",0,0
Video,-200,"tarinovideo.avi"
//Break Periods
2,125607,134586
2,187878,196856
//Storyboard Layer 0 (Background)
//Storyboard Layer 1 (Fail)
//Storyboard Layer 2 (Pass)
//Storyboard Layer 3 (Foreground)
//Storyboard Sound Samples

[TimingPoints]
-430,324.324324324324,4,2,0,30,1,0
5472,-142.857142857143,4,2,0,60,0,0
6056,-100,4,2,3,50,0,0
11002,-90.9090909090909,4,2,3,70,0,0
14975,-90.9090909090909,4,2,0,60,0,0
15218,-90.9090909090909,4,2,3,60,0,0
19597,-90.9090909090909,4,2,7,65,0,0
19759,-90.9090909090909,4,2,3,65,0,0
32002,-90.9090909090909,4,2,0,65,0,0
32245,-90.9090909090909,4,2,7,60,0,0
42299,-90.9090909090909,4,2,0,60,0,0
42461,-90.9090909090909,4,2,7,60,0,0
52759,-90.9090909090909,4,2,0,55,0,0
52840,-90.9090909090909,4,2,7,65,0,0
63137,-90.9090909090909,4,2,0,60,0,0
63461,-90.9090909090909,4,2,7,65,0,0
83894,-100,4,2,7,35,0,0
94353,-100,4,2,7,60,0,0
103191,-100,4,2,0,60,0,0
104651,-100,4,2,0,65,0,1
104732,-100,4,2,7,75,0,1
125407,-142.857142857143,4,2,0,60,0,0
130434,-100,4,2,0,60,0,0
135948,-100,4,2,7,60,0,0
155083,-200,4,2,0,60,0,0
156542,-100,4,2,0,60,0,0
156624,-100,4,2,7,65,0,0
166921,-100,4,2,7,40,0,0
177299,-100,4,2,0,60,0,0
186542,-100,4,2,7,60,0,0
196759,-111.111111111111,4,2,0,60,0,0
198056,-111.111111111111,4,2,7,50,0,0
208434,-100,4,2,0,60,0,1
208515,-100,4,2,7,75,0,1
239569,-200,4,2,0,60,0,0
239894,-100,4,2,7,60,0,0
244434,-166.666666666667,4,2,0,60,0,0
244759,-100,4,2,7,60,0,0
249948,-100,4,2,0,40,0,0
262921,-100,4,2,0,5,0,0

[Colours]
Combo1 : 0,159,236
Combo2 : 255,9,9
Combo3 : 0,223,0
Combo4 : 255,255,0

[HitObjects]
140,136,705,6,0,P|136:108|140:68,2,60,2|0|2,0:0|0:0|0:0,0:0:0:0:
212,104,1191,2,0,P|296:136|388:88,1,180,2|2,0:0|0:0,0:0:0:0:
492,208,2002,6,0,P|508:268|492:332,1,120,2|2,0:0|0:0,0:0:0:0:
420,340,2488,2,0,P|356:320|236:352,1,180,2|2,0:0|0:0,0:0:0:0:
92,340,3299,6,0,P|72:288|92:212,1,120,2|0,0:0|0:0,0:0:0:0:
156,196,3786,2,0,P|212:216|332:192,1,180,2|2,0:0|0:0,0:0:0:0:
472,128,4597,6,0,P|492:188|472:264,1,120,0|0,0:0|0:0,0:0:0:0:
336,300,5245,2,0,P|328:336|340:372,2,60,2|2|2,0:0|0:0|0:0,0:0:0:0:
396,208,5894,5,0,0:0:0:0:
396,208,6056,2,0,L|267:209,1,120,4|8,0:3|0:0,0:0:0:0:
120,232,6705,2,0,L|120:168,1,60,2|2,0:0|0:2,0:0:0:0:
120,96,7029,1,8,0:0:0:0:
272,56,7353,6,0,P|325:32|380:56,1,120,4|8,0:3|0:0,0:0:0:0:
508,140,8002,2,0,L|480:212,1,60,2|2,0:0|0:0,0:0:0:0:
460,268,8326,1,8,0:0:0:0:
324,344,8651,6,0,P|268:368|208:332,2,120,4|8|2,0:3|0:0|0:0,0:0:0:0:
272,288,9461,1,2,0:0:0:0:
196,264,9624,1,4,0:0:0:0:
283,111,10110,6,0,P|293:83|316:64,2,60,2|8|0,0:0|0:3|0:0,0:0:0:0:
328,176,10597,6,0,P|348:192|360:236,2,60,2|8|0,0:0|0:3|0:0,0:0:0:0:
252,192,11083,1,2,0:0:0:0:
252,192,11245,6,0,P|188:208|116:188,1,132.00000402832,4|8,0:0|0:0,0:0:0:0:
80,120,11732,2,0,L|80:252,1,132.00000402832,2|2,0:0|0:0,0:0:0:0:
108,332,12218,1,8,0:0:0:0:
288,324,12542,6,0,L|360:324,2,66.0000020141602,2|0|8,0:0|0:0|0:0,0:0:0:0:
228,264,13029,2,0,L|156:264,2,66.0000020141602,0|2|2,0:0|0:0|0:0,0:0:0:0:
288,204,13515,1,8,0:0:0:0:
424,96,13840,6,0,L|424:232,1,132.00000402832,2|8,0:0|0:0,0:0:0:0:
488,288,14326,2,0,P|428:276|356:296,1,132.00000402832,2|2,0:0|0:0,0:0:0:0:
280,320,14813,2,0,L|280:252,1,66.0000020141602,8|2,0:0|0:0,0:0:0:0:
280,168,15137,6,0,P|204:168|160:116,1,132.00000402832,2|8,0:0|0:0,0:0:0:0:
172,44,15624,1,0,0:0:0:0:
240,100,15786,2,0,L|192:236,1,132.00000402832,2|8,0:0|0:0,0:0:0:0:
116,380,16434,6,0,P|51:372|7:325,1,132.00000402832,2|8,0:0|0:0,0:0:0:0:
48,248,16921,2,0,P|112:255|156:302,1,132.00000402832,2|2,0:0|0:0,0:0:0:0:
212,364,17407,1,8,0:0:0:0:
312,224,17732,6,0,L|312:152,2,66.0000020141602,2|0|8,0:0|0:0|0:0,0:0:0:0:
372,284,18218,2,0,L|372:356,2,66.0000020141602,0|2|2,0:0|0:0|0:0,0:0:0:0:
432,220,18705,1,8,0:0:0:0:
364,60,19029,6,0,L|224:60,1,132.00000402832,2|8,0:0|0:0,0:0:0:0:
168,116,19515,2,0,L|312:116,1,132.00000402832,2|2,0:0|0:0,0:0:0:0:
376,156,20002,1,8,0:0:0:0:
212,204,20326,6,0,P|196:268|224:348,1,132.00000402832,2|8,0:0|0:0,0:0:0:0:
276,272,20813,1,2,0:0:0:0:
276,272,20975,2,0,L|344:272,1,66.0000020141602,2|2,0:0|0:0,0:0:0:0:
408,328,21299,2,0,L|480:328,1,66.0000020141602,8|2,0:0|0:0,0:0:0:0:
504,248,21624,6,0,P|496:200|408:176,1,132.00000402832,4|8,0:0|0:0,0:0:0:0:
340,168,22110,2,0,P|401:150|419:89,1,132.00000402832,2|2,0:0|0:0,0:0:0:0:
332,84,22597,1,8,0:0:0:0:
164,128,22921,6,0,L|96:148,2,66.0000020141602,2|0|8,0:0|0:0|0:0,0:0:0:0:
164,212,23407,2,0,L|141:279,2,66.0000020141602,2|2|2,0:0|0:0|0:0,0:0:0:0:
244,180,23894,1,8,0:0:0:0:
348,316,24218,5,2,0:0:0:0:
472,204,24542,1,8,0:0:0:0:
472,204,24705,2,0,P|464:144|468:72,1,132.00000402832,2|2,0:0|0:0,0:0:0:0:
396,28,25191,2,0,L|316:28,1,66.0000020141602,8|0,0:0|0:0,0:0:0:0:
264,80,25515,6,0,P|264:132|268:172,1,66.0000020141602,2|0,0:0|0:0,0:0:0:0:
346,184,25840,2,0,P|350:250|347:316,1,132.00000402832,8|2,0:0|0:0,0:0:0:0:
176,332,26488,1,8,0:0:0:0:
12,268,26813,6,0,P|8:202|12:136,1,132.00000402832,2|8,0:0|0:0,0:0:0:0:
8,52,27299,2,0,P|32:100|116:120,1,132.00000402832,2|2,0:0|0:0,0:0:0:0:
176,80,27786,1,8,0:0:0:0:
348,76,28110,6,0,P|312:108|296:152,2,66.0000020141602,2|0|8,0:0|0:0|0:0,0:0:0:0:
384,152,28597,2,0,P|376:200|380:240,2,66.0000020141602,0|2|2,0:0|0:0|0:0,0:0:0:0:
460,192,29083,1,8,0:0:0:0:
372,340,29407,5,2,0:0:0:0:
372,340,29569,1,2,0:0:0:0:
372,340,29732,2,0,L|324:292,1,66.0000020141602,2|2,0:0|0:0,0:0:0:0:
140,340,30218,2,0,L|188:292,1,66.0000020141602,2|0,0:0|0:0,0:0:0:0:
256,244,30542,1,2,0:0:0:0:
256,72,30867,1,2,0:0:0:0:
256,244,31191,1,2,0:0:0:0:
164,100,31515,2,0,P|128:132|120:156,1,66.0000020141602,2|10,0:0|0:0,0:0:0:0:
120,320,32002,6,0,P|60:296|0:332,2,132.00000402832,4|8|0,0:0|0:0|0:0,0:0:0:0:
292,320,32975,2,0,P|300:288|284:244,1,66.0000020141602,8|0,0:0|0:0,0:0:0:0:
272,175,33299,6,0,L|152:91,1,132.00000402832,2|8,0:0|0:0,0:0:0:0:
304,0,33948,2,0,L|412:76,1,132.00000402832,0|8,0:0|0:0,0:0:0:0:
356,140,34434,1,0,1:0:0:0:
272,175,34597,6,0,P|256:227|280:303,1,132.00000402832,6|8,0:0|0:0,0:0:0:0:
336,236,35083,2,0,L|196:236,1,132.00000402832,2|4,0:0|0:0,0:0:0:0:
160,160,35569,1,10,0:0:0:0:
48,28,35894,6,0,L|188:28,1,132.00000402832,4|12,0:0|0:0,0:0:0:0:
256,64,36380,1,6,0:0:0:0:
256,64,36542,2,0,L|280:128,1,66.0000020141602,0|6,0:0|0:0,0:0:0:0:
352,80,36867,2,0,L|380:156,1,66.0000020141602,8|0,0:0|1:0,0:0:0:0:
336,220,37191,6,0,P|400:224|452:186,2,132.00000402832,4|8|2,0:0|0:0|0:0,0:0:0:0:
172,164,38164,2,0,P|124:168|84:188,1,66.0000020141602,8|0,0:0|0:0,0:0:0:0:
156,244,38488,6,0,L|176:376,1,132.00000402832,6|8,0:0|0:0,0:0:0:0:
104,328,38975,2,0,P|160:304|240:312,1,132.00000402832,0|6,0:0|0:0,0:0:0:0:
300,360,39461,1,8,0:0:0:0:
404,224,39786,6,0,P|348:200|268:208,1,132.00000402832,6|8,0:0|0:0,0:0:0:0:
216,148,40272,2,0,L|224:72,2,66.0000020141602,2|0|4,0:0|0:0|0:0,0:0:0:0:
204,232,40759,1,8,0:0:0:0:
36,260,41083,6,0,P|96:284|104:356,1,132.00000402832,4|14,0:0|0:0,0:0:0:0:
24,336,41569,2,0,L|24:192,1,132.00000402832,0|8,0:0|0:0,0:0:0:0:
24,116,42056,1,12,0:0:0:0:
176,36,42380,6,0,P|212:72|296:68,1,132.00000402832,4|8,0:0|0:0,0:0:0:0:
456,28,43029,1,0,0:0:0:0:
468,112,43191,2,0,L|460:200,1,66.0000020141602,4|8,0:0|0:0,0:0:0:0:
456,348,43678,6,0,P|424:320|316:316,1,132.00000402832,6|8,0:0|0:0,0:0:0:0:
264,352,44164,2,0,P|301:298|304:233,1,132.00000402832,0|6,0:0|0:0,0:0:0:0:
292,148,44651,2,0,L|208:148,1,66.0000020141602,8|0,0:0|1:0,0:0:0:0:
156,196,44975,5,6,0:0:0:0:
268,68,45299,1,8,0:0:0:0:
268,68,45461,2,0,P|340:80|372:136,1,132.00000402832,2|4,0:0|0:0,0:0:0:0:
384,212,45948,2,0,P|422:263|486:270,1,132.00000402832,8|6,0:0|0:0,0:0:0:0:
512,104,46597,5,8,0:0:0:0:
472,180,46759,2,0,L|388:300,1,132.00000402832,2|8,0:0|0:0,0:0:0:0:
344,356,47245,2,0,P|316:344|292:308,1,66.0000020141602,8|0,0:0|0:0,0:0:0:0:
228,264,47569,6,0,P|156:276|124:332,2,132.00000402832,4|8|0,0:0|0:0|0:0,0:0:0:0:
68,196,48542,2,0,P|112:160|144:160,1,66.0000020141602,8|0,0:0|0:0,0:0:0:0:
204,164,48867,6,0,L|168:32,1,132.00000402832,6|8,0:0|0:0,0:0:0:0:
342,36,49515,2,0,L|308:164,1,132.00000402832,2|8,0:0|0:0,0:0:0:0:
256,232,50002,1,0,1:0:0:0:
172,244,50164,6,0,P|196:296|276:308,1,132.00000402832,4|8,0:0|0:0,0:0:0:0:
256,232,50651,1,2,0:0:0:0:
336,220,50813,2,0,P|312:168|232:156,1,132.00000402832,0|8,0:0|0:0,0:0:0:0:
116,188,51461,6,0,B|48:156|48:156|32:68|48:84,1,132.00000402832,6|12,0:0|0:0,0:0:0:0:
152,28,52110,2,0,L|288:80,1,132.00000402832,0|8,0:0|0:0,0:0:0:0:
396,32,52759,6,0,B|452:68|452:68|444:136,1,132.00000402832,4|8,0:0|0:0,0:0:0:0:
380,188,53245,2,0,P|452:184|524:188,1,132.00000402832,4|4,0:0|0:0,0:0:0:0:
496,272,53732,1,8,0:0:0:0:
320,288,54056,6,0,L|276:224,2,66.0000020141602,2|0|8,0:0|0:0|0:0,0:0:0:0:
240,320,54542,2,0,L|277:374,2,66.0000020141602,0|6|6,0:0|0:0|0:0,0:0:0:0:
156,308,55029,1,8,0:0:0:0:
188,140,55353,6,0,L|332:140,1,132.00000402832,4|8,0:0|0:0,0:0:0:0:
368,68,55840,2,0,P|360:120|372:212,1,132.00000402832,4|4,0:0|0:0,0:0:0:0:
444,240,56326,1,8,0:0:0:0:
308,344,56651,6,0,L|184:292,1,132.00000402832,4|8,0:0|0:0,0:0:0:0:
112,256,57137,1,0,0:0:0:0:
112,256,57299,2,0,L|140:192,1,66.0000020141602,4|4,0:0|0:0,0:0:0:0:
224,204,57624,2,0,L|248:128,1,66.0000020141602,8|0,0:0|0:0,0:0:0:0:
280,64,57948,6,0,L|401:115,1,132.00000402832,4|8,0:0|0:0,0:0:0:0:
484,92,58434,2,0,P|420:132|408:196,1,132.00000402832,4|4,0:0|0:0,0:0:0:0:
448,260,58921,1,8,0:0:0:0:
296,340,59245,5,4,0:0:0:0:
296,340,59407,2,0,L|220:340,1,66.0000020141602,4|8,0:0|0:0,0:0:0:0:
179,274,59732,2,0,P|211:254|243:254,2,66.0000020141602,0|4|4,0:0|0:0|0:0,0:0:0:0:
132,352,60218,1,8,0:0:0:0:
164,184,60542,5,4,0:0:0:0:
304,284,60867,1,8,0:0:0:0:
304,284,61029,2,0,B|256:260|256:260|152:280,1,132.00000402832,4|4,0:0|0:0,0:0:0:0:
92,284,61515,1,8,0:0:0:0:
92,112,61840,6,0,P|104:76|168:128,1,132.00000402832,6|8,0:0|0:0,0:0:0:0:
320,192,62488,1,0,0:0:0:0:
372,124,62651,1,0,0:0:0:0:
420,52,62813,2,0,L|488:80,1,66.0000020141602,8|0,0:0|0:0,0:0:0:0:
464,160,63137,6,0,L|388:292,1,132.00000402832,4|8,0:0|0:0,0:0:0:0:
256,372,63786,1,4,0:0:0:0:
108,284,64110,1,8,0:0:0:0:
56,216,64272,1,0,0:0:0:0:
20,136,64434,6,0,L|76:88,1,66.0000020141602,4|0,0:0|0:0,0:0:0:0:
136,36,64759,2,0,L|212:44,1,66.0000020141602,8|2,0:0|0:0,0:0:0:0:
280,72,65083,2,0,P|328:88|412:72,1,132.00000402832,2|10,0:0|0:0,0:0:0:0:
512,212,65732,6,0,P|456:228|424:308,1,132.00000402832,2|8,0:0|0:0,0:0:0:0:
368,356,66218,2,0,L|276:252,1,132.00000402832,2|0,0:0|0:0,0:0:0:0:
204,220,66705,1,8,0:0:0:0:
80,340,67029,6,0,P|45:286|80:232,1,132.00000402832,2|8,0:0|0:0,0:0:0:0:
136,168,67515,1,0,0:0:0:0:
200,112,67678,2,0,P|228:56|192:0,1,132.00000402832,2|8,0:0|0:0,0:0:0:0:
352,68,68326,6,0,L|488:68,2,132.00000402832,4|8|2,0:0|0:0|0:0,0:0:0:0:
264,216,69299,2,0,P|260:252|268:288,1,66.0000020141602,8|0,0:0|0:0,0:0:0:0:
312,352,69624,6,0,P|248:368|180:352,1,132.00000402832,6|8,0:0|0:0,0:0:0:0:
116,304,70110,2,0,L|112:232,2,66.0000020141602,0|2|6,0:0|0:0|0:0,0:0:0:0:
32,280,70597,1,8,0:0:0:0:
108,124,70921,5,6,0:0:0:0:
260,204,71245,1,8,0:0:0:0:
260,204,71407,2,0,P|320:212|364:156,1,132.00000402832,2|4,0:0|0:0,0:0:0:0:
288,124,71894,2,0,L|212:116,1,66.0000020141602,8|6,0:0|0:0,0:0:0:0:
168,180,72218,6,0,P|160:228|180:316,1,132.00000402832,6|8,0:0|0:0,0:0:0:0:
348,332,72867,2,0,L|420:328,2,66.0000020141602,4|4|8,0:0|0:0|0:0,0:0:0:0:
224,212,73515,6,0,P|244:164|328:140,1,132.00000402832,4|8,0:0|0:0,0:0:0:0:
456,236,74164,2,0,P|388:232|312:240,1,132.00000402832,4|8,0:0|0:0,0:0:0:0:
256,288,74651,2,0,L|264:372,1,66.0000020141602,0|4,0:0|0:0,0:0:0:0:
96,316,75137,5,8,0:0:0:0:
120,148,75461,2,0,L|192:152,1,66.0000020141602,2|4,0:0|0:0,0:0:0:0:
272,152,75786,1,8,0:0:0:0:
432,92,76110,6,0,P|456:164|432:216,1,132.00000402832,4|8,0:0|0:0,0:0:0:0:
496,276,76597,2,0,P|435:254|375:279,1,132.00000402832,6|6,0:0|0:0,0:0:0:0:
436,340,77083,1,8,0:0:0:0:
312,220,77407,6,0,P|292:268|316:344,1,132.00000402832,4|8,0:0|0:0,0:0:0:0:
228,356,77894,2,0,L|160:356,1,66.0000020141602,4|2,0:0|0:0,0:0:0:0:
136,276,78218,2,0,L|208:276,1,66.0000020141602,4|8,0:0|0:0,0:0:0:0:
340,176,78705,5,4,0:0:0:0:
252,28,79029,1,12,0:0:0:0:
160,172,79353,1,4,0:0:0:0:
256,316,79678,1,8,0:0:0:0:
256,316,79840,1,4,0:0:0:0:
256,316,80002,6,0,L|256:176,1,132.00000402832,6|8,0:0|0:0,0:0:0:0:
256,100,80488,1,4,0:0:0:0:
400,196,80813,2,0,L|476:196,2,66.0000020141602,10|8|0,0:0|0:0|0:0,0:0:0:0:
392,280,81299,6,0,L|252:324,1,132.00000402832,4|4,0:0|1:0,0:0:0:0:
244,236,81786,1,0,0:0:0:0:
244,236,81948,2,0,L|96:280,1,132.00000402832,0|4,0:0|1:0,0:0:0:0:
128,188,82434,1,0,0:0:0:0:
128,188,82597,2,0,L|-20:232,2,132.00000402832,0|0|6,0:0|1:0|0:0,0:0:0:0:
256,76,83569,1,0,0:0:0:0:
412,76,83894,6,0,P|476:92|480:212,1,180,4|0,1:0|0:0,0:0:0:0:
364,276,84705,2,0,P|332:256|312:228,2,60,0|4|0,0:0|0:0|0:0,0:0:0:0:
388,200,85191,6,0,L|180:192,1,180,0|2,0:0|0:0,0:0:0:0:
24,48,86164,1,4,0:0:0:0:
60,200,86488,6,0,P|32:256|120:300,1,180,4|0,0:0|0:0,0:0:0:0:
272,308,87299,2,0,P|336:328|380:288,1,120
368,220,87786,6,0,P|444:262|428:356,2,180,6|2|4,0:0|0:0|0:0,0:0:0:0:
220,236,89083,6,0,P|152:280|148:132,1,300,4|0,0:0|0:0,0:0:0:0:
256,36,90218,1,0,0:0:0:0:
256,36,90380,6,0,L|392:36,2,120,4|0|4,0:0|0:0|0:0,0:0:0:0:
104,68,91353,1,0,0:0:0:0:
52,216,91678,6,0,P|20:288|72:376,1,180,4|0,0:0|0:0,0:0:0:0:
140,348,92326,2,0,B|208:324|248:368|332:348,1,180,4|2,0:0|0:0,0:0:0:0:
396,332,92975,6,0,B|388:280|412:244|412:244|368:192|272:212,1,240,2|2,0:0|0:0,0:0:0:0:
128,260,93948,1,0,1:0:0:0:
152,104,94272,5,0,0:0:0:0:
452,192,94921,2,0,P|472:272|444:320,1,120,4|8,0:0|0:0,0:0:0:0:
312,252,95569,5,6,0:0:0:0:
404,124,95894,1,8,0:0:0:0:
248,132,96218,2,0,L|112:148,1,120,4|8,0:0|0:0,0:0:0:0:
52,160,96705,1,4,0:0:0:0:
100,224,96867,6,0,P|136:276|256:268,1,180,4|0,0:0|0:0,0:0:0:0:
388,216,97678,2,0,L|424:156,2,60,2|10|6,0:0|0:0|0:0,0:0:0:0:
256,296,98326,2,0,L|292:356,2,60,2|10|6,0:0|0:0|0:0,0:0:0:0:
120,216,98975,2,0,L|156:156,2,60,2|10|6,0:0|0:0|0:0,0:0:0:0:
84,284,99461,5,4,0:0:0:0:
224,220,99786,1,8,0:0:0:0:
204,376,100110,2,0,P|192:320|144:256,1,120,4|8,0:0|0:0,0:0:0:0:
28,184,100759,6,0,P|40:128|88:64,1,120,4|8,0:0|0:0,0:0:0:0:
228,84,101407,2,0,L|300:100,1,60,6|4,0:0|0:0,0:0:0:0:
304,172,101732,2,0,L|368:188,1,60,8|0,0:0|0:0,0:0:0:0:
440,204,102056,6,0,L|440:276,2,60,4|4|12,0:0|0:0|0:0,0:0:0:0:
464,128,102542,2,0,L|464:56,2,60,4|0|0,0:0|1:0|1:0,0:0:0:0:
308,136,103191,6,0,P|296:28|216:128,1,300,4|12,0:0|0:0,0:0:0:0:
292,256,104326,1,0,1:0:0:0:
172,352,104651,6,0,P|116:348|64:280,1,120,4|8,0:0|0:0,0:0:0:0:
184,200,105299,1,4,0:0:0:0:
316,284,105624,2,0,L|388:284,1,60,8|0,0:0|0:0,0:0:0:0:
452,284,105948,6,0,P|476:236|444:176,1,120,4|8,0:0|0:0,0:0:0:0:
384,136,106434,1,0,0:0:0:0:
236,92,106759,2,0,L|236:24,2,60,6|8|0,0:0|0:0|1:0,0:0:0:0:
236,176,107245,6,0,P|180:192|112:172,1,120,6|8,0:0|0:0,0:0:0:0:
16,88,107894,2,0,L|16:172,1,60,4|4,0:0|0:0,0:0:0:0:
52,216,108218,2,0,L|52:300,1,60,8|0,0:0|0:0,0:0:0:0:
104,336,108542,5,6,0:0:0:0:
256,304,108867,1,8,0:0:0:0:
408,336,109191,2,0,L|408:216,1,120,0|8,1:0|0:0,0:0:0:0:
408,136,109678,1,0,0:0:0:0:
408,60,109840,6,0,P|468:48|528:68,2,120,4|12|6,0:0|0:0|0:0,0:0:0:0:
276,148,110813,2,0,P|228:152|200:140,1,60,8|0,0:0|1:0,0:0:0:0:
160,96,111137,6,0,P|136:144|164:208,1,120,4|8,0:0|0:0,0:0:0:0:
208,264,111624,2,0,P|152:252|88:272,1,120,0|4,0:0|0:0,0:0:0:0:
52,336,112110,1,8,0:0:0:0:
44,180,112434,5,6,0:0:0:0:
188,120,112759,1,8,0:0:0:0:
188,120,112921,2,0,P|208:72|288:36,1,120,4|4,0:0|0:0,0:0:0:0:
344,36,113407,2,0,P|395:64|420:118,1,120,8|6,0:0|0:0,0:0:0:0:
380,184,113894,5,4,0:0:0:0:
304,188,114056,2,0,L|236:188,1,60,0|0,0:0|1:0,0:0:0:0:
188,240,114380,2,0,L|120:240,1,60,4|0,0:0|1:0,0:0:0:0:
56,208,114705,1,0,1:0:0:0:
164,320,115029,6,0,P|224:320|268:260,1,120,6|10,0:0|0:0,0:0:0:0:
155,166,115678,2,0,P|95:166|51:226,1,120,6|8,0:0|0:0,0:0:0:0:
64,284,116164,1,0,1:0:0:0:
124,236,116326,6,0,L|120:104,1,120,2|8,0:0|0:0,0:0:0:0:
124,36,116813,2,0,B|156:24|156:24|184:20|184:20|248:20,1,120,0|4,0:0|0:0,0:0:0:0:
312,56,117299,1,8,0:0:0:0:
348,208,117624,6,0,B|316:220|316:220|288:224|288:224|224:224,2,120,4|8|6,0:0|0:0|0:0,0:0:0:0:
464,104,118597,2,0,P|496:136|504:176,1,60,8|4,0:0|0:0,0:0:0:0:
476,224,118921,5,4,0:0:0:0:
364,112,119245,1,8,0:0:0:0:
476,224,119569,2,0,L|476:352,1,120,2|12,0:0|0:0,0:0:0:0:
400,320,120056,1,4,0:0:0:0:
396,244,120218,6,0,P|396:192|456:144,1,120,4|8,0:0|0:0,0:0:0:0:
500,0,120867,2,0,L|432:24,1,60,4|4,0:0|0:0,0:0:0:0:
396,84,121191,2,0,L|316:72,1,60,8|4,0:0|0:0,0:0:0:0:
264,100,121515,6,0,P|212:88|180:28,1,120,4|8,0:0|0:0,0:0:0:0:
104,52,122002,2,0,L|24:76,2,60,0|0|4,0:0|0:0|0:0,0:0:0:0:
148,116,122488,1,8,0:0:0:0:
192,264,122813,6,0,B|216:328|256:364|256:364|296:324|312:256,1,240,12|12,0:0|0:0,0:0:0:0:
104,28,124110,2,0,B|39:43|0:83|0:83|35:123|99:147,1,240,12|0,0:0|1:0,0:0:0:0:
408,104,125407,5,4,1:0:0:0:
120,320,135786,6,0,B|96:288|56:288|56:288|48:228,2,120,4|0|2,0:0|1:0|0:0,0:0:0:0:
276,300,136759,1,0,1:0:0:0:
184,172,137083,6,0,B|196:131|204:117|204:117|248:112|264:96,2,120,4|0|2,0:0|1:0|0:0,0:0:0:0:
276,300,138056,1,0,1:0:0:0:
380,184,138380,6,0,B|443:183|443:183|504:184,2,120,6|0|2,0:0|1:0|0:0,0:0:0:0:
276,300,139353,1,0,1:0:0:0:
148,208,139678,6,0,L|72:208,1,60,2|2,0:0|0:0,0:0:0:0:
100,132,140002,2,0,L|100:72,1,60,0|2,1:0|0:0,0:0:0:0:
256,52,140488,1,2,0:0:0:0:
412,72,140813,1,0,0:0:0:0:
412,72,140975,6,0,P|432:120|500:136,2,120,4|0|2,0:0|1:0|0:0,0:0:0:0:
488,60,141786,1,2,0:0:0:0:
436,0,141948,1,0,1:0:0:0:
316,100,142272,6,0,P|260:84|235:31,2,120,4|0|2,0:0|1:0|0:0,0:0:0:0:
316,180,143083,1,2,0:0:0:0:
240,180,143245,1,0,1:0:0:0:
112,84,143569,6,0,P|76:28|4:28,2,120,4|0|2,0:0|1:0|0:0,0:0:0:0:
36,96,144380,1,2,0:0:0:0:
88,156,144542,1,0,1:0:0:0:
168,152,144705,6,0,B|192:216|152:276|152:276|100:244|100:244|64:284|64:284|20:252,1,300,4|4,1:0|0:0,0:0:0:0:
12,172,145678,1,4,0:0:0:0:
224,60,146164,6,0,P|280:60|332:128,1,120,4|2,0:0|0:0,0:0:0:0:
216,212,146813,2,0,P|160:212|108:144,1,120,0|2,1:0|0:3,0:0:0:0:
96,96,147299,1,0,0:0:0:0:
236,28,147624,2,0,P|292:24|368:28,1,120,0|2,0:0|3:0,0:0:0:0:
424,164,148272,2,0,L|460:228,2,60,2|0|0,0:3|0:0|0:0,0:0:0:0:
368,108,148759,6,0,B|328:148|328:148|384:264,1,180,4|0,0:0|0:0,0:0:0:0:
448,300,149407,2,0,P|416:328|376:328,2,60,0|2|0,1:0|0:3|0:0,0:0:0:0:
381,259,149894,6,0,B|336:256|308:312|324:360|324:360|296:332|296:332|264:320|220:344,1,240,0|0,1:0|0:0,0:0:0:0:
160,364,150705,2,0,P|96:368|52:320,1,120,0|2,1:0|0:3,0:0:0:0:
104,184,151353,6,0,B|144:240|144:240|128:296,1,120,4|2,0:0|0:3,0:0:0:0:
32,168,152002,2,0,L|172:128,1,120,0|0,1:0|0:0,0:0:0:0:
224,128,152488,6,0,P|296:156|316:212,2,120,2|2|2,0:3|0:3|0:3,0:0:0:0:
180,64,153299,1,0,1:0:0:0:
44,344,153948,6,0,L|232:324,1,180,4|0,0:0|0:0,0:0:0:0:
380,336,154759,2,0,P|336:312|308:232,1,120,0|0,1:0|0:0,0:0:0:0:
380,48,155894,6,0,P|336:72|308:152,1,120,0|4,0:0|0:0,0:0:0:0:
307,133,156867,5,8,0:0:0:0:
172,212,157191,2,0,L|120:96,1,120,4|8,0:0|0:0,0:0:0:0:
48,80,157678,2,0,P|100:84|160:28,2,120
60,236,158651,2,0,L|80:316,1,60,4|8,0:0|0:0,0:0:0:0:
212,368,159137,6,0,L|184:236,1,120,4|8,0:0|0:0,0:0:0:0:
176,172,159624,2,0,L|308:152,1,120,0|0,0:0|0:0,0:0:0:0:
340,92,160110,1,8,0:0:0:0:
368,164,160272,6,0,L|384:296,1,120,4|0,0:0|0:0,0:0:0:0:
328,340,160759,2,0,L|256:344,2,60,8|2|0,0:0|0:0|0:0,0:0:0:0:
236,216,161407,1,8,0:0:0:0:
382,283,161732,6,0,P|422:287|462:371,1,120,4|12,0:0|0:0,0:0:0:0:
312,312,162380,2,0,L|368:188,1,120,4|8,0:0|0:0,0:0:0:0:
288,176,162867,2,0,L|344:52,1,120,4|0,0:0|0:0,0:0:0:0:
412,52,163353,5,8,0:0:0:0:
336,68,163515,2,0,P|292:72|208:68,1,120
140,76,164002,2,0,L|112:156,1,60,8|0,0:0|0:0,0:0:0:0:
92,208,164326,6,0,B|144:224|188:184|188:184|200:236|212:264|212:264|264:276|284:252,1,240,6|6,0:0|0:0,0:0:0:0:
404,196,165299,1,8,0:0:0:0:
256,192,165624,12,4,166921,0:0:0:0:
56,312,167569,6,0,P|114:302|172:316,1,120,4|4,0:0|0:0,0:0:0:0:
272,252,168218,2,0,B|244:192|288:128|392:124|332:156|220:124,1,240,4|0,0:0|0:0,0:0:0:0:
160,28,169191,1,4,0:0:0:0:
120,136,169515,6,0,B|44:144|-36:112|40:80|56:200|32:280,1,240,6|4,0:0|0:0,0:0:0:0:
96,364,170488,1,4,0:0:0:0:
212,352,170813,6,0,B|320:328|364:356|364:356|388:312|372:236,1,240,4|4,0:0|0:0,0:0:0:0:
292,192,171786,1,4,0:0:0:0:
404,152,172110,6,0,B|466:144|508:148|508:148|476:68|356:64,1,240,4|4,0:0|0:0,0:0:0:0:
192,180,173407,2,0,B|120:178|88:258|88:258|130:255|192:262,1,240,6|4,0:0|0:0,0:0:0:0:
416,336,174705,6,0,B|316:336|316:336|320:256|320:256|388:256|388:256,1,240,4|4,0:0|0:0,0:0:0:0:
468,176,175678,1,0,0:0:0:0:
416,72,176002,2,0,B|332:56|244:104|244:104|240:172|240:172|192:143|192:143|168:216,1,360,2|0,0:0|1:0,0:0:0:0:
80,252,177299,6,0,P|128:292|264:296,1,180,4|0,0:0|0:0,0:0:0:0:
328,240,178110,2,0,L|288:168,2,60,2|0|0,0:0|1:0|0:0,0:0:0:0:
364,280,178597,6,0,P|432:268|476:164,1,180,4|2,0:3|0:0,0:0:0:0:
372,52,179569,1,0,1:0:0:0:
264,68,179894,6,0,P|224:128|228:256,1,180,2|2,0:0|0:0,0:0:0:0:
324,256,180705,2,0,P|336:296|336:336,2,60,2|0|0,0:0|1:0|0:0,0:0:0:0:
316,196,181191,6,0,P|380:140|488:160,1,180,2|2,0:0|0:0,0:0:0:0:
420,252,182002,2,0,P|440:296|440:368,1,120,2|0,0:0|1:0,0:0:0:0:
440,366,182488,5,2,0:0:0:0:
344,312,182813,1,0,1:0:0:0:
344,312,182975,2,0,P|280:272|212:268,1,120,4|0,0:3|0:0,0:0:0:0:
196,300,183461,2,0,L|208:164,1,120,0|0,1:0|0:0,0:0:0:0:
316,188,184110,2,0,L|268:72,2,120,0|4|0,1:0|0:3|1:0,0:0:0:0:
256,192,185083,12,4,187678,0:0:0:0:
256,180,198056,5,4,0:0:0:0:
256,180,198380,1,4,0:0:0:0:
108,52,199029,5,0,0:0:0:0:
180,120,199353,1,4,0:0:0:0:
256,180,199678,1,8,0:0:0:0:
328,244,200002,2,0,L|328:308,2,53.9999983520508,4|0|8,0:0|0:0|0:0,0:0:0:0:
368,156,200651,5,0,0:0:0:0:
368,156,200975,2,0,P|416:176|456:324,1,215.999993408203,8|8,0:0|0:0,0:0:0:0:
364,348,201948,6,0,P|300:320|264:332,1,107.999996704102,4|8,0:0|0:0,0:0:0:0:
176,372,202597,2,0,P|148:308|160:272,1,107.999996704102,0|8,0:0|0:0,0:0:0:0:
224,204,203245,5,4,0:0:0:0:
224,204,203569,1,8,0:0:0:0:
384,316,204218,5,8,0:0:0:0:
304,264,204542,1,6,0:0:0:0:
224,204,204867,1,8,0:0:0:0:
144,148,205191,2,0,L|144:88,2,53.9999983520508,0|0|8,0:0|0:0|0:0,0:0:0:0:
56,192,205840,5,0,1:0:0:0:
188,52,206488,1,0,1:0:0:0:
376,108,207137,6,0,L|396:184,1,53.9999983520508,4|4,0:0|0:0,0:0:0:0:
316,192,207461,2,0,L|340:264,2,53.9999983520508,0|0|4,0:0|0:0|2:0,0:0:0:0:
244,152,207948,1,4,2:2:0:0:
96,28,208434,6,0,P|88:76|136:136,1,120,4|8,0:0|0:0,0:0:0:0:
84,284,209083,2,0,P|128:308|216:296,1,120,4|12,0:0|0:0,0:0:0:0:
272,288,209569,1,6,0:0:0:0:
272,288,209732,5,6,0:0:0:0:
224,140,210056,2,0,P|220:92|260:24,1,120,8|4,0:0|0:0,0:0:0:0:
332,32,210542,1,4,0:0:0:0:
400,68,210705,2,0,L|476:76,1,60,8|0,0:0|1:0,0:0:0:0:
488,148,211029,6,0,P|500:192|464:264,2,120,6|8|4,0:0|0:0|0:0,0:0:0:0:
344,204,212002,1,8,0:0:0:0:
280,248,212164,1,4,0:0:0:0:
216,292,212326,6,0,L|128:204,1,120,4|8,0:0|0:0,0:0:0:0:
276,148,212975,2,0,L|392:80,1,120,0|14,1:0|0:0,0:0:0:0:
348,16,213461,1,0,0:0:0:0:
272,40,213624,6,0,L|164:104,1,120,4|8,0:0|0:0,0:0:0:0:
44,196,214272,1,6,0:0:0:0:
128,328,214597,2,0,P|168:320|208:336,1,60,8|6,0:0|0:0,0:0:0:0:
260,344,214921,6,0,L|268:272,1,60,6|0,0:0|0:0,0:0:0:0:
344,280,215245,2,0,L|352:212,1,60,8|0,0:0|0:0,0:0:0:0:
360,144,215569,2,0,L|228:140,1,120,4|8,0:0|0:0,0:0:0:0:
84,136,216218,6,0,P|104:76|160:52,1,120,6|8,0:0|0:0,0:0:0:0:
160,132,216705,2,0,L|160:264,1,120,4|4,0:0|0:0,0:0:0:0:
168,328,217191,1,8,0:0:0:0:
244,192,217515,6,0,P|276:220|368:212,1,120,4|0,0:0|1:0,0:0:0:0:
400,160,218002,1,4,0:0:0:0:
460,108,218164,2,0,L|456:240,1,120,0|0,1:0|1:0,0:0:0:0:
440,304,218651,1,4,0:0:0:0:
440,304,218813,6,0,P|400:332|328:324,1,120,6|8,0:0|0:0,0:0:0:0:
180,326,219461,2,0,P|122:334|72:304,1,120,4|8,0:0|0:0,0:0:0:0:
136,260,219948,6,0,L|148:188,1,60,0|6,1:0|0:0,0:0:0:0:
224,192,220272,2,0,L|214:251,1,60,0|8,0:0|0:0,0:0:0:0:
256,316,220597,2,0,L|392:304,1,120,0|4,0:0|0:0,0:0:0:0:
452,284,221083,1,12,0:0:0:0:
424,132,221407,6,0,P|368:156|348:220,2,120,6|8|4,0:0|0:0|0:0,0:0:0:0:
288,60,222380,1,8,0:0:0:0:
212,48,222542,1,0,1:0:0:0:
140,80,222705,6,0,L|80:36,2,60,6|4|8,0:0|0:0|0:0,0:0:0:0:
200,132,223191,2,0,P|192:180|116:216,1,120,0|4,0:0|0:0,0:0:0:0:
56,216,223678,2,0,L|40:288,1,60,8|0,0:0|0:0,0:0:0:0:
88,340,224002,5,4,0:0:0:0:
232,280,224326,1,8,0:0:0:0:
376,336,224651,2,0,L|432:292,1,60,4|6,0:0|0:0,0:0:0:0:
476,244,224975,2,0,L|452:176,1,60,8|0,0:0|1:0,0:0:0:0:
432,112,225299,6,0,L|304:148,1,120,6|8,0:0|0:0,0:0:0:0:
256,96,225786,2,0,L|192:112,2,60,2|4|4,0:0|0:0|0:0,0:0:0:0:
316,48,226272,1,12,0:0:0:0:
160,24,226597,5,8,0:0:0:0:
464,100,227245,1,8,0:0:0:0:
188,244,227894,2,0,P|256:324|316:232,1,240,8|0,0:0|0:0,0:0:0:0:
8,276,229191,6,0,P|44:364|176:348,1,240,4|4,0:0|0:0,0:0:0:0:
256,224,230164,1,8,0:0:0:0:
216,72,230488,2,0,P|172:36|104:48,1,120,4|8,0:0|0:0,0:0:0:0:
48,88,230975,1,4,0:0:0:0:
112,232,231299,2,0,L|100:312,1,60,4|8,0:0|0:0,0:0:0:0:
216,180,231786,6,0,L|207:120,1,60,12|0,0:0|0:0,0:0:0:0:
248,56,232110,2,0,L|368:72,1,120,12|12,0:0|0:0,0:0:0:0:
468,192,232759,1,8,0:0:0:0:
468,192,232921,1,0,0:0:0:0:
468,192,233083,6,0,L|388:176,2,60,4|4|8,0:0|0:0|0:0,0:0:0:0:
432,260,233569,1,0,0:0:0:0:
356,240,233732,2,8,P|332:196|352:124,1,120,0|8,1:0|0:0,0:0:0:0:
472,36,234380,6,0,P|428:68|364:52,1,120,4|8,0:0|0:0,0:0:0:0:
216,96,235029,2,0,P|224:56|292:24,1,120,4|8,0:0|0:0,0:0:0:0:
360,164,235678,2,0,P|412:168|440:240,1,120,4|8,0:0|0:0,0:0:0:0:
284,216,236326,2,0,P|280:252|248:280,1,60,4|4,0:0|0:0,0:0:0:0:
200,228,236651,2,0,P|148:248|132:244,1,60,12|0,0:0|1:0,0:0:0:0:
140,168,236975,6,0,L|128:100,1,60,4|0,0:0|0:0,0:0:0:0:
204,84,237299,2,0,L|214:143,2,60,8|0|4,0:0|0:0|0:0,0:0:0:0:
56,36,237948,1,8,0:0:0:0:
256,192,238272,12,4,239894,0:0:0:0:
128,304,240542,5,0,1:0:0:0:
284,276,240867,2,0,P|260:212|212:180,1,120,0|8,1:0|0:0,0:0:0:0:
68,144,241515,2,0,P|92:80|140:48,1,120,0|8,1:0|0:0,0:0:0:0:
288,60,242164,6,0,B|360:96|404:72|404:72|464:100|472:188,1,240,4|4,0:0|0:0,0:0:0:0:
376,292,243137,1,8,2:0:0:0:
228,244,243461,2,0,P|156:236|96:332,1,180,0|4,1:0|0:1,0:0:0:0:
248,352,244272,2,0,L|172:316,1,60,0|6,0:0|0:3,0:0:0:0:
348,292,244759,6,0,L|492:276,1,120,4|8,0:0|0:0,0:0:0:0:
364,160,245407,2,0,L|220:144,1,120,4|12,0:0|0:0,0:0:0:0:
348,28,246056,2,0,L|492:12,2,120,4|8|4,0:0|0:0|0:0,0:0:0:0:
192,44,247029,1,12,0:0:0:0:
256,192,247353,12,2,249948,0:0:0:0:
76,220,250597,6,0,L|76:160,1,60,2|2,0:0|0:0,0:0:0:0:
164,32,251083,2,0,P|212:36|252:108,1,120,2|0,0:0|0:0,0:0:0:0:
244,168,251569,2,0,P|274:118|331:109,1,120,2|2,0:0|0:0,0:0:0:0:
320,188,252056,1,2,0:0:0:0:
180,256,252380,6,0,P|112:260|56:216,1,120,2|0,0:0|0:0,0:0:0:0:
4,188,252867,2,0,P|72:192|128:148,1,120,2|2,0:0|0:0,0:0:0:0:
156,96,253353,1,2,0:0:0:0:
324,60,253678,6,0,P|388:84|412:204,1,180,2|2,0:0|0:0,0:0:0:0:
372,248,254326,2,0,L|368:320,2,60,0|2|2,0:0|0:0|0:0,0:0:0:0:
232,180,254975,6,0,B|144:160|144:160|76:232,1,180,2|2,0:0|0:0,0:0:0:0:
200,328,255786,2,0,L|272:336,1,60,2|2,0:0|0:0,0:0:0:0:
264,180,256272,6,0,P|240:136|244:64,1,120,2|0,0:0|0:0,0:0:0:0:
172,32,256759,2,0,L|44:64,1,120,2|2,0:0|0:0,0:0:0:0:
88,132,257245,1,2,0:0:0:0:
164,268,257569,6,0,P|168:204|224:156,1,120,2|0,0:0|0:0,0:0:0:0:
280,148,258056,1,2,0:0:0:0:
420,216,258380,2,0,L|492:224,1,60,2|2,0:0|0:0,0:0:0:0:
256,192,258867,12,0,266813,0:0:0:0:
