osu file format v14

[General]
AudioFilename: audio.mp3
AudioLeadIn: 0
PreviewTime: 104515
Countdown: 0
SampleSet: Soft
StackLeniency: 0.7
Mode: 0
LetterboxInBreaks: 0
WidescreenStoryboard: 1

[Editor]
Bookmarks: 11286,32042,52805,63178,83934,104691,125448,146205,166961,187718,208475,229232,258913,266859
DistanceSpacing: 1.5
BeatDivisor: 4
GridSize: 4
TimelineZoom: 1.5

[Metadata]
Title:Summertime Record
TitleUnicode:サマータイムレコード
Artist:Amatsuki
ArtistUnicode:天月
Creator:Paloch VeGa
Version:Hard
Source:メカクシティアクターズ
Tags:Mekakucity Actors じん Jin IA Vocaloid Kagerou Project Children Daze [_lost_]
BeatmapID:1485982
BeatmapSetID:694390

[Difficulty]
HPDrainRate:5
CircleSize:4.1
OverallDifficulty:5
ApproachRate:8
SliderMultiplier:1.13
SliderTickRate:1

[Events]
//Background and Video events
0,0,"63222527-kagerou-project-wallpapers.jpg",0,0
//Break Periods
2,125654,135082
2,187924,197352
//Storyboard Layer 0 (Background)
//Storyboard Layer 1 (Fail)
//Storyboard Layer 2 (Pass)
//Storyboard Layer 3 (Foreground)
//Storyboard Sound Samples

[TimingPoints]
6103,324.324324324324,4,2,0,40,1,0
104697,-100,4,2,0,40,0,1
114427,-100,4,2,0,40,0,0
115075,-100,4,2,0,40,0,1
125454,-100,4,2,0,40,0,0
177346,-100,4,2,0,40,0,0
198102,-133.333333333333,4,2,0,40,0,0
207184,-100,4,2,0,40,0,0
208481,-100,4,2,0,40,0,1
228589,-100,4,2,0,40,0,0
229238,-100,4,2,0,40,0,1
249994,-125,4,2,0,40,0,0

[Colours]
Combo1 : 203,247,196
Combo2 : 247,244,234
Combo3 : 160,220,231
Combo4 : 247,172,180

[HitObjects]
76,72,6102,6,0,P|68:128|76:184,1,113
208,260,6751,2,0,P|212:296|204:332,1,56.5
152,376,7075,1,0,0:0:0:0:
208,260,7400,6,0,P|264:272|332:256,1,113
292,96,8048,2,0,P|328:92|352:96,1,56.5
420,140,8373,1,0,0:0:0:0:
172,212,8697,6,0,B|96:208|96:208|60:188,1,113
140,76,9346,2,0,L|204:80,1,56.5
252,144,9670,2,0,B|272:148|284:156|284:156|312:144|352:160|376:148,1,113
428,100,10157,5,0,0:0:0:0:
376,32,10319,1,0,0:0:0:0:
293,43,10481,1,0,0:0:0:0:
234,206,10643,1,0,0:0:0:0:
314,190,10805,1,0,0:0:0:0:
343,110,10967,1,0,0:0:0:0:
293,43,11130,1,0,0:0:0:0:
176,136,11292,6,0,P|164:192|176:260,1,113
224,312,11778,2,0,P|264:320|288:320,1,56.5
364,304,12102,2,0,P|400:284|416:264,1,56.5
452,196,12427,6,0,B|459:126|459:126|448:84,1,113
388,20,12913,2,0,P|360:16|324:20,1,56.5
276,84,13238,2,0,P|232:88|204:80,1,56.5
160,24,13562,2,0,P|124:24|88:32,1,56.5
72,172,13886,6,0,P|128:184|196:172,1,113
260,140,14373,2,0,B|308:128|308:128|384:132,2,113
192,192,15184,6,0,P|164:216|136:224,1,56.5
76,172,15508,2,0,P|104:148|132:140,1,56.5
145,222,15832,2,0,P|117:246|89:254,1,56.5
29,202,16157,2,0,P|57:178|85:170,1,56.5
160,172,16481,6,0,P|220:180|280:172,1,113
352,144,16967,2,0,P|384:140|412:144,1,56.5
380,224,17292,2,0,B|400:244|400:244|412:272,1,56.5
294,211,17616,6,0,L|318:91,1,113
248,48,18102,2,0,L|236:104,1,56.5
156,128,18427,2,0,B|168:156|168:156|196:180,1,56.5
156,252,18751,2,0,P|188:260|224:252,1,56.5
280,208,19075,6,0,B|320:192|360:216|396:204,1,113
472,176,19562,2,0,B|488:152|488:152|496:108,1,56.5
392,204,19886,2,0,P|408:232|440:252,1,56.5
344,132,20211,6,0,B|316:124|316:124|260:136|260:136|232:128,1,113
156,24,20697,2,0,L|208:48,1,56.5
164,168,21021,2,0,L|112:144,1,56.5
234,128,21346,2,0,P|243:160|240:196,1,56.5
228,268,21670,6,0,B|224:284|208:304|208:304|240:288|284:288,1,113
360,272,22157,2,0,P|416:272|472:288,2,113
288,312,22967,6,0,P|236:316|212:312,1,56.5
152,284,23292,2,0,P|128:265|112:232,1,56.5
160,172,23616,2,0,P|182:189|196:213,1,56.5
76,164,23940,1,0,0:0:0:0:
76,164,24265,6,0,B|100:124|100:124|160:84,1,113
232,124,24751,2,0,P|264:140|296:144,1,56.5
316,220,25075,2,0,P|352:200|364:176,1,56.5
232,212,25400,1,0,0:0:0:0:
256,292,25562,6,0,L|272:348,2,56.5
232,212,26048,1,0,0:0:0:0:
216,128,26211,2,0,P|180:120|144:128,1,56.5
112,192,26535,2,0,P|52:196|0:176,1,113
112,192,27184,6,0,B|132:216|132:216|164:232,1,56.5
236,252,27508,1,0,0:0:0:0:
320,260,27670,2,0,P|356:260|384:252,1,56.5
444,204,27994,6,0,B|460:132|460:132|452:80,1,113
364,56,28481,2,0,L|376:112,1,56.5
308,160,28805,2,0,L|296:104,1,56.5
212,88,29130,2,0,L|236:207,1,113
380,280,29778,6,0,P|388:252|388:220,1,56.5
352,148,30102,1,0,0:0:0:0:
312,72,30265,2,0,B|304:44|304:44|308:12,1,56.5
392,110,30589,6,0,P|367:141|343:149,1,56.5
268,152,30913,2,0,P|224:152|200:160,1,56.5
140,200,31238,2,0,P|104:208|80:208,2,56.5
212,152,31724,2,0,B|244:148|244:148|276:152,1,56.5
328,212,32048,6,0,P|388:220|444:208,1,113
324,84,32697,2,0,B|296:80|296:80|264:84,1,56.5
192,124,33021,1,0,0:0:0:0:
116,160,33184,6,0,P|56:168|4:156,2,113
200,144,33994,2,0,P|232:144|264:152,1,56.5
328,196,34319,2,0,P|354:206|382:208,1,56.5
432,280,34643,6,0,P|464:236|456:168,1,113
424,104,35130,2,0,B|388:76|388:76|312:68,1,113
236,84,35616,1,0,0:0:0:0:
196,160,35778,6,0,B|184:200|204:236|196:276,1,113
124,316,36265,2,0,P|116:284|120:248,1,56.5
196,160,36589,2,0,P|204:192|200:228,1,56.5
96,160,36913,2,0,L|112:104,1,56.5
168,40,37238,6,0,P|212:32|292:44,1,113
120,100,37886,2,0,P|96:72|88:44,2,56.5
188,152,38373,6,0,B|200:192|200:192|196:280,2,113
116,108,39184,2,0,P|108:144|112:176,1,56.5
205,205,39508,2,0,L|187:148,1,56.5
153,273,39832,6,0,P|209:290|269:265,1,113
300,200,40319,2,0,B|336:184|380:208|416:196,1,113
476,144,40805,2,0,P|480:112|472:84,1,56.5
396,124,41130,6,0,B|388:164|388:164|404:248,1,113
460,296,41616,2,0,L|472:352,2,56.5
492,216,42102,2,0,L|480:152,1,56.5
440,84,42427,6,0,P|384:76|328:84,1,113
168,132,43075,2,0,L|152:196,1,56.5
132,268,43400,1,0,0:0:0:0:
184,336,43562,6,0,P|236:348|304:336,2,113
132,268,44373,2,0,P|124:236|128:200,1,56.5
200,172,44697,2,0,P|208:204|204:240,1,56.5
128,130,45021,6,0,P|171:94|248:104,1,113
296,144,45508,2,0,B|320:160|320:160|386:146|386:146|411:160,1,113
436,232,45994,1,0,0:0:0:0:
404,312,46157,6,0,P|344:324|288:312,1,113
248,244,46643,1,0,0:0:0:0:
204,172,46805,2,0,P|148:160|88:172,1,113
40,236,47292,2,0,B|48:304,1,56.5
120,332,47616,6,0,B|132:296|132:296|120:216,1,113
88,56,48265,2,0,L|99:119,1,56.5
116,196,48589,1,0,0:0:0:0:
188,240,48751,6,0,P|244:252|308:240,1,113
328,164,49238,1,0,0:0:0:0:
308,80,49400,2,0,P|248:72|176:84,1,113
122,112,49886,2,0,B|106:176,1,56.5
194,180,50211,6,0,B|179:258|179:258|190:292,1,113
270,316,50697,1,0,0:0:0:0:
350,284,50859,2,0,P|362:220|350:160,1,113
294,112,51346,1,0,0:0:0:0:
210,120,51508,6,0,B|174:128|134:112|98:120,1,113
50,188,51994,1,0,0:0:0:0:
74,268,52157,2,0,L|90:324,1,56.5
153,236,52481,2,0,P|137:212|109:192,1,56.5
172,318,52805,6,0,B|210:328|210:328|294:316,1,113
334,256,53292,2,0,P|390:244|450:260,2,113
254,280,54102,6,0,P|210:284|186:276,1,56.5
226,200,54427,2,0,B|200:187|200:187|178:156,1,56.5
258,120,54751,2,0,L|250:60,1,56.5
334,72,55075,2,0,L|346:12,1,56.5
418,64,55400,6,0,P|430:116|418:184,1,113
378,248,55886,2,0,B|354:272|354:272|322:284,1,56.5
262,236,56211,2,0,B|286:212|286:212|318:200,1,56.5
332,279,56535,6,0,L|352:331,2,56.5
262,236,57021,2,0,L|206:268,2,56.5
314,168,57508,1,0,0:0:0:0:
310,84,57670,2,0,P|302:56|274:28,1,56.5
226,96,57994,6,0,B|210:132|210:132|202:216,1,113
274,252,58481,2,0,L|270:312,1,56.5
190,336,58805,2,0,L|194:276,1,56.5
198,196,59130,6,0,P|226:168|298:156,1,113
378,172,59616,2,0,P|412:178|442:168,1,56.5
406,92,59940,2,0,P|372:86|342:96,1,56.5
323,171,60265,2,0,P|357:177|387:167,1,56.5
351,91,60589,6,0,B|307:83|307:83|227:91,1,113
172,144,61075,2,0,P|112:152|56:140,2,113
234,90,61886,6,0,L|246:30,2,56.5
250,172,62373,1,0,0:0:0:0:
302,240,62535,2,0,P|338:244|366:236,1,56.5
274,120,62859,2,0,L|250:172,1,56.5
338,61,63184,6,0,P|294:37|223:49,1,113
92,136,63832,2,0,L|96:192,1,56.5
136,268,64157,1,0,0:0:0:0:
208,312,64319,6,0,B|248:324|288:304|320:312,2,113
217,172,65130,2,0,P|223:199|224:228,1,56.5
146,267,65454,2,0,P|140:240|140:212,1,56.5
140,128,65778,6,0,B|168:88|168:88|232:56,1,113
308,48,66265,2,0,P|368:56|420:92,1,113
448,160,66751,1,0,0:0:0:0:
444,244,66913,6,0,P|432:280|408:304,1,56.5
364,232,67238,2,0,P|376:196|400:172,1,56.5
424,292,67562,2,0,B|396:312|396:312|368:316,1,56.5
296,284,67886,1,0,0:0:0:0:
216,304,68048,1,0,0:0:0:0:
136,272,68211,1,0,0:0:0:0:
112,192,68373,6,0,P|108:128|128:72,1,113
284,28,69021,2,0,P|292:64|292:88,1,56.5
264,164,69346,1,0,0:0:0:0:
228,240,69508,6,0,B|216:284|236:320|232:360,2,113
264,164,70319,2,0,P|268:136|264:108,1,56.5
184,136,70643,2,0,B|164:116|164:116|128:104,1,56.5
56,124,70967,6,0,B|40:172|40:172|40:248,1,113
100,296,71454,2,0,P|152:316|216:312,1,113
260,248,71940,2,0,P|296:244|332:252,1,56.5
372,312,72265,6,0,P|436:320|492:304,1,113
448,232,72751,2,0,P|412:236|376:228,1,56.5
320,188,73075,1,0,0:0:0:0:
252,136,73238,2,0,P|216:132|192:136,1,56.5
128,88,73562,6,0,P|112:135|136:196,1,113
300,232,74211,2,0,P|304:200|300:176,1,56.5
220,208,74535,1,0,0:0:0:0:
240,292,74697,6,0,P|291:315|356:296,2,113
196,220,75508,2,0,B|188:192|188:192|192:144,1,56.5
272,123,75832,2,0,L|272:180,1,56.5
188,164,76157,6,0,L|194:47,1,113
277,67,76643,2,0,L|271:184,1,113
240,260,77130,1,0,0:0:0:0:
168,304,77292,6,0,P|100:296|64:264,1,113
52,184,77778,1,0,0:0:0:0:
92,108,77940,2,0,B|140:96|168:120|216:104,1,113
288,128,78427,2,0,P|289:95|281:67,1,56.5
204,107,78751,6,0,B|199:177|199:177|212:223,2,113
356,32,79724,1,0,0:0:0:0:
420,88,79886,6,0,P|432:140|424:208,1,113
392,276,80373,1,0,0:0:0:0:
328,332,80535,2,0,B|300:352|300:352|248:360|248:360|204:348,1,113
152,304,81021,2,0,L|156:244,1,56.5
72,268,81346,6,0,B|77:186|77:186|96:144,1,113
148,96,81832,1,0,0:0:0:0:
216,44,81994,2,0,B|272:28|328:44,1,113
408,76,82481,6,0,L|428:136,1,56.5
484,192,82805,2,0,L|524:208,2,28.25
400,212,83130,2,0,P|364:220|340:216,1,56.5
272,172,83454,1,0,0:0:0:0:
208,116,83616,2,0,P|152:108|80:120,1,113
88,284,84265,5,0,0:0:0:0:
168,312,84427,2,0,P|220:320|280:312,1,113
356,280,84913,1,0,0:0:0:0:
392,204,85075,6,0,B|400:168|380:132|388:84,1,113
396,8,85562,1,0,0:0:0:0:
464,56,85724,2,0,P|470:84|468:116,1,56.5
392,148,86048,2,0,P|386:120|388:88,1,56.5
432,256,86535,6,0,P|396:264|368:260,1,56.5
296,240,86859,1,0,0:0:0:0:
212,220,87021,2,0,B|172:216|138:237|96:232,1,113
244,144,87670,6,0,P|282:177|285:251,1,113
236,300,88157,1,0,0:0:0:0:
152,304,88319,2,0,L|88:284,1,56.5
132,208,88643,2,0,B|100:198|100:198|75:172,1,56.5
196,56,89130,6,0,L|208:0,2,56.5
180,140,89616,2,0,P|180:172|192:208,1,56.5
264,164,89940,2,0,B|284:184|284:184|316:192,1,56.5
380,140,90265,6,0,B|360:120|360:120|328:112,1,56.5
312,188,90589,2,0,L|324:248,1,56.5
408,260,90913,2,0,L|396:200,1,56.5
376,124,91238,1,0,0:0:0:0:
312,68,91400,1,0,0:0:0:0:
228,60,91562,1,0,0:0:0:0:
148,92,91724,6,0,P|112:136|96:208,1,113
132,264,92211,1,0,0:0:0:0:
216,284,92373,2,0,B|244:280|270:292|270:292|298:278|332:284,1,113
408,268,92859,5,0,0:0:0:0:
464,204,93021,2,0,B|476:164|476:164|468:88,1,113
400,44,93508,1,0,0:0:0:0:
340,104,93670,2,0,L|349:221,1,113
188,272,94319,6,0,L|193:328,2,56.5
184,188,94805,2,0,P|192:128|220:80,1,113
296,48,95292,1,0,0:0:0:0:
380,56,95454,6,0,B|432:80|432:80|460:136,1,113
420,204,95940,2,0,P|416:236|420:264,1,56.5
484,316,96265,2,0,P|436:340|368:324,1,113
224,264,96913,6,0,P|188:260|160:264,1,56.5
84,276,97238,1,0,0:0:0:0:
16,228,97400,2,0,B|0:168|24:104,1,113
92,72,97886,1,0,0:0:0:0:
168,108,98048,6,0,B|184:148|152:192|168:232,1,113
212,288,98535,1,0,0:0:0:0:
288,324,98697,2,0,L|352:328,1,56.5
416,284,99021,1,0,0:0:0:0:
452,208,99184,2,0,B|448:136|448:136|420:88,1,113
360,48,99670,6,0,P|328:44|296:48,1,56.5
236,96,99994,2,0,P|168:104|120:96,2,113
404,64,100967,5,0,0:0:0:0:
424,148,101130,2,0,P|428:176|424:216,1,56.5
380,272,101454,2,0,P|376:304|384:336,2,56.5
316,116,102102,6,0,B|296:96|296:96|264:88,1,56.5
204,144,102427,2,0,B|224:164|224:164|256:172,1,56.5
268,89,102751,2,0,P|240:68|208:60,1,56.5
136,84,103075,1,0,0:0:0:0:
96,160,103238,6,0,B|76:220|96:272,1,113
160,324,103724,1,0,0:0:0:0:
236,284,103886,2,0,L|256:248,2,28.25
220,116,104373,2,0,P|216:148|220:176,1,56.5
280,232,104697,6,0,P|292:288|276:352,1,113
208,188,105346,2,0,P|249:151|323:157,1,113
364,208,105832,6,0,P|384:228|416:240,1,56.5
428,156,106157,2,0,B|452:140|452:140|464:112,1,56.5
452,32,106481,2,0,P|396:12|332:16,1,113
276,64,106967,2,0,P|248:72|212:72,1,56.5
140,52,107292,6,0,B|100:44|56:60|24:52,2,113
308,60,108265,1,0,0:0:0:0:
332,140,108427,6,0,L|348:200,1,56.5
276,240,108751,2,0,L|260:180,1,56.5
346,194,109075,2,0,B|365:261|365:261|360:312,1,113
292,356,109562,2,0,P|256:360|228:352,1,56.5
172,300,109886,6,0,B|132:296|100:308|56:300,1,113
60,132,110535,2,0,P|120:120|180:136,1,113
240,180,111021,6,0,P|268:188|304:180,1,56.5
332,108,111346,2,0,P|304:100|268:108,1,56.5
294,184,111670,2,0,P|346:192|402:156,1,113
412,80,112157,2,0,L|396:16,1,56.5
332,108,112481,6,0,B|316:184|316:184|328:228,1,113
404,248,112967,2,0,P|368:288|296:292,1,113
244,244,113454,2,0,P|208:240|176:248,1,56.5
108,268,113778,5,0,0:0:0:0:
56,200,113940,2,0,L|20:188,2,28.25
92,124,114265,2,0,L|72:88,2,28.25
168,92,114589,2,0,L|172:48,2,28.25
248,124,114913,1,0,0:0:0:0:
332,144,115075,6,0,B|404:152|404:152|452:144,1,113
296,64,115724,2,0,P|256:104|248:168,1,113
276,240,116211,6,0,B|284:280|264:316|272:356,2,113
246,157,117021,2,0,B|242:133|242:133|246:101,1,56.5
328,64,117346,2,0,L|324:120,1,56.5
248,156,117670,6,0,P|192:172|128:164,1,113
280,76,118319,2,0,B|320:68|320:68|400:80,1,113
456,136,118805,6,0,P|464:164|464:196,1,56.5
380,180,119130,2,0,B|372:216|372:216|352:236,1,56.5
288,180,119454,2,0,B|272:220|272:220|268:296,1,113
356,286,119940,2,0,L|358:226,1,56.5
356,144,120265,6,0,B|344:108|364:72|356:32,2,113
456,280,121238,1,0,0:0:0:0:
376,308,121400,6,0,P|336:312|300:304,1,56.5
256,252,121724,2,0,P|216:248|192:252,1,56.5
160,324,122048,2,0,P|104:332|44:320,1,113
12,244,122535,2,0,L|24:188,1,56.5
76,120,122859,6,0,B|144:92|144:92|192:88,1,113
268,108,123346,1,0,0:0:0:0:
336,160,123508,2,0,P|388:176|456:160,1,113
468,84,123994,1,0,0:0:0:0:
381,59,124157,6,0,B|353:91|353:91|333:167,1,113
320,244,124643,1,0,0:0:0:0:
268,312,124805,2,0,P|208:328|156:308,1,113
120,236,125292,2,0,L|124:204,2,28.25
196,76,135832,6,0,P|248:68|316:80,1,113
307,76,136643,2,0,L|320:140,1,56.5
272,296,137130,6,0,L|249:175,1,113
384,44,137940,1,0,0:0:0:0:
340,121,138102,6,0,P|304:161|248:185,2,113
88,72,139238,1,0,0:0:0:0:
60,152,139400,6,0,B|44:232|44:232|56:272,1,113
136,116,140048,1,0,0:0:0:0:
128,312,140535,1,0,0:0:0:0:
208,340,140697,6,0,P|268:348|328:336,2,113
432,220,141832,2,0,P|436:256|432:296,1,56.5
288,188,142319,6,0,P|280:136|292:68,1,113
344,324,143130,2,0,P|304:332|276:324,1,56.5
228,272,143454,1,0,0:0:0:0:
152,232,143616,6,0,B|121:235|121:235|88:252,2,56.5
224,188,144102,2,0,P|228:160|220:124,2,56.5
224,272,144589,1,0,0:0:0:0:
292,320,144751,6,0,P|344:328|412:312,1,113
452,248,145238,1,0,0:0:0:0:
444,164,145400,2,0,L|441:129,2,28.25
452,248,145724,2,0,L|457:317,1,56.5
356,168,146211,6,0,L|363:285,1,113
276,136,146859,2,0,P|310:97|375:85,1,113
448,112,147346,6,0,B|464:140|464:140|472:176,1,56.5
380,236,147670,2,0,L|384:180,1,56.5
441,302,147994,2,0,P|393:322|329:306,1,113
264,264,148481,2,0,P|228:260|196:264,1,56.5
128,284,148805,6,0,B|88:268|88:268|40:216,1,113
36,132,149292,2,0,P|60:80|108:48,1,113
188,36,149778,1,0,0:0:0:0:
264,72,149940,6,0,B|308:84|344:64|384:72,1,113
436,132,150427,2,0,L|432:196,1,56.5
408,268,150751,2,0,P|392:308|368:324,1,56.5
324,256,151075,2,0,P|340:216|364:200,1,56.5
304,336,151400,6,0,P|248:344|180:332,2,113
400,196,152373,1,0,0:0:0:0:
420,112,152535,6,0,B|416:84|416:84|396:48,1,56.5
336,112,152859,2,0,P|308:104|268:108,1,56.5
204,140,153184,2,0,P|168:144|140:136,2,56.5
280,104,153670,2,0,B|284:72|284:72|280:40,1,56.5
204,80,153994,6,0,B|200:128|200:128|220:200,1,113
288,236,154481,2,0,P|252:264|180:260,1,113
128,200,154967,2,0,P|100:196|72:200,1,56.5
200,56,156265,5,0,0:0:0:0:
200,56,156589,6,0,P|252:48|320:60,1,113
456,144,157238,2,0,L|452:200,1,56.5
404,272,157562,1,0,0:0:0:0:
328,312,157724,6,0,P|264:320|204:304,2,113
300,176,158535,2,0,B|298:205|298:205|304:232,1,56.5
384,192,158860,2,0,P|383:165|376:128,1,56.5
320,72,159184,6,0,B|280:60|240:84|200:72,1,113
124,64,159670,2,0,B|76:100|76:100|44:152,1,113
28,228,160157,1,0,0:0:0:0:
52,308,160319,6,0,P|80:320|124:320,1,56.5
184,292,160643,2,0,P|216:288|252:292,1,56.5
324,308,160967,1,0,0:0:0:0:
408,324,161130,2,0,P|448:328|472:324,1,56.5
436,244,161454,2,0,B|405:240|405:240|368:248,1,56.5
300,272,161778,6,0,P|244:280|180:272,2,113
184,148,162751,1,0,0:0:0:0:
124,208,162913,6,0,L|100:264,1,56.5
116,344,163238,2,0,P|76:340|52:328,2,56.5
192,304,163724,2,0,B|224:300|224:300|252:304,1,56.5
328,328,164048,1,0,0:0:0:0:
412,308,164211,1,0,0:0:0:0:
456,236,164373,6,0,P|464:176|452:116,1,113
384,76,164859,1,0,0:0:0:0:
304,108,165021,2,0,B|284:140|284:140|272:216,1,113
236,292,165508,6,0,P|272:300|300:296,2,56.5
172,236,165994,2,0,P|144:232|112:236,1,56.5
44,280,166319,6,0,L|28:324,2,37.6666666666667
32,224,166643,6,0,P|24:168|40:112,1,113
92,48,167130,2,0,P|120:40|160:40,1,56.5
196,108,167454,2,0,P|252:116|316:108,1,113
384,76,167940,1,0,0:0:0:0:
468,80,168102,6,0,B|496:120|496:120|508:184,1,113
484,264,168589,1,0,0:0:0:0:
416,316,168751,2,0,P|376:324|352:320,1,56.5
320,248,169075,2,0,P|360:240|384:244,1,56.5
264,112,169562,6,0,P|260:84|264:52,2,56.5
312,184,170048,2,0,P|320:240|312:296,1,113
160,220,170697,6,0,B|152:176|152:176|164:104,1,113
216,44,171184,2,0,P|252:40|280:48,1,56.5
340,96,171508,2,0,L|360:116,4,28.25
180,44,172157,6,0,B|149:50|149:50|124:68,1,56.5
84,136,172481,1,0,0:0:0:0:
60,216,172643,2,0,P|60:268|84:332,1,113
232,248,173292,6,0,B|244:208|220:164|232:124,2,113
152,96,174265,1,0,0:0:0:0:
220,48,174427,1,0,0:0:0:0:
304,52,174589,1,0,0:0:0:0:
372,100,174751,6,0,B|392:152|392:152|396:212,1,113
356,284,175238,1,0,0:0:0:0:
280,320,175400,2,0,B|264:324|244:340|244:340|216:328|188:344|164:332,1,113
100,296,175886,1,0,0:0:0:0:
64,220,176048,6,0,P|57:158|76:100,1,113
132,52,176535,1,0,0:0:0:0:
208,20,176697,2,0,B|248:8|288:28|328:16,1,113
428,148,177346,6,0,P|396:160|364:160,1,56.5
292,144,177670,1,0,0:0:0:0:
208,124,177832,2,0,P|152:116|92:128,1,113
48,196,178319,2,0,L|52:252,1,56.5
208,179,178805,6,0,P|212:151|204:115,1,56.5
148,240,179130,2,0,B|184:260|184:260|260:264,1,113
324,216,179616,2,0,P|376:208|436:216,1,113
284,288,180265,5,0,0:0:0:0:
236,220,180427,2,0,B|228:176|244:144|236:104,1,113
172,52,180913,1,0,0:0:0:0:
92,76,181075,6,0,B|64:112|64:112|52:184,1,113
72,260,181562,1,0,0:0:0:0:
140,312,181724,2,0,P|172:320|208:316,1,56.5
244,248,182048,2,0,P|212:240|176:244,1,56.5
344,312,182535,6,0,P|376:316|408:312,1,56.5
464,256,182859,1,0,0:0:0:0:
496,176,183021,2,0,B|500:120|500:120|488:64,1,113
416,20,183508,1,0,0:0:0:0:
332,36,183670,6,0,P|264:44|208:36,1,113
144,4,184157,2,0,P|112:0|79:6,1,56.5
83,130,184481,2,0,L|116:84,1,56.5
0,132,184805,2,0,P|4:160|24:188,1,56.5
92,228,185130,6,0,B|120:235|120:235|156:232,1,56.5
208,176,185454,2,0,P|244:172|276:180,1,56.5
316,240,185778,2,0,P|356:244|384:236,2,56.5
260,176,186265,6,0,P|252:124|264:64,1,113
336,24,186751,1,0,0:0:0:0:
404,72,186913,1,0,0:0:0:0:
388,238,187075,1,0,0:0:0:0:
321,192,187238,1,0,0:0:0:0:
328,108,187400,1,0,0:0:0:0:
404,72,187562,6,0,P|437:72|468:84,1,56.5
96,112,198102,6,0,P|88:160|96:204,1,84.750003232956
200,280,198751,2,0,P|200:312|192:336,2,42.375001616478
272,256,199238,6,0,P|276:320|269:353,1,84.750003232956
200,204,199886,2,0,B|212:164|212:164|244:124,1,84.750003232956
308,92,200373,2,0,P|340:88|364:96,1,42.375001616478
408,140,200697,6,0,B|424:176|400:196|412:228,2,84.750003232956
272,72,201670,1,0,0:0:0:0:
244,144,201832,6,0,P|236:188|245:233,1,84.750003232956
176,88,202481,2,0,B|141:111|141:111|111:160,1,84.750003232956
100,220,202967,6,0,P|96:264|108:308,1,84.750003232956
252,348,203616,1,0,0:0:0:0:
392,288,203940,2,0,P|400:244|388:196,1,84.750003232956
328,161,204427,6,0,P|324:125|328:105,1,42.375001616478
396,89,204751,2,0,P|400:109|399:130,1,42.375001616478
392,205,205075,2,0,P|344:237|304:229,1,84.750003232956
256,192,205562,2,0,P|232:188|200:192,1,42.375001616478
152,232,205886,6,0,P|100:240|56:228,1,84.750003232956
24,168,206373,1,0,0:0:0:0:
52,96,206535,2,0,B|88:84|116:104|144:92,1,84.750003232956
212,80,207021,1,0,0:0:0:0:
280,36,207184,6,0,L|284:4,2,28.25
348,88,207508,2,0,L|376:68,2,28.25
308,164,207832,2,0,P|304:196|312:228,1,56.5
308,164,208481,6,0,B|304:208|304:208|328:276,1,113
368,108,209130,2,0,P|312:84|248:104,1,113
188,132,209616,6,0,B|152:144|116:120|76:132,2,113
260,84,210427,2,0,P|260:48|248:24,1,56.5
179,77,210751,2,0,P|179:113|191:137,1,56.5
228,204,211075,6,0,P|240:268|232:324,2,113
112,80,212048,1,0,0:0:0:0:
188,120,212211,6,0,P|252:128|308:120,2,113
112,80,213021,2,0,P|81:78|48:88,1,56.5
88,164,213346,2,0,B|72:188|72:188|68:224,1,56.5
152,232,213670,6,0,L|140:348,1,113
312,344,214319,2,0,L|292:220,1,113
190,157,214805,2,0,P|196:184|212:208,1,56.5
272,148,215130,2,0,P|264:116|244:92,1,56.5
208,208,215454,6,0,P|256:232|320:220,1,113
360,156,215940,2,0,P|356:124|340:96,1,56.5
272,148,216265,6,0,B|264:184|264:184|268:264,1,113
316,328,216751,2,0,P|352:336|384:328,1,56.5
448,296,217075,2,0,P|468:264|468:232,1,56.5
472,160,217400,6,0,B|460:144|464:112|464:112|420:100|420:56|372:40,1,169.5
288,44,218048,1,0,0:0:0:0:
204,24,218211,2,0,L|176:-8,2,28.25
224,104,218535,2,0,P|220:136|208:160,1,56.5
148,216,218859,6,0,P|136:272|148:328,2,113
220,60,219832,1,0,0:0:0:0:
228,144,219994,6,0,L|234:200,1,56.5
144,156,220319,2,0,P|144:124|160:88,1,56.5
232,200,220643,2,0,B|240:236|220:276|228:312,1,113
296,364,221130,2,0,P|328:372|360:368,1,56.5
428,336,221454,6,0,P|440:280|432:220,1,113
356,76,222102,2,0,B|304:56|304:56|240:56,1,113
164,80,222589,6,0,P|132:116|116:180,1,113
132,260,223075,2,0,B|134:288|134:288|128:320,2,56.5
116,177,223562,2,0,L|80:128,2,56.5
168,244,224048,6,0,P|232:256|280:244,1,113
360,96,224697,2,0,P|392:92|416:96,2,56.5
288,140,225184,6,0,P|260:144|224:136,1,56.5
204,60,225508,2,0,P|232:56|268:64,1,56.5
232,139,225832,2,0,B|188:147|188:147|112:135,1,113
64,72,226319,2,0,P|64:36|76:8,1,56.5
144,64,226643,6,0,B|156:104|132:144|144:180,1,113
176,252,227130,1,0,0:0:0:0:
252,292,227292,2,0,P|312:304|372:292,1,113
408,224,227778,6,0,L|392:168,1,56.5
368,88,228102,2,0,L|384:56,2,28.25
284,84,228427,2,0,L|276:56,2,28.25
220,136,228751,2,0,L|184:124,2,28.25
236,220,229075,6,0,L|212:240,2,28.25
208,52,229562,2,0,P|136:40|88:56,1,113
56,124,230048,1,0,0:0:0:0:
68,208,230211,2,0,L|76:264,1,56.5
120,336,230535,6,0,B|144:344|176:331|176:331|208:344|236:332,1,113
308,300,231021,2,0,B|348:288|384:312|420:300,1,113
480,240,231508,2,0,P|488:212|484:176,1,56.5
472,100,231832,6,0,B|464:72|464:72|444:48,1,56.5
384,108,232157,2,0,L|328:88,1,56.5
256,128,232481,2,0,P|216:132|184:124,1,56.5
172,52,232805,2,0,P|212:48|244:56,1,56.5
256,128,233130,6,0,L|236:188,1,56.5
176,236,233454,2,0,P|176:272|184:292,1,56.5
252,340,233778,2,0,P|308:348|376:336,1,113
416,272,234265,1,0,0:0:0:0:
408,188,234427,6,0,B|400:152|420:112|412:76,1,113
480,232,235075,2,0,P|456:256|425:264,1,56.5
363,219,235400,2,0,P|387:195|420:187,1,56.5
360,300,235724,6,0,B|315:308|315:308|244:300,1,113
208,136,236373,2,0,L|222:192,1,56.5
124,144,236697,2,0,P|124:116|136:88,1,56.5
170,218,237021,6,0,P|114:231|60:205,1,113
224,148,237670,2,0,B|250:185|250:185|260:256,1,113
136,136,238319,5,0,0:0:0:0:
256,192,238400,12,0,239940,0:0:0:0:
248,64,240589,5,0,0:0:0:0:
352,200,240913,2,0,P|360:264|348:316,1,113
276,160,241562,2,0,P|296:132|324:120,1,56.5
280,244,241886,6,0,B|240:256|240:256|164:248,1,113
316,164,242535,1,0,0:0:0:0:
148,160,242859,2,0,L|140:104,1,56.5
224,116,243184,6,0,B|234:189|234:189|224:232,1,113
180,300,243670,2,0,P|176:336|184:368,2,56.5
120,140,244319,2,0,P|88:124|64:120,2,56.5
172,208,244805,6,0,P|204:212|236:204,1,56.5
276,140,245130,2,0,P|312:136|336:140,1,56.5
384,204,245454,2,0,P|440:212|500:200,1,113
331,139,246102,6,0,B|308:176|308:176|304:248,1,113
228,92,246751,2,0,L|220:208,1,113
384,152,247400,5,0,0:0:0:0:
220,204,247724,2,0,L|216:272,1,56.5
304,192,248048,2,0,B|297:163|297:163|272:136,1,56.5
196,154,248373,2,0,P|203:181|219:203,1,56.5
228,76,248697,5,0,0:0:0:0:
144,88,248859,2,0,L|104:96,2,28.25
196,154,249184,2,0,L|180:196,2,28.25
268,108,249508,2,0,P|304:104|336:112,1,56.5
388,164,249832,6,0,P|424:168|456:160,1,56.5
