osu file format v14

[General]
AudioFilename: Amatsuki - Streaming Heart.mp3
AudioLeadIn: 1000
PreviewTime: 131514
Countdown: 0
SampleSet: Soft
StackLeniency: 0.7
Mode: 0
LetterboxInBreaks: 0
WidescreenStoryboard: 0

[Editor]
DistanceSpacing: 2.1
BeatDivisor: 4
GridSize: 4
TimelineZoom: 2.599999

[Metadata]
Title:Streaming Heart
TitleUnicode:ストリーミングハート
Artist:Amatsuki
ArtistUnicode:天月
Creator:HelloSCV
Version:Insane
Source:
Tags:deco*27 deco27 nico douga vocaloid hatsune miku
BeatmapID:4512097
BeatmapSetID:267247

[Difficulty]
HPDrainRate:6
CircleSize:4
OverallDifficulty:8
ApproachRate:9
SliderMultiplier:1.7
SliderTickRate:1

[Events]
//Background and Video events
0,0,"BG.jpg",0,0
Video,0,"PV.avi"
//Break Periods
2,75714,84057
2,104286,111485
//Storyboard Layer 0 (Background)
//Storyboard Layer 1 (Fail)
//Storyboard Layer 2 (Pass)
//Storyboard Layer 3 (Foreground)
//Storyboard Layer 4 (Overlay)
//Storyboard Sound Samples

[TimingPoints]
1229,285.714285714286,4,2,1,50,1,0
10371,-125,4,1,1,60,0,0
29800,-125,4,2,1,60,0,0
38943,-100,4,1,1,70,0,0
48086,-166.666666666667,4,2,1,50,0,0
52657,-125,4,1,1,60,0,0
56657,-166.666666666667,4,1,1,70,0,0
57157,-166.666666666667,4,2,1,5,0,0
57229,-100,4,1,1,80,0,1
65086,-125,4,2,1,80,0,0
65800,-125,4,1,1,80,0,0
66371,-100,4,1,1,70,0,1
66443,-100,4,1,1,70,0,0
84657,-166.666666666667,4,2,1,50,0,0
93800,-100,4,1,1,60,0,0
102943,-125,4,1,1,40,0,0
112086,-100,4,1,1,70,0,0
120657,-125,4,1,1,70,0,0
121157,-125,4,2,1,5,0,0
121229,-166.666666666667,4,1,1,50,0,0
131514,-100,4,1,1,80,0,1
139371,-166.666666666667,4,2,1,60,0,0
140657,-100,4,1,1,80,0,1
149800,-166.666666666667,4,1,1,80,0,0
150086,-100,4,1,1,70,0,1
150157,-100,4,1,1,70,0,0
168086,-166.666666666667,4,2,1,50,0,0

[Colours]
Combo1 : 191,191,191
Combo2 : 255,145,145
Combo3 : 255,70,70
Combo4 : 255,160,115
Combo5 : 246,246,246

[HitObjects]
196,264,1229,5,2,0:1:0:0:
196,264,1514,2,0,L|248:256,1,50.9999984436036,2|0,0:1|0:0,0:0:0:0:
292,188,1800,2,0,P|320:224|320:288,1,101.999996887207,2|2,0:1|0:1,0:0:0:0:
264,336,2229,2,0,L|163:351,1,101.999996887207
88,320,2657,1,2,0:1:0:0:
52,248,2800,2,0,B|64:196|64:196|49:149,1,101.999996887207
128,124,3229,2,0,L|143:75,1,50.9999984436036,2|0,0:1|0:0,0:0:0:0:
224,88,3514,5,2,0:1:0:0:
224,88,3800,2,0,L|276:80,1,50.9999984436036,2|0,0:1|0:0,0:0:0:0:
348,116,4086,2,0,P|388:88|444:88,1,101.999996887207,2|2,0:1|0:1,0:0:0:0:
487,228,4515,2,0,P|441:207|416:164,1,101.999996887207,0|0,0:0|0:0,0:0:0:0:
348,116,4943,1,0,0:1:0:0:
336,196,5086,2,0,L|320:300,1,101.999996887207
248,336,5514,2,0,L|188:328,1,50.9999984436036,2|0,0:1|0:0,0:0:0:0:
116,348,5800,5,2,0:1:0:0:
116,348,6086,2,0,L|104:292,1,50.9999984436036,2|0,0:1|0:0,0:0:0:0:
148,228,6371,2,0,P|163:180|153:130,1,101.999996887207,2|2,0:1|0:1,0:0:0:0:
216,184,6800,2,0,L|320:172,1,101.999996887207
388,216,7229,1,2,0:1:0:0:
403,296,7371,2,0,P|354:290|317:255,1,101.999996887207
317,172,7800,2,0,P|332:151|354:140,1,50.9999984436036,2|0,0:1|0:0,0:0:0:0:
436,144,8086,5,2,0:1:0:0:
436,144,8371,2,0,L|428:88,1,50.9999984436036
488,312,8657,2,0,L|504:200,1,101.999996887207
404,296,9086,1,0,0:0:0:0:
332,336,9229,6,0,L|288:332,3,25.4999992218018,0|0|0|0,0:0|0:0|0:0|0:0,0:0:0:0:
232,296,9514,2,0,L|206:298,3,25.4999992218018,0|0|0|0,0:0|0:0|0:0|0:0,0:0:0:0:
144,348,9800,2,0,L|84:344,1,50.9999984436036,8|0,1:0|0:0,0:0:0:0:
180,228,10086,1,8,1:0:0:0:
220,376,10229,1,8,1:0:0:0:
100,216,10371,6,0,P|169:150|256:200,1,204,6|0,0:0|0:0,0:0:0:0:
96,228,10943,2,0,L|80:152,1,68,8|0,0:0|2:0,0:0:0:0:
260,204,11229,2,0,L|274:270,1,68,0|0,0:0|2:0,0:0:0:0:
181,108,11514,5,2,0:0:0:0:
310,97,11658,2,0,L|346:91,2,34,0|2|0,0:0|0:0|0:0,0:0:0:0:
424,37,11943,1,2,0:0:0:0:
508,136,12086,2,0,P|452:132|400:188,1,136,8|0,0:0|0:0,0:0:0:0:
480,208,12514,1,0,0:0:0:0:
316,180,12657,6,0,B|249:191|249:191|190:230|190:230|125:241,1,204,2|0,0:0|0:0,0:0:0:0:
284,268,13229,2,0,L|358:254,1,68,8|0,0:0|0:0,0:0:0:0:
152,156,13514,2,0,L|85:168,1,68
37,325,13800,5,2,0:0:0:0:
170,353,13943,2,0,L|164:319,2,34,0|2|0,0:0|0:0|0:0,0:0:0:0:
307,355,14229,1,2,0:0:0:0:
419,278,14371,2,0,L|284:268,1,136,8|0,0:0|0:0,0:0:0:0:
236,200,14800,1,0,0:0:0:0:
462,206,14943,6,0,P|500:293|432:360,1,204,2|0,0:0|0:0,0:0:0:0:
380,196,15514,2,0,P|387:163|410:138,1,68,8|0,0:0|0:0,0:0:0:0:
236,200,15800,2,0,L|168:195,1,68
93,80,16086,1,2,0:0:0:0:
30,201,16229,2,0,L|40:247,2,34,0|2|0,0:0|0:0|0:0,0:0:0:0:
168,195,16515,1,2,0:0:0:0:
196,332,16657,2,0,P|132:304|68:328,1,136,8|0,0:0|0:0,0:0:0:0:
132,384,17086,1,0,0:0:0:0:
264,284,17229,6,0,L|236:72,1,204,2|0,0:0|0:0,0:0:0:0:
336,208,17800,2,0,L|344:275,1,68,8|0,0:0|0:0,0:0:0:0:
168,164,18086,2,0,L|159:96,1,68
326,102,18371,5,2,0:0:0:0:
455,162,18514,2,0,L|489:157,2,34,0|2|0,0:0|0:0|0:0,0:0:0:0:
458,305,18800,1,2,0:0:0:0:
328,343,18943,2,0,L|336:208,1,136,8|0,0:0|0:0,0:0:0:0:
230,87,19372,1,0,0:0:0:0:
96,180,19514,6,0,P|163:249|256:220,1,204,6|0,0:0|0:0,0:0:0:0:
120,32,20086,2,0,L|109:99,1,68,8|0,0:0|0:0,0:0:0:0:
156,320,20371,2,0,L|166:252,1,68
284,144,20657,1,2,0:0:0:0:
96,180,20872,1,2,0:0:0:0:
296,64,21086,1,2,0:0:0:0:
260,292,21229,2,0,L|271:225,1,68,8|0,0:0|0:0,0:0:0:0:
412,88,21514,2,0,L|401:20,1,68,0|0,0:0|0:0,0:0:0:0:
364,160,21800,6,0,P|432:172|492:68,1,204,2|0,0:0|0:0,0:0:0:0:
356,152,22371,2,0,P|339:181|337:215,1,68,8|0,0:0|0:0,0:0:0:0:
456,352,22657,2,0,P|454:318|437:288,1,68
260,292,22943,1,2,0:0:0:0:
420,200,23157,1,2,0:0:0:0:
196,232,23371,1,2,0:0:0:0:
280,80,23514,2,0,L|276:148,1,68,8|0,0:0|0:0,0:0:0:0:
144,80,23800,2,0,L|140:12,1,68,0|0,0:0|0:0,0:0:0:0:
52,112,24086,6,0,P|104:195|67:286,1,204,2|0,0:0|0:0,0:0:0:0:
196,232,24657,2,0,L|272:224,1,68,8|0,0:0|0:0,0:0:0:0:
135,295,24943,2,0,L|68:288,1,68
344,216,25229,1,2,0:0:0:0:
176,152,25443,1,2,0:0:0:0:
308,292,25658,1,2,0:0:0:0:
296,152,25800,2,0,L|304:80,1,68,8|0,0:0|0:0,0:0:0:0:
392,288,26086,2,0,L|399:355,1,68,0|0,0:0|0:0,0:0:0:0:
308,292,26371,6,0,P|344:216|456:232,1,204,2|0,0:0|0:0,0:0:0:0:
303,84,26943,2,0,L|296:152,1,68,8|0,0:0|0:0,0:0:0:0:
392,288,27229,2,0,L|399:355,1,68,0|0,0:0|0:0,0:0:0:0:
232,216,27514,1,2,0:0:0:0:
380,124,27729,1,2,0:0:0:0:
164,164,27943,1,2,0:0:0:0:
220,300,28086,2,0,L|212:368,1,68,8|0,0:0|0:0,0:0:0:0:
95,211,28371,2,0,L|103:279,1,68
80,188,29800,5,6,1:0:0:0:
156,220,29943,2,0,L|228:212,1,68
280,152,30229,1,0,0:0:0:0:
356,120,30371,2,0,P|320:80|228:88,1,136,8|0,1:0|0:0,0:0:0:0:
344,200,30800,2,0,P|396:188|435:105,1,136,0|2,0:0|0:1,0:0:0:0:
356,120,31229,1,2,0:1:0:0:
448,256,31371,2,0,L|440:340,2,68,0|8|2,0:0|1:0|0:1,0:0:0:0:
304,296,31800,2,0,L|224:304,1,68
156,312,32086,5,2,0:1:0:0:
96,256,32229,2,0,B|88:224|88:224|93:189,1,68,0|0,0:0|0:0,0:0:0:0:
156,136,32514,1,0,0:0:0:0:
152,56,32657,2,0,L|8:48,1,136,8|0,1:0|0:0,0:0:0:0:
172,220,33086,2,0,L|307:212,1,136,0|2,0:0|0:1,0:0:0:0:
364,152,33515,1,2,0:1:0:0:
285,44,33657,2,0,L|292:112,2,68,0|8|0,0:0|1:0|0:0,0:0:0:0:
440,192,34086,2,0,L|433:259,1,68,0|0,0:0|0:0,0:0:0:0:
424,340,34371,5,2,0:1:0:0:
446,124,34514,2,0,L|440:192,1,68,0|0,0:0|0:0,0:0:0:0:
392,260,34800,1,0,0:0:0:0:
388,64,34943,2,0,P|436:44|516:80,1,136,8|0,1:0|0:0,0:0:0:0:
364,152,35371,2,0,P|316:172|236:136,1,136,0|2,0:0|0:1,0:0:0:0:
208,68,35800,1,2,0:1:0:0:
296,204,35943,2,0,L|280:288,2,68,0|8|2,0:0|1:0|0:1,0:0:0:0:
136,108,36371,2,0,P|128:80|132:40,1,68
172,180,36657,5,2,0:1:0:0:
156,260,36800,2,0,P|139:284|106:306,2,68,0|0|0,0:0|0:0|0:0,0:0:0:0:
244,344,37229,2,0,L|379:337,1,136,8|0,1:0|0:0,0:0:0:0:
379,337,37800,1,0,0:0:0:0:
420,204,37943,1,8,1:0:0:0:
412,172,38014,1,8,1:0:0:0:
404,140,38086,1,0,1:0:0:0:
272,264,38229,1,8,1:0:0:0:
512,224,38371,1,8,1:0:0:0:
492,144,38514,1,8,1:0:0:0:
468,64,38657,1,8,1:0:0:0:
340,216,38800,1,0,1:0:0:0:
340,216,38871,1,0,1:0:0:0:
340,216,38943,5,4,0:0:0:0:
382,57,39085,2,0,L|404:140,1,85,0|8,0:0|0:0,0:0:0:0:
428,224,39371,1,0,0:0:0:0:
300,100,39514,2,0,B|256:96|256:96|217:109,1,85
90,43,39800,2,0,B|134:47|134:47|172:33,1,85,8|0,0:0|0:0,0:0:0:0:
264,179,40086,6,0,L|272:264,1,85,0|0,0:0|0:0,0:0:0:0:
212,328,40371,1,8,0:0:0:0:
44,243,40514,2,0,P|117:207|187:247,2,170,0|0|0,0:0|0:0|0:0,0:0:0:0:
116,292,41229,5,0,0:0:0:0:
60,128,41371,2,0,L|68:44,2,85,0|8|0,0:0|0:0|0:0,0:0:0:0:
168,60,41800,2,0,B|200:48|200:48|250:48,1,85
372,136,42086,2,0,B|340:148|340:148|289:148,1,85,8|0,0:0|0:0,0:0:0:0:
409,64,42371,6,0,P|453:124|409:212,1,170,0|8,0:0|0:0,0:0:0:0:
346,373,42800,2,0,P|301:305|336:232,2,170,0|0|0,0:0|0:0|0:0,0:0:0:0:
388,300,43514,5,0,0:0:0:0:
372,136,43658,1,0,0:0:0:0:
240,196,43800,2,0,B|200:212|200:212|152:208,1,85,8|0,0:0|0:0,0:0:0:0:
200,12,44086,2,0,P|236:36|188:128,1,170,0|8,0:0|0:0,0:0:0:0:
136,64,44514,1,0,0:0:0:0:
76,196,44657,6,0,L|88:296,1,85,0|0,0:0|0:0,0:0:0:0:
86,280,44943,1,8,0:0:0:0:
196,356,45086,2,0,B|232:378|276:358|276:358|316:340|359:362,2,170,0|0|0,0:0|0:0|0:0,0:0:0:0:
240,284,45800,5,0,0:0:0:0:
440,352,45943,2,0,P|480:340|512:304,1,85,0|8,0:0|0:0,0:0:0:0:
432,268,46228,1,0,0:0:0:0:
496,136,46371,2,0,L|488:48,1,85
328,184,46657,2,0,L|320:268,1,85,8|0,0:0|0:0,0:0:0:0:
408,144,46943,5,0,0:0:0:0:
324,156,47086,1,0,0:0:0:0:
240,168,47229,1,8,0:0:0:0:
75,96,47371,2,0,P|139:108|215:36,1,170
60,88,47800,2,0,L|80:180,1,85,8|0,0:0|0:0,0:0:0:0:
144,220,48086,6,0,B|131:268|131:268|156:315|156:315|145:363,2,152.999995330811,6|2|2,0:1|0:1|0:1,0:0:0:0:
196,64,49229,2,0,L|216:172,1,101.999996887207,2|0,0:1|0:0,0:0:0:0:
268,228,49657,1,2,0:1:0:0:
328,172,49800,2,0,P|376:164|428:192,1,101.999996887207,0|2,0:0|0:1,0:0:0:0:
356,376,50371,6,0,P|331:306|367:241,2,152.999995330811,2|2|2,0:1|0:1|0:1,0:0:0:0:
500,208,51514,2,0,L|484:100,1,101.999996887207,2|0,0:1|0:0,0:0:0:0:
404,124,51943,1,2,0:1:0:0:
332,88,52086,2,0,B|284:68|284:68|235:81,1,101.999996887207,0|2,0:0|0:1,0:0:0:0:
129,252,52657,6,0,P|190:225|211:163,1,136,2|0,0:0|2:0,0:0:0:0:
128,168,53086,1,2,0:0:0:0:
56,204,53229,2,0,P|46:269|83:324,1,136,0|2,2:0|0:0,0:0:0:0:
272,280,53800,2,0,L|416:304,1,136,2|0,0:0|2:0,0:0:0:0:
480,264,54229,1,2,0:0:0:0:
436,196,54371,2,0,P|423:129|439:63,1,136,0|2,2:0|0:0,0:0:0:0:
439,63,54943,6,0,L|371:70,1,68,2|0,0:0|2:0,0:0:0:0:
216,232,55229,2,0,L|283:224,1,68,2|0,0:0|2:0,0:0:0:0:
492,44,55514,6,0,L|397:54,1,68,2|0,0:0|2:0,0:0:0:0:
169,248,55800,2,0,L|263:237,1,68,2|0,0:0|2:0,0:0:0:0:
304,20,56086,5,0,0:0:0:0:
290,51,56157,1,0,0:0:0:0:
289,84,56228,1,0,0:0:0:0:
301,116,56300,1,0,0:0:0:0:
322,143,56371,1,0,0:0:0:0:
344,168,56443,1,0,0:0:0:0:
361,198,56514,1,0,0:0:0:0:
368,231,56586,1,0,0:0:0:0:
358,263,56657,6,0,P|304:300|203:238,1,178.499994552612
204,243,57229,6,0,L|189:326,1,85,4|0,0:0|0:0,0:0:0:0:
92,217,57514,1,8,0:0:0:0:
183,74,57657,2,0,L|203:242,1,170
361,198,58086,2,0,P|344:160|304:136,1,85,8|0,0:0|0:0,0:0:0:0:
444,140,58372,6,0,L|532:132,2,85,0|0|8,0:0|0:0|0:0,0:0:0:0:
280,217,58800,1,0,0:0:0:0:
384,72,58943,1,0,0:0:0:0:
444,228,59085,2,0,L|431:312,1,85,0|8,0:0|0:0,0:0:0:0:
227,149,59371,6,0,P|307:137|361:198,1,170
265,301,59800,2,0,L|280:217,1,85,8|0,0:0|0:0,0:0:0:0:
156,100,60086,2,0,L|140:16,1,85
156,100,60371,1,8,0:0:0:0:
92,204,60514,6,0,P|112:248|60:352,1,170
12,200,60943,2,0,P|24:156|60:128,1,85,8|0,0:0|0:0,0:0:0:0:
144,296,61229,2,0,L|312:276,1,170,0|8,0:0|0:0,0:0:0:0:
372,216,61657,1,0,0:0:0:0:
319,44,61800,6,0,P|291:74|281:115,1,85
264,304,62086,1,8,0:0:0:0:
432,272,62229,2,0,P|456:208|392:132,1,170
264,304,62657,2,0,L|348:294,1,85,8|0,0:0|0:0,0:0:0:0:
184,148,62943,1,0,0:0:0:0:
136,220,63086,1,0,0:0:0:0:
177,293,63229,1,8,0:0:0:0:
268,156,63371,2,0,L|84:140,1,170
303,44,63800,1,8,0:0:0:0:
312,232,63943,6,0,B|304:276|304:276|316:320,2,85
356,108,64371,2,0,P|381:74|386:33,1,85,8|0,0:0|0:0,0:0:0:0:
268,156,64657,2,0,L|436:133,1,170,0|8,0:0|0:0,0:0:0:0:
208,100,65086,6,0,P|188:156|228:228,1,136
140,336,65514,2,0,L|144:260,1,68
268,156,65800,5,8,0:0:0:0:
295,152,65871,1,0,0:0:0:0:
322,149,65942,1,0,0:0:0:0:
349,146,66014,1,0,0:0:0:0:
384,168,66086,5,8,0:0:0:0:
411,164,66157,1,0,0:0:0:0:
438,161,66228,1,0,0:0:0:0:
465,158,66299,1,0,0:0:0:0:
512,176,66371,6,0,L|492:88,1,85,4|0,0:0|0:0,0:0:0:0:
456,240,66657,1,8,0:0:0:0:
492,348,66800,2,0,P|436:316|336:340,1,170
260,372,67229,2,0,L|164:360,1,85,8|0,0:0|0:0,0:0:0:0:
120,300,67514,5,0,0:0:0:0:
184,244,67657,2,0,L|176:152,1,85,0|8,0:0|0:0,0:0:0:0:
44,16,67943,2,0,L|36:100,1,85
240,120,68229,2,0,P|167:84|104:133,1,170
268,32,68657,6,0,L|352:23,1,85
428,64,68943,1,8,0:0:0:0:
428,256,69086,2,0,P|362:208|372:128,1,170,0|0,0:0|0:0,0:0:0:0:
320,196,69514,2,0,L|235:204,1,85,8|0,0:0|0:0,0:0:0:0:
152,212,69800,1,0,0:0:0:0:
280,280,69943,6,0,B|292:308|292:308|288:364,1,85,0|8,0:0|0:0,0:0:0:0:
152,212,70229,2,0,B|140:184|140:184|144:128,1,85,0|0,0:0|0:0,0:0:0:0:
204,328,70514,2,0,L|34:345,1,170
137,214,70942,6,0,L|143:129,1,85
100,56,71229,1,8,0:0:0:0:
228,124,71371,2,0,B|276:140|312:120|312:120|348:100|392:114,1,170
356,192,71800,2,0,P|348:232|360:280,1,85,8|0,0:0|0:0,0:0:0:0:
432,232,72086,1,0,0:0:0:0:
357,274,72228,6,0,L|264:288,1,85,0|8,0:0|0:0,0:0:0:0:
55,226,72514,2,0,B|99:228|99:228|136:214,1,85,0|0,0:0|0:0,0:0:0:0:
158,36,72800,2,0,P|84:67|83:147,1,170
184,288,73229,6,0,L|172:380,1,85,8|0,0:0|0:0,0:0:0:0:
173,372,73514,1,8,0:0:0:0:
236,224,73657,2,0,P|283:189|380:235,1,170,0|0,0:0|0:0,0:0:0:0:
404,312,74086,2,0,P|368:316|320:292,1,85,8|0,0:0|0:0,0:0:0:0:
377,229,74371,5,8,0:0:0:0:
461,100,74514,2,0,L|448:184,1,85,0|8,0:0|0:0,0:0:0:0:
320,112,74800,1,8,0:0:0:0:
287,107,74871,1,0,0:0:0:0:
254,103,74943,1,8,0:0:0:0:
388,60,75086,1,8,0:0:0:0:
296,192,75229,2,0,L|192:176,1,85,8|8,0:0|0:0,0:0:0:0:
404,312,75514,5,6,0:0:0:0:
244,196,84657,5,6,0:1:0:0:
320,224,84800,2,0,L|380:212,2,50.9999984436036,0|0|2,0:0|0:0|0:1,0:0:0:0:
256,276,85229,2,0,P|212:272|167:228,1,101.999996887207,0|0,0:0|0:0,0:0:0:0:
132,164,85657,2,0,P|87:141|37:150,1,101.999996887207,0|0,0:0|0:0,0:0:0:0:
76,224,86086,1,0,0:0:0:0:
132,164,86229,2,0,L|112:64,1,101.999996887207,2|0,0:1|0:0,0:0:0:0:
180,20,86657,2,0,L|236:12,1,50.9999984436036
304,48,86943,5,2,0:1:0:0:
384,64,87086,2,0,L|424:24,2,50.9999984436036,0|0|2,0:0|0:0|0:1,0:0:0:0:
328,124,87514,2,0,P|319:173|337:220,1,101.999996887207
396,276,87943,2,0,P|408:324|386:372,1,101.999996887207
328,316,88371,1,0,0:0:0:0:
248,340,88514,2,0,L|146:332,1,101.999996887207,2|0,0:1|0:0,0:0:0:0:
76,292,88943,1,0,0:0:0:0:
76,292,89229,5,2,0:1:0:0:
132,232,89371,2,0,L|132:172,2,50.9999984436036,0|0|2,0:0|0:0|0:1,0:0:0:0:
212,248,89800,2,0,P|260:248|308:216,1,101.999996887207
240,172,90229,2,0,L|224:56,1,101.999996887207
288,16,90657,1,0,0:0:0:0:
356,60,90800,2,0,L|460:40,1,101.999996887207,2|0,0:1|0:0,0:0:0:0:
484,116,91229,2,0,L|433:125,1,50.9999984436036
352,140,91514,5,2,0:1:0:0:
404,204,91657,2,0,L|400:264,2,50.9999984436036,0|0|2,0:0|0:0|0:1,0:0:0:0:
352,140,92086,1,0,0:0:0:0:
124,252,92371,1,0,0:0:0:0:
280,96,92657,6,0,L|276:40,1,50.9999984436036,0|0,1:0|0:0,0:0:0:0:
196,212,92943,1,0,1:0:0:0:
203,241,93014,1,0,1:0:0:0:
200,271,93085,1,0,1:0:0:0:
186,298,93157,1,0,1:0:0:0:
164,319,93228,1,0,1:0:0:0:
136,330,93300,1,0,1:0:0:0:
105,330,93371,6,0,L|236:356,1,127.499996109009,2|0,0:1|2:0,0:0:0:0:
248,352,93800,5,4,0:0:0:0:
319,211,93943,2,0,L|312:296,1,85,0|8,0:0|0:0,0:0:0:0:
380,152,94229,1,0,0:0:0:0:
296,32,94371,2,0,B|264:20|264:20|212:28,1,85
384,52,94657,2,0,B|416:64|416:64|468:56,1,85,8|0,0:0|0:0,0:0:0:0:
248,104,94943,5,0,0:0:0:0:
237,187,95086,1,0,0:0:0:0:
227,270,95229,1,8,0:0:0:0:
168,136,95371,2,0,P|128:124|76:136,1,85
308,240,95657,2,0,P|348:252|400:240,1,85,0|8,0:0|0:0,0:0:0:0:
124,212,95943,2,0,L|113:296,1,85
237,187,96228,5,0,0:0:0:0:
356,164,96371,2,0,L|345:79,1,85,8|0,0:0|0:0,0:0:0:0:
168,136,96657,1,0,0:0:0:0:
260,20,96800,1,0,0:0:0:0:
100,84,96943,1,8,0:0:0:0:
236,188,97086,1,0,0:0:0:0:
80,88,97229,5,0,0:0:0:0:
148,140,97371,1,0,0:0:0:0:
216,192,97514,1,8,0:0:0:0:
348,224,97657,2,0,P|277:209|210:281,2,170,0|0|0,0:0|0:0|0:0,0:0:0:0:
388,148,98371,6,0,L|480:132,1,85
376,304,98657,2,0,P|333:309|296:291,1,85,8|0,0:0|0:0,0:0:0:0:
340,76,98943,1,0,0:0:0:0:
348,224,99086,1,0,0:0:0:0:
260,111,99229,1,8,0:0:0:0:
471,133,99371,1,0,0:0:0:0:
183,142,99514,6,0,L|340:76,1,170,0|8,0:0|0:0,0:0:0:0:
204,248,99943,2,0,P|159:218|47:246,2,170,0|0|0,0:0|0:0|0:0,0:0:0:0:
252,316,100657,5,0,0:0:0:0:
339,181,100800,2,0,L|320:264,1,85,0|8,0:0|0:0,0:0:0:0:
252,316,101086,1,0,0:0:0:0:
288,120,101229,2,0,P|344:100|420:168,1,170,0|8,0:0|0:0,0:0:0:0:
256,196,101657,1,0,0:0:0:0:
420,168,101800,6,0,L|380:333,1,170,0|8,0:0|0:0,0:0:0:0:
308,376,102229,1,8,0:0:0:0:
144,264,102371,1,8,0:0:0:0:
296,288,102514,1,8,0:0:0:0:
140,344,102657,1,8,0:0:0:0:
148,180,102800,1,0,0:0:0:0:
220,316,102943,5,6,0:0:0:0:
256,192,103014,12,2,104086,2:1:0:0:
192,176,112085,5,4,0:0:0:0:
192,176,112371,2,0,L|276:160,1,85
453,194,112657,2,0,P|371:192|323:258,1,170,8|0,0:0|0:0,0:0:0:0:
323,258,113086,1,0,0:0:0:0:
458,343,113229,2,0,L|413:270,1,85
276,332,113514,2,0,B|236:344|236:344|184:336,1,85
323,258,113800,1,8,0:0:0:0:
256,64,114086,2,0,L|264:194,1,127.5,0|0,0:0|2:0,0:0:0:0:
260,204,114371,5,0,0:0:0:0:
92,180,114657,2,0,L|184:164,1,85
40,120,114943,2,0,P|16:156|72:260,1,170,8|0,0:0|0:0,0:0:0:0:
152,264,115371,1,0,0:0:0:0:
260,204,115514,2,0,B|292:200|292:200|344:224,1,85
180,184,115800,2,0,B|160:158|160:158|155:101,1,85,0|0,0:0|0:0,0:0:0:0:
232,284,116086,1,8,0:0:0:0:
256,64,116371,2,0,L|388:52,1,127.5,0|0,0:0|2:0,0:0:0:0:
396,56,116657,5,0,0:0:0:0:
472,268,116943,2,0,L|452:356,1,85
320,264,117229,2,0,P|240:252|184:320,1,170,8|0,0:0|0:0,0:0:0:0:
268,328,117657,1,0,0:0:0:0:
397,236,117800,2,0,L|385:144,1,85
297,35,118086,2,0,L|308:120,1,85
460,108,118371,1,8,0:0:0:0:
224,68,118657,2,0,L|80:80,1,127.5,0|0,0:0|2:0,0:0:0:0:
84,80,118943,5,0,0:0:0:0:
156,232,119229,2,0,P|172:272|168:312,1,85
80,204,119514,2,0,L|249:190,1,170,8|0,0:0|0:0,0:0:0:0:
316,244,119943,1,0,0:0:0:0:
88,288,120086,2,0,L|3:281,1,85
204,113,120371,2,0,L|120:120,1,85
204,32,120657,6,0,P|279:84|212:196,1,238,0|0,0:0|2:0,0:0:0:0:
222,194,121229,6,0,L|374:182,2,152.999995330811,2|2|2,0:0|0:0|0:0,0:0:0:0:
104,308,122371,2,0,L|-8:300,1,101.999996887207,2|0,0:0|2:0,0:0:0:0:
148,240,122800,1,2,0:0:0:0:
252,352,122943,2,0,P|300:364|364:344,1,101.999996887207,0|2,2:0|0:0,0:0:0:0:
452,224,123514,6,0,P|432:156|484:92,2,152.999995330811,2|2|2,0:0|0:0|0:0,0:0:0:0:
332,112,124658,2,0,L|228:96,1,101.999996887207,2|0,0:0|2:0,0:0:0:0:
80,128,125086,1,2,0:0:0:0:
220,176,125229,2,0,P|220:226|195:270,1,101.999996887207,0|2,2:0|0:0,0:0:0:0:
64,376,125800,6,0,L|216:352,2,152.999995330811,2|2|2,0:0|0:0|0:0,0:0:0:0:
195,270,126943,2,0,P|252:272|292:304,1,101.999996887207,2|0,0:0|2:0,0:0:0:0:
112,280,127371,1,2,0:0:0:0:
300,380,127514,2,0,L|400:364,1,101.999996887207,0|2,2:0|0:0,0:0:0:0:
356,208,128086,6,0,L|344:158,1,50.9999984436036,2|0,0:0|2:0,0:0:0:0:
256,78,128371,2,0,L|268:128,1,50.9999984436036,2|0,0:0|2:0,0:0:0:0:
232,240,128657,2,0,L|220:190,1,50.9999984436036,2|0,0:0|2:0,0:0:0:0:
132,110,128942,2,0,L|143:159,1,50.9999984436036,2|0,0:0|2:0,0:0:0:0:
144,344,129229,5,0,0:0:0:0:
184,347,129300,1,0,0:0:0:0:
225,351,129371,1,0,0:0:0:0:
265,355,129443,1,0,0:0:0:0:
300,324,129514,5,0,0:0:0:0:
340,320,129586,1,0,0:0:0:0:
381,316,129657,1,0,0:0:0:0:
421,312,129728,1,0,0:0:0:0:
460,336,129800,5,0,0:0:0:0:
460,336,131229,5,10,0:0:0:0:
486,176,131514,6,0,L|473:93,1,85,4|0,0:0|0:0,0:0:0:0:
500,264,131800,1,8,0:0:0:0:
384,180,131943,2,0,L|216:211,1,170
208,372,132371,2,0,L|291:356,1,85,8|0,0:0|0:0,0:0:0:0:
168,144,132657,5,0,0:0:0:0:
136,224,132800,1,0,0:0:0:0:
188,292,132943,1,8,0:0:0:0:
248,128,133086,2,0,B|260:88|260:88|248:40,1,85
98,93,133371,1,0,0:0:0:0:
136,224,133514,2,0,L|224:212,1,85,8|0,0:0|0:0,0:0:0:0:
388,192,133800,5,0,0:0:0:0:
188,292,133943,1,0,0:0:0:0:
336,123,134086,2,0,P|417:116|470:178,1,170,8|0,0:0|0:0,0:0:0:0:
366,272,134514,2,0,P|370:230|388:192,1,85,0|8,0:0|0:0,0:0:0:0:
500,44,134800,6,0,L|330:28,1,170
152,80,135229,1,8,0:0:0:0:
316,16,135371,1,0,0:0:0:0:
144,108,135514,2,0,B|136:136|136:136|152:192,1,85,0|0,0:0|0:0,0:0:0:0:
56,88,135800,2,0,B|64:60|64:60|48:4,1,85,8|0,0:0|0:0,0:0:0:0:
54,186,136085,6,0,L|76:267,1,85
147,366,136371,1,8,0:0:0:0:
248,236,136514,2,0,P|318:225|377:300,1,170,0|0,0:0|0:0,0:0:0:0:
188,292,136943,2,0,P|172:256|172:204,1,85,8|0,0:0|0:0,0:0:0:0:
360,128,137229,5,0,0:0:0:0:
368,212,137372,1,0,0:0:0:0:
377,295,137514,1,8,0:0:0:0:
360,128,137657,2,0,L|352:44,1,85
288,176,137943,1,0,0:0:0:0:
448,244,138086,1,8,0:0:0:0:
280,96,138229,6,0,P|239:108|213:140,1,85,0|8,0:0|0:0,0:0:0:0:
440,164,138514,1,0,0:0:0:0:
296,268,138657,2,0,L|120:260,1,170,8|8,0:0|0:0,0:0:0:0:
56,312,139086,1,0,0:0:0:0:
136,184,139229,1,8,0:0:0:0:
204,340,139371,6,0,L|305:344,1,101.999996887207
422,298,139800,2,0,L|372:296,1,50.9999984436036
204,340,140086,1,0,0:0:0:0:
184,112,140371,1,0,0:0:0:0:
362,218,140657,6,0,L|446:205,1,85,12|0,0:0|0:0,0:0:0:0:
273,203,140943,1,8,0:0:0:0:
244,52,141086,2,0,L|412:76,1,170
184,112,141514,2,0,P|162:75|162:33,1,85,8|0,0:0|0:0,0:0:0:0:
156,196,141800,5,8,0:0:0:0:
208,264,141943,1,0,0:0:0:0:
180,344,142086,1,8,0:0:0:0:
72,211,142229,2,0,L|156:196,1,85,0|8,0:0|0:0,0:0:0:0:
264,332,142514,1,0,0:0:0:0:
128,276,142657,1,8,0:0:0:0:
348,216,142800,6,0,L|332:44,1,170,0|0,0:0|0:0,0:0:0:0:
424,132,143229,2,0,L|431:216,1,85,8|0,0:0|0:0,0:0:0:0:
264,144,143514,2,0,L|256:59,1,85,8|0,0:0|0:0,0:0:0:0:
348,216,143800,1,8,0:0:0:0:
176,168,143943,6,0,P|93:163|44:232,1,170
164,316,144371,2,0,L|129:238,1,85,8|0,0:0|0:0,0:0:0:0:
44,227,144657,1,8,0:0:0:0:
176,168,144800,1,0,0:0:0:0:
129,238,144943,1,8,0:0:0:0:
132,96,145086,1,0,0:0:0:0:
218,253,145229,6,0,L|302:265,1,85,8|0,0:0|0:0,0:0:0:0:
433,239,145514,1,8,0:0:0:0:
376,52,145657,2,0,P|315:107|319:189,1,170,0|0,0:0|0:0,0:0:0:0:
423,320,146086,2,0,P|439:280|433:239,1,85,8|0,0:0|0:0,0:0:0:0:
344,352,146371,5,8,0:0:0:0:
260,360,146514,1,0,0:0:0:0:
176,372,146658,1,8,0:0:0:0:
23,316,146800,2,0,L|108:320,1,85,0|8,0:0|0:0,0:0:0:0:
260,360,147086,1,0,0:0:0:0:
176,240,147229,6,0,L|172:156,1,85,8|0,0:0|0:0,0:0:0:0:
296,228,147514,1,8,0:0:0:0:
260,360,147657,1,0,0:0:0:0:
156,224,147800,6,0,L|152:140,1,85,8|0,0:0|0:0,0:0:0:0:
296,228,148085,1,8,0:0:0:0:
260,360,148229,1,0,0:0:0:0:
136,204,148371,6,0,L|132:120,1,85,8|0,0:0|0:0,0:0:0:0:
296,228,148657,1,8,0:0:0:0:
260,360,148800,1,0,0:0:0:0:
124,360,148943,5,8,0:0:0:0:
232,280,149085,1,0,0:0:0:0:
360,324,149229,2,0,L|444:313,1,85,8|0,0:0|0:0,0:0:0:0:
328,156,149514,2,0,P|292:148|244:164,1,85,8|0,0:0|0:0,0:0:0:0:
443,196,149800,6,0,L|396:92,1,101.999996887207,0|12,2:0|0:0,0:0:0:0:
472,284,150229,6,0,L|497:115,1,170
344,32,150657,2,0,P|296:28|259:41,1,85,8|0,0:0|0:0,0:0:0:0:
208,108,150943,5,0,0:0:0:0:
291,228,151086,2,0,L|284:144,1,85,0|8,0:0|0:0,0:0:0:0:
143,235,151371,2,0,L|220:272,1,85,0|0,0:0|0:0,0:0:0:0:
208,108,151657,2,0,L|138:156,1,85,0|8,0:0|0:0,0:0:0:0:
292,228,151943,1,0,0:0:0:0:
155,336,152086,6,0,L|43:325,1,85
2,211,152372,1,8,0:0:0:0:
156,248,152514,2,0,P|228:280|240:364,1,170
292,228,152943,2,0,L|392:220,1,85,8|0,0:0|0:0,0:0:0:0:
448,176,153229,5,0,0:0:0:0:
371,54,153371,2,0,P|363:95|376:136,1,85,0|8,0:0|0:0,0:0:0:0:
452,257,153657,2,0,P|460:216|448:176,1,85
292,228,153942,2,0,L|392:220,1,85,0|8,0:0|0:0,0:0:0:0:
240,160,154229,1,0,0:0:0:0:
248,300,154371,6,0,L|163:292,1,85
26,322,154657,1,8,0:0:0:0:
32,176,154800,2,0,B|16:132|48:96|48:96|76:68|65:18,1,170
116,156,155229,2,0,L|200:146,1,85,8|0,0:0|0:0,0:0:0:0:
268,200,155514,5,0,0:0:0:0:
320,132,155657,2,0,B|332:92|332:92|320:44,1,85,0|8,0:0|0:0,0:0:0:0:
388,188,155943,2,0,B|429:192|429:192|474:172,1,85,0|0,0:0|0:0,0:0:0:0:
336,260,156229,2,0,L|341:353,1,85,0|8,0:0|0:0,0:0:0:0:
268,200,156514,1,0,0:0:0:0:
321,50,156657,6,0,L|405:44,1,85
388,188,156943,1,8,0:0:0:0:
252,92,157086,2,0,P|180:56|96:96,1,170
106,245,157514,2,0,P|128:209|128:168,1,85,8|0,0:0|0:0,0:0:0:0:
44,188,157800,5,0,0:0:0:0:
132,324,157943,2,0,L|216:321,1,85,0|8,0:0|0:0,0:0:0:0:
360,257,158229,2,0,L|276:260,1,85,0|0,0:0|0:0,0:0:0:0:
176,140,158515,1,0,0:0:0:0:
324,176,158657,1,8,0:0:0:0:
184,236,158800,1,0,0:0:0:0:
268,108,158943,6,0,L|264:12,1,85,8|0,0:0|0:0,0:0:0:0:
324,176,159229,1,8,0:0:0:0:
175,140,159371,2,0,P|132:152|104:180,1,85,0|8,0:0|0:0,0:0:0:0:
132,324,159657,1,0,0:0:0:0:
105,179,159800,2,0,L|92:92,1,85,8|0,0:0|0:0,0:0:0:0:
40,236,160086,5,8,0:0:0:0:
184,236,160229,2,0,L|276:240,1,85,0|8,0:0|0:0,0:0:0:0:
408,172,160515,2,0,L|324:176,1,85,0|8,0:0|0:0,0:0:0:0:
276,316,160800,2,0,P|316:303|345:273,1,85,0|8,0:0|0:0,0:0:0:0:
244,160,161086,1,0,0:0:0:0:
356,84,161229,6,0,L|368:-8,1,85,8|0,0:0|0:0,0:0:0:0:
208,88,161514,1,8,0:0:0:0:
336,160,161657,2,0,P|380:160|420:136,1,85,0|8,0:0|0:0,2:0:0:0:
500,28,161943,1,0,0:0:0:0:
476,192,162086,2,0,L|492:288,1,85,8|0,0:0|0:0,0:0:0:0:
336,328,162371,5,8,0:0:0:0:
464,184,162515,2,0,L|480:280,1,85,0|8,0:0|0:0,0:0:0:0:
252,320,162800,2,0,P|264:280|300:248,1,85,0|8,0:0|0:0,0:0:0:0:
420,335,163086,2,0,L|336:328,1,85,0|8,0:0|0:0,0:0:0:0:
168,312,163371,1,0,0:0:0:0:
294,250,163514,6,0,L|208:228,1,85,8|0,0:0|0:0,0:0:0:0:
84,312,163800,1,8,0:0:0:0:
184,152,163943,2,0,L|97:129,1,85,0|8,0:0|0:0,0:0:0:0:
256,108,164229,1,0,0:0:0:0:
28,160,164371,2,0,P|24:120|44:76,1,85,8|0,0:0|0:0,0:0:0:0:
96,212,164657,5,8,0:0:0:0:
256,108,164800,2,0,L|352:100,1,85,0|8,0:0|0:0,0:0:0:0:
448,208,165086,2,0,L|352:200,1,85,0|8,0:0|0:0,0:0:0:0:
232,304,165371,2,0,L|328:296,1,85,0|8,0:0|0:0,0:0:0:0:
176,240,165657,1,0,0:0:0:0:
256,108,165800,6,0,L|240:24,1,85,8|0,0:0|0:0,0:0:0:0:
240,188,166086,1,8,0:0:0:0:
96,248,166229,2,0,P|108:285|153:314,1,85,0|8,0:0|0:0,0:0:0:0:
128,172,166515,1,0,0:0:0:0:
196,376,166657,2,0,L|292:368,1,85,8|0,0:0|0:0,0:0:0:0:
176,240,166943,5,8,0:0:0:0:
308,292,167086,2,0,B|328:268|328:268|340:208,1,85,0|8,0:0|0:0,0:0:0:0:
236,103,167371,2,0,L|240:188,1,85,0|8,0:0|0:0,0:0:0:0:
284,32,167657,1,8,0:0:0:0:
156,128,167800,1,8,0:0:0:0:
320,124,167943,1,8,0:0:0:0:
180,40,168086,5,4,0:0:0:0:
180,40,168371,2,0,L|120:44,1,50.9999984436036
72,104,168657,2,0,L|84:208,1,101.999996887207
36,272,169086,2,0,P|88:288|132:272,1,101.999996887207
192,216,169514,1,0,0:0:0:0:
244,156,169657,2,0,P|291:140|339:156,1,101.999996887207
292,224,170086,2,0,L|304:284,1,50.9999984436036
360,332,170371,5,0,0:0:0:0:
360,332,170657,2,0,L|420:336,1,50.9999984436036
484,300,170943,2,0,P|500:252|480:200,1,101.999996887207
420,156,171371,2,0,P|404:108|417:59,1,101.999996887207
484,108,171800,1,0,0:0:0:0:
420,156,171943,2,0,L|308:144,1,101.999996887207
248,188,172371,2,0,L|197:182,1,50.9999984436036
136,124,172657,5,0,0:0:0:0:
136,124,172943,2,0,L|108:176,1,50.9999984436036
32,184,173229,2,0,L|60:282,1,101.999996887207
116,340,173657,2,0,B|164:356|164:356|220:348,1,101.999996887207
284,300,174086,1,0,0:0:0:0:
356,260,174229,2,0,P|320:224|268:220,1,101.999996887207
284,300,174657,2,0,L|304:352,1,50.9999984436036
384,336,174943,5,0,0:0:0:0:
384,336,175228,2,0,L|448:336,1,50.9999984436036
456,256,175514,2,0,P|432:208|440:156,1,101.999996887207
484,92,175943,2,0,L|384:72,1,101.999996887207
312,112,176371,1,0,0:0:0:0:
248,164,176514,2,0,P|232:211|242:261,2,101.999996887207
