osu file format v14

[General]
AudioFilename: Amatsuki - Streaming Heart.mp3
AudioLeadIn: 1000
PreviewTime: 131514
Countdown: 0
SampleSet: Soft
StackLeniency: 0.7
Mode: 0
LetterboxInBreaks: 0
WidescreenStoryboard: 0

[Editor]
Bookmarks: 75514,84657,104086,112086
DistanceSpacing: 1.6
BeatDivisor: 4
GridSize: 4
TimelineZoom: 2.599999

[Metadata]
Title:Streaming Heart
TitleUnicode:ストリーミングハート
Artist:Amatsuki
ArtistUnicode:天月
Creator:HelloSCV
Version:Expert
Source:
Tags:deco*27 deco27 nico douga vocaloid hatsune miku
BeatmapID:608577
BeatmapSetID:267247

[Difficulty]
HPDrainRate:7
CircleSize:4
OverallDifficulty:9
ApproachRate:9.3
SliderMultiplier:1.7
SliderTickRate:1

[Events]
//Background and Video events
0,0,"BG.jpg",0,0
Video,0,"PV.avi"
//Break Periods
2,75714,84103
2,104286,111531
//Storyboard Layer 0 (Background)
//Storyboard Layer 1 (Fail)
//Storyboard Layer 2 (Pass)
//Storyboard Layer 3 (Foreground)
//Storyboard Layer 4 (Overlay)
//Storyboard Sound Samples

[TimingPoints]
1229,285.714285714286,4,2,1,50,1,0
1229,-166.666666666667,4,2,1,50,0,0
9229,-100,4,2,1,50,0,0
10371,-125,4,1,1,60,0,0
29800,-125,4,2,1,60,0,0
38943,-100,4,1,1,70,0,0
48086,-166.666666666667,4,1,1,50,0,0
52657,-125,4,1,1,60,0,0
56657,-166.666666666667,4,1,1,70,0,0
57157,-166.666666666667,4,2,1,5,0,0
57229,-100,4,1,1,80,0,1
65086,-125,4,2,1,80,0,0
65800,-125,4,1,1,80,0,0
66371,-100,4,1,1,70,0,1
66443,-100,4,1,1,70,0,0
84657,-166.666666666667,4,2,1,40,0,0
92657,-166.666666666667,4,2,1,60,0,0
93800,-100,4,1,1,60,0,0
102943,-125,4,1,1,40,0,0
112086,-100,4,1,1,70,0,0
120657,-166.666666666667,4,2,1,70,0,0
121157,-166.666666666667,4,2,1,5,0,0
121229,-166.666666666667,4,1,1,50,0,0
125800,-166.666666666667,4,1,1,60,0,0
131514,-100,4,1,1,80,0,1
139371,-200,4,2,1,60,0,0
140657,-100,4,1,1,80,0,1
149800,-200,4,1,1,80,0,0
150086,-100,4,1,1,70,0,1
150157,-100,4,1,1,70,0,0
168086,-166.666666666667,4,2,1,40,0,0

[Colours]
Combo1 : 191,191,191
Combo2 : 255,145,145
Combo3 : 255,70,70
Combo4 : 255,160,115
Combo5 : 246,246,246

[HitObjects]
188,266,1229,53,2,0:1:0:0:
327,251,1514,2,0,L|276:256,1,50.9999984436036,2|0,0:1|0:0,0:0:0:0:
126,184,1800,2,0,L|85:277,1,101.999996887207,2|2,0:1|0:1,0:0:0:0:
227,359,2229,6,0,P|272:338|321:345,1,101.999996887207
468,295,2657,1,2,0:1:0:0:
330,164,2800,2,0,L|354:65,1,101.999996887207
440,200,3229,2,0,L|427:150,1,50.9999984436036,2|0,0:1|0:0,0:0:0:0:
281,17,3514,53,2,0:1:0:0:
232,163,3800,2,0,L|182:150,1,50.9999984436036,2|0,0:1|0:0,0:0:0:0:
155,266,4086,2,0,P|110:288|87:332,1,101.999996887207,2|2,0:1|0:1,0:0:0:0:
101,191,4514,6,0,L|2:165,1,101.999996887207
171,64,4943,1,0,0:1:0:0:
307,120,5086,2,0,P|320:169|301:216,1,101.999996887207
234,364,5514,2,0,L|184:350,1,50.9999984436036,2|0,0:1|0:0,0:0:0:0:
364,323,5800,53,2,0:1:0:0:
218,220,6085,2,0,L|226:270,1,50.9999984436036,2|0,0:1|0:0,0:0:0:0:
140,164,6371,2,0,P|89:163|44:189,1,101.999996887207,2|2,0:1|0:1,0:0:0:0:
85,344,6800,6,0,P|111:300|111:248,1,101.999996887207
67,84,7229,1,2,0:1:0:0:
237,125,7371,2,0,L|338:112,1,101.999996887207
480,68,7800,2,0,L|429:61,1,50.9999984436036,2|0,0:1|0:0,0:0:0:0:
392,193,8086,53,2,0:1:0:0:
477,306,8371,2,0,L|467:255,1,50.9999984436036
306,246,8658,2,0,P|259:226|208:231,1,101.999996887207
361,337,9086,1,0,0:0:0:0:
103,306,9229,21,0,0:0:0:0:
107,280,9300,1,0,0:0:0:0:
111,255,9371,1,0,0:0:0:0:
116,230,9443,1,0,0:0:0:0:
120,205,9514,1,0,0:0:0:0:
244,313,9657,1,0,0:0:0:0:
51,144,9800,2,0,L|39:59,1,85,8|0,1:0|0:0,0:0:0:0:
7,264,10086,5,8,1:0:0:0:
329,154,10229,1,8,1:0:0:0:
101,330,10371,6,0,P|150:285|216:278,1,136,6|0,0:0|0:0,0:0:0:0:
377,334,10800,1,0,0:0:0:0:
308,177,10943,2,0,L|316:244,1,68,8|0,0:0|0:0,0:0:0:0:
455,105,11229,2,0,P|464:72|464:38,1,68
400,189,11514,37,2,0:0:0:0:
225,60,11658,1,0,0:0:0:0:
228,86,11729,1,2,0:0:0:0:
231,113,11800,1,0,0:0:0:0:
376,58,11943,1,2,0:0:0:0:
135,114,12086,2,0,L|56:107,1,68,8|0,0:0|0:0,0:0:0:0:
204,232,12371,2,0,P|214:264|212:297,1,68
4,302,12657,6,0,P|62:268|128:275,1,136,2|0,0:0|0:0,0:0:0:0:
67,107,13086,1,0,0:0:0:0:
289,207,13229,2,0,L|356:196,1,68,8|0,0:0|0:0,0:0:0:0:
268,64,13514,2,0,L|200:53,1,68
154,181,13800,5,2,0:0:0:0:
237,296,13942,1,0,0:0:0:0:
231,322,14014,1,2,0:0:0:0:
226,348,14085,1,0,0:0:0:0:
376,341,14229,1,2,0:0:0:0:
474,229,14371,2,0,P|460:197|438:172,1,68,8|0,0:0|0:0,0:0:0:0:
422,50,14657,2,0,L|355:36,1,68
288,164,14943,38,0,L|153:181,1,136,2|0,0:0|0:0,0:0:0:0:
372,246,15371,1,0,0:0:0:0:
203,279,15514,2,0,P|195:312|201:345,1,68,8|0,0:0|0:0,0:0:0:0:
52,214,15800,2,0,P|57:180|50:147,1,68
0,27,16086,5,2,0:0:0:0:
174,69,16229,1,0,0:0:0:0:
200,65,16300,1,2,0:0:0:0:
227,62,16371,1,0,0:0:0:0:
367,143,16514,1,2,0:0:0:0:
214,160,16657,2,0,P|212:193|222:226,1,68,8|0,0:0|0:0,0:0:0:0:
419,311,16943,2,0,P|428:278|427:244,1,68
187,325,17229,6,0,L|321:302,1,136,2|0,0:0|0:0,0:0:0:0:
455,151,17657,1,0,0:0:0:0:
316,72,17800,2,0,P|307:39|307:5,1,68,8|0,0:0|0:0,0:0:0:0:
117,43,18085,2,0,L|50:31,1,68
218,61,18371,37,2,0:0:0:0:
127,175,18514,1,0,0:0:0:0:
131,201,18585,1,2,0:0:0:0:
135,228,18656,1,0,0:0:0:0:
40,124,18800,1,2,0:0:0:0:
226,177,18943,2,0,L|238:257,1,68,8|0,0:0|0:0,0:0:0:0:
62,293,19228,2,0,L|50:373,1,68
256,332,19514,6,0,P|319:311|381:334,1,136,6|0,0:0|0:0,0:0:0:0:
356,199,19943,1,0,0:0:0:0:
443,94,20086,2,0,L|454:26,1,68,8|0,0:0|0:0,0:0:0:0:
258,101,20372,2,0,L|269:168,1,68
338,22,20657,5,2,0:0:0:0:
166,85,20800,1,0,0:0:0:0:
138,82,20871,1,2,0:0:0:0:
111,79,20942,1,0,0:0:0:0:
11,192,21086,1,2,0:0:0:0:
127,286,21229,2,0,P|128:314|115:362,1,68,8|0,0:0|0:0,0:0:0:0:
287,321,21514,2,0,L|365:306,1,68
477,174,21800,38,0,P|429:127|363:126,1,136,2|0,0:0|0:0,0:0:0:0:
445,291,22229,1,0,0:0:0:0:
287,169,22372,2,0,L|220:156,1,68,8|0,0:0|0:0,0:0:0:0:
73,92,22657,2,0,P|62:59|65:26,1,68
239,75,22943,5,2,0:0:0:0:
99,182,23086,1,0,0:0:0:0:
97,209,23157,1,2,0:0:0:0:
95,236,23228,1,0,0:0:0:0:
192,350,23371,1,2,0:0:0:0:
62,316,23514,2,0,P|28:321|0:338,1,68,8|0,0:0|0:0,0:0:0:0:
195,255,23800,2,0,P|226:266|260:266,1,68
403,361,24086,6,0,L|440:218,1,136,2|0,0:0|0:0,0:0:0:0:
253,177,24514,1,0,0:0:0:0:
432,141,24657,2,0,L|413:69,1,68,8|0,0:0|0:0,0:0:0:0:
219,38,24942,2,0,L|201:103,1,68
327,23,25229,37,2,0:0:0:0:
110,95,25371,1,0,0:0:0:0:
83,100,25442,1,2,0:0:0:0:
56,105,25513,1,0,0:0:0:0:
166,185,25657,1,2,0:0:0:0:
92,299,25800,2,0,P|89:333|103:374,1,68,8|0,0:0|0:0,0:0:0:0:
278,332,26086,2,0,L|365:342,1,68
336,194,26371,6,0,P|358:131|334:69,1,136,2|0,0:0|0:0,0:0:0:0:
183,10,26800,1,0,0:0:0:0:
198,148,26943,2,0,L|278:120,1,68,8|0,0:0|0:0,0:0:0:0:
115,83,27229,2,0,L|35:55,1,68
96,196,27514,5,2,0:0:0:0:
184,299,27657,1,0,0:0:0:0:
187,325,27728,1,2,0:0:0:0:
190,352,27799,1,0,0:0:0:0:
40,324,27942,1,2,0:0:0:0:
181,279,28086,2,0,L|266:287,1,68,8|0,0:0|0:0,0:0:0:0:
385,354,28371,2,0,L|470:346,1,68
402,267,29800,37,6,1:0:0:0:
268,197,29942,2,0,L|336:203,1,68
365,344,30229,1,0,0:0:0:0:
237,279,30371,2,0,P|204:283|175:300,1,68,8|0,1:0|0:0,0:0:0:0:
31,234,30657,1,0,0:0:0:0:
152,158,30800,6,0,L|127:24,1,136,0|2,0:0|0:1,0:0:0:0:
254,74,31229,1,2,0:1:0:0:
379,123,31371,2,0,L|446:110,1,68,0|8,0:0|1:0,0:0:0:0:
477,229,31657,1,2,0:1:0:0:
354,236,31800,2,0,P|320:228|294:207,1,68
387,319,32086,5,2,0:1:0:0:
223,258,32229,2,0,L|156:250,1,68
31,234,32514,1,0,0:0:0:0:
43,370,32657,2,0,P|83:341|168:345,1,136,8|0,1:0|0:0,0:0:0:0:
333,336,33086,38,0,L|401:343,2,68,0|0|2,0:0|0:0|0:1,0:0:0:0:
223,258,33514,1,2,0:1:0:0:
319,165,33657,2,0,P|337:136|343:103,1,68,0|8,0:0|1:0,0:0:0:0:
191,28,33943,2,0,P|197:61|215:89,1,68
312,13,34229,1,0,0:0:0:0:
427,52,34371,5,2,0:1:0:0:
449,172,34514,2,0,L|437:242,1,68
333,305,34800,1,0,0:0:0:0:
217,263,34943,2,0,P|183:259|151:271,1,68,8|0,1:0|0:0,0:0:0:0:
284,182,35229,1,0,0:0:0:0:
176,100,35372,6,0,L|164:32,1,68
50,77,35657,1,2,0:1:0:0:
109,184,35800,1,2,0:1:0:0:
55,294,35943,2,0,P|57:327|46:359,1,68,0|8,0:0|1:0,0:0:0:0:
196,341,36229,1,2,0:1:0:0:
337,297,36371,2,0,L|408:289,1,68
248,269,36657,37,2,0:1:0:0:
333,136,36800,2,0,P|334:102|325:69,1,68
179,25,37086,1,0,0:0:0:0:
98,185,37229,2,0,L|8:169,1,68,8|0,1:0|0:0,0:0:0:0:
169,119,37514,2,0,L|259:103,1,68
129,271,37800,5,0,0:0:0:0:
367,227,37943,1,8,1:0:0:0:
376,252,38014,1,8,1:0:0:0:
385,278,38085,1,0,1:0:0:0:
333,136,38229,1,8,1:0:0:0:
325,352,38371,1,8,1:0:0:0:
435,152,38514,1,8,1:0:0:0:
233,202,38657,1,8,1:0:0:0:
249,46,38800,1,0,1:0:0:0:
258,71,38871,1,0,1:0:0:0:
267,97,38943,6,0,L|278:10,1,85,4|0,0:0|0:0,0:0:0:0:
118,78,39229,2,0,P|76:87|34:82,1,85,8|0,0:0|0:0,0:0:0:0:
177,7,39514,1,0,0:0:0:0:
108,168,39657,1,0,0:0:0:0:
255,212,39800,2,0,P|291:191|333:185,1,85,8|0,0:0|0:0,0:0:0:0:
177,338,40086,38,0,L|165:239,1,85
327,299,40371,1,8,0:0:0:0:
432,152,40514,2,0,P|436:197|421:236,1,85
356,89,40800,2,0,P|342:48|347:6,1,85,0|8,0:0|0:0,0:0:0:0:
216,108,41086,2,0,L|131:101,1,85
295,177,41371,5,0,0:0:0:0:
106,185,41514,2,0,P|67:202|41:235,1,85,8|0,0:0|0:0,0:0:0:0:
175,339,41800,1,0,0:0:0:0:
200,205,41943,1,0,0:0:0:0:
311,282,42086,1,8,0:0:0:0:
441,245,42228,1,0,0:0:0:0:
390,118,42371,6,0,L|402:33,1,85
295,177,42657,1,8,0:0:0:0:
202,77,42800,2,0,P|143:75|105:98,1,85
213,243,43086,2,0,P|245:270|286:278,1,85,0|8,0:0|0:0,0:0:0:0:
83,170,43371,2,0,L|73:254,1,85
120,85,43658,37,0,0:0:0:0:
302,94,43800,2,0,P|341:81|369:50,1,85,8|0,0:0|0:0,0:0:0:0:
419,182,44086,2,0,L|447:266,1,85
466,86,44371,1,8,0:0:0:0:
320,192,44514,1,0,0:0:0:0:
481,355,44657,6,0,L|365:339,1,85
261,324,44943,1,8,0:0:0:0:
135,375,45086,2,0,P|121:335|121:292,1,85
103,142,45371,2,0,P|81:105|48:78,1,85,0|8,0:0|0:0,0:0:0:0:
236,210,45657,2,0,L|319:191,1,85
209,73,45943,5,0,0:0:0:0:
387,126,46086,2,0,L|469:151,1,85,8|0,0:0|0:0,0:0:0:0:
339,284,46371,1,0,0:0:0:0:
300,101,46514,1,0,0:0:0:0:
441,251,46657,2,0,P|450:292|441:333,1,85,8|0,0:0|0:0,0:0:0:0:
220,313,46943,38,0,L|136:323,1,85
14,227,47229,1,8,0:0:0:0:
75,87,47371,2,0,P|105:67|159:58,1,85
291,145,47657,2,0,P|255:147|203:128,1,85,0|8,0:0|0:0,0:0:0:0:
383,106,47943,1,0,0:0:0:0:
447,237,48086,38,0,L|434:292,1,50.9999984436036,6|0,0:0|2:0,0:0:0:0:
470,145,48371,1,0,0:0:0:0:
338,260,48515,2,0,L|287:269,1,50.9999984436036,2|0,0:0|2:0,0:0:0:0:
415,374,48800,1,0,2:0:0:0:
232,349,48943,2,0,P|207:342|186:328,1,50.9999984436036,2|0,0:0|2:0,0:0:0:0:
184,161,49229,6,0,L|175:97,1,50.9999984436036,2|0,0:0|2:0,0:0:0:0:
74,251,49514,2,0,L|81:301,1,50.9999984436036,0|2,2:0|0:0,0:0:0:0:
47,169,49800,2,0,P|22:177|3:193,1,50.9999984436036,0|0,2:0|2:0,0:0:0:0:
172,248,50086,2,0,P|197:250|221:244,1,50.9999984436036,2|0,0:0|2:0,0:0:0:0:
330,135,50371,54,0,L|344:77,1,50.9999984436036,2|0,0:0|2:0,0:0:0:0:
403,203,50657,1,0,2:0:0:0:
288,323,50800,2,0,L|230:339,1,50.9999984436036,2|0,0:0|2:0,0:0:0:0:
311,225,51086,1,0,2:0:0:0:
473,268,51229,2,0,L|509:303,1,50.9999984436036,2|0,0:0|2:0,0:0:0:0:
336,337,51514,6,0,L|288:323,1,50.9999984436036,2|0,0:0|2:0,0:0:0:0:
403,203,51800,2,0,L|449:181,1,50.9999984436036,0|2,2:0|0:0,0:0:0:0:
242,167,52086,2,0,P|228:188|221:212,1,50.9999984436036,0|0,2:0|2:0,0:0:0:0:
341,84,52371,2,0,P|340:59|330:35,1,50.9999984436036,2|0,0:1|2:0,0:0:0:0:
175,59,52657,6,0,L|242:68,1,68,2|0,0:0|0:0,0:0:0:0:
102,136,52943,1,0,2:0:0:0:
104,262,53086,2,0,P|89:292|88:326,1,68,2|0,0:0|2:0,0:0:0:0:
237,312,53371,1,0,0:0:0:0:
371,248,53514,2,0,L|438:238,1,68,2|0,0:0|0:0,0:0:0:0:
261,167,53800,6,0,L|193:157,1,68,2|0,0:0|0:0,0:0:0:0:
59,183,54086,2,0,P|48:151|48:118,1,68,0|2,2:0|0:0,0:0:0:0:
274,9,54371,2,0,P|284:41|285:74,1,68,0|0,2:0|0:0,0:0:0:0:
123,64,54657,2,0,L|190:54,1,68,2|0,0:0|0:0,0:0:0:0:
350,141,54943,6,0,L|417:150,1,68,2|0,0:0|2:0,0:0:0:0:
235,287,55229,2,0,L|167:277,1,68,2|0,0:0|2:0,0:0:0:0:
335,231,55514,2,0,L|325:298,1,68,2|0,0:0|2:0,0:0:0:0:
250,196,55800,2,0,L|259:128,1,68,2|0,0:0|2:0,0:0:0:0:
430,19,56086,37,0,0:0:0:0:
405,42,56157,1,0,0:0:0:0:
374,55,56228,1,0,0:0:0:0:
340,57,56300,1,0,0:0:0:0:
308,48,56371,1,0,0:0:0:0:
276,36,56442,1,0,0:0:0:0:
242,37,56513,1,0,0:0:0:0:
212,52,56585,1,0,0:0:0:0:
190,77,56657,38,0,L|165:253,1,178.499994552612
149,274,57229,38,0,P|188:258|230:262,1,85,4|0,0:0|0:0,0:0:0:0:
83,213,57514,1,8,0:0:0:0:
310,308,57657,2,0,L|397:293,1,85
200,367,57943,1,0,0:0:0:0:
333,193,58086,2,0,P|341:151|332:110,1,85,8|0,0:0|0:0,0:0:0:0:
188,42,58371,5,0,0:0:0:0:
248,151,58515,1,0,0:0:0:0:
111,128,58657,1,8,0:0:0:0:
296,25,58800,2,0,L|379:39,1,85
507,61,59086,1,0,0:0:0:0:
333,193,59229,1,8,0:0:0:0:
479,156,59371,38,0,P|491:196|486:238,1,85
390,122,59657,1,0,0:0:0:0:
204,244,59800,2,0,L|115:222,1,85,8|0,0:0|0:0,0:0:0:0:
290,267,60085,1,0,0:0:0:0:
253,136,60228,1,0,0:0:0:0:
377,289,60372,1,8,0:0:0:0:
221,331,60514,6,0,L|138:351,1,85
38,254,60800,1,0,0:0:0:0:
118,138,60943,2,0,P|123:96|111:55,1,85,8|0,0:0|0:0,0:0:0:0:
287,112,61229,2,0,L|371:100,1,85
249,200,61514,2,0,L|164:211,1,85,8|0,0:0|0:0,0:0:0:0:
313,265,61800,6,0,P|331:302|328:344,1,85
199,325,62086,1,8,0:0:0:0:
82,230,62229,2,0,P|81:187|101:150,1,85
11,299,62514,1,0,0:0:0:0:
12,130,62657,2,0,L|0:45,1,85,8|0,0:0|0:0,0:0:0:0:
170,85,62943,37,0,0:0:0:0:
165,209,63086,1,0,0:0:0:0:
111,12,63229,1,8,0:0:0:0:
259,73,63371,2,0,L|343:61,1,85
481,189,63657,2,0,P|439:188|400:172,1,85,0|8,0:0|0:0,0:0:0:0:
506,102,63942,1,0,0:0:0:0:
392,265,64086,6,0,L|403:349,1,85
317,146,64371,1,8,0:0:0:0:
244,291,64514,1,0,0:0:0:0:
108,217,64657,2,0,P|66:208|25:216,1,85
62,337,64943,1,8,0:0:0:0:
217,199,65086,6,0,L|182:67,1,136
58,39,65515,2,0,L|75:104,1,68
161,304,65800,37,8,0:0:0:0:
202,297,65871,1,0,0:0:0:0:
244,291,65942,1,0,0:0:0:0:
287,285,66014,1,0,0:0:0:0:
320,258,66086,5,8,0:0:0:0:
361,251,66157,1,0,0:0:0:0:
403,245,66228,1,0,0:0:0:0:
446,239,66300,1,0,0:0:0:0:
480,213,66372,6,0,L|497:301,1,85,4|0,0:0|0:0,0:0:0:0:
396,141,66657,1,8,0:0:0:0:
491,22,66800,2,0,L|508:110,1,85
313,82,67086,1,0,0:0:0:0:
189,184,67229,2,0,P|147:191|107:178,1,85,8|0,0:0|0:0,0:0:0:0:
167,58,67514,37,0,0:0:0:0:
285,177,67658,2,0,L|302:265,1,85,0|8,0:0|0:0,0:0:0:0:
399,369,67942,2,0,L|415:285,1,85
492,156,68229,2,0,L|509:239,1,85,0|8,0:0|0:0,0:0:0:0:
384,133,68515,1,0,0:0:0:0:
495,32,68657,6,0,P|453:40|411:33,1,85
268,6,68943,1,8,0:0:0:0:
384,133,69086,2,0,P|345:116|314:86,1,85
141,44,69371,1,0,0:0:0:0:
42,184,69514,2,0,L|126:171,1,85,8|0,0:0|0:0,0:0:0:0:
35,277,69800,5,0,0:0:0:0:
215,214,69943,2,0,P|255:224|286:253,1,85,0|8,0:0|0:0,0:0:0:0:
378,348,70229,2,0,P|337:358|296:349,1,85
136,346,70514,2,0,P|167:317|208:307,1,85,0|8,0:0|0:0,0:0:0:0:
375,258,70800,1,0,0:0:0:0:
495,187,70943,38,0,L|509:270,1,85
425,102,71229,1,8,0:0:0:0:
243,133,71371,2,0,L|159:147,1,85
330,68,71657,1,0,0:0:0:0:
411,186,71800,2,0,L|425:102,1,85,8|0,0:0|0:0,0:0:0:0:
238,27,72086,5,0,0:0:0:0:
92,90,72229,2,0,P|50:85|18:59,1,85,0|8,0:0|0:0,0:0:0:0:
47,207,72514,2,0,L|30:306,1,85
176,244,72800,2,0,P|214:227|256:223,1,85,0|8,0:0|0:0,0:0:0:0:
123,336,73086,1,0,0:0:0:0:
345,284,73229,6,0,L|362:383,1,85,8|0,0:0|0:0,0:0:0:0:
396,216,73514,1,8,0:0:0:0:
306,83,73657,2,0,L|323:182,1,85,0|8,0:0|0:0,0:0:0:0:
357,15,73942,1,0,0:0:0:0:
217,82,74086,2,0,P|174:81|135:67,1,85,8|0,0:0|0:0,0:0:0:0:
12,4,74371,37,8,0:0:0:0:
20,170,74514,2,0,L|119:153,1,85,0|8,0:0|0:0,0:0:0:0:
267,298,74800,1,8,0:0:0:0:
225,305,74871,1,0,0:0:0:0:
183,312,74942,1,8,0:0:0:0:
356,281,75086,1,8,0:0:0:0:
144,233,75229,1,8,0:0:0:0:
321,364,75371,1,8,0:0:0:0:
390,199,75514,5,6,0:0:0:0:
110,117,84657,5,6,0:1:0:0:
219,172,84800,2,0,L|279:158,1,50.9999984436036
387,193,85086,1,2,0:1:0:0:
332,302,85229,2,0,P|310:289|285:281,1,50.9999984436036
164,259,85515,1,0,0:0:0:0:
171,380,85657,38,0,L|271:364,1,101.999996887207
408,343,86086,1,0,0:0:0:0:
387,193,86229,2,0,L|487:208,1,101.999996887207,2|0,0:1|0:0,0:0:0:0:
310,243,86657,2,0,L|259:235,1,50.9999984436036
382,109,86943,5,2,0:1:0:0:
259,26,87086,2,0,P|233:27|209:36,1,50.9999984436036
118,121,87371,1,2,0:1:0:0:
242,157,87514,2,0,L|249:106,1,50.9999984436036
351,26,87800,1,0,0:0:0:0:
405,122,87943,6,0,P|451:140|499:125,1,101.999996887207
351,26,88371,1,0,0:0:0:0:
330,178,88514,2,0,L|316:280,1,101.999996887207,2|0,0:1|0:0,0:0:0:0:
149,334,88943,1,0,0:0:0:0:
119,112,89229,37,2,0:1:0:0:
137,247,89371,2,0,L|130:196,1,50.9999984436036
197,60,89657,1,2,0:1:0:0:
320,114,89800,2,0,P|345:111|368:100,1,50.9999984436036
255,179,90086,1,0,0:0:0:0:
421,174,90229,6,0,L|407:275,1,101.999996887207
285,311,90657,1,0,0:0:0:0:
179,238,90800,2,0,P|132:217|82:222,1,101.999996887207,2|0,0:1|0:0,0:0:0:0:
107,362,91229,2,0,L|114:311,1,50.9999984436036
4,274,91514,5,2,0:1:0:0:
38,147,91658,2,0,L|30:96,1,50.9999984436036
176,106,91943,1,2,0:1:0:0:
292,158,92086,2,0,L|345:151,1,50.9999984436036
287,18,92371,2,0,P|263:16|236:24,1,50.9999984436036
160,203,92657,38,0,L|152:254,1,50.9999984436036,0|0,1:0|0:0,0:0:0:0:
25,130,92943,1,0,1:0:0:0:
29,162,93014,1,0,1:0:0:0:
33,194,93085,1,0,1:0:0:0:
36,225,93157,1,0,1:0:0:0:
40,257,93228,1,0,1:0:0:0:
44,288,93300,1,0,1:0:0:0:
48,320,93371,2,0,L|139:365,1,101.999996887207,2|0,0:1|0:0,0:0:0:0:
290,313,93800,6,0,L|375:301,1,85,4|0,0:0|0:0,0:0:0:0:
512,173,94086,2,0,P|472:157|430:159,1,85,8|0,0:0|0:0,0:0:0:0:
280,221,94371,1,0,0:0:0:0:
456,248,94514,1,0,0:0:0:0:
326,64,94657,2,0,L|339:148,1,85,8|0,0:0|0:0,0:0:0:0:
194,249,94943,6,0,L|181:333,1,85
101,192,95229,1,8,0:0:0:0:
157,71,95371,2,0,L|241:84,1,85
360,236,95657,2,0,P|318:238|280:221,1,85,0|8,0:0|0:0,0:0:0:0:
326,64,95943,2,0,L|339:148,1,85
371,328,96229,37,0,0:0:0:0:
218,286,96372,2,0,P|176:288|140:310,1,85,8|0,0:0|0:0,0:0:0:0:
26,250,96657,1,0,0:0:0:0:
88,108,96800,2,0,L|101:192,1,85,0|8,0:0|0:0,0:0:0:0:
74,21,97086,1,0,0:0:0:0:
251,49,97229,6,0,L|335:62,1,85
164,35,97515,1,8,0:0:0:0:
289,164,97657,2,0,P|306:202|306:244,1,85
403,138,97943,2,0,P|427:103|464:82,1,85,0|8,0:0|0:0,0:0:0:0:
498,275,98229,2,0,L|414:262,1,85
294,331,98514,5,0,0:0:0:0:
158,341,98657,2,0,P|116:334|82:309,1,85,8|0,0:0|0:0,0:0:0:0:
87,127,98943,1,0,0:0:0:0:
153,248,99086,1,0,0:0:0:0:
182,106,99229,2,0,L|275:88,1,85,8|0,0:0|0:0,0:0:0:0:
448,152,99514,38,0,P|405:147|364:155,1,85
228,210,99800,1,8,0:0:0:0:
414,262,99943,2,0,L|435:344,1,85
281,313,100229,2,0,L|178:292,1,85,0|8,0:0|0:0,0:0:0:0:
182,107,100514,2,0,L|265:123,1,85
120,208,100800,5,0,0:0:0:0:
71,85,100943,2,0,P|85:45|117:18,1,85,8|0,0:0|0:0,0:0:0:0:
275,34,101229,2,0,L|358:17,1,85
315,152,101515,1,8,0:0:0:0:
449,43,101657,1,0,0:0:0:0:
369,227,101800,6,0,L|356:312,1,85
232,207,102086,2,0,P|196:188|154:190,1,85,8|8,0:0|0:0,0:0:0:0:
12,279,102371,1,8,0:0:0:0:
174,284,102514,1,8,0:0:0:0:
48,181,102657,1,8,0:0:0:0:
88,346,102800,1,0,0:0:0:0:
263,324,102942,5,6,0:0:0:0:
256,192,102979,12,2,104086,2:1:0:0:
422,89,112085,21,4,0:0:0:0:
338,53,112371,2,0,L|250:70,1,85
150,170,112657,2,0,L|66:153,1,85,8|0,0:0|0:0,0:0:0:0:
172,54,112943,1,0,0:0:0:0:
235,184,113086,1,0,0:0:0:0:
141,294,113229,6,0,B|126:335|126:335|139:375,1,85
231,274,113514,1,0,0:0:0:0:
344,349,113657,1,0,0:0:0:0:
424,239,113800,2,0,L|507:221,1,85,8|0,0:0|0:0,0:0:0:0:
313,137,114086,2,0,L|396:154,1,85
452,25,114371,5,0,0:0:0:0:
228,102,114657,2,0,P|221:144|235:184,1,85
303,340,114943,2,0,L|386:322,1,85,8|0,0:0|0:0,0:0:0:0:
231,274,115229,1,0,0:0:0:0:
313,137,115371,1,0,0:0:0:0:
178,32,115514,38,0,B|135:27|135:27|99:48,1,85
67,211,115800,1,0,0:0:0:0:
228,102,115943,1,0,0:0:0:0:
11,48,116086,2,0,L|25:131,1,85,8|0,0:0|0:0,0:0:0:0:
139,270,116371,2,0,L|124:353,1,85
303,340,116657,5,0,0:0:0:0:
469,245,116943,2,0,L|385:230,1,85
481,110,117229,2,0,P|498:71|494:22,1,85,8|0,0:0|0:0,0:0:0:0:
344,52,117514,2,0,L|260:66,1,85
98,88,117800,5,0,0:0:0:0:
190,220,117943,1,0,0:0:0:0:
336,151,118086,1,0,0:0:0:0:
174,139,118229,1,0,0:0:0:0:
156,298,118371,2,0,L|171:385,1,85,8|0,0:0|0:0,0:0:0:0:
80,257,118657,2,0,L|94:173,1,85
283,224,118943,37,0,0:0:0:0:
400,304,119228,2,0,L|483:289,1,85
336,151,119514,2,0,P|297:134|252:139,1,85,8|0,0:0|0:0,0:0:0:0:
439,185,119800,2,0,L|449:100,1,85
314,25,120086,5,0,0:0:0:0:
173,86,120229,1,0,0:0:0:0:
189,238,120372,1,0,0:0:0:0:
42,280,120514,1,0,0:0:0:0:
146,169,120657,6,0,L|167:366,1,178.499994552612,0|0,0:0|2:0,0:0:0:0:
155,334,121229,6,0,L|219:349,1,50.9999984436036,2|0,0:0|2:0,0:0:0:0:
388,303,121514,1,0,2:0:0:0:
258,275,121657,2,0,L|307:263,1,50.9999984436036,2|0,0:0|2:0,0:0:0:0:
442,230,121943,1,0,2:0:0:0:
306,148,122086,2,0,P|285:133|274:110,1,50.9999984436036,2|0,0:0|2:0,0:0:0:0:
389,18,122371,6,0,L|383:68,1,50.9999984436036,2|0,0:0|2:0,0:0:0:0:
190,106,122657,2,0,L|195:55,1,50.9999984436036,0|2,2:0|0:0,0:0:0:0:
394,154,122943,2,0,L|388:204,1,50.9999984436036,0|0,2:0|2:0,0:0:0:0:
210,241,123229,2,0,L|215:190,1,50.9999984436036,2|0,0:0|2:0,0:0:0:0:
366,288,123514,54,0,P|391:291|416:287,1,50.9999984436036,2|0,0:0|2:0,0:0:0:0:
301,196,123800,1,0,2:0:0:0:
279,310,123943,2,0,L|284:360,1,50.9999984436036,2|0,0:0|2:0,0:0:0:0:
144,324,124229,1,0,2:0:0:0:
38,229,124371,2,0,P|29:205|28:179,1,50.9999984436036,2|0,0:0|2:0,0:0:0:0:
135,83,124657,6,0,L|184:72,1,50.9999984436036,2|0,0:0|2:0,0:0:0:0:
304,170,124943,2,0,L|255:159,1,50.9999984436036,0|2,2:0|0:0,0:0:0:0:
336,26,125229,2,0,P|341:50|340:76,1,50.9999984436036,0|0,2:0|2:0,0:0:0:0:
429,197,125514,2,0,P|423:172|424:146,1,50.9999984436036,2|0,0:0|2:0,0:0:0:0:
309,259,125800,54,0,L|260:270,1,50.9999984436036,2|0,0:0|2:0,0:0:0:0:
383,316,126086,1,0,2:0:0:0:
221,350,126229,2,0,L|172:339,1,50.9999984436036,2|0,0:0|2:0,0:0:0:0:
272,180,126514,1,0,2:0:0:0:
103,228,126657,2,0,P|81:241|67:262,1,50.9999984436036,2|0,0:0|2:0,0:0:0:0:
185,200,126943,5,2,0:0:0:0:
248,94,127087,1,0,2:0:0:0:
368,113,127229,2,0,L|417:100,1,50.9999984436036,0|2,2:0|0:0,0:0:0:0:
499,191,127514,1,0,2:0:0:0:
380,220,127657,1,0,2:0:0:0:
362,341,127800,2,0,L|313:328,1,50.9999984436036,2|0,0:0|2:0,0:0:0:0:
440,292,128086,54,0,L|489:279,1,50.9999984436036,2|0,0:0|2:0,0:0:0:0:
294,242,128371,2,0,L|245:255,1,50.9999984436036,2|0,0:0|2:0,0:0:0:0:
368,113,128658,2,0,L|417:100,1,50.9999984436036,2|0,0:0|2:0,0:0:0:0:
237,64,128943,2,0,P|213:54|195:36,1,50.9999984436036,2|0,0:0|2:0,0:0:0:0:
46,99,129229,5,0,0:0:0:0:
29,126,129300,1,0,0:0:0:0:
25,159,129371,1,0,0:0:0:0:
34,191,129443,1,0,0:0:0:0:
56,215,129514,1,0,0:0:0:0:
81,237,129585,1,0,0:0:0:0:
96,266,129656,1,0,0:0:0:0:
98,299,129728,1,0,0:0:0:0:
88,331,129799,5,0,0:0:0:0:
88,331,131229,5,10,0:0:0:0:
293,304,131514,6,0,L|374:328,1,85,4|0,0:0|0:0,0:0:0:0:
307,211,131800,1,8,0:0:0:0:
140,261,131942,2,0,L|222:237,1,85
398,185,132229,1,0,0:0:0:0:
310,36,132371,2,0,P|271:52|245:85,1,85,8|0,0:0|0:0,0:0:0:0:
221,237,132657,37,0,0:0:0:0:
331,122,132800,1,0,0:0:0:0:
160,119,132943,1,8,0:0:0:0:
150,293,133086,2,0,L|174:375,1,85
127,206,133371,1,0,0:0:0:0:
269,313,133514,1,8,0:0:0:0:
394,185,133657,6,0,P|415:148|416:106,1,85
246,97,133943,1,0,0:0:0:0:
364,295,134086,2,0,L|447:280,1,85,8|0,0:0|0:0,0:0:0:0:
168,331,134371,1,0,0:0:0:0:
294,201,134515,1,0,0:0:0:0:
269,313,134658,1,8,0:0:0:0:
157,208,134800,6,0,P|115:213|80:237,1,85
4,112,135086,1,0,0:0:0:0:
98,3,135229,2,0,L|180:21,1,85,8|0,0:0|0:0,0:0:0:0:
282,114,135515,2,0,L|363:88,1,85
351,238,135800,2,0,P|346:279|324:315,1,85,8|0,0:0|0:0,0:0:0:0:
170,294,136086,38,0,L|85:282,1,85
253,248,136371,1,8,0:0:0:0:
198,101,136514,2,0,L|186:186,1,85
141,27,136800,1,0,0:0:0:0:
287,62,136943,2,0,P|328:55|365:34,1,85,8|0,0:0|0:0,0:0:0:0:
345,202,137229,5,0,0:0:0:0:
451,135,137371,1,0,0:0:0:0:
272,148,137514,1,8,0:0:0:0:
334,286,137657,2,0,L|322:370,1,85
168,284,137943,2,0,P|126:275|86:288,1,85,0|8,0:0|0:0,0:0:0:0:
231,356,138229,1,0,0:0:0:0:
183,189,138372,6,0,L|159:104,1,85,8|0,0:0|0:0,0:0:0:0:
333,308,138658,1,8,0:0:0:0:
486,189,138800,1,0,0:0:0:0:
367,154,138943,2,0,L|285:130,1,85,8|0,0:0|0:0,0:0:0:0:
463,80,139229,1,8,0:0:0:0:
236,249,139372,6,0,L|321:225,1,85
407,142,139800,2,0,L|357:156,1,42.5
486,189,140086,5,0,0:0:0:0:
182,86,140371,53,0,0:0:0:0:
376,301,140657,22,0,L|399:382,1,85,12|0,0:0|0:0,0:0:0:0:
299,233,140943,1,8,0:0:0:0:
486,189,141086,2,0,L|463:270,1,85,0|8,0:0|0:0,0:0:0:0:
434,99,141371,1,0,0:0:0:0:
280,141,141514,2,0,P|239:129|209:100,1,85,8|0,0:0|0:0,0:0:0:0:
210,251,141800,5,8,0:0:0:0:
125,125,141943,1,0,0:0:0:0:
282,62,142086,1,8,0:0:0:0:
122,216,142229,2,0,L|98:297,1,85,0|8,0:0|0:0,0:0:0:0:
290,359,142514,5,0,0:0:0:0:
355,186,142657,1,8,0:0:0:0:
204,275,142800,2,0,L|287:257,1,85,0|8,0:0|0:0,0:0:0:0:
438,301,143086,1,0,0:0:0:0:
384,86,143229,2,0,P|342:80|302:94,1,85,8|0,0:0|0:0,0:0:0:0:
191,188,143514,1,8,0:0:0:0:
355,186,143657,1,0,0:0:0:0:
216,103,143800,1,8,0:0:0:0:
111,223,143943,38,0,L|120:307,1,85,0|8,0:0|0:0,0:0:0:0:
12,367,144228,1,0,0:0:0:0:
203,338,144371,2,0,L|285:357,1,85,8|0,0:0|0:0,0:0:0:0:
453,334,144658,1,8,0:0:0:0:
311,265,144800,1,0,0:0:0:0:
479,238,144943,2,0,P|479:195|463:157,1,85,8|0,0:0|0:0,0:0:0:0:
320,124,145229,6,0,L|237:143,1,85,8|0,0:0|0:0,0:0:0:0:
389,214,145514,1,8,0:0:0:0:
222,242,145657,2,0,L|139:222,1,85,0|8,0:0|0:0,0:0:0:0:
3,191,145943,1,0,0:0:0:0:
137,105,146086,2,0,P|161:70|171:27,1,85,8|0,0:0|0:0,0:0:0:0:
237,143,146371,5,8,0:0:0:0:
393,26,146514,1,0,0:0:0:0:
261,50,146657,1,8,0:0:0:0:
412,210,146800,2,0,L|426:303,1,85,0|8,0:0|0:0,0:0:0:0:
488,138,147086,1,0,0:0:0:0:
332,280,147229,38,0,L|247:267,1,85,8|0,0:0|0:0,0:0:0:0:
397,124,147514,1,8,0:0:0:0:
424,294,147658,1,0,0:0:0:0:
223,185,147800,6,0,L|138:172,1,85,8|0,0:0|0:0,0:0:0:0:
288,29,148085,1,8,0:0:0:0:
315,199,148229,1,0,0:0:0:0:
114,90,148371,6,0,L|29:77,1,85,8|0,0:0|0:0,0:0:0:0:
202,3,148657,1,8,0:0:0:0:
223,185,148800,1,0,0:0:0:0:
367,132,148943,1,8,0:0:0:0:
215,95,149086,1,0,0:0:0:0:
395,227,149229,38,0,P|395:269|378:307,1,85,8|0,0:0|0:0,0:0:0:0:
460,155,149514,2,0,P|456:113|471:73,1,85,8|0,0:0|0:0,0:0:0:0:
283,287,149800,38,0,L|187:304,1,85,0|12,2:0|0:0,0:0:0:0:
87,374,150228,38,0,L|3:359,1,85
141,230,150514,1,0,0:0:0:0:
324,194,150657,2,0,P|365:224|383:275,1,85,8|0,0:0|0:0,0:0:0:0:
412,133,150943,5,0,0:0:0:0:
235,123,151086,2,0,L|151:138,1,85,0|8,0:0|0:0,0:0:0:0:
325,79,151371,2,0,L|270:13,1,85
412,133,151657,2,0,L|441:52,1,85,0|8,0:0|0:0,0:0:0:0:
324,194,151943,1,0,0:0:0:0:
386,362,152086,38,0,P|428:363|469:348,1,85
326,287,152371,1,8,0:0:0:0:
188,259,152514,2,0,P|165:295|158:337,1,85
82,221,152800,1,0,0:0:0:0:
158,107,152943,2,0,L|245:126,1,85,8|0,0:0|0:0,0:0:0:0:
385,50,153229,5,0,0:0:0:0:
387,210,153371,2,0,P|393:251|418:285,1,85,0|8,0:0|0:0,0:0:0:0:
272,237,153657,2,0,P|232:222|190:226,1,85
55,301,153943,2,0,L|77:385,1,85,0|8,0:0|0:0,0:0:0:0:
110,211,154229,1,0,0:0:0:0:
241,125,154371,6,0,L|262:42,1,85
127,81,154657,1,8,0:0:0:0:
110,211,154800,2,0,L|131:293,1,85
256,349,155086,1,0,0:0:0:0:
379,292,155229,2,0,P|420:297|454:322,1,85,8|0,0:0|0:0,0:0:0:0:
443,211,155514,37,0,0:0:0:0:
353,82,155657,2,0,L|433:108,1,85,0|8,0:0|0:0,0:0:0:0:
218,77,155943,2,0,L|281:20,1,85
146,191,156229,2,0,L|128:107,1,85,0|8,0:0|0:0,0:0:0:0:
171,281,156514,5,0,0:0:0:0:
291,218,156657,2,0,P|333:220|370:239,1,85
258,345,156943,1,8,0:0:0:0:
104,343,157086,2,0,P|85:305|83:262,1,85
181,156,157371,1,0,0:0:0:0:
89,46,157514,2,0,L|4:61,1,85,8|0,0:0|0:0,0:0:0:0:
94,179,157800,5,0,0:0:0:0:
236,224,157943,2,0,P|262:191|271:150,1,85,0|8,0:0|0:0,0:0:0:0:
315,291,158228,2,0,P|329:330|360:358,1,85
364,198,158515,1,0,0:0:0:0:
215,323,158657,2,0,L|107:308,1,85,8|0,0:0|0:0,0:0:0:0:
9,190,158943,38,0,L|93:178,1,85,8|0,0:0|0:0,0:0:0:0:
28,296,159229,1,8,0:0:0:0:
195,216,159371,2,0,P|220:182|230:141,1,85,0|8,0:0|0:0,0:0:0:0:
77,81,159658,1,0,0:0:0:0:
291,71,159800,2,0,P|331:59|373:65,1,85,8|0,0:0|0:0,0:0:0:0:
364,198,160086,5,8,0:0:0:0:
458,296,160229,2,0,L|440:387,1,85,0|8,0:0|0:0,0:0:0:0:
302,316,160515,2,0,L|285:232,1,85,0|8,0:0|0:0,0:0:0:0:
151,301,160800,2,0,P|109:304|70:286,1,85,0|8,0:0|0:0,0:0:0:0:
15,150,161086,1,0,0:0:0:0:
161,88,161229,6,0,L|143:179,1,85,8|0,0:0|0:0,0:0:0:0:
285,232,161514,1,8,0:0:0:0:
400,147,161657,2,0,L|484:139,1,85,0|8,0:0|0:0,0:0:0:0:
472,275,161943,1,0,0:0:0:0:
354,343,162086,2,0,P|315:324|273:324,1,85,8|0,0:0|0:0,0:0:0:0:
381,244,162371,5,8,0:0:0:0:
219,258,162514,2,0,L|134:265,1,85,0|8,0:0|0:0,0:0:0:0:
53,104,162800,2,0,L|138:111,1,85,0|8,0:0|0:0,0:0:0:0:
39,276,163086,2,0,P|40:233|63:198,1,85,0|8,0:0|0:0,0:0:0:0:
222,121,163371,1,0,0:0:0:0:
339,212,163514,6,0,P|380:220|422:212,1,85,8|0,0:0|0:0,0:0:0:0:
383,85,163800,1,8,0:0:0:0:
249,216,163943,2,0,L|236:300,1,85,0|8,0:0|0:0,0:0:0:0:
368,363,164229,1,0,0:0:0:0:
481,279,164371,2,0,P|503:243|504:201,1,85,8|0,0:0|0:0,0:0:0:0:
383,85,164657,5,8,0:0:0:0:
222,121,164800,2,0,L|138:103,1,85,0|8,0:0|0:0,0:0:0:0:
58,252,165086,2,0,L|141:269,1,85,0|8,0:0|0:0,0:0:0:0:
338,249,165371,2,0,P|315:213|281:188,1,85,0|8,0:0|0:0,0:0:0:0:
284,348,165657,1,0,0:0:0:0:
430,285,165800,6,0,L|447:202,1,85,8|0,0:0|0:0,0:0:0:0:
476,64,166086,1,8,0:0:0:0:
341,27,166229,2,0,P|298:27|261:46,1,85,0|8,0:0|0:0,0:0:0:0:
374,119,166514,1,0,0:0:0:0:
182,110,166658,2,0,P|141:98|110:71,1,85,8|0,0:0|0:0,0:0:0:0:
0,198,166943,5,8,0:0:0:0:
118,263,167086,2,0,L|135:346,1,85,0|8,0:0|0:0,0:0:0:0:
101,177,167371,1,0,0:0:0:0:
271,138,167514,1,8,0:0:0:0:
110,71,167657,1,8,0:0:0:0:
202,221,167800,1,8,0:0:0:0:
214,47,167942,1,8,0:0:0:0:
41,19,168085,5,4,0:0:0:0:
194,94,168371,2,0,L|214:47,1,50.9999984436036
298,236,168657,2,0,L|270:137,1,101.999996887207
401,179,169086,6,0,P|451:180|494:154,1,101.999996887207
436,276,169514,1,0,0:0:0:0:
320,344,169657,2,0,P|276:317|226:319,1,101.999996887207
57,311,170086,2,0,L|9:330,1,50.9999984436036
145,278,170371,53,0,0:0:0:0:
178,127,170657,2,0,L|158:79,1,50.9999984436036
287,13,170943,2,0,P|337:11|380:36,1,101.999996887207
510,133,171371,6,0,P|483:90|483:39,1,101.999996887207
393,138,171800,1,0,0:0:0:0:
457,244,171943,2,0,L|423:340,1,101.999996887207
280,260,172371,2,0,L|296:211,1,50.9999984436036
334,331,172657,53,0,0:0:0:0:
198,287,172943,2,0,L|149:270,1,50.9999984436036
36,200,173229,2,0,P|17:229|19:300,1,101.999996887207
125,172,173657,6,0,P|109:141|46:107,1,101.999996887207
124,7,174086,1,0,0:0:0:0:
237,53,174229,2,0,L|337:37,1,101.999996887207
446,111,174657,2,0,L|395:103,1,50.9999984436036
512,54,174943,53,0,0:0:0:0:
460,192,175229,2,0,L|510:199,1,50.9999984436036
376,223,175514,2,0,P|347:181|300:164,1,101.999996887207
164,198,175943,6,0,P|113:202|70:177,1,101.999996887207
219,118,176371,1,0,0:0:0:0:
290,255,176515,2,0,L|303:318,1,50.9999984436036
376,223,176800,2,0,L|424:180,1,50.9999984436036
300,164,177086,53,0,0:0:0:0:
