osu file format v14

[General]
AudioFilename: audioDORAEMON [Cuddle] x1.3 by Nevo.mp3
AudioLeadIn: 0
PreviewTime: 40444
Countdown: 0
SampleSet: None
StackLeniency: 0.4
Mode: 0
LetterboxInBreaks: 0
WidescreenStoryboard: 1

[Editor]
DistanceSpacing: 1.5
BeatDivisor: 4
GridSize: 16
TimelineZoom: 2.2

[Metadata]
Title:Speedup map pack
TitleUnicode:ドラえもん
Artist:Amatsuki
ArtistUnicode:天月
Creator:TTL
Version:DORAEMON [Cuddle] x1.3 by Nevo
Source:映画ドラえもん のび太の宝島
Tags:
BeatmapID:1845954
BeatmapSetID:882966

[Difficulty]
HPDrainRate:5
CircleSize:4
OverallDifficulty:9
ApproachRate:9.8
SliderMultiplier:1.7
SliderTickRate:1

[Events]
//Background and Video events
0,0,"quack.jpg",0,0
//Break Periods
//Storyboard Layer 0 (Background)
//Storyboard Layer 1 (Fail)
//Storyboard Layer 2 (Pass)
//Storyboard Layer 3 (Foreground)
//Storyboard Sound Samples

[TimingPoints]
1214,288.4615,4,2,1,65,1,0
1214,-133.3333,4,2,1,65,0,0
3522,-111.1111,4,2,1,65,0,0
9291,-111.1111,4,2,1,65,0,0
31214,-111.1111,4,2,1,75,0,0
32368,-100,4,2,1,65,0,0
35830,-100,4,2,1,75,0,0
36695,-100,4,2,1,65,0,0
39291,-100,4,2,1,65,0,0
39363,-100,4,2,1,65,0,0
40445,-83.33334,4,2,1,85,0,1
40589,-83.33334,4,2,1,85,0,1
49676,-71.42857,4,2,1,85,0,1
49820,-71.42857,4,2,1,85,0,1
63522,-105.2632,4,2,1,65,0,0
63666,-105.2632,4,2,1,65,0,0

[HitObjects]
332,112,1214,6,0,P|315:185|340:240,1,127.5
390,292,1646,1,10,0:0:0:0:
465,177,1791,2,0,L|377:171,1,63.75
364,40,2080,2,0,L|452:34,1,63.75
427,35,2656,5,10,0:0:0:0:
333,231,2945,1,10,0:0:0:0:
333,231,3233,1,4,0:0:0:0:
333,231,3522,6,0,P|275:195|176:225,1,153
131,261,3954,1,10,0:0:0:0:
113,103,4099,2,0,L|119:191,1,76.5
40,310,4387,2,0,L|46:222,1,76.5
45,233,4820,5,8,0:0:0:0:
124,338,4964,2,0,L|212:332,1,76.5
293,253,5253,2,0,L|205:247,1,76.5
347,350,5541,1,8,0:0:0:0:
347,350,5830,5,2,0:0:0:0:
412,234,5973,1,8,0:0:0:0:
412,234,6262,1,2,0:0:0:0:
293,253,6406,2,0,L|285:176,1,76.5
373,79,6695,2,0,L|365:155,1,76.5
365,155,7127,5,8,0:0:0:0:
211,98,7272,2,0,L|310:89,1,76.5
185,183,7560,2,0,L|86:174,1,76.5
171,21,7849,1,8,0:0:0:0:
171,21,8137,5,2,0:0:0:0:
171,21,8570,1,10,0:0:0:0:
259,239,8714,1,10,0:0:0:0:
259,239,9003,1,10,0:0:0:0:
289,216,9074,1,8,0:0:0:0:
325,204,9146,1,8,0:0:0:0:
363,206,9219,1,8,0:0:0:0:
398,221,9291,6,0,L|411:53,1,153
277,21,9723,1,2,0:0:0:0:
327,124,9868,1,2,0:0:0:0:
261,9,10012,1,2,0:0:0:0:
410,68,10156,1,10,0:0:0:0:
216,139,10300,1,2,0:0:0:0:
358,0,10445,5,2,0:0:0:0:
316,311,10733,1,10,0:0:0:0:
128,67,11022,2,0,L|118:160,2,76.5
128,67,11599,6,0,P|176:34|275:72,1,153
338,123,12031,1,2,0:0:0:0:
200,193,12176,2,0,L|198:85,1,76.5
339,46,12464,2,0,L|337:122,1,76.5
288,263,12753,6,0,L|283:166,1,76.5
430,308,13041,2,0,L|435:211,1,76.5
221,313,13330,2,0,P|286:347|318:338,1,76.5
423,153,13618,2,0,P|361:192|352:224,1,76.5
505,361,13906,6,0,L|513:186,1,153
449,68,14339,1,2,0:0:0:0:
361,192,14483,1,2,0:0:0:0:
459,55,14627,1,2,0:0:0:0:
276,54,14772,1,10,0:0:0:0:
464,157,14916,1,2,0:0:0:0:
254,151,15060,5,2,0:0:0:0:
459,55,15349,1,10,0:0:0:0:
364,290,15637,2,0,L|363:372,2,76.5
364,290,16214,6,0,P|281:255|201:286,1,153
135,327,16646,1,2,0:0:0:0:
146,159,16791,2,0,L|140:255,1,76.5
310,219,17080,2,0,L|304:123,1,76.5
166,75,17368,6,0,P|212:106|244:110,1,76.5
356,18,17656,2,0,P|306:42|286:68,1,76.5
225,202,17945,1,2,0:0:0:0:
368,104,18089,1,0,0:0:0:0:
380,298,18233,1,8,0:0:0:0:
380,298,18522,6,0,B|335:283|299:297|310:306|276:320|219:301,1,153
114,251,18954,1,2,0:0:0:0:
265,223,19099,1,2,0:0:0:0:
95,255,19243,1,2,0:0:0:0:
292,340,19387,1,10,0:0:0:0:
64,359,19531,1,2,0:0:0:0:
161,144,19676,5,2,0:0:0:0:
186,384,19964,1,10,0:0:0:0:
345,198,20253,2,0,L|444:210,2,76.5
345,198,20830,6,0,B|354:83|354:83|322:123,1,153
180,144,21262,1,2,0:0:0:0:
197,62,21406,2,0,P|241:47|292:54,1,76.5
229,201,21695,2,0,P|194:170|174:122,1,76.5
315,193,21983,6,0,L|304:290,1,76.5
168,333,22272,2,0,L|157:236,1,76.5
357,335,22560,2,0,P|299:350|268:340,1,76.5
109,186,22849,2,0,P|167:171|198:181,1,76.5
62,289,23137,6,0,L|71:111,1,153
71,27,23570,1,2,0:0:0:0:
219,102,23714,1,2,0:0:0:0:
51,24,23858,1,2,0:0:0:0:
282,24,24003,1,10,0:0:0:0:
69,136,24146,1,2,0:0:0:0:
300,162,24291,5,2,0:0:0:0:
0,86,24580,1,10,0:0:0:0:
113,306,24868,2,0,L|114:388,2,76.5
113,306,25445,6,0,P|177:269|260:294,1,153
376,357,25877,1,2,0:0:0:0:
323,216,26022,2,0,L|330:317,1,76.5
455,335,26310,2,0,L|462:234,1,76.5
397,110,26599,6,0,L|404:211,1,76.5
512,52,26887,2,0,L|505:153,1,76.5
311,75,27176,1,2,0:0:0:0:
423,29,27320,1,0,0:0:0:0:
313,189,27464,1,8,0:0:0:0:
313,189,27753,6,0,B|276:171|230:190|239:201|191:216|150:190,1,153
74,135,28185,1,2,0:0:0:0:
205,41,28330,2,0,L|195:132,1,76.5
82,211,28618,2,0,L|72:120,1,76.5
154,261,28906,6,0,P|115:292|67:295,1,76.5
163,177,29195,2,0,P|209:195|235:235,1,76.5
304,336,29483,1,10,0:0:0:0:
337,353,29555,1,8,0:0:0:0:
375,359,29627,1,8,0:0:0:0:
412,351,29700,1,8,0:0:0:0:
445,332,29772,2,0,L|447:222,1,76.5
450,90,30060,5,6,0:0:0:0:
277,210,30204,1,0,0:0:0:0:
487,173,30349,1,0,0:0:0:0:
261,122,30493,1,2,0:0:0:0:
446,255,30637,5,2,0:0:0:0:
327,61,30781,1,0,0:0:0:0:
368,296,30926,1,0,0:0:0:0:
412,30,31070,1,0,0:0:0:0:
193,186,31214,5,2,0:0:0:0:
446,255,31358,1,0,0:0:0:0:
169,278,31503,1,0,0:0:0:0:
407,185,31646,1,0,0:0:0:0:
111,212,31791,5,2,0:0:0:0:
368,296,31935,1,0,0:0:0:0:
79,291,32080,1,0,0:0:0:0:
331,216,32223,1,0,0:0:0:0:
187,50,32368,6,0,L|195:146,1,85
239,353,32656,1,10,0:0:0:0:
254,319,32728,1,8,0:0:0:0:
258,283,32800,1,8,0:0:0:0:
251,248,32873,1,8,0:0:0:0:
234,216,32945,6,0,L|123:207,1,85
275,50,33233,1,10,0:0:0:0:
310,52,33305,1,8,0:0:0:0:
343,63,33377,1,8,0:0:0:0:
372,85,33450,1,8,0:0:0:0:
393,113,33522,6,0,L|501:106,1,85
346,294,33810,1,10,0:0:0:0:
319,267,33882,1,8,0:0:0:0:
302,236,33954,1,8,0:0:0:0:
292,201,34026,1,8,0:0:0:0:
292,164,34099,6,0,L|361:174,3,42.5
232,110,34387,2,0,L|147:115,1,85
15,249,34676,5,6,0:0:0:0:
267,184,34820,1,0,0:0:0:0:
158,365,34964,1,0,0:0:0:0:
58,163,35108,1,2,0:0:0:0:
63,337,35253,5,2,0:0:0:0:
134,123,35396,1,0,0:0:0:0:
221,315,35541,1,0,0:0:0:0:
67,74,35686,1,0,0:0:0:0:
303,261,35830,5,2,0:0:0:0:
27,251,35973,1,0,0:0:0:0:
281,174,36118,1,0,0:0:0:0:
101,370,36262,1,2,0:0:0:0:
180,99,36406,5,2,0:0:0:0:
219,358,36550,1,0,0:0:0:0:
273,88,36695,1,8,0:0:0:0:
314,79,36766,1,8,0:0:0:0:
355,87,36839,1,8,0:0:0:0:
390,110,36911,1,8,0:0:0:0:
414,145,36983,6,0,L|409:258,1,85
405,339,37272,1,10,0:0:0:0:
243,271,37416,2,0,L|327:266,1,85
218,151,37704,2,0,L|133:146,1,85
120,302,37993,6,0,P|150:275|165:214,1,85
42,150,38281,2,0,P|50:189|95:232,1,85
87,70,38570,2,0,P|48:57|-11:75,1,85
136,151,38858,1,2,0:0:0:0:
136,151,39003,2,0,L|295:142,1,127.5
338,141,39291,5,12,0:0:0:0:
204,252,39435,1,8,0:0:0:0:
243,60,39580,1,8,0:0:0:0:
367,257,39723,1,8,0:0:0:0:
312,20,39868,1,8,0:0:0:0:
136,173,40012,1,10,0:0:0:0:
136,173,40156,2,0,L|220:166,1,85
456,152,40445,5,14,0:0:0:0:
249,254,40589,1,0,0:0:0:0:
463,322,40733,5,10,0:0:0:0:
390,50,40877,1,0,0:0:0:0:
316,320,41022,5,10,0:0:0:0:
306,120,41166,1,2,0:0:0:0:
489,236,41310,5,10,0:0:0:0:
249,254,41454,1,2,0:0:0:0:
390,50,41599,6,0,L|384:164,1,102
254,355,41887,2,0,L|248:241,1,102
236,101,42176,1,10,0:0:0:0:
322,181,42320,1,2,0:0:0:0:
297,29,42464,1,10,0:0:0:0:
248,253,42608,1,2,0:0:0:0:
215,0,42753,5,10,0:0:0:0:
322,181,42896,1,0,0:0:0:0:
79,88,43041,5,10,0:0:0:0:
297,29,43186,1,0,0:0:0:0:
109,244,43330,5,10,0:0:0:0:
134,21,43473,1,2,0:0:0:0:
214,265,43618,5,10,0:0:0:0:
79,88,43762,1,2,0:0:0:0:
41,336,43906,6,0,L|149:329,1,102
303,189,44195,2,0,L|195:182,1,102
364,272,44483,1,8,0:0:0:0:
369,103,44627,1,0,0:0:0:0:
297,360,44772,1,8,0:0:0:0:
303,189,44916,1,0,0:0:0:0:
508,348,45060,6,0,P|443:374|394:360,1,102
325,104,45349,2,0,P|380:147|392:196,1,102
205,384,45637,2,0,P|214:314|251:279,1,102
464,206,45926,1,8,0:0:0:0:
347,383,46070,6,0,L|333:280,1,102
152,162,46358,2,0,L|138:263,1,102
346,143,46646,2,0,L|333:42,1,102
124,72,46935,1,2,0:0:0:0:
296,213,47080,2,0,P|358:228|419:207,1,102
500,82,47368,5,10,0:0:0:0:
337,336,47512,1,10,0:0:0:0:
247,76,47656,5,10,0:0:0:0:
456,345,47800,1,10,0:0:0:0:
371,21,47945,5,10,0:0:0:0:
224,322,48089,1,10,0:0:0:0:
144,19,48233,5,10,0:0:0:0:
337,336,48378,1,10,0:0:0:0:
458,2,48522,5,14,0:0:0:0:
270,384,48810,1,14,0:0:0:0:
66,106,49099,1,8,0:0:0:0:
66,106,49170,1,8,0:0:0:0:
66,106,49243,1,10,0:0:0:0:
219,220,49387,2,0,L|228:107,1,102
65,243,49676,6,0,L|75:372,1,119
313,287,49964,5,10,0:0:0:0:
129,173,50108,1,0,0:0:0:0:
364,208,50253,5,10,0:0:0:0:
143,287,50396,1,2,0:0:0:0:
322,113,50541,5,10,0:0:0:0:
386,357,50685,1,2,0:0:0:0:
252,217,50830,6,0,P|306:195|363:207,1,119
508,367,51118,2,0,P|461:330|444:275,1,119
481,76,51406,1,10,0:0:0:0:
363,207,51550,1,2,0:0:0:0:
383,30,51695,1,10,0:0:0:0:
474,236,51839,1,2,0:0:0:0:
314,99,51983,6,0,L|191:96,1,119
80,270,52272,2,0,L|208:259,1,119
474,236,52560,1,10,0:0:0:0:
249,188,52704,1,2,0:0:0:0:
476,122,52849,1,10,0:0:0:0:
427,344,52993,1,2,0:0:0:0:
309,86,53137,6,0,P|353:56|437:70,1,119
361,248,53426,2,0,P|313:224|283:145,1,119
476,122,53714,2,0,P|479:175|425:240,1,119
258,320,54003,1,8,0:0:0:0:
382,156,54146,1,0,0:0:0:0:
223,21,54291,6,0,L|238:166,1,119
258,320,54580,1,8,0:0:0:0:
109,171,54723,1,0,0:0:0:0:
333,239,54868,2,0,L|214:229,1,119
19,218,55156,1,8,0:0:0:0:
124,375,55300,6,0,L|133:256,1,119
33,90,55589,2,0,P|71:156|121:171,1,119
287,88,55877,2,0,P|210:87|172:123,1,119
161,308,56166,1,2,0:0:0:0:
161,308,56310,2,0,L|287:299,1,119
507,286,56599,5,10,0:0:0:0:
166,190,56743,1,10,0:0:0:0:
487,30,56887,5,10,0:0:0:0:
335,381,57031,1,10,0:0:0:0:
133,73,57176,5,10,0:0:0:0:
512,177,57320,1,10,0:0:0:0:
95,335,57464,5,10,0:0:0:0:
323,1,57608,1,10,0:0:0:0:
481,384,57753,5,14,0:0:0:0:
323,1,58041,1,14,0:0:0:0:
129,226,58330,1,8,0:0:0:0:
129,226,58401,1,8,0:0:0:0:
129,226,58473,1,10,0:0:0:0:
245,45,58618,2,0,L|232:172,1,119
204,364,58906,5,10,0:0:0:0:
96,79,59050,1,10,0:0:0:0:
376,320,59195,5,10,0:0:0:0:
20,268,59339,1,10,0:0:0:0:
291,41,59483,5,10,0:0:0:0:
300,384,59627,1,10,0:0:0:0:
6,150,59772,5,10,0:0:0:0:
453,220,59916,1,10,0:0:0:0:
173,12,60060,5,14,0:0:0:0:
108,372,60349,1,14,0:0:0:0:
65,60,60637,1,8,0:0:0:0:
65,60,60709,1,8,0:0:0:0:
65,60,60781,1,10,0:0:0:0:
46,318,60926,2,0,L|56:166,1,119
65,60,61214,5,10,0:0:0:0:
171,328,61358,1,10,0:0:0:0:
300,0,61503,5,10,0:0:0:0:
62,221,61646,1,10,0:0:0:0:
387,265,61791,5,10,0:0:0:0:
0,140,61935,1,10,0:0:0:0:
264,357,62080,5,10,0:0:0:0:
300,0,62224,1,10,0:0:0:0:
54,340,62368,5,14,0:0:0:0:
424,138,62656,1,14,0:0:0:0:
111,164,62945,1,8,0:0:0:0:
111,164,63016,1,8,0:0:0:0:
111,164,63089,1,10,0:0:0:0:
258,14,63233,2,0,L|261:137,1,119
221,290,63522,6,0,P|157:257|71:305,1,161.5
258,368,63954,1,10,0:0:0:0:
258,368,64099,2,0,L|348:355,1,80.75
423,285,64387,2,0,L|343:273,1,80.75
343,273,64820,5,8,0:0:0:0:
285,212,64964,2,0,L|295:117,1,80.75
413,73,65253,2,0,L|423:168,1,80.75
449,319,65541,1,8,0:0:0:0:
449,319,65830,5,2,0:0:0:0:
353,289,65973,1,8,0:0:0:0:
353,289,66262,1,2,0:0:0:0:
288,353,66406,2,0,L|199:349,1,80.75
119,270,66695,2,0,L|208:266,1,80.75
199,266,67127,5,8,0:0:0:0:
273,206,67272,2,0,L|277:118,1,80.75
156,87,67560,2,0,L|160:175,1,80.75
285,22,67849,1,8,0:0:0:0:
285,22,68137,5,2,0:0:0:0:
401,75,68281,1,8,0:0:0:0:
