osu file format v14

[General]
AudioFilename: audio.mp3
AudioLeadIn: 0
PreviewTime: 154753
Countdown: 0
SampleSet: Soft
StackLeniency: 0.4
Mode: 0
LetterboxInBreaks: 0
WidescreenStoryboard: 1

[Editor]
Bookmarks: 139425,141720,146966,149589,156147,196802
DistanceSpacing: 2.3
BeatDivisor: 4
GridSize: 32
TimelineZoom: 2.1

[Metadata]
Title:Silhouette
TitleUnicode:シルエット
Artist:Amatsuki
ArtistUnicode:天月
Creator:Jian
Version:Will's Hard
Source:NARUTO-ナルト-疾風伝
Tags:shippuuden shipuuden shippuden nine tails opening 16 kage full ver male utaite cover William K William_K Elcheer
BeatmapID:2073855
BeatmapSetID:978327

[Difficulty]
HPDrainRate:4.5
CircleSize:3.2
OverallDifficulty:7
ApproachRate:7.5
SliderMultiplier:1.4
SliderTickRate:1

[Events]
//Background and Video events
0,0,"naruciak.jpg",0,0
//Break Periods
//Storyboard Layer 0 (Background)
//Storyboard Layer 1 (Fail)
//Storyboard Layer 2 (Pass)
//Storyboard Layer 3 (Foreground)
//Storyboard Layer 4 (Overlay)
//Storyboard Sound Samples

[TimingPoints]
1393,327.868852459016,4,2,2,40,1,0
1393,-125,4,2,2,40,0,0
2704,-111.111111111111,4,2,2,40,0,0
7868,-125,4,2,2,40,0,0
7950,-100,4,2,2,40,0,0
13196,-90.9090909090909,4,2,2,50,0,0
23688,-111.111111111111,4,2,2,45,0,0
26229,-111.111111111111,4,2,2,45,0,0
26311,-111.111111111111,4,2,2,45,0,0
33196,-111.111111111111,4,2,2,50,0,0
33524,-111.111111111111,4,2,2,55,0,0
33852,-111.111111111111,4,2,2,60,0,0
34179,-100,4,2,2,50,0,0
44671,-125,4,2,2,40,0,0
49917,-125,4,2,2,30,0,0
52540,-100,4,2,2,50,0,0
55163,-90.9090909090909,4,2,2,70,0,1
56720,-90.9090909090909,4,2,2,70,0,1
56802,-90.9090909090909,4,2,2,70,0,1
67212,-90.9090909090909,4,2,2,70,0,1
67294,-90.9090909090909,4,2,2,70,0,1
76065,-90.9090909090909,4,2,2,70,0,1
76147,-100,4,2,2,40,0,0
78442,-125,4,2,2,40,0,0
78688,-125,4,2,2,40,0,0
78770,-100,4,2,2,40,0,0
87950,-100,4,2,2,45,0,0
88278,-100,4,2,2,50,0,0
88606,-100,4,2,2,55,0,0
88933,-100,4,2,2,60,0,0
89261,-95.2380952380952,4,2,2,50,0,0
91802,-95.2380952380952,4,2,2,50,0,0
91884,-95.2380952380952,4,2,2,50,0,0
99753,-111.111111111111,4,2,2,45,0,0
103688,-100,4,2,2,45,0,0
104999,-95.2380952380952,4,2,2,50,0,0
110245,-86.9565217391304,4,2,2,70,0,1
131229,-100,4,2,2,40,0,0
136474,-95.2380952380952,4,2,2,50,0,0
139425,-100,4,2,2,60,0,0
141720,-111.111111111111,4,2,2,55,0,0
146966,-95.2380952380952,4,2,2,50,0,0
149589,-95.2380952380952,4,2,2,60,0,0
152212,-90.9090909090909,4,2,2,55,0,0
154179,-90.9090909090909,4,2,2,60,0,0
156147,-83.3333333333333,4,2,2,70,0,1
196802,-100,4,2,2,45,0,0
202048,-90.9090909090909,4,2,2,45,0,0
204671,-83.3333333333333,4,2,2,70,0,1
225655,-111.111111111111,4,2,2,40,0,0
230819,-111.111111111111,4,2,2,40,0,0
230901,-100,4,2,2,50,0,0
234835,-100,4,2,2,40,0,0
234999,-100,4,2,2,50,0,0
235163,-100,4,2,2,60,0,0
235327,-100,4,2,2,70,0,0
235491,-100,4,2,2,40,0,0
235655,-100,4,2,2,50,0,0
235819,-100,4,2,2,60,0,0
235983,-166.666666666667,4,2,2,70,0,0
236966,-200,4,2,2,5,0,0

[Colours]
Combo1 : 171,205,233
Combo2 : 112,216,158
Combo3 : 91,139,157
Combo4 : 179,225,187

[HitObjects]
373,38,1393,6,0,L|383:167,3,112,2|2|2|2,0:0|0:0|0:0|0:0,0:0:0:0:
381,149,2704,6,0,L|448:154,2,62.9999980773926,2|2|2,1:0|0:0|1:0,0:0:0:0:
319,199,3196,2,0,L|193:208,1,125.999996154785,2|2,0:0|0:0,0:0:0:0:
131,258,3688,2,0,L|64:253,2,62.9999980773926,2|2|2,1:0|0:0|1:0,0:0:0:0:
206,285,4180,2,0,L|331:275,1,125.999996154785,2|2,0:0|0:0,0:0:0:0:
396,229,4671,2,0,P|411:270|407:304,1,62.9999980773926,2|2,1:0|0:0,0:0:0:0:
474,337,4999,2,0,P|489:296|485:262,1,62.9999980773926,2|2,1:0|0:0,0:0:0:0:
451,171,5327,6,0,P|492:186|526:182,2,62.9999980773926,2|2|2,1:0|0:0|1:0,0:0:0:0:
396,229,5819,2,0,P|373:191|403:106,1,125.999996154785,2|2,0:0|0:0,0:0:0:0:
332,60,6311,2,0,P|291:45|257:49,2,62.9999980773926,2|2|2,1:0|0:0|1:0,0:0:0:0:
387,2,6803,2,0,P|410:40|380:125,1,125.999996154785,2|0,0:0|0:0,0:0:0:0:
316,141,7294,1,2,1:0:0:0:
239,158,7458,2,0,L|202:147,2,31.4999990386963,0|0|2,3:0|3:0|3:2,0:0:0:0:
239,158,7950,6,0,L|233:250,1,70,2|2,1:0|0:0,0:0:0:0:
280,298,8278,1,10,0:0:0:0:
216,350,8442,2,0,P|186:326|57:303,1,140,2|2,0:0|0:0,0:0:0:0:
20,343,8933,2,0,P|12:317|11:251,1,70,10|2,0:0|0:0,0:0:0:0:
53,205,9261,1,2,1:0:0:0:
7,138,9425,2,0,P|64:151|153:133,1,140,2|2,0:0|0:0,0:0:0:0:
204,83,9917,2,0,L|195:1,1,70,2|2,1:0|0:0,0:0:0:0:
278,21,10245,2,0,L|287:103,1,70,10|2,0:0|0:0,0:0:0:0:
365,179,10573,6,0,P|421:170|454:150,1,70,2|2,1:0|0:0,0:0:0:0:
382,98,10901,1,10,0:0:0:0:
306,127,11065,2,0,P|330:191|340:294,1,140,2|2,0:0|0:0,0:0:0:0:
287,325,11556,2,0,P|245:292|209:283,1,70,10|2,0:0|0:0,0:0:0:0:
130,253,11884,2,0,P|161:238|187:214,1,70,10|8,0:0|0:0,0:0:0:0:
216,136,12212,2,0,L|203:94,3,35,10|8|10|8,0:0|0:0|0:0|0:0,0:0:0:0:
195,69,12540,1,14,0:0:0:0:
195,69,13196,6,0,P|157:98|45:98,1,154.000004699707,6|8,1:0|0:0,0:0:0:0:
3,37,13688,2,0,L|22:223,1,154.000004699707,2|0,0:0|0:0,0:0:0:0:
102,195,14179,2,0,L|94:271,1,77.0000023498536,10|0,0:0|0:0,0:0:0:0:
198,351,14507,2,0,P|245:354|316:264,1,154.000004699707,2|8,1:0|0:0,0:0:0:0:
301,200,14999,2,0,B|394:196|346:246|455:252,1,154.000004699707,2|0,0:0|0:0,0:0:0:0:
464,171,15491,1,10,0:0:0:0:
314,282,15819,6,0,P|303:222|299:127,1,154.000004699707,2|8,1:0|0:0,0:0:0:0:
360,71,16311,2,0,L|174:91,1,154.000004699707,2|0,0:0|0:0,0:0:0:0:
140,39,16802,1,10,0:0:0:0:
119,120,16966,1,2,0:0:0:0:
35,62,17130,6,0,P|68:135|78:228,1,154.000004699707,2|8,1:0|0:0,0:0:0:0:
10,253,17622,2,0,P|96:245|183:296,1,154.000004699707,2|0,0:0|0:0,0:0:0:0:
226,318,18114,2,0,P|286:306|323:279,1,77.0000023498536,10|0,0:0|0:0,0:0:0:0:
421,332,18442,6,0,P|388:259|378:166,1,154.000004699707,2|8,1:0|0:0,0:0:0:0:
446,141,18934,2,0,P|360:149|273:98,1,154.000004699707,2|0,0:0|0:0,0:0:0:0:
230,76,19426,2,0,P|170:88|133:115,1,77.0000023498536,10|0,0:0|0:0,0:0:0:0:
60,184,19753,6,0,L|77:346,2,154.000004699707,2|8|0,1:0|0:0|1:0,0:0:0:0:
145,181,20573,1,0,0:0:0:0:
145,181,20737,2,0,L|156:284,1,77.0000023498536,8|0,0:0|0:0,0:0:0:0:
259,329,21065,6,0,P|304:312|333:207,1,154.000004699707,2|8,1:0|0:0,0:0:0:0:
274,166,21556,2,0,L|449:186,1,154.000004699707,2|0,0:0|0:0,0:0:0:0:
420,101,22048,2,0,L|329:90,1,77.0000023498536,10|0,0:0|0:0,0:0:0:0:
219,100,22376,6,0,P|237:152|230:263,1,154.000004699707,2|8,1:0|0:0,0:0:0:0:
178,313,22868,1,2,0:0:0:0:
115,257,23032,2,0,L|109:214,3,38.5000011749268,8|8|8|8,0:0|0:0|0:0|0:0,0:0:0:0:
103,181,23360,1,10,0:0:0:0:
141,69,23524,1,8,0:0:0:0:
141,69,23606,1,8,0:0:0:0:
141,69,23688,6,0,L|289:78,2,125.999996154785,6|10|2,1:0|0:0|1:0,0:0:0:0:
72,108,24507,1,0,1:0:0:0:
103,181,24671,2,0,L|176:185,1,62.9999980773926,10|0,0:0|0:0,0:0:0:0:
239,153,24999,2,0,P|213:181|211:282,1,125.999996154785,0|8,1:0|0:0,0:0:0:0:
270,309,25491,1,0,0:0:0:0:
328,255,25655,2,0,P|324:231|299:183,2,62.9999980773926,0|0|10,1:0|1:0|0:0,0:0:0:0:
452,355,26311,6,0,P|456:331|481:283,1,62.9999980773926,2|2,1:0|0:0,0:0:0:0:
419,236,26638,2,0,P|415:212|390:164,1,62.9999980773926,10|2,0:0|0:0,0:0:0:0:
324,150,26966,2,0,P|382:146|428:84,1,125.999996154785,2|10,1:0|0:0,0:0:0:0:
392,24,27458,1,2,0:0:0:0:
327,70,27622,2,0,P|249:53|190:49,1,125.999996154785,0|10,1:0|0:0,0:0:0:0:
149,108,28114,1,0,0:0:0:0:
80,67,28278,2,0,P|77:35|81:0,2,62.9999980773926,2|0|10,1:0|1:0|0:0,0:0:0:0:
195,177,28933,6,0,L|181:327,1,125.999996154785,2|8,1:0|0:0,0:0:0:0:
183,302,29589,2,0,L|264:311,1,62.9999980773926,2|0,1:0|1:0,0:0:0:0:
307,258,29917,1,10,0:0:0:0:
436,152,30245,2,0,L|450:302,1,125.999996154785,2|8,1:0|0:0,0:0:0:0:
448,277,30901,2,0,L|367:286,1,62.9999980773926,2|0,1:0|1:0,0:0:0:0:
324,233,31229,1,10,0:0:0:0:
195,126,31556,6,0,L|181:276,1,125.999996154785,2|8,1:0|0:0,0:0:0:0:
183,251,32212,2,0,L|264:260,1,62.9999980773926,2|0,1:0|1:0,0:0:0:0:
307,207,32540,2,0,L|388:198,1,62.9999980773926,10|0,0:0|0:0,0:0:0:0:
424,139,32868,6,0,P|434:91|400:-5,2,125.999996154785,2|10|2,1:0|0:0|1:0,0:0:0:0:
369,200,33688,1,2,1:0:0:0:
428,257,33852,1,10,0:0:0:0:
226,343,34179,6,0,L|65:332,1,140,6|10,1:0|0:0,0:0:0:0:
35,269,34671,1,0,0:0:0:0:
94,210,34835,2,0,P|103:159|91:110,1,70,2|0,1:0|1:0,0:0:0:0:
89,60,35163,2,0,L|175:72,1,70,10|0,0:0|0:0,0:0:0:0:
241,119,35491,2,0,B|325:102|291:141|406:118,1,140,0|8,1:0|0:0,0:0:0:0:
443,176,35983,1,0,0:0:0:0:
501,119,36147,2,0,P|500:79|483:35,2,70,0|0|10,1:0|1:0|0:0,0:0:0:0:
443,176,36638,1,2,0:0:0:0:
493,253,36802,6,0,L|487:334,1,70,2|0,1:0|0:0,0:0:0:0:
426,378,37130,2,0,P|387:361|342:355,1,70,10|2,0:0|0:0,0:0:0:0:
282,380,37458,2,0,P|311:327|291:246,1,140,2|10,1:0|0:0,0:0:0:0:
229,205,37950,1,0,0:0:0:0:
169,282,38114,2,0,L|25:273,1,140,0|10,1:0|0:0,0:0:0:0:
12,193,38606,1,0,0:0:0:0:
77,143,38770,2,0,P|87:108|87:61,2,70,2|0|10,1:0|1:0|0:0,0:0:0:0:
147,184,39261,1,0,0:0:0:0:
193,82,39425,6,0,P|251:52|348:61,1,140,2|8,1:0|0:0,0:0:0:0:
391,99,39917,1,0,0:0:0:0:
463,59,40081,2,0,P|472:129|471:147,1,70,2|0,1:0|1:0,0:0:0:0:
407,180,40409,2,0,P|398:250|399:268,1,70,10|0,0:0|0:0,0:0:0:0:
472,327,40737,2,0,P|414:357|317:348,1,140,2|8,1:0|0:0,0:0:0:0:
274,310,41229,1,0,0:0:0:0:
202,350,41393,2,0,P|193:280|194:262,1,70,2|0,1:0|1:0,0:0:0:0:
258,229,41721,2,0,P|267:159|266:141,1,70,10|0,0:0|0:0,0:0:0:0:
297,58,42048,6,0,P|239:28|142:37,1,140,2|8,1:0|0:0,0:0:0:0:
99,75,42540,1,0,0:0:0:0:
27,35,42704,2,0,P|18:105|19:123,1,70,2|0,1:0|1:0,0:0:0:0:
90,144,43032,2,0,P|99:74|98:56,1,70,8|0,0:0|0:0,0:0:0:0:
197,164,43360,2,0,L|291:158,1,70,2|0,1:0|0:0,0:0:0:0:
349,171,43688,2,0,P|334:243|333:258,1,70,10|0,0:0|0:0,0:0:0:0:
350,320,44015,1,10,0:0:0:0:
421,281,44179,1,8,0:0:0:0:
420,363,44343,1,4,3:0:0:0:
177,343,44671,6,0,P|129:318|54:325,1,112,6|0,1:0|1:0,0:0:0:0:
19,261,45163,2,0,P|74:261|124:236,1,112,10|2,0:0|0:0,0:0:0:0:
147,162,45655,1,10,0:0:0:0:
280,267,45983,2,0,P|327:242|403:249,1,112,6|0,1:0|1:0,0:0:0:0:
438,185,46475,2,0,P|382:185|332:160,1,112,10|2,0:0|0:0,0:0:0:0:
310,86,46967,1,8,0:0:0:0:
170,181,47294,6,0,P|122:156|47:163,1,112,6|2,1:0|1:0,0:0:0:0:
12,99,47786,2,0,P|67:99|117:74,1,112,10|2,0:0|1:0,0:0:0:0:
140,0,48278,1,8,0:0:0:0:
290,75,48606,6,0,L|426:59,1,112,6|0,1:0|1:0,0:0:0:0:
473,17,49097,1,8,0:0:0:0:
478,100,49261,1,2,1:0:0:0:
341,197,49589,1,10,0:0:0:0:
495,270,49917,2,0,L|539:264,2,28,2|2|2,0:0|0:0|0:0,0:0:0:0:
495,270,52540,6,0,L|486:366,1,70,6|0,1:0|0:0,0:0:0:0:
406,326,52868,2,0,L|413:257,1,70,8|0,0:0|0:0,0:0:0:0:
325,195,53196,2,0,L|334:291,1,70,2|0,1:0|1:0,0:0:0:0:
413,256,53524,2,0,L|407:187,1,70,8|0,0:0|0:0,0:0:0:0:
489,160,53852,6,0,P|475:125|492:4,1,140,6|10,1:0|0:0,0:0:0:0:
398,21,54343,1,8,0:0:0:0:
398,21,54425,1,8,0:0:0:0:
398,21,54507,1,14,0:0:0:0:
271,107,55163,6,0,P|206:89|165:84,1,77.0000023498536,6|0,1:0|0:0,0:0:0:0:
113,91,55491,2,0,P|127:159|131:200,1,77.0000023498536,10|0,0:0|0:0,0:0:0:0:
137,249,55819,2,0,P|202:231|243:226,1,77.0000023498536,2|2,1:0|1:0,0:0:0:0:
295,233,56147,2,0,P|281:301|277:342,1,77.0000023498536,10|0,0:0|0:0,0:0:0:0:
395,348,56474,6,0,P|383:308|386:172,1,154.000004699707,2|10,1:0|0:0,0:0:0:0:
437,135,56966,1,2,0:0:0:0:
499,190,57130,2,0,P|498:244|486:275,2,77.0000023498536,2|0|8,1:0|1:0|0:0,0:0:0:0:
437,135,57622,1,0,0:0:0:0:
312,151,57786,6,0,P|262:151|217:134,1,77.0000023498536,2|0,1:0|0:0,0:0:0:0:
171,92,58114,2,0,L|156:8,1,77.0000023498536,10|0,0:0|0:0,0:0:0:0:
74,5,58442,2,0,P|81:116|67:188,1,154.000004699707,2|10,1:0|0:0,0:0:0:0:
29,228,58933,1,0,0:0:0:0:
122,313,59097,6,0,B|218:302|180:355|299:339,1,154.000004699707,2|10,1:0|0:0,0:0:0:0:
338,293,59589,1,2,0:0:0:0:
293,223,59753,2,0,P|249:230|212:247,1,77.0000023498536,2|0,1:0|1:0,0:0:0:0:
160,184,60081,2,0,L|167:100,1,77.0000023498536,10|0,0:0|0:0,0:0:0:0:
273,49,60409,6,0,B|357:16|325:79|433:41,1,154.000004699707,6|8,1:0|0:0,0:0:0:0:
497,11,60901,1,0,0:0:0:0:
509,94,61065,2,0,P|498:165|498:194,1,77.0000023498536,2|0,1:0|1:0,0:0:0:0:
415,170,61392,2,0,P|426:241|426:270,1,77.0000023498536,10|0,0:0|0:0,0:0:0:0:
349,346,61720,6,0,B|264:378|296:315|188:353,1,154.000004699707,2|8,1:0|0:0,0:0:0:0:
125,384,62212,1,0,0:0:0:0:
113,301,62376,2,0,P|124:230|124:201,1,77.0000023498536,2|0,1:0|1:0,0:0:0:0:
207,225,62704,2,0,P|196:154|196:125,1,77.0000023498536,10|0,0:0|0:0,0:0:0:0:
273,49,63032,6,0,B|357:16|325:79|433:41,1,154.000004699707,2|8,1:0|0:0,0:0:0:0:
497,11,63524,1,2,0:0:0:0:
509,94,63688,2,0,P|498:165|498:194,1,77.0000023498536,2|0,1:0|1:0,0:0:0:0:
415,170,64015,2,0,L|329:151,1,77.0000023498536,8|0,0:0|0:0,0:0:0:0:
273,49,64343,6,0,L|187:68,1,77.0000023498536,2|0,1:0|0:0,0:0:0:0:
114,65,64671,2,0,P|128:141|128:156,1,77.0000023498536,10|0,0:0|0:0,0:0:0:0:
82,212,64999,2,0,P|152:222|212:158,1,154.000004699707,2|10,1:0|0:0,0:0:0:0:
395,309,65655,6,0,P|410:259|417:205,1,77.0000023498536,6|0,1:0|0:0,0:0:0:0:
346,183,65983,2,0,P|331:233|324:287,1,77.0000023498536,10|0,0:0|0:0,0:0:0:0:
255,297,66311,2,0,P|247:259|235:222,1,77.0000023498536,2|0,1:0|1:0,0:0:0:0:
167,274,66639,2,0,P|174:311|186:348,1,77.0000023498536,10|0,0:0|0:0,0:0:0:0:
55,357,66966,6,0,P|45:323|106:220,1,154.000004699707,2|10,1:0|0:0,0:0:0:0:
152,163,67458,1,2,0:0:0:0:
92,107,67622,2,0,P|45:116|8:138,2,77.0000023498536,2|0|8,1:0|1:0|0:0,0:0:0:0:
152,163,68114,1,0,0:0:0:0:
228,60,68278,6,0,P|294:72|321:85,1,77.0000023498536,2|0,1:0|0:0,0:0:0:0:
333,151,68606,2,0,P|399:139|426:126,1,77.0000023498536,10|0,0:0|0:0,0:0:0:0:
463,74,68933,2,0,L|446:253,1,154.000004699707,2|10,1:0|0:0,0:0:0:0:
468,310,69425,1,2,0:0:0:0:
366,243,69589,6,0,P|285:245|197:301,1,154.000004699707,2|10,1:0|0:0,0:0:0:0:
171,344,70081,1,0,0:0:0:0:
97,304,70245,2,0,P|109:253|120:218,1,77.0000023498536,2|0,1:0|1:0,0:0:0:0:
51,176,70573,2,0,P|39:125|28:90,1,77.0000023498536,10|0,0:0|0:0,0:0:0:0:
182,62,70901,6,0,P|224:7|335:18,1,154.000004699707,6|8,1:0|0:0,0:0:0:0:
369,51,71392,1,0,0:0:0:0:
323,120,71556,2,0,P|275:122|233:103,1,77.0000023498536,2|0,1:0|1:0,0:0:0:0:
182,62,71884,2,0,P|134:60|92:79,1,77.0000023498536,10|0,0:0|0:0,0:0:0:0:
161,200,72212,6,0,P|203:255|314:244,1,154.000004699707,2|8,1:0|0:0,0:0:0:0:
348,211,72703,1,0,0:0:0:0:
302,142,72868,2,0,P|254:140|212:159,1,77.0000023498536,2|0,1:0|1:0,0:0:0:0:
161,200,73196,2,0,P|113:202|71:183,1,77.0000023498536,10|0,0:0|0:0,0:0:0:0:
74,62,73524,6,0,P|116:7|227:18,1,154.000004699707,2|8,1:0|0:0,0:0:0:0:
261,51,74015,1,0,0:0:0:0:
335,14,74179,2,0,L|431:7,1,77.0000023498536,2|0,1:0|1:0,0:0:0:0:
495,8,74507,2,0,P|478:74|476:115,1,77.0000023498536,8|0,0:0|0:0,0:0:0:0:
381,157,74835,6,0,P|398:223|400:264,1,77.0000023498536,2|0,1:0|0:0,0:0:0:0:
471,273,75163,2,0,P|477:235|488:198,1,77.0000023498536,10|0,0:0|0:0,0:0:0:0:
415,84,75491,2,0,P|389:125|276:154,1,154.000004699707,2|10,1:0|0:0,0:0:0:0:
83,98,76147,6,0,P|71:148|87:193,1,70,2|2,1:2|0:0,0:0:0:0:
255,146,76638,2,0,P|205:134|160:150,1,70,2|2,1:2|0:0,0:0:0:0:
207,317,77130,2,0,P|219:267|203:222,1,70,2|2,1:2|0:0,0:0:0:0:
35,270,77622,2,0,P|85:282|130:266,1,70,2|2,1:2|0:0,0:0:0:0:
83,98,78114,6,0,L|26:93,4,35,2|0|0|0|2,3:2|3:0|3:0|3:0|3:2,0:0:0:0:
83,98,78770,6,0,L|247:84,1,140,6|10,1:0|0:0,0:0:0:0:
281,29,79261,1,0,0:0:0:0:
346,78,79425,2,0,P|332:138|329:174,1,70,2|0,1:0|1:0,0:0:0:0:
384,211,79753,2,0,P|393:244|399:279,1,70,10|0,0:0|0:0,0:0:0:0:
423,360,80081,2,0,P|387:328|276:318,1,140,0|8,1:0|0:0,0:0:0:0:
240,369,80573,1,0,0:0:0:0:
172,323,80737,2,0,P|114:336|80:328,2,70,0|0|8,1:0|1:0|0:0,0:0:0:0:
232,265,81229,1,2,0:0:0:0:
176,207,81392,6,0,L|77:197,1,70,2|2,1:0|0:0,0:0:0:0:
81,121,81720,2,0,L|150:113,1,70,10|2,0:0|0:0,0:0:0:0:
188,41,82048,2,0,B|268:37|229:74|324:75,1,140,2|10,1:0|0:0,0:0:0:0:
380,18,82540,1,0,0:0:0:0:
448,64,82704,2,0,P|430:191|422:218,1,140,0|10,1:0|0:0,0:0:0:0:
370,262,83196,1,0,0:0:0:0:
322,196,83360,2,0,P|280:191|234:201,1,70,2|0,1:0|1:0,0:0:0:0:
192,140,83688,2,0,P|212:111|225:79,1,70,10|0,0:0|0:0,0:0:0:0:
144,75,84015,6,0,L|162:235,1,140,2|8,1:0|0:0,0:0:0:0:
159,214,84671,2,0,L|168:294,1,70,2|0,1:0|1:0,0:0:0:0:
241,250,84999,2,0,L|250:330,1,70,10|0,0:0|0:0,0:0:0:0:
183,370,85327,2,0,L|343:352,1,140,2|8,1:0|0:0,0:0:0:0:
322,355,85983,2,0,L|402:346,1,70,2|0,1:0|1:0,0:0:0:0:
358,273,86311,2,0,L|438:264,1,70,10|0,0:0|0:0,0:0:0:0:
481,327,86638,6,0,L|463:167,1,140,2|8,1:0|0:0,0:0:0:0:
466,188,87294,2,0,L|457:108,1,70,2|0,1:0|1:0,0:0:0:0:
384,151,87622,2,0,L|304:159,1,70,8|0,0:0|0:0,0:0:0:0:
236,137,87950,6,0,P|281:172|298:269,1,140,2|10,1:0|0:0,0:0:0:0:
266,323,88442,1,2,0:0:0:0:
340,360,88606,2,0,P|392:349|430:343,1,70,2|2,1:0|1:0,0:0:0:0:
490,351,88933,1,10,0:0:0:0:
456,277,89097,1,2,0:0:0:0:
497,175,89261,6,0,P|502:113|496:80,1,73.4999977569581,6|0,1:0|0:0,0:0:0:0:
442,43,89589,2,0,L|355:48,1,73.4999977569581,10|0,0:0|0:0,0:0:0:0:
304,97,89917,2,0,L|217:92,2,73.4999977569581,2|0|10,1:0|1:0|0:0,0:0:0:0:
379,128,90409,1,0,0:0:0:0:
279,179,90573,6,0,B|190:173|229:232|118:216,1,146.999995513916,0|8,1:0|0:0,0:0:0:0:
70,176,91065,1,0,0:0:0:0:
21,241,91229,2,0,P|38:300|43:328,1,73.4999977569581,0|0,1:0|1:0,0:0:0:0:
111,354,91556,2,0,P|119:318|130:283,1,73.4999977569581,10|0,0:0|0:0,0:0:0:0:
237,333,91884,5,2,1:0:0:0:
292,274,92048,1,2,0:0:0:0:
364,311,92212,2,0,P|410:296|448:293,1,73.4999977569581,10|2,0:0|0:0,0:0:0:0:
489,357,92540,2,0,L|502:204,1,146.999995513916,2|10,1:0|0:0,0:0:0:0:
456,143,93032,1,0,0:0:0:0:
366,210,93196,6,0,P|223:190|196:192,1,146.999995513916,0|10,1:0|0:0,0:0:0:0:
151,232,93688,1,0,0:0:0:0:
86,185,93852,2,0,P|95:155|95:88,1,73.4999977569581,2|0,1:0|1:0,0:0:0:0:
177,93,94179,2,0,P|166:55|165:17,1,73.4999977569581,10|0,0:0|0:0,0:0:0:0:
302,27,94507,6,0,B|380:34|339:87|455:93,1,146.999995513916,2|8,1:0|0:0,0:0:0:0:
503,53,94999,1,0,0:0:0:0:
503,135,95163,2,0,P|491:193|485:239,1,73.4999977569581,2|0,1:0|1:0,0:0:0:0:
492,288,95491,2,0,P|434:276|388:270,1,73.4999977569581,10|0,0:0|0:0,0:0:0:0:
322,342,95819,6,0,B|244:335|285:282|169:276,1,146.999995513916,2|8,1:0|0:0,0:0:0:0:
121,316,96311,1,0,0:0:0:0:
121,234,96475,2,0,P|133:176|139:130,1,73.4999977569581,2|0,1:0|1:0,0:0:0:0:
132,81,96803,2,0,P|190:93|236:99,1,73.4999977569581,10|0,0:0|0:0,0:0:0:0:
302,27,97130,6,0,P|259:101|262:172,1,146.999995513916,2|8,1:0|0:0,0:0:0:0:
326,211,97622,1,0,0:0:0:0:
391,160,97786,2,0,P|385:117|374:83,1,73.4999977569581,2|0,1:0|1:0,0:0:0:0:
403,10,98114,2,0,L|505:19,1,73.4999977569581,8|0,0:0|0:0,0:0:0:0:
486,138,98442,6,0,P|475:173|471:209,1,73.4999977569581,2|0,1:0|0:0,0:0:0:0:
474,292,98770,2,0,P|438:281|402:277,1,73.4999977569581,10|0,0:0|0:0,0:0:0:0:
320,280,99097,2,0,P|330:244|334:208,1,73.4999977569581,2|0,1:0|0:0,0:0:0:0:
278,145,99425,2,0,L|222:149,3,36.749998878479,8|8|8|8,0:0|0:0|0:0|0:0,0:0:0:0:
219,172,99753,6,0,P|228:128|188:32,1,125.999996154785,6|2,1:0|3:2,0:0:0:0:
130,17,100245,1,2,1:0:0:0:
71,75,100409,2,0,P|81:113|92:132,3,31.4999990386963,0|0|2|0,3:0|3:0|3:2|3:0,0:0:0:0:
95,133,100737,1,8,0:0:0:0:
254,196,101065,2,0,P|245:152|285:56,1,125.999996154785,6|2,1:0|3:2,0:0:0:0:
343,41,101557,1,2,1:0:0:0:
402,99,101721,2,0,P|392:137|381:156,3,31.4999990386963,0|0|2|0,3:0|3:0|3:2|3:0,0:0:0:0:
378,157,102049,1,8,0:0:0:0:
219,220,102376,6,0,P|228:176|188:80,1,125.999996154785,6|2,1:0|3:2,0:0:0:0:
130,65,102868,1,2,1:0:0:0:
71,123,103032,2,0,P|81:161|92:180,3,31.4999990386963,0|0|2|0,3:0|3:0|3:2|3:0,0:0:0:0:
95,181,103360,1,10,0:0:0:0:
254,244,103687,2,0,P|245:200|285:104,1,125.999996154785,6|8,1:0|0:0,0:0:0:0:
343,89,104179,1,0,0:0:0:0:
402,147,104343,1,2,1:0:0:0:
466,93,104507,1,8,0:0:0:0:
466,93,104589,1,8,0:0:0:0:
466,93,104671,2,0,L|460:50,3,35,10|8|8|8,0:0|0:0|0:0|0:0,0:0:0:0:
499,121,104999,6,0,L|492:211,1,73.4999977569581,6|0,1:0|0:0,0:0:0:0:
486,281,105327,1,8,0:0:0:0:
486,281,105491,1,0,0:0:0:0:
416,232,105655,2,0,B|336:218|368:274|263:256,1,146.999995513916,2|8,1:0|0:0,0:0:0:0:
210,209,106147,1,0,0:0:0:0:
103,217,106311,6,0,P|134:268|147:347,1,110.249996635437,2|0,1:0|0:0,0:0:0:0:
135,352,106638,2,0,L|235:366,1,73.4999977569581,10|2,0:0|0:0,0:0:0:0:
296,375,106966,1,2,1:0:0:0:
296,375,107130,1,0,1:0:0:0:
262,296,107294,2,0,P|255:270|256:208,1,73.4999977569581,10|0,0:0|0:0,0:0:0:0:
325,95,107622,6,0,L|407:104,1,73.4999977569581,6|0,1:0|0:0,0:0:0:0:
411,189,107950,2,0,L|329:180,1,73.4999977569581,8|0,0:0|0:0,0:0:0:0:
249,102,108278,2,0,L|331:111,1,73.4999977569581,2|2,1:0|1:0,0:0:0:0:
335,196,108606,2,0,L|253:187,1,73.4999977569581,10|2,0:0|0:0,0:0:0:0:
143,142,108933,6,0,P|184:203|183:302,1,146.999995513916,6|10,1:0|0:0,0:0:0:0:
307,104,109589,2,0,P|321:54|332:29,1,73.4999977569581,2|0,3:2|0:0,0:0:0:0:
365,22,109835,1,4,3:0:0:0:
365,22,109917,2,0,L|437:14,3,36.749998878479,4|8|8|8,3:0|3:0|0:0|0:0,0:0:0:0:
442,7,110245,6,0,P|426:83|423:124,1,80.5000015354157,6|0,1:0|0:0,0:0:0:0:
377,156,110573,2,0,P|393:232|396:273,1,80.5000015354157,10|0,0:0|0:0,0:0:0:0:
399,320,110901,2,0,P|323:304|282:301,1,80.5000015354157,2|0,1:0|1:0,0:0:0:0:
250,255,111229,2,0,P|174:271|133:274,1,80.5000015354157,10|0,0:0|0:0,0:0:0:0:
43,228,111556,6,0,P|41:180|145:115,1,161.000003070831,2|10,1:0|0:0,0:0:0:0:
125,199,112048,1,2,0:0:0:0:
171,271,112212,2,0,P|247:255|288:252,1,80.5000015354157,2|0,1:0|1:0,0:0:0:0:
278,175,112540,2,0,P|238:168|199:158,1,80.5000015354157,8|0,0:0|0:0,0:0:0:0:
232,19,112868,6,0,P|272:16|335:17,1,80.5000015354157,2|0,1:0|0:0,0:0:0:0:
333,98,113196,2,0,P|373:100|436:100,1,80.5000015354157,10|0,0:0|0:0,0:0:0:0:
497,93,113524,2,0,P|499:133|499:196,1,80.5000015354157,2|0,1:0|1:0,0:0:0:0:
418,194,113852,2,0,P|415:234|416:297,1,80.5000015354157,10|0,0:0|0:0,0:0:0:0:
477,373,114179,6,0,P|422:323|320:312,1,161.000003070831,2|10,1:0|0:0,0:0:0:0:
273,360,114671,1,2,0:0:0:0:
201,319,114835,2,0,P|209:255|208:229,1,80.5000015354157,2|0,1:0|1:0,0:0:0:0:
127,214,115163,2,0,P|119:278|120:304,1,80.5000015354157,8|0,0:0|0:0,0:0:0:0:
239,214,115491,6,0,P|235:168|155:86,1,161.000003070831,6|8,1:0|0:0,0:0:0:0:
89,136,115983,1,0,0:0:0:0:
148,75,116147,2,0,P|209:66|245:62,1,80.5000015354157,2|0,1:0|1:0,0:0:0:0:
283,0,116474,2,0,P|344:9|380:13,1,80.5000015354157,10|0,0:0|0:0,0:0:0:0:
362,140,116802,6,0,P|366:186|446:268,1,161.000003070831,2|8,1:0|0:0,0:0:0:0:
512,218,117294,1,0,0:0:0:0:
453,279,117458,2,0,P|392:288|356:292,1,80.5000015354157,2|0,1:0|1:0,0:0:0:0:
318,354,117786,2,0,P|257:345|221:341,1,80.5000015354157,10|0,0:0|0:0,0:0:0:0:
239,214,118114,6,0,P|235:168|155:86,1,161.000003070831,2|8,1:0|0:0,0:0:0:0:
89,136,118606,1,0,0:0:0:0:
139,203,118770,2,0,P|132:264|123:299,1,80.5000015354157,2|0,1:0|1:0,0:0:0:0:
161,363,119097,2,0,P|224:343|247:343,1,80.5000015354157,8|0,0:0|0:0,0:0:0:0:
294,244,119425,6,0,P|357:264|380:264,1,80.5000015354157,2|0,1:0|0:0,0:0:0:0:
436,320,119753,2,0,P|456:257|456:234,1,80.5000015354157,10|0,0:0|0:0,0:0:0:0:
512,178,120081,2,0,P|449:157|426:157,1,80.5000015354157,2|0,1:0|1:0,0:0:0:0:
370,103,120409,2,0,P|350:166|350:189,1,80.5000015354157,10|0,0:0|0:0,0:0:0:0:
220,206,120737,6,0,P|215:166|199:129,1,80.5000015354157,6|0,1:0|0:0,0:0:0:0:
153,58,121065,2,0,P|92:49|47:44,1,80.5000015354157,10|0,0:0|0:0,0:0:0:0:
81,131,121392,2,0,P|76:170|60:207,1,80.5000015354157,2|0,1:0|1:0,0:0:0:0:
74,292,121720,1,10,0:0:0:0:
138,238,121884,1,0,0:0:0:0:
226,316,122048,6,0,B|325:332|269:269|414:280,1,161.000003070831,2|10,1:0|0:0,0:0:0:0:
445,332,122540,1,2,0:0:0:0:
499,269,122704,2,0,L|507:173,1,80.5000015354157,2|0,1:0|1:0,0:0:0:0:
436,142,123032,2,0,L|444:46,1,80.5000015354157,8|0,0:0|0:0,0:0:0:0:
312,125,123360,6,0,P|236:109|209:108,1,80.5000015354157,2|0,1:0|0:0,0:0:0:0:
145,108,123688,2,0,P|169:163|179:217,1,80.5000015354157,10|0,0:0|0:0,0:0:0:0:
165,269,124015,2,0,P|241:253|268:252,1,80.5000015354157,2|0,1:0|1:0,0:0:0:0:
329,252,124343,1,10,0:0:0:0:
306,334,124507,1,2,0:0:0:0:
181,356,124671,6,0,P|135:312|41:290,1,161.000003070831,2|10,1:0|0:0,0:0:0:0:
14,211,125163,1,0,0:0:0:0:
71,153,125327,2,0,P|127:137|168:110,1,80.5000015354157,2|0,1:0|1:0,0:0:0:0:
199,60,125655,2,0,P|162:42|123:33,1,80.5000015354157,10|0,0:0|0:0,0:0:0:0:
160,152,125983,6,0,P|239:163|280:100,1,161.000003070831,6|8,1:0|0:0,0:0:0:0:
336,40,126474,1,0,0:0:0:0:
410,81,126638,2,0,P|400:135|405:184,1,80.5000015354157,2|0,1:0|1:0,0:0:0:0:
349,226,126966,2,0,P|359:280|354:329,1,80.5000015354157,10|0,0:0|0:0,0:0:0:0:
250,272,127294,6,0,P|171:261|130:324,1,161.000003070831,2|8,1:0|0:0,0:0:0:0:
74,384,127785,1,0,0:0:0:0:
0,343,127950,2,0,P|10:289|5:240,1,80.5000015354157,2|0,1:0|1:0,0:0:0:0:
61,198,128278,2,0,P|51:144|56:95,1,80.5000015354157,10|0,0:0|0:0,0:0:0:0:
160,152,128606,6,0,P|239:163|280:100,1,161.000003070831,2|8,1:0|0:0,0:0:0:0:
200,75,129097,1,0,0:0:0:0:
115,77,129261,2,0,P|25:59|18:59,1,80.5000015354157,2|0,1:0|1:0,0:0:0:0:
0,135,129589,2,0,P|17:210|18:236,1,80.5000015354157,8|0,0:0|0:0,0:0:0:0:
100,330,129917,6,0,L|201:337,1,80.5000015354157,2|0,1:0|0:0,0:0:0:0:
165,253,130245,2,0,L|266:260,1,80.5000015354157,10|0,0:0|0:0,0:0:0:0:
315,306,130573,1,2,1:0:0:0:
342,226,130737,1,0,1:0:0:0:
426,226,130901,1,10,0:0:0:0:
451,306,131065,1,8,0:0:0:0:
383,355,131229,5,6,1:0:0:0:
315,306,131392,2,0,P|224:327|185:368,1,140,2|2,0:0|0:0,0:0:0:0:
116,319,131884,1,8,0:0:0:0:
165,251,132048,2,0,P|144:160|103:121,1,140,2|10,0:0|0:0,0:0:0:0:
140,50,132541,1,2,1:0:0:0:
220,100,132704,1,8,0:0:0:0:
220,100,132786,1,8,0:0:0:0:
220,100,132868,2,0,P|311:79|350:38,1,140,0|10,1:0|0:0,0:0:0:0:
419,88,133360,1,2,0:0:0:0:
370,156,133524,2,0,P|373:217|386:253,1,70,2|10,0:0|0:0,0:0:0:0:
451,347,133852,5,6,1:0:0:0:
450,262,134015,2,0,L|458:102,1,140,2|2,0:0|0:0,0:0:0:0:
499,48,134507,1,8,0:0:0:0:
414,49,134671,2,0,L|254:41,1,140,2|2,0:0|1:0,0:0:0:0:
200,0,135164,1,2,0:0:0:0:
201,85,135327,2,0,L|193:245,1,140,2|2,1:0|0:0,0:0:0:0:
152,299,135819,2,0,P|194:310|237:298,1,70,10|2,0:0|0:0,0:0:0:0:
315,239,136147,2,0,P|302:271|301:303,3,35,10|8|10|8,0:0|0:0|0:0|0:0,0:0:0:0:
315,307,136474,6,0,P|388:298|409:298,1,73.4999977569581,6|2,1:0|0:0,0:0:0:0:
455,352,136802,1,10,0:0:0:0:
512,289,136966,2,0,P|495:208|495:117,1,146.999995513916,2|2,0:0|1:0,0:0:0:0:
439,77,137458,2,0,P|372:65|335:62,1,73.4999977569581,10|2,0:0|1:0,0:0:0:0:
266,129,137786,1,2,1:0:0:0:
350,146,137950,6,0,P|333:207|328:314,1,146.999995513916,2|2,0:0|0:0,0:0:0:0:
252,335,138442,2,0,P|237:285|217:256,1,73.4999977569581,2|2,1:0|1:0,0:0:0:0:
157,212,138770,2,0,P|142:262|122:291,1,73.4999977569581,10|2,0:0|0:0,0:0:0:0:
34,199,139097,6,0,P|25:151|63:66,1,110.249996635437,2|0,1:0|0:0,0:0:0:0:
66,67,139425,2,0,L|152:81,1,70,10|2,0:0|1:0,0:0:0:0:
201,131,139753,2,0,L|287:117,1,70,8|2,0:0|1:0,0:0:0:0:
298,39,140081,2,0,L|384:53,1,70,10|2,0:0|1:0,0:0:0:0:
474,21,140409,5,10,0:0:0:0:
439,97,140573,1,2,1:0:0:0:
368,141,140737,1,8,0:0:0:0:
423,206,140901,1,2,1:0:0:0:
437,288,141065,1,10,0:0:0:0:
320,364,141392,2,0,P|280:354|262:347,3,35,8|8|4|8,0:0|0:0|3:0|3:0,0:0:0:0:
280,324,141720,6,0,P|224:313|152:346,1,125.999996154785,6|10,1:0|0:2,0:0:0:0:
80,353,142212,2,0,L|84:384,4,31.4999990386963,10|8|8|8|8,0:0|0:0|0:0|0:0|0:0,0:0:0:0:
30,284,142704,2,0,L|34:252,3,31.4999990386963,10|8|8|8,0:0|0:0|0:0|0:0,0:0:0:0:
28,220,143032,2,0,P|84:209|156:242,1,125.999996154785,10|10,0:0|0:0,0:0:0:0:
228,249,143524,2,0,L|223:280,4,31.4999990386963,10|8|8|8|8,0:0|0:0|0:0|0:0|0:0,0:0:0:0:
278,180,144016,2,0,L|273:148,3,31.4999990386963,10|8|8|8,0:0|0:0|0:0|0:0,0:0:0:0:
280,116,144343,2,0,P|224:105|152:138,1,125.999996154785,10|10,0:0|0:0,0:0:0:0:
80,145,144835,2,0,L|84:176,4,31.4999990386963,10|8|8|8|8,0:0|0:0|0:0|0:0|0:0,0:0:0:0:
30,76,145327,2,0,L|34:44,3,31.4999990386963,10|8|8|8,0:0|0:0|0:0|0:0,0:0:0:0:
25,15,145655,6,0,L|163:11,1,125.999996154785,10|8,0:0|0:0,0:0:0:0:
241,0,146147,1,8,0:0:0:0:
241,0,146229,1,8,0:0:0:0:
241,0,146311,2,0,L|235:57,3,31.4999990386963,10|8|8|8,0:0|0:0|0:0|0:0,0:0:0:0:
236,63,146638,1,14,0:0:0:0:
436,18,146966,6,0,P|413:59|400:118,1,73.4999977569581,6|0,1:0|0:0,0:0:0:0:
351,152,147294,2,0,P|328:111|315:52,1,73.4999977569581,8|0,0:0|1:0,0:0:0:0:
267,18,147622,2,0,P|244:59|231:118,1,73.4999977569581,10|0,0:0|1:0,0:0:0:0:
182,152,147950,2,0,P|159:111|146:52,1,73.4999977569581,8|0,0:0|1:0,0:0:0:0:
35,87,148278,6,0,L|30:183,1,73.4999977569581,10|2,0:0|1:0,0:0:0:0:
51,244,148606,1,10,0:0:0:0:
114,185,148770,2,0,P|170:183|202:186,1,73.4999977569581,2|8,1:0|0:0,0:0:0:0:
252,240,149097,1,0,1:0:0:0:
315,180,149261,2,0,P|361:175|394:175,1,73.4999977569581,10|0,0:0|0:0,0:0:0:0:
476,263,149589,6,0,B|387:250|425:305|307:279,1,146.999995513916,10|0,0:0|1:0,0:0:0:0:
400,340,150081,2,0,B|311:353|349:298|231:324,1,146.999995513916,10|0,0:0|1:0,0:0:0:0:
320,259,150573,2,0,B|231:246|269:301|151:275,1,146.999995513916,10|0,0:0|1:0,0:0:0:0:
237,340,151065,2,0,B|148:353|186:298|68:324,1,146.999995513916,10|0,0:0|1:0,0:0:0:0:
23,276,151556,2,0,P|11:243|11:192,1,73.4999977569581,2|0,3:0|1:0,0:0:0:0:
53,131,151884,1,10,0:0:0:0:
229,162,152212,6,0,P|341:147|382:152,1,154.000004699707,6|8,1:0|0:0,0:0:0:0:
464,176,152704,1,0,0:0:0:0:
471,261,152868,2,0,P|394:256|318:271,1,154.000004699707,2|8,0:0|0:0,0:0:0:0:
305,356,153360,1,2,0:0:0:0:
190,331,153524,6,0,P|183:293|171:256,1,77.0000023498536,2|0,1:0|1:0,0:0:0:0:
111,194,153852,2,0,P|51:185|19:185,1,77.0000023498536,8|0,0:0|1:0,0:0:0:0:
18,100,154179,1,10,0:0:0:0:
103,85,154343,1,0,1:0:0:0:
88,0,154507,1,0,1:0:0:0:
3,15,154671,1,8,0:0:0:0:
3,51,156147,6,0,L|96:52,1,83.9999974365235,6|0,1:0|0:0,0:0:0:0:
157,4,156474,1,2,0:0:0:0:
210,70,156638,1,2,1:0:0:0:
266,6,156802,2,0,L|359:5,1,83.9999974365235,8|0,0:0|1:0,0:0:0:0:
433,30,157130,2,0,L|426:84,3,41.9999987182618,4|8|8|8,3:0|0:0|0:0|0:0,0:0:0:0:
404,108,157458,6,0,P|417:150|423:209,1,83.9999974365235,6|0,1:0|0:0,0:0:0:0:
451,273,157786,2,0,P|409:286|350:292,1,83.9999974365235,10|0,0:0|0:0,0:0:0:0:
279,312,158114,2,0,P|292:270|298:211,1,83.9999974365235,2|0,1:0|0:0,0:0:0:0:
326,147,158442,2,0,P|284:134|225:128,1,83.9999974365235,10|0,0:0|0:0,0:0:0:0:
127,103,158770,6,0,P|169:157|181:269,1,167.999994873047,2|10,1:0|0:0,0:0:0:0:
151,331,159261,1,2,0:0:0:0:
264,271,159425,2,0,P|332:262|371:263,1,83.9999974365235,2|0,1:0|1:0,0:0:0:0:
468,247,159753,2,0,P|458:277|451:311,3,41.9999987182618,8|8|8|8,0:0|0:0|0:0|0:0,0:0:0:0:
454,319,160081,6,0,P|445:258|377:139,1,167.999994873047,6|8,1:0|0:0,0:0:0:0:
323,120,160573,1,0,0:0:0:0:
258,174,160737,2,0,P|195:157|146:149,1,83.9999974365235,2|0,1:0|1:0,0:0:0:0:
184,68,161065,2,0,P|121:85|72:93,1,83.9999974365235,8|0,0:0|0:0,0:0:0:0:
0,128,161392,6,0,P|9:189|77:308,1,167.999994873047,2|8,1:0|0:0,0:0:0:0:
131,327,161884,1,0,0:0:0:0:
196,273,162048,2,0,P|259:290|308:298,1,83.9999974365235,2|0,1:0|1:0,0:0:0:0:
270,379,162376,2,0,P|333:362|382:354,1,83.9999974365235,10|0,0:0|0:0,0:0:0:0:
454,319,162704,6,0,P|445:258|377:139,1,167.999994873047,2|8,1:0|0:0,0:0:0:0:
323,120,163196,1,0,0:0:0:0:
258,174,163360,2,0,P|254:232|244:272,1,83.9999974365235,2|0,1:0|1:0,0:0:0:0:
172,218,163688,2,0,L|71:234,1,83.9999974365235,8|0,0:0|0:0,0:0:0:0:
37,130,164015,6,0,L|138:146,1,83.9999974365235,2|0,1:0|0:0,0:0:0:0:
197,104,164343,2,0,P|208:64|197:4,1,83.9999974365235,10|0,0:0|0:0,0:0:0:0:
291,73,164671,1,2,1:0:0:0:
356,18,164835,1,8,0:0:0:0:
424,69,164999,2,0,L|415:138,3,41.9999987182618,10|8|8|8,0:0|0:0|0:0|0:0,0:0:0:0:
380,132,165327,6,0,P|398:223|399:252,1,83.9999974365235,6|0,1:0|0:0,0:0:0:0:
483,209,165655,2,0,P|465:300|464:329,1,83.9999974365235,8|0,0:0|0:0,0:0:0:0:
391,338,165983,2,0,P|350:327|308:320,1,83.9999974365235,2|0,1:0|0:0,0:0:0:0:
291,237,166311,2,0,P|250:247|208:254,1,83.9999974365235,10|0,0:0|0:0,0:0:0:0:
105,322,166638,6,0,P|78:289|104:161,1,167.999994873047,2|10,1:0|0:0,0:0:0:0:
177,175,167130,1,2,0:0:0:0:
208,254,167294,2,0,P|200:338|192:366,1,83.9999974365235,2|0,1:0|0:0,0:0:0:0:
276,375,167622,2,0,P|316:364|358:357,1,83.9999974365235,8|0,0:0|0:0,0:0:0:0:
462,297,167950,6,0,P|473:223|471:191,1,83.9999974365235,2|0,1:0|0:0,0:0:0:0:
390,236,168278,2,0,P|379:162|381:130,1,83.9999974365235,10|0,0:0|0:0,0:0:0:0:
424,82,168606,2,0,P|386:117|259:132,1,167.999994873047,2|10,1:0|0:0,0:0:0:0:
218,71,169097,1,2,0:0:0:0:
137,157,169261,6,0,P|146:203|155:256,1,83.9999974365235,2|0,1:0|0:0,0:0:0:0:
237,242,169589,2,0,P|228:288|219:341,1,83.9999974365235,10|0,0:0|0:0,0:0:0:0:
152,375,169917,2,0,P|111:343|61:330,1,83.9999974365235,2|0,1:0|0:0,0:0:0:0:
36,259,170245,2,0,P|74:243|106:216,1,83.9999974365235,10|0,0:0|0:0,0:0:0:0:
117,76,170573,6,0,B|218:72|158:128|305:111,1,167.999994873047,6|8,1:0|0:0,0:0:0:0:
344,62,171065,1,0,0:0:0:0:
420,97,171229,2,0,P|401:160|395:206,1,83.9999974365235,2|0,0:0|0:0,0:0:0:0:
313,183,171556,2,0,P|332:246|338:292,1,83.9999974365235,10|0,0:0|0:0,0:0:0:0:
370,370,171884,6,0,B|269:374|329:318|182:335,1,167.999994873047,2|8,1:0|0:0,0:0:0:0:
143,384,172376,1,0,0:0:0:0:
67,349,172540,2,0,P|86:286|92:240,1,83.9999974365235,2|0,0:0|0:0,0:0:0:0:
174,263,172868,2,0,P|155:200|149:154,1,83.9999974365235,10|0,0:0|0:0,0:0:0:0:
117,76,173196,6,0,B|218:72|158:128|305:111,1,167.999994873047,2|8,1:0|0:0,0:0:0:0:
344,62,173688,1,0,0:0:0:0:
420,97,173852,2,0,P|404:150|393:268,1,167.999994873047,2|8,1:0|0:0,0:0:0:0:
417,342,174343,1,0,0:0:0:0:
311,281,174507,6,0,P|243:274|192:279,1,83.9999974365235,2|0,1:0|0:0,0:0:0:0:
93,285,174835,2,0,P|114:345|145:388,1,83.9999974365235,10|0,0:0|0:0,0:0:0:0:
159,229,175163,2,0,P|138:169|107:126,1,83.9999974365235,2|8,1:0|0:0,0:0:0:0:
67,98,175491,1,8,0:0:0:0:
67,98,175573,1,8,0:0:0:0:
67,98,175655,1,8,0:0:0:0:
189,98,175819,6,0,P|283:86|285:86,1,83.9999974365235,6|0,1:0|0:0,0:0:0:0:
353,47,176147,2,0,P|365:141|365:143,1,83.9999974365235,10|0,0:0|0:0,0:0:0:0:
404,211,176474,2,0,P|310:223|307:223,1,83.9999974365235,2|0,1:0|0:0,0:0:0:0:
240,262,176802,2,0,P|228:168|228:166,1,83.9999974365235,10|0,0:0|0:0,0:0:0:0:
166,50,177130,6,0,P|161:114|83:177,1,167.999994873047,2|10,1:0|0:0,0:0:0:0:
4,139,177622,1,2,0:0:0:0:
13,225,177786,2,0,P|26:290|31:332,1,83.9999974365235,2|0,1:0|0:0,0:0:0:0:
108,347,178114,2,0,P|114:305|123:264,1,83.9999974365235,8|0,0:0|0:0,0:0:0:0:
231,316,178442,6,0,P|321:309|345:312,1,83.9999974365235,2|0,1:0|0:0,0:0:0:0:
402,327,178770,2,0,P|395:237|398:213,1,83.9999974365235,10|0,0:0|0:0,0:0:0:0:
413,156,179097,2,0,P|323:163|299:160,1,83.9999974365235,2|0,1:0|0:0,0:0:0:0:
242,145,179425,2,0,P|249:235|246:259,1,83.9999974365235,10|0,0:0|0:0,0:0:0:0:
161,114,179753,6,0,P|190:73|309:90,1,167.999994873047,2|10,1:0|0:0,0:0:0:0:
370,26,180245,1,2,0:0:0:0:
439,78,180409,2,0,P|426:166|425:179,1,83.9999974365235,2|0,1:0|0:0,0:0:0:0:
491,221,180737,2,0,P|478:309|477:322,1,83.9999974365235,10|0,0:0|0:0,0:0:0:0:
376,373,181065,6,0,P|339:329|206:329,1,167.999994873047,6|8,1:0|0:0,0:0:0:0:
165,370,181556,1,0,0:0:0:0:
91,320,181720,2,0,P|83:298|65:236,1,83.9999974365235,2|0,0:0|0:0,0:0:0:0:
0,180,182048,2,0,P|8:158|26:96,1,83.9999974365235,10|0,0:0|0:0,0:0:0:0:
124,15,182376,6,0,P|161:59|294:59,1,167.999994873047,2|8,1:0|0:0,0:0:0:0:
335,18,182867,1,0,0:0:0:0:
409,68,183032,2,0,P|417:90|435:152,1,83.9999974365235,2|0,0:0|0:0,0:0:0:0:
500,208,183360,2,0,P|492:230|474:292,1,83.9999974365235,10|0,0:0|0:0,0:0:0:0:
376,373,183688,6,0,P|339:329|206:329,1,167.999994873047,2|8,1:0|0:0,0:0:0:0:
187,240,184179,1,0,0:0:0:0:
246,176,184343,2,0,P|330:168|342:166,1,83.9999974365235,2|0,1:0|0:0,0:0:0:0:
293,88,184671,2,0,P|209:96|197:98,1,83.9999974365235,8|0,0:0|0:0,0:0:0:0:
111,188,184999,6,0,P|99:254|100:305,1,83.9999974365235,2|0,1:0|0:0,0:0:0:0:
195,348,185327,2,0,P|267:331|290:331,1,83.9999974365235,10|0,0:0|0:0,0:0:0:0:
324,259,185655,2,0,P|396:276|419:276,1,83.9999974365235,2|4,1:0|3:0,0:0:0:0:
474,226,185983,1,10,0:0:0:0:
474,226,186065,1,8,0:0:0:0:
474,226,186147,1,8,0:0:0:0:
397,140,186311,6,0,P|319:141|291:155,1,83.9999974365235,6|0,1:0|0:0,0:0:0:0:
232,112,186638,2,0,P|233:190|247:218,1,83.9999974365235,10|0,0:0|0:0,0:0:0:0:
204,277,186966,2,0,P|282:276|310:262,1,83.9999974365235,2|0,1:0|0:0,0:0:0:0:
369,305,187294,2,0,P|368:227|354:199,1,83.9999974365235,10|0,0:0|0:0,0:0:0:0:
234,194,187622,6,0,L|59:200,1,167.999994873047,2|10,1:0|0:0,0:0:0:0:
23,124,188114,1,2,0:0:0:0:
94,71,188278,2,0,P|152:78|204:60,1,83.9999974365235,2|0,1:0|0:0,0:0:0:0:
265,60,188606,2,0,L|259:164,1,83.9999974365235,8|0,0:0|0:0,0:0:0:0:
293,286,188933,6,0,P|312:252|360:213,1,83.9999974365235,2|0,1:0|0:0,0:0:0:0:
363,136,189261,2,0,P|396:155|435:203,1,83.9999974365235,10|0,0:0|0:0,0:0:0:0:
512,206,189589,2,0,P|492:239|444:278,1,83.9999974365235,2|0,0:0|0:0,0:0:0:0:
447,358,189917,1,10,0:0:0:0:
379,307,190081,1,2,0:0:0:0:
267,367,190245,6,0,P|179:348|164:347,1,83.9999974365235,2|0,1:0|0:0,0:0:0:0:
99,332,190573,2,0,P|118:244|119:229,1,83.9999974365235,10|0,0:0|0:0,0:0:0:0:
134,164,190901,2,0,P|222:183|237:184,1,83.9999974365235,2|0,1:0|0:0,0:0:0:0:
302,199,191229,2,0,P|283:287|282:302,1,83.9999974365235,10|0,0:0|0:0,0:0:0:0:
415,336,191556,6,0,P|412:268|373:144,1,167.999994873047,6|8,1:0|0:0,0:0:0:0:
302,199,192048,1,0,0:0:0:0:
215,182,192212,2,0,P|198:114|200:81,1,83.9999974365235,2|0,1:0|0:0,0:0:0:0:
115,73,192540,2,0,P|111:114|98:154,1,83.9999974365235,10|0,0:0|0:0,0:0:0:0:
169,264,192868,6,0,P|172:196|211:72,1,167.999994873047,2|8,1:0|0:0,0:0:0:0:
282,127,193360,1,0,0:0:0:0:
369,110,193524,2,0,P|386:42|384:9,1,83.9999974365235,2|0,0:0|0:0,0:0:0:0:
469,1,193852,2,0,P|472:42|485:82,1,83.9999974365235,10|0,0:0|0:0,0:0:0:0:
414,192,194179,6,0,P|411:124|372:0,1,167.999994873047,2|8,1:0|0:0,0:0:0:0:
297,41,194671,1,0,0:0:0:0:
214,11,194835,2,0,P|155:5|117:12,1,83.9999974365235,2|0,1:0|0:0,0:0:0:0:
58,57,195163,2,0,L|74:159,1,83.9999974365235,10|0,0:0|0:0,0:0:0:0:
196,175,195491,6,0,L|180:277,1,83.9999974365235,2|0,1:0|0:0,0:0:0:0:
246,325,195819,2,0,P|332:306|357:309,1,83.9999974365235,10|0,0:0|0:0,0:0:0:0:
414,319,196147,1,2,1:0:0:0:
385,237,196311,1,8,0:0:0:0:
432,165,196474,2,0,P|518:184|543:181,1,83.9999974365235,8|8,0:0|0:0,0:0:0:0:
408,84,196802,6,0,P|310:116|277:159,1,140,6|2,1:0|1:0,0:0:0:0:
206,159,197294,2,0,P|304:191|337:234,1,140,10|4,0:0|3:0,0:0:0:0:
367,287,197786,1,10,0:0:0:0:
216,247,198114,6,0,P|118:215|85:172,1,140,6|2,1:0|1:0,0:0:0:0:
14,172,198606,2,0,P|112:140|145:97,1,140,10|4,0:0|3:0,0:0:0:0:
175,44,199098,1,10,0:0:0:0:
408,84,199425,6,0,P|310:116|277:159,1,140,6|2,1:0|1:0,0:0:0:0:
206,159,199917,2,0,P|304:191|337:234,1,140,10|0,0:0|1:0,0:0:0:0:
367,287,200409,1,10,0:0:0:0:
239,348,200737,6,0,P|180:319|91:311,1,140,6|0,1:0|1:0,0:0:0:0:
48,252,201229,1,8,0:0:0:0:
85,179,201392,2,0,P|155:165|171:165,1,70,2|0,1:0|0:0,0:0:0:0:
222,210,201720,1,10,0:0:0:0:
435,60,202048,6,0,L|430:158,1,77.0000023498536,6|0,1:0|0:0,0:0:0:0:
353,88,202376,2,0,L|348:186,1,77.0000023498536,8|0,0:0|0:0,0:0:0:0:
265,155,202704,2,0,L|270:253,1,77.0000023498536,2|0,1:0|1:0,0:0:0:0:
347,183,203032,2,0,L|352:281,1,77.0000023498536,8|0,0:0|0:0,0:0:0:0:
330,342,203360,6,0,P|237:318|146:333,1,154.000004699707,6|10,1:0|0:0,0:0:0:0:
36,238,204015,2,0,P|74:222|119:193,1,77.0000023498536,2|0,1:0|0:0,0:0:0:0:
153,120,204343,2,0,P|143:89|119:57,3,38.5000011749268,10|8|8|8,0:0|0:0|0:0|0:0,0:0:0:0:
163,151,204671,6,0,P|208:149|273:161,1,83.9999974365235,6|0,1:0|0:0,0:0:0:0:
283,76,204999,2,0,P|328:77|393:66,1,83.9999974365235,8|0,0:0|0:0,0:0:0:0:
453,53,205327,2,0,P|441:126|436:170,1,83.9999974365235,10|0,0:0|1:0,0:0:0:0:
358,165,205655,2,0,P|370:238|375:282,1,83.9999974365235,10|0,0:0|1:0,0:0:0:0:
457,330,205983,6,0,P|376:293|285:297,1,167.999994873047,8|8,0:0|0:0,0:0:0:0:
229,346,206474,1,0,1:0:0:0:
158,297,206638,1,10,0:0:0:0:
182,214,206802,1,0,1:0:0:0:
182,214,206884,1,0,1:0:0:0:
182,214,206966,2,0,P|219:211|260:191,1,83.9999974365235,8|0,0:0|1:0,0:0:0:0:
337,86,207294,6,0,P|330:20|321:-11,1,83.9999974365235,8|0,0:0|0:0,0:0:0:0:
243,34,207622,2,0,P|143:21|129:21,1,83.9999974365235,8|0,0:0|0:0,0:0:0:0:
72,24,207950,2,0,P|89:90|97:130,1,83.9999974365235,10|0,0:0|1:0,0:0:0:0:
19,156,208278,2,0,P|36:222|44:262,1,83.9999974365235,10|0,0:0|1:0,0:0:0:0:
31,371,208606,6,0,P|108:321|205:317,1,167.999994873047,8|8,0:0|0:0,0:0:0:0:
254,261,209097,1,0,1:0:0:0:
333,301,209261,1,10,0:0:0:0:
395,238,209425,1,0,1:0:0:0:
395,238,209507,1,0,1:0:0:0:
395,238,209589,2,0,P|413:184|413:151,1,83.9999974365235,10|0,0:0|1:0,0:0:0:0:
372,20,209917,6,0,P|260:32|219:74,1,167.999994873047,6|8,1:0|0:0,0:0:0:0:
144,35,210409,1,2,0:0:0:0:
76,90,210573,2,0,L|74:189,1,83.9999974365235,10|2,0:0|1:0,0:0:0:0:
155,216,210901,2,0,L|157:117,1,83.9999974365235,10|0,0:0|1:0,0:0:0:0:
296,117,211229,6,0,P|317:207|318:298,1,167.999994873047,8|8,0:0|0:0,0:0:0:0:
390,339,211720,1,0,1:0:0:0:
456,280,211884,1,10,0:0:0:0:
435,198,212048,1,0,1:0:0:0:
435,198,212130,1,0,1:0:0:0:
435,198,212212,2,0,P|439:149|459:94,1,83.9999974365235,10|0,0:0|1:0,0:0:0:0:
320,118,212540,6,0,L|203:104,1,83.9999974365235,8|0,0:0|0:0,0:0:0:0:
223,21,212868,2,0,L|106:35,1,83.9999974365235,8|0,0:0|0:0,0:0:0:0:
53,43,213196,2,0,L|73:135,1,83.9999974365235,10|0,0:0|1:0,0:0:0:0:
158,141,213524,2,0,L|138:233,1,83.9999974365235,10|0,0:0|1:0,0:0:0:0:
176,348,213852,6,0,P|245:338|298:247,1,167.999994873047,8|8,0:0|0:0,0:0:0:0:
280,175,214343,1,0,1:0:0:0:
364,207,214507,1,10,0:0:0:0:
426,139,214671,1,0,1:0:0:0:
426,139,214753,1,0,1:0:0:0:
426,139,214835,2,0,P|418:40|411:26,1,83.9999974365235,10|0,0:0|1:0,0:0:0:0:
504,170,215163,6,0,L|496:292,1,83.9999974365235,6|0,1:0|0:0,0:0:0:0:
448,328,215491,1,8,0:0:0:0:
380,273,215655,1,0,0:0:0:0:
319,336,215819,2,0,P|274:341|212:344,1,83.9999974365235,10|0,0:0|1:0,0:0:0:0:
219,260,216147,2,0,P|174:255|112:252,1,83.9999974365235,10|0,0:0|1:0,0:0:0:0:
42,181,216474,6,0,P|76:184|159:86,1,167.999994873047,8|8,0:0|0:0,0:0:0:0:
217,29,216966,1,0,1:0:0:0:
285,86,217130,2,0,L|376:73,1,83.9999974365235,10|0,0:0|1:0,0:0:0:0:
408,59,217376,1,0,1:0:0:0:
408,59,217458,2,0,P|400:125|410:173,1,83.9999974365235,10|0,0:0|1:0,0:0:0:0:
490,245,217786,6,0,P|482:334|483:347,1,83.9999974365235,8|0,0:0|0:0,0:0:0:0:
400,360,218114,1,8,0:0:0:0:
338,300,218278,1,0,0:0:0:0:
269,354,218442,2,0,P|252:309|254:266,1,83.9999974365235,10|0,0:0|1:0,0:0:0:0:
173,238,218770,2,0,P|172:279|156:318,1,83.9999974365235,10|0,0:0|1:0,0:0:0:0:
40,354,219097,6,0,L|25:153,1,167.999994873047,8|8,0:0|0:0,0:0:0:0:
102,143,219589,1,0,1:0:0:0:
175,189,219753,2,0,P|236:190|274:163,1,83.9999974365235,10|0,0:0|1:0,0:0:0:0:
283,147,219999,1,0,1:0:0:0:
283,147,220081,2,0,L|270:56,1,83.9999974365235,10|0,0:0|1:0,0:0:0:0:
136,61,220409,6,0,P|90:42|45:42,1,83.9999974365235,6|0,1:0|0:0,0:0:0:0:
4,110,220737,1,8,0:0:0:0:
56,181,220901,1,0,0:0:0:0:
3,250,221065,2,0,P|24:335|23:361,1,83.9999974365235,10|0,0:0|1:0,0:0:0:0:
103,365,221392,2,0,P|109:323|123:284,1,83.9999974365235,10|0,0:0|1:0,0:0:0:0:
225,227,221720,6,0,L|406:214,1,167.999994873047,8|8,0:0|0:0,0:0:0:0:
474,247,222212,1,0,1:0:0:0:
506,165,222376,2,0,P|500:100|492:63,1,83.9999974365235,10|0,0:0|1:0,0:0:0:0:
474,50,222622,1,0,1:0:0:0:
474,50,222704,2,0,L|381:52,1,83.9999974365235,10|0,0:0|1:0,0:0:0:0:
293,117,223032,6,0,L|210:116,1,83.9999974365235,8|0,0:0|0:0,0:0:0:0:
127,149,223360,1,8,0:0:0:0:
86,72,223524,1,0,0:0:0:0:
9,114,223688,2,0,P|15:171|30:223,1,83.9999974365235,10|0,0:0|1:0,0:0:0:0:
101,232,224015,2,0,P|92:273|88:314,1,83.9999974365235,10|0,0:0|1:0,0:0:0:0:
227,359,224343,6,0,L|328:345,1,83.9999974365235,8|0,0:0|0:0,0:0:0:0:
389,311,224671,1,8,0:0:0:0:
380,225,224835,1,0,1:0:0:0:
295,206,224999,1,10,0:0:0:0:
286,119,225163,1,0,1:0:0:0:
286,119,225245,1,0,1:0:0:0:
286,119,225327,2,0,L|294:60,3,41.9999987182618,10|8|8|8,0:0|0:0|0:0|0:0,0:0:0:0:
277,49,225655,6,0,L|192:52,1,62.9999980773926,6|2,1:0|0:0,0:0:0:0:
145,98,225983,2,0,P|178:150|178:241,1,125.999996154785,2|0,1:0|1:0,0:0:0:0:
146,290,226474,1,2,0:0:0:0:
146,290,226638,2,0,P|198:257|289:257,1,125.999996154785,2|0,1:0|1:0,0:0:0:0:
338,289,227130,1,2,0:0:0:0:
338,289,227294,2,0,P|305:237|305:146,1,125.999996154785,2|0,1:0|1:0,0:0:0:0:
337,97,227786,1,2,0:0:0:0:
337,97,227950,2,0,P|285:130|194:130,1,125.999996154785,2|0,1:0|1:0,0:0:0:0:
145,98,228442,5,2,0:0:0:0:
145,98,228606,2,0,L|136:245,1,125.999996154785,2|0,1:0|1:0,0:0:0:0:
105,306,229097,1,2,0:0:0:0:
105,306,229261,2,0,L|252:315,1,125.999996154785,2|0,1:0|1:0,0:0:0:0:
313,346,229753,1,2,0:0:0:0:
313,346,229917,2,0,L|322:199,1,125.999996154785,2|0,1:0|1:0,0:0:0:0:
353,138,230409,2,0,L|299:135,2,31.4999990386963,2|2|6,0:0|0:0|1:0,0:0:0:0:
353,138,230901,6,0,P|351:89|325:46,1,70,6|2,1:0|0:0,0:0:0:0:
273,23,231229,1,10,0:0:0:0:
220,89,231392,2,0,P|158:63|68:48,1,140,2|2,0:0|0:0,0:0:0:0:
27,108,231884,2,0,P|42:184|41:197,1,70,10|2,0:0|0:0,0:0:0:0:
31,262,232212,1,2,1:0:0:0:
111,229,232376,2,0,B|196:232|146:275|245:285,1,140,2|2,0:0|0:0,0:0:0:0:
307,236,232868,2,0,P|300:188|289:159,1,70,2|2,1:0|0:0,0:0:0:0:
391,236,233196,2,0,P|380:269|376:304,1,70,10|2,0:0|0:0,0:0:0:0:
470,206,233524,5,2,1:0:0:0:
439,128,233688,2,0,L|338:115,1,70,10|2,0:0|1:0,0:0:0:0:
325,48,234015,2,0,L|224:61,1,70,10|0,0:0|1:0,0:0:0:0:
195,114,234343,1,10,3:0:0:0:
195,114,234425,1,8,3:0:0:0:
195,114,234507,1,10,3:3:0:0:
105,50,234671,2,0,P|107:94|103:137,1,70,14|0,0:0|1:0,0:0:0:0:
46,209,234999,5,10,0:0:0:0:
129,202,235163,1,8,0:0:0:0:
158,282,235327,1,10,0:0:0:0:
241,289,235491,1,0,1:0:0:0:
290,183,235655,5,10,0:0:0:0:
395,169,235819,5,10,0:0:0:0:
467,267,235983,6,0,P|342:291|249:386,1,251.999992309571,10|0,0:0|0:0,0:0:0:0:
