osu file format v14

[General]
AudioFilename: audio.mp3
AudioLeadIn: 0
PreviewTime: 154753
Countdown: 0
SampleSet: Soft
StackLeniency: 0.7
Mode: 0
LetterboxInBreaks: 0
WidescreenStoryboard: 0

[Editor]
Bookmarks: 139425,141720,146966,149589,156147,196802
DistanceSpacing: 1
BeatDivisor: 8
GridSize: 8
TimelineZoom: 2.1

[Metadata]
Title:Silhouette
TitleUnicode:シルエット
Artist:Amatsuki
ArtistUnicode:天月
Creator:Jian
Version:Expert
Source:NARUTO-ナルト-疾風伝
Tags:shippuuden shipuuden shippuden nine tails opening 16 kage full ver male utaite cover William K William_K Elcheer
BeatmapID:2047406
BeatmapSetID:978327

[Difficulty]
HPDrainRate:5
CircleSize:3.6
OverallDifficulty:8.6
ApproachRate:9.3
SliderMultiplier:1.8
SliderTickRate:1

[Events]
//Background and Video events
0,0,"naruciak.jpg",0,0
//Break Periods
2,154871,155593
//Storyboard Layer 0 (Background)
//Storyboard Layer 1 (Fail)
//Storyboard Layer 2 (Pass)
//Storyboard Layer 3 (Foreground)
//Storyboard Layer 4 (Overlay)
//Storyboard Sound Samples

[TimingPoints]
1393,327.868852459016,4,2,2,40,1,0
1393,-133.333333333333,4,2,2,40,0,0
13196,-100,4,2,2,50,0,0
23688,-111.111111111111,4,2,2,45,0,0
33196,-99.9999999999999,4,2,2,50,0,0
33524,-90.9090909090909,4,2,2,55,0,0
33852,-83.3333333333333,4,2,2,60,0,0
34179,-100,4,2,2,50,0,0
44671,-125,4,2,2,40,0,0
49917,-125,4,2,2,30,0,0
52540,-100,4,2,2,50,0,0
55163,-83.3333333333333,4,2,2,70,0,0
76147,-100,4,2,2,40,0,0
87950,-111.111111111111,4,2,2,45,0,0
88278,-100,4,2,2,50,0,0
88606,-90.9090909090909,4,2,2,55,0,0
88933,-83.3333333333333,4,2,2,60,0,0
89261,-90.9090909090909,4,2,2,50,0,0
99753,-111.111111111111,4,2,2,45,0,0
104999,-111.111111111111,4,2,2,50,0,0
110245,-83.3333333333333,4,2,2,70,0,0
131229,-100,4,2,2,40,0,0
136474,-100,4,2,2,50,0,0
139425,-100,4,2,2,60,0,0
141720,-100,4,2,2,55,0,0
146966,-90.9090909090909,4,2,2,50,0,0
149589,-90.9090909090909,4,2,2,60,0,0
152212,-90.9090909090909,4,2,2,55,0,0
154179,-90.9090909090909,4,2,2,60,0,0
156147,-83.3333333333333,4,2,2,70,0,0
196802,-100,4,2,2,45,0,0
204671,-83.3333333333333,4,2,2,70,0,0
225655,-111.111111111111,4,2,2,40,0,0
230901,-100,4,2,2,50,0,0
234835,-100,4,2,2,40,0,0
234999,-100,4,2,2,50,0,0
235163,-100,4,2,2,60,0,0
235327,-100,4,2,2,70,0,0
235491,-100,4,2,2,40,0,0
235655,-100,4,2,2,50,0,0
235819,-100,4,2,2,60,0,0
235983,-133.333333333333,4,2,2,70,0,0
236966,-133.333333333333,4,2,2,5,0,0

[Colours]
Combo1 : 171,205,233
Combo2 : 112,216,158
Combo3 : 91,139,157
Combo4 : 179,225,187

[HitObjects]
90,110,1393,5,2,0:0:0:0:
90,110,1720,1,2,0:0:0:0:
90,110,2048,1,2,0:0:0:0:
90,110,2376,1,2,0:0:0:0:
90,110,2704,5,2,1:0:0:0:
174,37,2868,1,2,0:0:0:0:
179,185,3032,1,2,1:0:0:0:
305,52,3196,2,0,B|356:48|356:48|385:55|385:55|455:49,1,135.000005149842,2|2,0:0|0:0,0:0:0:0:
439,204,3688,5,2,1:0:0:0:
350,129,3852,1,2,0:0:0:0:
355,277,4016,1,2,1:0:0:0:
214,157,4180,2,0,B|162:161|162:161|134:154|134:154|64:160,1,135.000005149842,2|2,0:0|0:0,0:0:0:0:
253,252,4671,5,2,1:0:0:0:
350,129,4835,1,2,0:0:0:0:
493,268,4999,1,2,1:0:0:0:
429,174,5163,1,2,0:0:0:0:
341,342,5327,5,2,1:0:0:0:
353,213,5491,1,2,0:0:0:0:
429,363,5655,1,2,1:0:0:0:
282,271,5819,2,0,B|246:257|205:270|226:276|179:293|126:267,1,135.000005149842,2|2,0:0|0:0,0:0:0:0:
192,68,6311,5,2,1:0:0:0:
180,197,6475,1,2,0:0:0:0:
104,47,6639,1,2,1:0:0:0:
251,139,6803,2,0,B|287:153|328:140|307:134|354:117|407:143,1,135.000005149842,2|0,0:0|0:0,0:0:0:0:
297,0,7294,2,0,P|283:43|279:84,1,67.5000025749208,2|0,1:0|3:0,0:0:0:0:
279,64,7540,1,0,3:0:0:0:
279,64,7622,1,2,3:2:0:0:
425,15,7786,1,2,0:0:0:0:
353,210,7950,5,2,1:0:0:0:
371,83,8114,1,2,0:0:0:0:
436,225,8278,1,10,0:0:0:0:
303,134,8442,2,0,P|242:123|207:127,1,67.5000025749208,2|0,0:0|1:0,0:0:0:0:
353,210,8770,1,2,0:0:0:0:
235,244,8933,1,10,0:0:0:0:
350,122,9097,1,2,0:0:0:0:
169,77,9261,5,2,1:0:0:0:
310,201,9425,2,0,P|329:253|332:349,1,135.000005149842,2|2,0:0|0:0,0:0:0:0:
415,200,9917,1,2,1:0:0:0:
481,340,10081,1,2,0:0:0:0:
391,230,10245,1,10,0:0:0:0:
307,365,10409,1,2,0:0:0:0:
213,210,10573,5,2,1:0:0:0:
360,305,10737,1,2,0:0:0:0:
151,350,10901,1,10,0:0:0:0:
310,201,11065,2,0,P|329:140|325:52,1,135.000005149842,2|2,0:0|0:0,0:0:0:0:
202,182,11556,1,10,0:0:0:0:
391,230,11720,1,2,0:0:0:0:
228,84,11884,5,10,0:0:0:0:
194,80,11965,1,8,0:0:0:0:
161,88,12047,1,8,0:0:0:0:
133,106,12129,1,8,0:0:0:0:
113,133,12212,2,0,L|111:192,1,33.7500012874604,10|8,0:0|0:0,0:0:0:0:
191,310,12376,2,0,L|189:276,1,33.7500012874604,10|8,0:0|0:0,0:0:0:0:
305,117,12540,1,14,0:0:0:0:
305,117,13196,6,0,B|351:98|400:119|389:132|442:156|486:138,1,180,6|8,1:0|0:0,0:0:0:0:
343,197,13688,1,2,0:0:0:0:
244,5,13852,2,0,P|260:53|266:95,1,90,0|0,1:0|0:0,0:0:0:0:
499,53,14179,2,0,P|483:101|477:143,1,90,10|0,0:0|0:0,0:0:0:0:
405,329,14507,6,0,P|333:285|247:318,1,180,2|8,1:0|0:0,0:0:0:0:
78,193,14999,2,0,B|131:213|174:198|160:192|212:177|269:200,1,180,2|0,0:0|0:0,0:0:0:0:
151,28,15491,2,0,P|136:78|131:122,1,90,10|0,0:0|0:0,0:0:0:0:
353,47,15819,6,0,B|414:12|495:45|495:45|464:90,1,180,2|8,1:0|0:0,0:0:0:0:
329,237,16311,2,0,B|304:290|308:356|308:356|278:297|243:284,1,180,2|0,0:0|0:0,0:0:0:0:
150,156,16802,1,10,0:0:0:0:
81,331,16966,1,2,0:0:0:0:
0,133,17130,6,0,P|69:102|154:167,1,180,2|8,1:0|0:0,0:0:0:0:
342,62,17622,2,0,B|254:49|232:131|232:131|285:170,1,180,2|0,0:0|0:0,0:0:0:0:
410,253,18114,2,0,L|501:182,1,90,10|0,0:0|0:0,0:0:0:0:
259,151,18442,6,0,B|217:195|229:264|229:264|194:256|165:231,1,180,2|8,1:0|0:0,0:0:0:0:
21,82,18933,2,0,P|100:77|147:172,1,180,2|0,0:0|0:0,0:0:0:0:
269,0,19425,2,0,P|230:49|217:90,1,90,10|0,0:0|0:0,0:0:0:0:
94,225,19753,6,0,B|166:238|166:238|196:262|196:262|282:278,1,180,2|8,1:0|0:0,0:0:0:0:
234,186,20245,1,0,0:0:0:0:
126,314,20409,2,0,L|29:296,1,90,0|0,1:0|0:0,0:0:0:0:
156,150,20737,2,0,L|253:132,1,90,8|0,0:0|0:0,0:0:0:0:
440,306,21065,6,0,L|249:271,1,180,2|8,1:0|0:0,0:0:0:0:
56,218,21556,2,0,L|247:183,1,180,2|0,0:0|0:0,0:0:0:0:
300,363,22048,2,0,L|203:345,1,90,10|0,0:0|0:0,0:0:0:0:
440,306,22376,6,0,B|472:243|441:183|441:183|383:213,1,180,2|8,1:0|0:0,0:0:0:0:
262,273,22868,1,2,0:0:0:0:
182,121,23033,1,8,0:0:0:0:
219,95,23114,1,8,0:0:0:0:
263,86,23196,1,8,0:0:0:0:
306,95,23278,1,8,0:0:0:0:
343,121,23360,1,10,0:0:0:0:
262,273,23524,2,0,L|262:202,1,45,8|8,0:0|0:0,0:0:0:0:
205,341,23688,6,0,L|124:333,1,80.9999975280763,6|0,1:0|0:0,0:0:0:0:
19,241,24015,2,0,L|99:233,1,80.9999975280763,10|0,0:0|0:0,0:0:0:0:
219,95,24343,1,2,1:0:0:0:
181,206,24507,1,0,1:0:0:0:
343,121,24671,6,0,B|407:120|407:120|441:104|441:104|517:103,2,161.999995056153,10|0|8,0:0|1:0|0:0,0:0:0:0:
162,31,25655,1,0,1:0:0:0:
139,129,25819,1,0,1:0:0:0:
265,15,25983,2,0,L|267:95,1,80.9999975280763,10|0,0:0|0:0,0:0:0:0:
209,249,26311,5,2,1:0:0:0:
139,129,26474,1,2,0:0:0:0:
104,305,26638,1,10,0:0:0:0:
151,175,26802,1,2,0:0:0:0:
237,340,26966,2,0,P|288:359|326:358,1,80.9999975280763,2|0,1:0|1:0,0:0:0:0:
232,228,27294,1,10,0:0:0:0:
397,229,27458,6,0,B|424:290|397:340|397:340|391:312|369:293,1,161.999995056153,2|0,0:0|0:0,0:0:0:0:
232,228,27950,2,0,P|276:217|331:245,1,80.9999975280763,10|0,0:0|0:0,0:0:0:0:
213,373,28278,2,0,P|181:340|178:278,1,80.9999975280763,2|0,1:0|1:0,0:0:0:0:
376,299,28606,2,0,P|363:342|311:376,1,80.9999975280763,10|0,0:0|0:0,0:0:0:0:
205,212,28933,6,0,B|166:194|118:211|130:219|81:245|19:211,1,161.999995056153,2|8,1:0|0:0,0:0:0:0:
279,64,29589,2,0,P|267:121|265:164,1,80.9999975280763,2|0,1:0|1:0,0:0:0:0:
416,26,29917,2,0,P|425:65|429:105,1,80.9999975280763,10|0,0:0|0:0,0:0:0:0:
317,248,30245,6,0,P|372:201|466:232,1,161.999995056153,2|8,1:0|0:0,0:0:0:0:
322,360,30901,2,0,P|266:339|228:335,1,80.9999975280763,2|0,1:0|1:0,0:0:0:0:
397,283,31229,2,0,P|453:262|491:258,1,80.9999975280763,10|0,0:0|0:0,0:0:0:0:
239,209,31556,6,0,B|196:208|169:170|169:170|141:207|84:209,1,161.999995056153,2|8,1:0|0:0,0:0:0:0:
218,31,32212,1,2,1:0:0:0:
170,135,32376,1,0,1:0:0:0:
312,65,32540,2,0,L|394:60,1,80.9999975280763,10|0,0:0|0:0,0:0:0:0:
279,211,32868,6,0,L|215:207,3,40.4999987640381,2|2|2|2,1:0|0:0|0:0|0:0,0:0:0:0:
352,266,33196,2,0,L|423:262,3,45,10|2|2|2,0:0|0:0|0:0|0:0,0:0:0:0:
225,315,33524,2,0,L|151:312,3,49.5000015106202,2|2|2|2,1:0|0:0|1:0|0:0,0:0:0:0:
403,372,33852,2,0,L|479:369,3,53.9999983520508,10|2|2|2,0:0|0:0|0:0|0:0,0:0:0:0:
270,243,34179,6,0,P|263:191|275:137,1,90,6|0,1:0|0:0,0:0:0:0:
458,281,34507,2,0,P|463:325|456:369,1,90,10|0,0:0|0:0,0:0:0:0:
270,243,34835,1,2,1:0:0:0:
418,204,34999,1,0,1:0:0:0:
273,356,35163,2,0,L|182:356,1,90,10|0,0:0|0:0,0:0:0:0:
330,169,35491,5,0,1:0:0:0:
356,359,35655,1,0,0:0:0:0:
507,211,35819,2,0,L|416:203,1,90,8|0,0:0|0:0,0:0:0:0:
270,243,36147,1,0,1:0:0:0:
403,372,36311,1,0,1:0:0:0:
330,169,36474,1,10,0:0:0:0:
273,356,36638,1,2,0:0:0:0:
192,167,36802,6,0,P|143:136|20:182,1,180,2|10,1:0|0:0,0:0:0:0:
112,264,37294,1,2,0:0:0:0:
157,92,37458,1,2,1:0:0:0:
273,248,37622,1,0,1:0:0:0:
326,74,37786,2,0,L|235:81,1,90,10|0,0:0|0:0,0:0:0:0:
112,264,38114,6,0,B|189:271|189:271|206:286|206:286|312:292,1,180,0|10,1:0|0:0,0:0:0:0:
241,206,38606,1,0,0:0:0:0:
102,358,38770,2,0,L|192:365,1,90,2|0,1:0|1:0,0:0:0:0:
330,198,39097,2,0,L|239:205,1,90,10|0,0:0|0:0,0:0:0:0:
418,338,39425,6,0,B|409:211|409:211|404:240|384:257,1,180,2|8,1:0|0:0,0:0:0:0:
386,128,40081,2,0,P|430:127|470:147,1,90,2|0,1:0|1:0,0:0:0:0:
324,322,40409,2,0,P|301:283|299:239,1,90,10|0,0:0|0:0,0:0:0:0:
296,79,40737,6,0,P|378:106|448:55,1,180,2|8,1:0|0:0,0:0:0:0:
296,79,41392,2,0,L|288:183,1,90,2|0,1:0|1:0,0:0:0:0:
448,55,41720,2,0,L|456:159,1,90,10|0,0:0|0:0,0:0:0:0:
318,270,42048,6,0,P|406:221|487:253,1,180,2|8,1:0|0:0,0:0:0:0:
289,168,42704,1,2,1:0:0:0:
411,320,42868,1,0,1:0:0:0:
454,144,43032,2,0,L|364:150,1,90,8|0,0:0|0:0,0:0:0:0:
243,305,43360,6,0,L|332:311,1,90,2|0,1:0|0:0,0:0:0:0:
210,139,43688,2,0,L|203:228,1,90,10|0,0:0|0:0,0:0:0:0:
332,311,44015,1,10,0:0:0:0:
311,91,44179,1,8,0:0:0:0:
203,228,44343,1,4,3:0:0:0:
381,243,44507,1,8,3:0:0:0:
149,320,44671,6,0,L|-5:308,1,144,6|0,1:0|1:0,0:0:0:0:
99,161,45163,2,0,B|127:127|127:127|118:232,1,144,10|2,0:0|0:0,0:0:0:0:
85,60,45655,2,0,P|135:47|196:83,1,108,10|0,0:0|0:0,0:0:0:0:
203,104,45983,6,0,B|244:122|293:108|278:100|326:86|371:112,1,144,6|0,1:0|1:0,0:0:0:0:
381,250,46474,2,0,B|330:227|315:181|315:181|343:195|388:175,1,144,10|2,0:0|0:0,0:0:0:0:
462,251,46966,2,0,P|447:302|390:331,1,108,8|0,0:0|0:0,0:0:0:0:
360,326,47294,6,0,L|211:315,1,144,6|2,1:0|1:0,0:0:0:0:
131,174,47786,1,10,0:0:0:0:
315,154,47950,1,0,1:0:0:0:
216,315,48114,1,2,1:0:0:0:
201,117,48278,1,8,0:0:0:0:
139,270,48442,1,0,0:0:0:0:
274,73,48606,6,0,P|332:66|405:142,1,144,6|0,1:0|1:0,0:0:0:0:
239,198,49097,1,8,0:0:0:0:
122,90,49261,2,0,L|117:18,1,72,2|0,1:0|0:0,0:0:0:0:
315,154,49589,2,0,L|319:82,1,72,10|0,0:0|0:0,0:0:0:0:
129,266,49917,5,2,0:0:0:0:
129,266,50573,1,2,0:0:0:0:
129,266,51229,5,2,0:0:0:0:
201,219,51556,1,2,0:0:0:0:
209,304,51884,1,2,0:0:0:0:
209,304,52540,6,0,B|261:285|307:303|291:307|347:331|395:307,1,180,6|8,1:0|0:0,0:0:0:0:
215,199,53196,1,2,1:0:0:0:
198,325,53360,1,0,1:0:0:0:
220,172,53524,1,8,0:0:0:0:
474,319,53852,6,0,L|378:310,1,90,6|8,1:0|0:0,0:0:0:0:
357,294,54097,1,8,0:0:0:0:
339,262,54179,1,10,0:0:0:0:
344,221,54261,1,8,0:0:0:0:
376,189,54343,1,8,0:0:0:0:
399,145,54425,1,8,0:0:0:0:
398,90,54507,1,14,0:0:0:0:
398,90,55163,6,0,L|287:81,1,107.999996704102,6|0,1:0|0:0,0:0:0:0:
153,246,55491,2,0,L|263:238,1,107.999996704102,10|0,0:0|0:0,0:0:0:0:
202,75,55819,1,2,1:0:0:0:
126,276,55983,1,2,1:0:0:0:
118,35,56147,2,0,B|179:16|233:46|233:46|206:58|184:106,1,161.999995056153,10|0,0:0|0:0,0:0:0:0:
161,153,56474,6,0,B|210:179|256:153|242:146|293:123|336:148,1,161.999995056153,2|0,1:0|0:0,0:0:0:0:
352,167,56802,1,10,0:0:0:0:
233,47,56966,1,2,0:0:0:0:
155,240,57130,1,2,1:0:0:0:
274,120,57294,1,0,1:0:0:0:
316,316,57458,2,0,L|204:306,1,107.999996704102,8|0,0:0|0:0,0:0:0:0:
53,162,57786,6,0,L|164:152,1,107.999996704102,2|0,1:0|0:0,0:0:0:0:
147,368,58114,2,0,L|39:358,1,107.999996704102,10|0,0:0|0:0,0:0:0:0:
186,230,58442,1,2,1:0:0:0:
316,316,58606,1,0,1:0:0:0:
414,156,58770,2,0,P|354:109|253:135,1,161.999995056153,10|0,0:0|0:0,0:0:0:0:
267,203,59097,6,0,B|202:195|202:195|174:204|174:204|75:188,1,161.999995056153,2|0,1:0|0:0,0:0:0:0:
79,158,59425,1,10,0:0:0:0:
155,333,59589,1,2,0:0:0:0:
202,153,59753,1,2,1:0:0:0:
278,329,59917,1,0,1:0:0:0:
42,298,60081,2,0,P|127:269|207:227,1,161.999995056153,10|0,0:0|0:0,0:0:0:0:
267,203,60409,6,0,B|321:238|389:222|389:222|365:206|356:175,1,161.999995056153,6|0,1:0|0:0,0:0:0:0:
313,131,60737,2,0,P|387:115|425:137,1,107.999996704102,8|0,0:0|0:0,0:0:0:0:
328,262,61065,1,2,1:0:0:0:
285,97,61229,1,0,1:0:0:0:
474,213,61392,2,0,P|450:285|412:306,1,107.999996704102,10|0,0:0|0:0,0:0:0:0:
267,203,61720,6,0,B|202:166|145:208|145:208|166:269,1,161.999995056153,2|0,1:0|0:0,0:0:0:0:
176,319,62048,2,0,L|66:297,1,107.999996704102,8|0,0:0|0:0,0:0:0:0:
51,124,62376,1,2,1:0:0:0:
267,203,62540,1,0,1:0:0:0:
247,8,62704,2,0,L|141:29,1,107.999996704102,10|0,0:0|0:0,0:0:0:0:
267,203,63032,6,0,L|430:241,1,161.999995056153,2|0,1:0|0:0,0:0:0:0:
481,307,63360,2,0,L|351:278,1,107.999996704102,8|2,0:0|0:0,0:0:0:0:
285,97,63688,1,2,1:0:0:0:
248,284,63852,1,0,1:0:0:0:
432,129,64015,2,0,L|326:107,1,107.999996704102,8|0,0:0|0:0,0:0:0:0:
171,233,64343,6,0,P|160:291|173:342,1,107.999996704102,2|0,1:0|0:0,0:0:0:0:
326,212,64671,2,0,P|337:159|326:107,1,107.999996704102,10|0,0:0|0:0,0:0:0:0:
138,161,64999,1,2,1:0:0:0:
336,243,65163,1,0,1:0:0:0:
77,336,65327,2,0,L|88:223,1,107.999996704102,10|0,0:0|0:0,0:0:0:0:
33,53,65655,6,0,P|92:103|184:77,1,161.999995056153,6|0,1:0|0:0,0:0:0:0:
222,19,65983,2,0,P|278:1|339:19,1,107.999996704102,10|0,0:0|0:0,0:0:0:0:
246,191,66311,1,2,1:0:0:0:
122,10,66474,1,0,1:0:0:0:
64,237,66638,2,0,L|185:229,1,107.999996704102,10|0,0:0|0:0,0:0:0:0:
385,72,66966,6,0,P|342:112|374:228,1,161.999995056153,2|0,1:0|0:0,0:0:0:0:
390,227,67294,1,10,0:0:0:0:
253,109,67458,1,2,0:0:0:0:
464,158,67622,1,2,1:0:0:0:
244,282,67786,1,0,1:0:0:0:
106,96,67950,2,0,L|230:106,1,107.999996704102,8|0,0:0|0:0,0:0:0:0:
337,321,68278,6,0,B|267:345|217:303|217:303|250:282|257:257,1,161.999995056153,2|0,1:0|0:0,0:0:0:0:
317,240,68606,2,0,P|264:202|175:234,1,161.999995056153,10|0,0:0|0:0,0:0:0:0:
174,272,68933,1,2,1:0:0:0:
192,102,69097,1,0,1:0:0:0:
337,321,69261,1,10,0:0:0:0:
355,147,69425,1,2,0:0:0:0:
174,272,69589,6,0,B|111:299|57:258|57:258|89:237,1,161.999995056153,2|0,1:0|0:0,0:0:0:0:
45,165,69917,2,0,B|105:140|142:167|127:174|174:194|214:174,1,161.999995056153,10|0,0:0|0:0,0:0:0:0:
228,150,70245,1,2,1:0:0:0:
157,301,70409,1,0,1:0:0:0:
101,109,70573,1,10,0:0:0:0:
259,241,70737,1,0,0:0:0:0:
202,47,70901,6,0,P|286:27|355:84,1,161.999995056153,6|0,1:0|0:0,0:0:0:0:
357,151,71229,2,0,P|416:136|468:136,1,107.999996704102,8|0,0:0|0:0,0:0:0:0:
329,298,71556,1,2,1:0:0:0:
265,114,71720,1,0,1:0:0:0:
195,301,71884,2,0,P|136:316|84:316,1,107.999996704102,10|0,0:0|0:0,0:0:0:0:
121,94,72212,6,0,P|188:134|264:113,1,161.999995056153,2|0,1:0|0:0,0:0:0:0:
310,42,72540,2,0,L|422:57,1,107.999996704102,8|0,0:0|0:0,0:0:0:0:
297,214,72868,1,2,1:0:0:0:
202,51,73032,1,0,1:0:0:0:
109,241,73196,2,0,L|216:226,1,107.999996704102,10|0,0:0|0:0,0:0:0:0:
417,56,73524,6,0,B|394:99|407:139|407:139|438:172|428:225,1,161.999995056153,2|0,1:0|0:0,0:0:0:0:
379,279,73852,2,0,P|365:332|362:390,1,107.999996704102,8|0,0:0|0:0,0:0:0:0:
248,198,74179,1,2,1:0:0:0:
187,368,74343,1,0,1:0:0:0:
286,177,74507,2,0,P|300:124|303:66,1,107.999996704102,8|0,0:0|0:0,0:0:0:0:
110,213,74835,6,0,L|117:335,1,107.999996704102,2|0,1:0|0:0,0:0:0:0:
286,177,75163,2,0,L|279:299,1,107.999996704102,10|0,0:0|0:0,0:0:0:0:
101,131,75491,1,2,1:0:0:0:
205,331,75655,1,0,1:0:0:0:
250,101,75819,2,0,B|296:79|343:102|324:115|382:130|422:112,1,161.999995056153,10|0,0:0|0:0,0:0:0:0:
438,89,76147,6,0,L|491:84,1,45,2|0,1:2|0:0,0:0:0:0:
383,37,76311,1,2,0:0:0:0:
291,177,76638,6,0,L|238:172,1,45,2|0,1:2|0:0,0:0:0:0:
364,115,76802,1,2,0:0:0:0:
464,281,77130,6,0,L|517:276,1,45,2|0,1:2|0:0,0:0:0:0:
371,195,77294,1,2,0:0:0:0:
261,372,77622,6,0,L|208:367,1,45,2|0,1:2|0:0,0:0:0:0:
384,278,77786,1,2,0:0:0:0:
166,168,78114,6,0,L|162:216,3,45,2|0|0|0,3:2|3:0|3:0|3:0,0:0:0:0:
193,141,78442,2,0,B|185:42|185:42|223:82,1,135,2|0,3:2|0:0,0:0:0:0:
257,77,78770,6,0,P|298:62|354:84,1,90,6|0,1:0|0:0,0:0:0:0:
348,218,79097,2,0,P|314:189|305:130,1,90,10|0,0:0|0:0,0:0:0:0:
425,69,79425,2,0,P|417:112|370:149,1,90,2|0,1:0|1:0,0:0:0:0:
257,77,79753,2,0,L|266:236,1,135,10|0,0:0|0:0,0:0:0:0:
266,243,80081,5,0,1:0:0:0:
385,143,80245,1,0,0:0:0:0:
326,327,80409,2,0,L|206:318,1,90,8|0,0:0|0:0,0:0:0:0:
186,155,80737,1,0,1:0:0:0:
154,303,80901,1,0,1:0:0:0:
348,218,81065,2,0,L|437:224,1,90,8|2,0:0|0:0,0:0:0:0:
236,320,81392,5,2,1:0:0:0:
270,170,81556,1,2,0:0:0:0:
154,303,81720,1,10,0:0:0:0:
186,155,81884,1,2,0:0:0:0:
73,280,82048,2,0,L|62:174,1,90,2|0,1:0|1:0,0:0:0:0:
159,281,82376,1,10,0:0:0:0:
61,165,82540,1,0,0:0:0:0:
246,286,82704,6,0,L|352:275,1,90,0|0,1:0|0:0,0:0:0:0:
270,108,83032,2,0,L|164:97,1,90,10|0,0:0|0:0,0:0:0:0:
246,286,83360,2,0,L|308:199,1,90,2|0,1:0|1:0,0:0:0:0:
103,176,83688,2,0,L|146:273,1,90,10|0,0:0|0:0,0:0:0:0:
224,29,84015,6,0,P|176:14|118:54,1,90,2|0,1:0|0:0,0:0:0:0:
103,176,84343,1,8,0:0:0:0:
180,98,84507,1,0,0:0:0:0:
298,212,84671,2,0,L|194:202,1,90,2|0,1:0|1:0,0:0:0:0:
304,100,84999,2,0,L|407:90,1,90,10|0,0:0|0:0,0:0:0:0:
277,232,85327,6,0,P|266:293|281:342,1,90,2|0,1:0|0:0,0:0:0:0:
358,182,85655,1,8,0:0:0:0:
187,224,85819,1,0,0:0:0:0:
367,282,85983,2,0,L|477:278,1,90,2|0,1:0|1:0,0:0:0:0:
327,160,86311,2,0,L|217:156,1,90,10|0,0:0|0:0,0:0:0:0:
137,299,86638,6,0,P|186:314|243:296,1,90,2|0,1:0|0:0,0:0:0:0:
137,154,86966,2,0,P|88:139|31:157,1,90,8|0,0:0|0:0,0:0:0:0:
137,299,87294,1,2,1:0:0:0:
237,156,87458,1,0,1:0:0:0:
313,310,87622,2,0,L|223:306,1,90,8|0,0:0|0:0,0:0:0:0:
13,308,87950,6,0,L|77:312,3,40.4999987640381,2|2|2|2,1:0|0:0|0:0|0:0,0:0:0:0:
130,214,88278,2,0,L|59:218,3,45,10|2|2|2,0:0|0:0|0:0|0:0,0:0:0:0:
208,322,88606,2,0,L|257:324,3,49.5000015106202,2|2|2|2,1:0|0:0|1:0|0:0,0:0:0:0:
383,201,88934,2,0,L|307:204,3,53.9999983520508,10|2|2|2,0:0|0:0|0:0|0:0,0:0:0:0:
248,74,89261,6,0,L|253:172,1,99.0000030212403,6|0,1:0|0:0,0:0:0:0:
413,26,89589,2,0,L|407:124,1,99.0000030212403,10|0,0:0|0:0,0:0:0:0:
290,203,89917,1,2,1:0:0:0:
454,252,90081,1,0,1:0:0:0:
280,384,90245,2,0,L|285:285,1,99.0000030212403,10|0,0:0|0:0,0:0:0:0:
405,167,90573,5,0,1:0:0:0:
439,335,90737,1,0,0:0:0:0:
290,203,90901,2,0,L|191:197,1,99.0000030212403,8|0,0:0|0:0,0:0:0:0:
333,69,91229,1,0,1:0:0:0:
369,243,91392,1,0,1:0:0:0:
490,130,91556,2,0,L|495:31,1,99.0000030212403,10|0,0:0|0:0,0:0:0:0:
384,207,91884,5,2,1:0:0:0:
302,60,92048,1,2,0:0:0:0:
204,234,92212,1,10,0:0:0:0:
333,69,92376,1,2,0:0:0:0:
467,248,92540,2,0,L|368:242,1,99.0000030212403,2|0,1:0|1:0,0:0:0:0:
244,129,92868,1,10,0:0:0:0:
286,280,93032,1,0,0:0:0:0:
209,119,93196,6,0,P|156:104|110:119,1,99.0000030212403,0|0,1:0|0:0,0:0:0:0:
200,288,93524,2,0,P|239:249|249:202,1,99.0000030212403,10|0,0:0|0:0,0:0:0:0:
58,195,93852,2,0,P|71:248|107:280,1,99.0000030212403,2|0,1:0|1:0,0:0:0:0:
209,119,94179,2,0,P|156:104|110:119,1,99.0000030212403,10|0,0:0|0:0,0:0:0:0:
228,314,94507,6,0,B|285:345|344:321|325:314|384:290|422:312,1,198.000006042481,2|8,1:0|0:0,0:0:0:0:
287,228,94999,1,0,0:0:0:0:
465,187,95163,2,0,P|453:262|453:310,1,99.0000030212403,2|0,1:0|1:0,0:0:0:0:
307,113,95491,2,0,P|319:188|319:236,1,99.0000030212403,10|0,0:0|0:0,0:0:0:0:
512,82,95819,6,0,P|420:93|351:10,1,198.000006042481,2|8,1:0|0:0,0:0:0:0:
401,131,96311,1,0,0:0:0:0:
226,63,96474,2,0,L|221:167,1,99.0000030212403,2|0,1:0|1:0,0:0:0:0:
396,32,96802,2,0,L|401:136,1,99.0000030212403,10|0,0:0|0:0,0:0:0:0:
470,303,97130,6,0,B|400:267|334:306|334:306|366:319|379:353,1,198.000006042481,2|8,1:0|0:0,0:0:0:0:
346,207,97622,1,0,0:0:0:0:
304,382,97786,1,2,1:0:0:0:
473,264,97950,1,0,1:0:0:0:
290,284,98114,2,0,L|191:279,1,99.0000030212403,8|0,0:0|0:0,0:0:0:0:
48,168,98442,6,0,L|43:266,1,99.0000030212403,2|0,1:0|0:0,0:0:0:0:
186,378,98770,2,0,L|190:279,1,99.0000030212403,10|0,0:0|0:0,0:0:0:0:
73,130,99097,2,0,L|68:228,1,99.0000030212403,2|0,1:0|0:0,0:0:0:0:
215,349,99425,1,8,0:0:0:0:
251,333,99507,1,8,0:0:0:0:
290,336,99589,1,8,0:0:0:0:
322,358,99671,1,8,0:0:0:0:
360,366,99753,6,0,P|413:354|470:357,1,80.9999975280763,6|0,1:0|3:0,0:0:0:0:
464,332,99999,1,0,3:0:0:0:
481,305,100081,1,2,3:2:0:0:
482,272,100163,1,0,3:0:0:0:
470,241,100245,2,0,L|466:180,5,40.4999987640381,2|0|0|0|2|0,1:0|3:0|3:0|3:0|3:2|3:0,0:0:0:0:
362,325,100737,2,0,L|359:365,3,40.4999987640381,8|0|0|0,0:0|3:0|3:0|3:0,0:0:0:0:
294,193,101065,5,6,1:0:0:0:
265,176,101147,1,0,3:0:0:0:
232,173,101229,1,0,3:0:0:0:
201,184,101311,1,0,3:0:0:0:
174,201,101392,1,2,3:2:0:0:
141,201,101474,1,0,3:0:0:0:
112,185,101556,2,0,L|71:182,5,40.4999987640381,2|0|0|0|2|0,1:0|3:0|3:0|3:0|3:2|3:0,0:0:0:0:
244,262,102048,2,0,L|284:259,3,40.4999987640381,8|0|0|0,0:0|3:0|3:0|3:0,0:0:0:0:
154,116,102376,5,6,1:0:0:0:
156,83,102458,1,0,3:0:0:0:
174,56,102540,1,0,3:0:0:0:
202,41,102622,1,0,3:0:0:0:
234,37,102704,1,2,3:2:0:0:
265,45,102786,1,0,3:0:0:0:
291,63,102868,1,2,1:0:0:0:
321,74,102950,1,0,3:0:0:0:
353,74,103032,1,0,3:0:0:0:
385,70,103114,1,0,3:0:0:0:
414,56,103196,1,2,3:2:0:0:
438,35,103278,1,0,3:0:0:0:
452,5,103360,2,0,P|420:57|440:138,1,121.499996292114,10|0,0:0|0:0,0:0:0:0:
455,146,103688,6,0,L|452:286,1,121.499996292114,6|0,1:0|0:0,0:0:0:0:
329,353,104015,1,8,0:0:0:0:
365,217,104179,1,0,0:0:0:0:
245,356,104343,2,0,L|139:359,1,80.9999975280763,2|8,1:0|0:0,0:0:0:0:
127,339,104589,1,8,0:0:0:0:
106,304,104671,1,10,0:0:0:0:
105,263,104753,1,8,0:0:0:0:
116,224,104835,1,8,0:0:0:0:
118,183,104917,1,8,0:0:0:0:
106,144,104999,6,0,L|102:55,1,80.9999975280763,6|0,1:0|0:0,0:0:0:0:
238,184,105327,1,8,0:0:0:0:
292,29,105491,1,0,0:0:0:0:
106,144,105655,1,2,1:0:0:0:
157,0,105819,1,0,1:0:0:0:
238,184,105983,2,0,L|318:180,1,80.9999975280763,8|0,0:0|0:0,0:0:0:0:
441,26,106311,6,0,P|427:82|463:157,1,107.999996704102,2|0,1:0|0:0,0:0:0:0:
506,179,106638,2,0,L|500:295,1,80.9999975280763,10|2,0:0|0:0,0:0:0:0:
410,148,106966,1,2,1:0:0:0:
350,297,107130,1,0,1:0:0:0:
375,123,107294,1,10,0:0:0:0:
470,280,107458,1,0,0:0:0:0:
318,180,107622,6,0,B|286:168|249:182|264:187|217:203|173:180,1,121.499996292114,6|0,1:0|0:0,0:0:0:0:
173,158,107950,2,0,P|119:145|72:151,1,80.9999975280763,8|0,0:0|0:0,0:0:0:0:
205,282,108278,1,2,1:0:0:0:
257,88,108442,1,2,1:0:0:0:
18,239,108606,1,10,0:0:0:0:
70,45,108770,1,2,0:0:0:0:
205,282,108933,6,0,L|319:276,1,80.9999975280763,6|0,1:0|0:0,0:0:0:0:
173,158,109261,1,10,0:0:0:0:
114,325,109425,1,2,0:0:0:0:
59,167,109589,2,0,P|118:144|190:170,1,121.499996292114,2|4,3:2|3:0,0:0:0:0:
194,191,109917,1,4,3:0:0:0:
228,211,109999,1,8,3:0:0:0:
268,215,110081,1,8,0:0:0:0:
307,205,110163,1,8,0:0:0:0:
345,174,110245,6,0,L|456:165,1,107.999996704102,6|0,1:0|0:0,0:0:0:0:
345,336,110573,2,0,L|235:328,1,107.999996704102,10|0,0:0|0:0,0:0:0:0:
260,127,110901,1,2,1:0:0:0:
412,267,111065,1,0,1:0:0:0:
343,87,111229,2,0,B|282:68|228:98|228:98|255:110|277:158,1,161.999995056153,10|0,0:0|0:0,0:0:0:0:
191,169,111556,6,0,B|142:195|96:169|110:162|59:139|16:164,1,161.999995056153,2|0,1:0|0:0,0:0:0:0:
150,99,111884,1,10,0:0:0:0:
56,236,112048,1,2,0:0:0:0:
67,70,112212,1,2,1:0:0:0:
150,245,112376,1,0,1:0:0:0:
343,87,112540,2,0,L|231:77,1,107.999996704102,8|0,0:0|0:0,0:0:0:0:
214,309,112868,6,0,L|325:299,1,107.999996704102,2|0,1:0|0:0,0:0:0:0:
191,169,113196,2,0,L|83:159,1,107.999996704102,10|0,0:0|0:0,0:0:0:0:
149,357,113524,1,2,1:0:0:0:
256,220,113688,1,0,1:0:0:0:
30,189,113852,2,0,L|191:168,1,161.999995056153,10|0,0:0|0:0,0:0:0:0:
268,139,114179,6,0,B|333:147|333:147|361:138|361:138|460:154,1,161.999995056153,2|0,1:0|0:0,0:0:0:0:
460,175,114507,1,10,0:0:0:0:
320,64,114671,1,2,0:0:0:0:
374,222,114835,1,2,1:0:0:0:
417,26,114999,1,0,1:0:0:0:
268,139,115163,2,0,B|224:159|169:142|189:136|148:122|99:135,1,161.999995056153,8|0,0:0|0:0,0:0:0:0:
61,200,115491,6,0,B|51:200|35:176|35:176|19:244|54:298,1,161.999995056153,6|0,1:0|0:0,0:0:0:0:
109,132,115819,2,0,P|183:116|221:138,1,107.999996704102,8|0,0:0|0:0,0:0:0:0:
92,305,116147,1,2,1:0:0:0:
28,124,116311,1,0,1:0:0:0:
266,209,116474,2,0,P|242:281|204:302,1,107.999996704102,10|0,0:0|0:0,0:0:0:0:
109,132,116802,6,0,B|72:67|114:10|114:10|175:31,1,161.999995056153,2|0,1:0|0:0,0:0:0:0:
181,93,117130,2,0,P|234:77|291:71,1,107.999996704102,8|0,0:0|0:0,0:0:0:0:
182,215,117458,1,2,1:0:0:0:
144,20,117622,1,0,1:0:0:0:
366,183,117786,2,0,P|312:167|256:161,1,107.999996704102,10|0,0:0|0:0,0:0:0:0:
23,240,118114,6,0,B|94:223|94:223|116:228|116:228|181:214,1,161.999995056153,2|0,1:0|0:0,0:0:0:0:
260,161,118442,2,0,L|130:132,1,107.999996704102,8|0,0:0|0:0,0:0:0:0:
313,32,118770,1,2,1:0:0:0:
302,236,118934,1,0,1:0:0:0:
483,117,119097,2,0,L|377:95,1,107.999996704102,8|0,0:0|0:0,0:0:0:0:
221,233,119425,6,0,P|210:291|223:342,1,107.999996704102,2|0,1:0|0:0,0:0:0:0:
377,200,119753,2,0,P|388:147|377:95,1,107.999996704102,10|0,0:0|0:0,0:0:0:0:
154,137,120081,1,2,1:0:0:0:
304,279,120245,1,0,1:0:0:0:
481,95,120409,2,0,P|428:84|376:95,1,107.999996704102,10|0,0:0|0:0,0:0:0:0:
166,242,120737,6,0,P|243:227|303:278,1,161.999995056153,6|0,1:0|0:0,0:0:0:0:
355,351,121065,2,0,P|299:333|238:351,1,107.999996704102,10|0,0:0|0:0,0:0:0:0:
349,184,121393,1,2,1:0:0:0:
441,348,121556,1,0,1:0:0:0:
273,234,121720,2,0,L|165:241,1,107.999996704102,10|0,0:0|0:0,0:0:0:0:
45,57,122048,6,0,P|85:100|201:68,1,161.999995056153,2|0,1:0|0:0,0:0:0:0:
198,50,122376,1,10,0:0:0:0:
264,210,122540,1,2,0:0:0:0:
378,44,122704,1,2,1:0:0:0:
273,234,122868,1,0,1:0:0:0:
116,139,123032,2,0,L|126:15,1,107.999996704102,8|0,0:0|0:0,0:0:0:0:
179,194,123360,6,0,B|249:170|299:212|299:212|266:233|259:258,1,161.999995056153,2|0,1:0|0:0,0:0:0:0:
199,275,123688,2,0,P|265:315|337:284,1,161.999995056153,10|0,0:0|0:0,0:0:0:0:
365,250,124015,1,2,1:0:0:0:
179,194,124179,1,0,1:0:0:0:
273,361,124343,1,10,0:0:0:0:
370,168,124507,1,2,0:0:0:0:
179,310,124671,6,0,B|116:337|62:296|62:296|107:262,1,161.999995056153,2|0,1:0|0:0,0:0:0:0:
47,200,124999,2,0,B|107:175|144:202|129:209|176:229|216:209,1,161.999995056153,10|0,0:0|0:0,0:0:0:0:
230,187,125327,1,2,1:0:0:0:
63,296,125491,1,0,1:0:0:0:
122,115,125655,1,10,0:0:0:0:
179,310,125819,1,0,0:0:0:0:
206,100,125983,6,0,P|290:80|359:137,1,161.999995056153,6|0,1:0|0:0,0:0:0:0:
355,201,126311,2,0,P|340:260|340:312,1,107.999996704102,8|0,0:0|0:0,0:0:0:0:
269,168,126638,1,2,1:0:0:0:
179,310,126802,1,0,1:0:0:0:
122,115,126966,2,0,P|63:100|11:100,1,107.999996704102,10|0,0:0|0:0,0:0:0:0:
179,310,127294,6,0,B|225:328|272:310|255:303|305:277|353:303,1,161.999995056153,2|0,1:0|0:0,0:0:0:0:
392,361,127622,2,0,P|418:310|407:249,1,107.999996704102,8|0,0:0|0:0,0:0:0:0:
245,367,127950,1,2,1:0:0:0:
180,181,128114,1,0,1:0:0:0:
392,361,128278,2,0,L|499:346,1,107.999996704102,10|0,0:0|0:0,0:0:0:0:
421,154,128606,6,0,B|384:146|351:177|351:177|311:190|268:167,1,161.999995056153,2|0,1:0|0:0,0:0:0:0:
180,181,128934,2,0,P|127:167|69:164,1,107.999996704102,8|0,0:0|0:0,0:0:0:0:
316,98,129261,1,2,1:0:0:0:
238,250,129425,1,0,1:0:0:0:
144,64,129589,2,0,P|197:50|255:47,1,107.999996704102,8|0,0:0|0:0,0:0:0:0:
421,154,129917,6,0,L|414:276,1,107.999996704102,2|0,1:0|0:0,0:0:0:0:
231,142,130245,2,0,L|238:264,1,107.999996704102,10|0,0:0|0:0,0:0:0:0:
404,67,130573,1,2,1:0:0:0:
327,263,130737,1,0,1:0:0:0:
333,15,130901,1,10,0:0:0:0:
414,261,131065,1,8,0:0:0:0:
229,55,131229,5,6,1:0:0:0:
316,98,131392,1,2,0:0:0:0:
231,142,131556,1,2,1:0:0:0:
394,151,131720,2,0,L|483:143,1,90,2|8,0:0|0:0,0:0:0:0:
327,260,132048,1,2,0:0:0:0:
370,337,132212,1,2,0:0:0:0:
414,261,132376,1,10,0:0:0:0:
245,226,132540,6,0,L|155:218,1,90,2|8,1:0|0:0,0:0:0:0:
155,218,132786,1,8,0:0:0:0:
155,218,132868,1,0,1:0:0:0:
280,345,133032,2,0,L|369:337,1,90,2|10,0:0|0:0,0:0:0:0:
245,226,133360,1,2,0:0:0:0:
203,309,133524,1,2,0:0:0:0:
327,260,133688,1,10,0:0:0:0:
204,149,133852,5,6,1:0:0:0:
245,226,134015,1,2,0:0:0:0:
317,173,134179,1,2,1:0:0:0:
159,72,134343,2,0,L|69:79,1,90,2|8,0:0|0:0,0:0:0:0:
204,149,134671,1,2,0:0:0:0:
246,63,134835,1,2,0:0:0:0:
159,72,134999,1,2,1:0:0:0:
245,226,135163,5,2,0:0:0:0:
335,55,135327,2,0,L|245:62,1,90,2|2,1:0|1:0,0:0:0:0:
389,118,135655,1,2,0:0:0:0:
476,14,135819,1,10,0:0:0:0:
447,187,135983,1,2,0:0:0:0:
335,55,136147,1,10,0:0:0:0:
290,45,136229,1,8,0:0:0:0:
246,55,136311,1,10,0:0:0:0:
210,81,136392,1,8,0:0:0:0:
193,122,136474,5,6,1:0:0:0:
320,26,136638,1,2,0:0:0:0:
362,200,136802,1,10,0:0:0:0:
246,55,136966,2,0,P|191:36|139:54,1,90,2|0,0:0|1:0,0:0:0:0:
290,135,137294,1,2,1:0:0:0:
398,0,137458,1,10,0:0:0:0:
447,187,137622,1,2,1:0:0:0:
320,26,137786,5,2,1:0:0:0:
234,198,137950,2,0,P|179:217|127:199,1,90,2|8,0:0|0:0,0:0:0:0:
307,113,138278,1,2,0:0:0:0:
331,279,138442,1,2,1:0:0:0:
180,134,138606,1,2,1:0:0:0:
173,306,138770,1,10,0:0:0:0:
317,197,138933,1,2,0:0:0:0:
101,175,139097,1,2,1:0:0:0:
261,326,139261,1,2,0:0:0:0:
307,113,139425,5,10,0:0:0:0:
102,258,139589,1,2,1:0:0:0:
237,63,139753,5,8,0:0:0:0:
331,279,139917,1,2,1:0:0:0:
108,90,140081,5,10,0:0:0:0:
386,140,140245,1,2,1:0:0:0:
259,330,140409,5,10,0:0:0:0:
307,113,140573,1,2,1:0:0:0:
382,354,140737,5,8,0:0:0:0:
232,147,140901,1,2,1:0:0:0:
202,384,141065,5,10,0:0:0:0:
375,167,141229,1,2,1:0:0:0:
102,258,141392,1,8,0:0:0:0:
72,237,141474,1,8,0:0:0:0:
54,205,141556,1,4,3:0:0:0:
52,169,141638,1,8,3:0:0:0:
62,134,141720,6,0,L|69:71,3,45,6|8|8|8,1:0|0:0|0:0|0:0,0:0:0:0:
172,212,142048,2,0,L|176:256,1,45,10|8,0:2|0:0,0:0:0:0:
237,63,142212,1,10,0:0:0:0:
265,41,142294,1,8,0:0:0:0:
300,35,142376,1,8,0:0:0:0:
334,44,142458,1,8,0:0:0:0:
360,68,142540,1,8,0:0:0:0:
371,102,142622,1,8,0:0:0:0:
370,138,142704,2,0,L|365:182,3,45,10|8|8|8,0:0|0:0|0:0|0:0,0:0:0:0:
269,320,143032,6,0,L|264:275,3,45,10|8|8|8,0:0|0:0|0:0|0:0,0:0:0:0:
437,225,143360,2,0,L|432:269,1,45,10|8,0:0|0:0,0:0:0:0:
293,121,143524,1,10,0:0:0:0:
259,108,143606,1,8,0:0:0:0:
223,110,143688,1,8,0:0:0:0:
192,129,143770,1,8,0:0:0:0:
159,143,143852,1,8,0:0:0:0:
123,141,143933,1,8,0:0:0:0:
90,124,144015,2,0,L|45:119,3,45,10|8|8|8,0:0|0:0|0:0|0:0,0:0:0:0:
248,195,144343,6,0,L|292:190,3,45,10|8|8|8,0:0|0:0|0:0|0:0,0:0:0:0:
148,54,144671,2,0,L|103:49,1,45,10|8,0:0|0:0,0:0:0:0:
319,0,144835,1,10,0:0:0:0:
354,8,144917,1,8,0:0:0:0:
378,34,144999,1,8,0:0:0:0:
391,67,145081,1,8,0:0:0:0:
387,102,145163,1,8,0:0:0:0:
369,133,145245,1,8,0:0:0:0:
338,152,145327,2,0,L|293:156,3,45,10|8|8|8,0:0|0:0|0:0|0:0,0:0:0:0:
467,219,145655,5,10,0:0:0:0:
484,250,145737,1,8,0:0:0:0:
489,285,145819,1,8,0:0:0:0:
481,320,145901,1,8,0:0:0:0:
459,348,145983,1,8,0:0:0:0:
427,365,146065,1,8,0:0:0:0:
391,370,146147,1,8,0:0:0:0:
355,363,146229,1,8,0:0:0:0:
321,348,146311,2,0,L|276:343,1,45,10|8,0:0|0:0,0:0:0:0:
422,223,146474,2,0,L|466:218,1,45,8|8,0:0|0:0,0:0:0:0:
259,108,146638,1,14,0:0:0:0:
259,108,146966,5,6,1:0:0:0:
341,259,147130,1,0,0:0:0:0:
424,102,147294,1,8,0:0:0:0:
268,295,147458,1,0,1:0:0:0:
289,84,147622,1,10,0:0:0:0:
418,305,147786,1,0,1:0:0:0:
390,76,147950,1,8,0:0:0:0:
268,295,148114,1,0,1:0:0:0:
497,150,148278,5,10,0:0:0:0:
205,170,148442,1,2,1:0:0:0:
457,228,148606,1,10,0:0:0:0:
231,84,148770,1,2,1:0:0:0:
356,365,148933,1,8,0:0:0:0:
409,154,149097,1,0,1:0:0:0:
186,351,149261,2,0,B|151:368|110:355|123:349|83:331|25:350,1,148.50000453186,10|0,0:0|0:0,0:0:0:0:
15,372,149589,5,10,0:0:0:0:
268,240,149753,1,0,1:0:0:0:
128,206,149917,1,0,1:0:0:0:
409,363,150081,5,10,0:0:0:0:
187,271,150245,1,0,1:0:0:0:
357,222,150409,1,0,1:0:0:0:
52,84,150573,5,10,0:0:0:0:
105,330,150737,1,0,1:0:0:0:
210,172,150901,1,0,1:0:0:0:
409,363,151065,5,10,0:0:0:0:
320,120,151229,1,0,1:0:0:0:
227,255,151393,1,0,1:0:0:0:
488,201,151556,6,0,L|483:311,1,99.0000030212403,2|0,3:0|1:0,0:0:0:0:
483,299,151802,1,0,1:0:0:0:
483,299,151884,1,10,0:0:0:0:
394,68,152212,6,0,P|328:34|233:81,1,148.50000453186,6|0,1:0|0:0,0:0:0:0:
236,132,152540,2,0,P|182:118|129:119,1,99.0000030212403,8|0,0:0|0:0,0:0:0:0:
8,32,152868,1,2,0:0:0:0:
101,196,153032,1,0,1:0:0:0:
259,52,153196,2,0,P|313:38|366:39,1,99.0000030212403,8|2,0:0|0:0,0:0:0:0:
192,208,153524,5,2,1:0:0:0:
103,34,153688,1,0,1:0:0:0:
50,262,153852,1,8,0:0:0:0:
180,75,154015,1,0,1:0:0:0:
220,321,154179,5,10,0:0:0:0:
103,34,154343,1,0,1:0:0:0:
141,342,154507,1,0,1:0:0:0:
245,15,154671,1,8,0:0:0:0:
62,72,156147,6,0,B|134:68|134:68|156:75|156:75|249:68,1,161.999995056153,6|0,1:0|0:0,0:0:0:0:
253,45,156474,1,2,0:0:0:0:
235,197,156638,1,2,1:0:0:0:
379,64,156802,1,8,0:0:0:0:
361,218,156966,1,0,1:0:0:0:
253,45,157130,1,4,3:0:0:0:
199,34,157212,1,8,0:0:0:0:
148,54,157294,1,8,0:0:0:0:
120,100,157376,1,8,0:0:0:0:
117,153,157458,6,0,L|106:286,1,107.999996704102,6|0,1:0|0:0,0:0:0:0:
361,218,157786,2,0,L|352:110,1,107.999996704102,10|0,0:0|0:0,0:0:0:0:
108,45,158114,2,0,L|119:178,1,107.999996704102,2|0,1:0|0:0,0:0:0:0:
260,318,158442,2,0,L|268:210,1,107.999996704102,10|0,0:0|0:0,0:0:0:0:
448,13,158770,6,0,P|391:55|273:19,1,161.999995056153,2|0,1:0|0:0,0:0:0:0:
280,14,159097,1,10,0:0:0:0:
349,189,159261,1,2,0:0:0:0:
448,13,159425,1,2,1:0:0:0:
360,217,159589,1,0,1:0:0:0:
270,53,159753,1,8,0:0:0:0:
227,44,159835,1,8,0:0:0:0:
184,53,159917,1,8,0:0:0:0:
149,79,159999,1,8,0:0:0:0:
127,116,160081,6,0,L|137:248,1,107.999996704102,6|0,1:0|0:0,0:0:0:0:
357,81,160409,2,0,L|347:213,1,107.999996704102,8|0,0:0|0:0,0:0:0:0:
184,53,160737,1,2,1:0:0:0:
366,0,160901,1,0,1:0:0:0:
242,168,161065,2,0,B|225:235|255:281|255:281|315:258,1,161.999995056153,8|0,0:0|0:0,0:0:0:0:
323,188,161392,6,0,P|383:174|445:178,1,107.999996704102,2|0,1:0|0:0,0:0:0:0:
302,349,161720,2,0,P|249:335|195:336,1,107.999996704102,8|0,0:0|0:0,0:0:0:0:
47,216,162048,1,2,1:0:0:0:
116,384,162212,1,0,1:0:0:0:
232,224,162376,2,0,P|245:171|244:117,1,107.999996704102,10|0,0:0|0:0,0:0:0:0:
11,104,162704,6,0,B|-26:169|16:226|16:226|77:205,1,161.999995056153,2|0,1:0|0:0,0:0:0:0:
85,145,163032,2,0,L|107:35,1,107.999996704102,8|0,0:0|0:0,0:0:0:0:
244,117,163360,1,2,1:0:0:0:
46,215,163524,1,0,1:0:0:0:
252,329,163688,2,0,L|231:223,1,107.999996704102,8|0,0:0|0:0,0:0:0:0:
358,32,164016,6,0,B|336:58|336:58|310:192,1,161.999995056153,2|0,1:0|0:0,0:0:0:0:
381,250,164344,2,0,L|405:122,1,107.999996704102,10|0,0:0|0:0,0:0:0:0:
251,31,164672,1,2,1:0:0:0:
231,223,164836,1,8,0:0:0:0:
231,223,164917,1,8,0:0:0:0:
231,223,164999,2,0,L|125:201,1,107.999996704102,10|8,0:0|0:0,0:0:0:0:
83,225,165245,1,8,0:0:0:0:
83,225,165327,6,0,P|72:283|85:334,1,107.999996704102,6|0,1:0|0:0,0:0:0:0:
250,135,165655,2,0,P|261:82|250:30,1,107.999996704102,8|0,0:0|0:0,0:0:0:0:
72,133,165983,1,2,1:0:0:0:
231,223,166147,1,0,0:0:0:0:
72,332,166311,2,0,L|83:219,1,107.999996704102,10|0,0:0|0:0,0:0:0:0:
333,102,166639,6,0,P|272:51|195:65,1,161.999995056153,2|0,1:0|0:0,0:0:0:0:
180,99,166966,1,10,0:0:0:0:
333,17,167130,1,2,0:0:0:0:
319,191,167295,1,2,1:0:0:0:
245,0,167458,1,0,0:0:0:0:
123,230,167622,2,0,L|244:222,1,107.999996704102,8|0,0:0|0:0,0:0:0:0:
424,48,167950,6,0,B|356:23|310:71|310:71|335:106,1,161.999995056153,2|0,1:0|0:0,0:0:0:0:
411,129,168278,2,0,P|429:187|410:245,1,107.999996704102,10|0,0:0|0:0,0:0:0:0:
223,325,168606,2,0,P|212:272|230:222,1,107.999996704102,2|0,1:0|0:0,0:0:0:0:
427,317,168933,1,10,0:0:0:0:
210,359,169097,1,2,0:0:0:0:
319,191,169261,6,0,B|324:72|324:72|291:112,1,161.999995056153,2|0,1:0|0:0,0:0:0:0:
239,167,169590,2,0,P|186:129|97:161,1,161.999995056153,10|0,0:0|0:0,0:0:0:0:
78,233,169917,2,0,L|70:358,1,107.999996704102,2|0,1:0|0:0,0:0:0:0:
251,354,170245,2,0,L|257:246,1,107.999996704102,10|0,0:0|0:0,0:0:0:0:
135,72,170573,6,0,B|114:40|114:40|73:94|100:157,1,161.999995056153,6|0,1:0|0:0,0:0:0:0:
162,213,170901,2,0,L|282:203,1,107.999996704102,8|0,0:0|0:0,0:0:0:0:
135,72,171229,2,0,L|15:62,1,107.999996704102,2|0,0:0|0:0,0:0:0:0:
205,238,171556,2,0,L|325:228,1,107.999996704102,10|0,0:0|0:0,0:0:0:0:
372,33,171885,6,0,P|350:108|391:176,1,161.999995056153,2|0,1:0|0:0,0:0:0:0:
477,194,172213,2,0,P|462:253|462:305,1,107.999996704102,8|0,0:0|0:0,0:0:0:0:
278,150,172540,2,0,P|219:135|167:135,1,107.999996704102,2|0,0:0|0:0,0:0:0:0:
369,301,172868,2,0,P|310:316|258:316,1,107.999996704102,10|0,0:0|0:0,0:0:0:0:
502,170,173196,6,0,B|459:161|417:185|434:187|395:215|335:207,1,161.999995056153,2|0,1:0|0:0,0:0:0:0:
278,150,173524,2,0,L|292:42,1,107.999996704102,8|0,0:0|0:0,0:0:0:0:
171,175,173852,1,2,1:0:0:0:
84,19,174016,1,0,0:0:0:0:
62,226,174180,2,0,L|169:211,1,107.999996704102,8|0,0:0|0:0,0:0:0:0:
329,11,174507,6,0,B|278:-6|278:-6|217:29|227:101,1,161.999995056153,2|0,1:0|0:0,0:0:0:0:
278,150,174835,2,0,L|385:133,1,107.999996704102,10|0,0:0|0:0,0:0:0:0:
219,0,175163,1,2,1:0:0:0:
171,175,175327,1,8,0:0:0:0:
422,47,175491,1,8,0:0:0:0:
454,75,175573,1,8,0:0:0:0:
470,114,175655,1,8,0:0:0:0:
471,157,175737,1,8,0:0:0:0:
451,195,175819,6,0,B|404:264|424:357|424:357,1,161.999995056153,6|0,1:0|0:0,0:0:0:0:
485,293,176147,2,0,P|438:268|385:274,1,107.999996704102,10|0,0:0|0:0,0:0:0:0:
274,384,176474,2,0,L|264:277,1,107.999996704102,2|0,1:0|0:0,0:0:0:0:
338,101,176802,2,0,L|328:209,1,107.999996704102,10|0,0:0|0:0,0:0:0:0:
58,260,177130,6,0,P|118:283|193:222,1,161.999995056153,2|0,1:0|0:0,0:0:0:0:
207,148,177458,1,10,0:0:0:0:
15,190,177622,1,2,0:0:0:0:
190,229,177786,1,2,1:0:0:0:
28,106,177950,1,0,0:0:0:0:
102,307,178114,2,0,L|116:179,1,107.999996704102,8|0,0:0|0:0,0:0:0:0:
265,82,178442,6,0,P|216:61|160:73,1,107.999996704102,2|0,1:0|0:0,0:0:0:0:
276,294,178770,2,0,P|325:315|380:302,1,107.999996704102,10|0,0:0|0:0,0:0:0:0:
207,148,179097,2,0,L|197:255,1,107.999996704102,2|0,1:0|0:0,0:0:0:0:
412,154,179425,2,0,L|421:46,1,107.999996704102,10|0,0:0|0:0,0:0:0:0:
88,76,179753,6,0,B|125:93|173:62|173:62|213:51|264:73,1,161.999995056153,2|0,1:0|0:0,0:0:0:0:
295,134,180081,1,10,0:0:0:0:
140,194,180245,1,2,0:0:0:0:
276,294,180409,2,0,L|383:284,1,107.999996704102,2|0,1:0|0:0,0:0:0:0:
247,203,180737,2,0,L|139:193,1,107.999996704102,10|0,0:0|0:0,0:0:0:0:
62,384,181065,6,0,B|77:363|56:306|49:320|31:273|48:225,1,161.999995056153,6|0,1:0|0:0,0:0:0:0:
0,163,181392,2,0,B|55:178|55:178|129:163,1,107.999996704102,8|0,0:0|0:0,0:0:0:0:
212,35,181720,2,0,B|157:20|157:20|107:30,1,107.999996704102,2|0,0:0|0:0,0:0:0:0:
191,230,182048,2,0,L|200:103,1,107.999996704102,10|0,0:0|0:0,0:0:0:0:
345,29,182376,6,0,P|415:57|411:171,1,161.999995056153,2|0,1:0|0:0,0:0:0:0:
382,203,182704,2,0,L|394:330,1,107.999996704102,8|0,0:0|0:0,0:0:0:0:
198,122,183032,2,0,L|191:230,1,107.999996704102,2|0,0:0|0:0,0:0:0:0:
28,52,183360,2,0,L|38:159,1,107.999996704102,10|0,0:0|0:0,0:0:0:0:
186,266,183688,6,0,P|254:229|345:273,1,161.999995056153,2|0,1:0|0:0,0:0:0:0:
392,310,184015,2,0,P|450:332|517:303,1,107.999996704102,8|0,0:0|0:0,0:0:0:0:
432,135,184343,2,0,P|379:125|331:146,1,107.999996704102,2|0,1:0|0:0,0:0:0:0:
264,316,184671,2,0,L|254:208,1,107.999996704102,8|0,0:0|0:0,0:0:0:0:
28,356,184999,6,0,P|86:334|153:363,1,107.999996704102,2|0,1:0|0:0,0:0:0:0:
354,219,185327,2,0,P|296:197|229:226,1,107.999996704102,10|0,0:0|0:0,0:0:0:0:
21,187,185655,1,2,1:0:0:0:
56,211,185737,1,4,3:0:0:0:
99,214,185819,1,4,3:0:0:0:
138,195,185901,1,8,3:0:0:0:
166,162,185983,1,10,0:0:0:0:
179,120,186065,1,8,0:0:0:0:
201,82,186147,1,8,0:0:0:0:
240,64,186229,1,8,0:0:0:0:
281,74,186311,6,0,B|347:106|408:77|408:77|385:134,1,161.999995056153,6|0,1:0|0:0,0:0:0:0:
353,174,186638,2,0,P|415:185|458:157,1,107.999996704102,10|0,0:0|0:0,0:0:0:0:
259,245,186966,2,0,L|267:369,1,107.999996704102,2|0,1:0|0:0,0:0:0:0:
452,163,187294,2,0,L|444:287,1,107.999996704102,10|0,0:0|0:0,0:0:0:0:
254,137,187622,6,0,P|341:129|381:63,1,161.999995056153,2|0,1:0|0:0,0:0:0:0:
366,32,187950,1,10,0:0:0:0:
416,230,188114,1,2,0:0:0:0:
254,137,188278,2,0,L|265:9,1,107.999996704102,2|0,1:0|0:0,0:0:0:0:
452,163,188606,2,0,L|442:55,1,107.999996704102,8|0,0:0|0:0,0:0:0:0:
294,216,188933,6,0,B|249:234|208:219|225:215|176:196|131:214,1,161.999995056153,2|0,1:0|0:0,0:0:0:0:
72,268,189261,2,0,L|79:381,1,107.999996704102,10|0,0:0|0:0,0:0:0:0:
287,323,189589,2,0,L|293:215,1,107.999996704102,2|0,0:0|0:0,0:0:0:0:
105,182,189917,1,10,0:0:0:0:
187,355,190081,1,2,0:0:0:0:
227,163,190245,6,0,P|294:133|367:181,1,161.999995056153,2|0,1:0|0:0,0:0:0:0:
376,68,190573,2,0,L|362:186,1,107.999996704102,10|0,0:0|0:0,0:0:0:0:
147,8,190901,2,0,L|161:126,1,107.999996704102,2|0,1:0|0:0,0:0:0:0:
9,262,191229,2,0,L|21:154,1,107.999996704102,10|0,0:0|0:0,0:0:0:0:
187,355,191556,6,0,B|254:353|254:353|292:365|292:365|364:361,1,161.999995056153,6|0,1:0|0:0,0:0:0:0:
393,294,191884,2,0,L|500:298,1,107.999996704102,8|0,0:0|0:0,0:0:0:0:
257,189,192212,2,0,L|149:193,1,107.999996704102,2|0,1:0|0:0,0:0:0:0:
376,68,192540,2,0,L|483:72,1,107.999996704102,10|0,0:0|0:0,0:0:0:0:
257,189,192868,6,0,B|182:159|191:89|191:89|231:82,1,161.999995056153,2|0,1:0|0:0,0:0:0:0:
300,114,193196,2,0,P|361:102|418:104,1,107.999996704102,8|0,0:0|0:0,0:0:0:0:
186,250,193524,2,0,P|125:238|68:240,1,107.999996704102,2|0,0:0|0:0,0:0:0:0:
347,361,193852,2,0,P|408:349|465:351,1,107.999996704102,10|0,0:0|0:0,0:0:0:0:
446,117,194179,6,0,P|370:145|280:86,1,161.999995056153,2|0,1:0|0:0,0:0:0:0:
225,81,194507,2,0,P|242:131|246:185,1,107.999996704102,8|0,0:0|0:0,0:0:0:0:
347,361,194835,2,0,P|351:307|368:256,1,107.999996704102,2|0,1:0|0:0,0:0:0:0:
155,377,195163,2,0,P|150:323|133:272,1,107.999996704102,10|0,0:0|0:0,0:0:0:0:
0,88,195491,6,0,L|107:98,1,107.999996704102,2|0,1:0|0:0,0:0:0:0:
271,270,195819,2,0,L|164:279,1,107.999996704102,10|0,0:0|0:0,0:0:0:0:
225,81,196147,1,2,1:0:0:0:
293,292,196311,1,8,0:0:0:0:
202,64,196474,1,8,0:0:0:0:
133,272,196638,1,8,0:0:0:0:
367,67,196802,6,0,P|423:53|509:97,1,135,6|0,1:0|0:0,0:0:0:0:
504,124,197130,1,2,1:0:0:0:
420,3,197294,1,10,0:0:0:0:
341,168,197458,1,0,1:0:0:0:
493,80,197622,1,4,3:0:0:0:
331,0,197786,2,0,L|334:89,1,90,10|0,0:0|0:0,0:0:0:0:
190,175,198114,6,0,B|54:163|54:163,1,135,6|0,1:0|0:0,0:0:0:0:
28,134,198442,1,2,1:0:0:0:
188,86,198606,1,10,0:0:0:0:
176,293,198770,1,0,1:0:0:0:
122,134,198933,1,4,3:0:0:0:
0,310,199097,2,0,L|89:303,1,90,10|0,0:0|0:0,0:0:0:0:
268,134,199425,6,0,P|244:196|294:277,1,135,6|0,1:0|0:0,0:0:0:0:
315,259,199753,1,2,1:0:0:0:
122,134,199917,1,10,0:0:0:0:
176,293,200081,1,0,1:0:0:0:
268,134,200245,1,0,1:0:0:0:
372,328,200409,2,0,L|461:334,1,90,10|0,0:0|0:0,0:0:0:0:
399,134,200737,6,0,B|358:116|317:129|331:137|296:152|238:122,1,135,6|0,1:0|0:0,0:0:0:0:
248,100,201065,1,0,1:0:0:0:
362,207,201229,1,8,0:0:0:0:
404,35,201392,2,0,L|292:43,1,90,2|0,1:0|0:0,0:0:0:0:
381,174,201720,2,0,L|493:182,1,90,10|0,0:0|0:0,0:0:0:0:
263,57,202048,6,0,B|227:46|185:62|202:68|160:85|111:64,1,135,6|0,1:0|0:0,0:0:0:0:
95,50,202376,2,0,P|111:109|116:162,1,90,8|0,0:0|0:0,0:0:0:0:
214,261,202704,1,2,1:0:0:0:
302,132,202868,1,0,1:0:0:0:
381,294,203032,2,0,P|368:250|361:206,1,90,8|0,0:0|0:0,0:0:0:0:
468,36,203360,6,0,P|413:74|326:48,1,135,6|0,1:0|0:0,0:0:0:0:
328,32,203688,2,0,P|255:14|213:19,1,90,10|0,0:0|0:0,0:0:0:0:
132,190,204015,2,0,P|205:172|247:177,1,90,2|0,1:0|0:0,0:0:0:0:
435,273,204343,1,10,0:0:0:0:
414,312,204425,1,8,0:0:0:0:
376,336,204507,1,8,0:0:0:0:
332,345,204589,1,8,0:0:0:0:
283,332,204671,6,0,B|222:273|152:302|152:302|159:343,1,161.999995056153,6|0,1:0|0:0,0:0:0:0:
210,379,204999,2,0,P|202:314|200:266,1,107.999996704102,8|0,0:0|0:0,0:0:0:0:
273,99,205327,5,10,0:0:0:0:
381,294,205491,1,0,1:0:0:0:
328,32,205655,5,10,0:0:0:0:
204,237,205819,1,0,1:0:0:0:
512,142,205983,6,0,B|421:155|456:107|352:112,1,161.999995056153,8|0,0:0|0:0,0:0:0:0:
303,179,206311,5,8,0:0:0:0:
488,60,206474,1,0,1:0:0:0:
299,11,206638,5,10,0:0:0:0:
376,251,206802,1,0,1:0:0:0:
376,251,206884,1,0,1:0:0:0:
376,251,206966,5,8,0:0:0:0:
420,0,207130,1,0,1:0:0:0:
219,172,207294,6,0,B|134:148|30:152,1,161.999995056153,8|0,0:0|0:0,0:0:0:0:
6,218,207622,2,0,P|17:284|19:342,1,107.999996704102,8|0,0:0|0:0,0:0:0:0:
145,116,207950,5,10,0:0:0:0:
239,346,208114,1,0,1:0:0:0:
268,90,208278,5,10,0:0:0:0:
158,370,208442,1,0,1:0:0:0:
124,68,208606,6,0,P|101:162|98:243,1,161.999995056153,8|0,0:0|0:0,0:0:0:0:
143,290,208933,5,8,0:0:0:0:
19,126,209097,1,0,1:0:0:0:
257,191,209261,5,10,0:0:0:0:
56,322,209425,1,0,1:0:0:0:
56,322,209507,1,0,1:0:0:0:
56,322,209589,5,10,0:0:0:0:
121,79,209753,1,0,1:0:0:0:
216,298,209917,6,0,P|301:305|354:219,1,161.999995056153,6|0,1:0|0:0,0:0:0:0:
336,170,210245,2,0,P|326:116|323:62,1,107.999996704102,8|2,0:0|0:0,0:0:0:0:
217,211,210573,5,10,0:0:0:0:
343,34,210737,1,2,1:0:0:0:
419,200,210901,5,10,0:0:0:0:
203,47,211065,1,0,1:0:0:0:
478,25,211229,6,0,B|470:91|470:91|455:113|455:113|448:181,1,161.999995056153,8|0,0:0|0:0,0:0:0:0:
475,259,211556,5,8,0:0:0:0:
394,44,211720,1,0,1:0:0:0:
319,250,211884,5,10,0:0:0:0:
512,118,212048,1,0,1:0:0:0:
512,118,212130,1,0,1:0:0:0:
512,118,212212,5,10,0:0:0:0:
301,47,212376,1,0,1:0:0:0:
329,331,212540,6,0,L|337:135,1,161.999995056153,8|0,0:0|0:0,0:0:0:0:
263,126,212868,2,0,P|215:138|154:109,1,107.999996704102,8|0,0:0|0:0,0:0:0:0:
383,10,213196,5,10,0:0:0:0:
328,212,213360,1,0,1:0:0:0:
229,5,213524,5,10,0:0:0:0:
448,181,213688,1,0,1:0:0:0:
204,187,213852,6,0,B|177:213|177:213|231:247|296:221,1,161.999995056153,8|0,0:0|0:0,0:0:0:0:
278,143,214179,5,8,0:0:0:0:
329,331,214343,1,0,1:0:0:0:
359,103,214507,5,10,0:0:0:0:
231,278,214671,1,0,1:0:0:0:
231,278,214753,1,0,1:0:0:0:
231,278,214835,5,10,0:0:0:0:
475,259,214999,1,0,1:0:0:0:
263,126,215163,6,0,B|176:146|91:136|91:136,1,161.999995056153,6|0,1:0|0:0,0:0:0:0:
51,69,215491,2,0,B|101:51|101:51|152:70,1,107.999996704102,8|0,0:0|0:0,0:0:0:0:
30,274,215819,5,10,0:0:0:0:
27,61,215983,1,0,1:0:0:0:
130,273,216147,5,10,0:0:0:0:
137,60,216311,1,0,1:0:0:0:
231,278,216474,6,0,P|331:262|362:203,1,161.999995056153,8|0,0:0|0:0,0:0:0:0:
345,133,216802,5,8,0:0:0:0:
162,194,216966,1,0,1:0:0:0:
335,313,217130,5,10,0:0:0:0:
263,126,217294,1,0,1:0:0:0:
263,126,217376,1,0,1:0:0:0:
263,126,217458,5,10,0:0:0:0:
205,320,217622,1,0,1:0:0:0:
429,226,217786,6,0,B|333:240|366:190|266:205,1,161.999995056153,8|0,0:0|0:0,0:0:0:0:
196,241,218114,2,0,P|142:254|68:260,1,107.999996704102,8|0,0:0|0:0,0:0:0:0:
263,126,218442,5,10,0:0:0:0:
315,331,218606,1,0,1:0:0:0:
348,102,218770,5,10,0:0:0:0:
226,322,218933,1,0,1:0:0:0:
180,83,219097,6,0,B|163:119|182:173|190:152|207:196|193:251,1,161.999995056153,8|0,0:0|0:0,0:0:0:0:
149,313,219425,5,8,0:0:0:0:
263,126,219589,1,0,1:0:0:0:
49,226,219753,5,10,0:0:0:0:
321,294,219917,1,0,1:0:0:0:
321,294,219999,1,0,1:0:0:0:
321,294,220081,5,10,0:0:0:0:
79,142,220245,1,0,1:0:0:0:
145,375,220409,6,0,L|135:203,1,161.999995056153,6|0,1:0|0:0,0:0:0:0:
159,129,220737,2,0,B|208:143|208:143|266:124,1,107.999996704102,8|0,0:0|0:0,0:0:0:0:
100,7,221065,5,10,0:0:0:0:
49,226,221229,1,0,1:0:0:0:
180,3,221392,5,10,0:0:0:0:
129,262,221556,1,0,1:0:0:0:
261,0,221720,6,0,L|438:17,1,161.999995056153,8|0,0:0|0:0,0:0:0:0:
482,77,222048,5,8,0:0:0:0:
262,125,222212,1,0,1:0:0:0:
502,181,222376,5,10,0:0:0:0:
334,60,222540,1,0,1:0:0:0:
334,60,222622,1,0,1:0:0:0:
334,60,222704,5,10,0:0:0:0:
369,264,222868,1,0,1:0:0:0:
447,45,223032,6,0,B|427:124|426:207,1,161.999995056153,8|0,0:0|0:0,0:0:0:0:
484,263,223360,2,0,P|494:341|495:395,1,107.999996704102,8|0,0:0|0:0,0:0:0:0:
348,184,223688,5,10,0:0:0:0:
291,384,223852,1,0,1:0:0:0:
426,205,224015,5,10,0:0:0:0:
192,277,224179,1,0,1:0:0:0:
296,96,224343,6,0,L|304:257,1,161.999995056153,8|0,0:0|0:0,0:0:0:0:
353,323,224671,5,8,0:0:0:0:
410,124,224835,1,0,1:0:0:0:
192,277,224999,5,10,0:0:0:0:
420,259,225163,2,0,L|417:205,1,53.9999983520508,0|0,1:0|1:0,0:0:0:0:
490,93,225327,1,10,0:0:0:0:
458,48,225408,1,8,0:0:0:0:
404,40,225490,1,8,0:0:0:0:
353,59,225572,1,8,0:0:0:0:
327,107,225654,5,6,1:0:0:0:
417,205,225819,1,2,0:0:0:0:
490,93,225983,1,2,1:0:0:0:
417,234,226147,2,0,L|313:223,1,80.9999975280763,2|0,0:0|1:0,0:0:0:0:
498,178,226474,1,2,0:0:0:0:
425,313,226638,1,2,1:0:0:0:
322,145,226802,6,0,P|330:186|336:228,1,80.9999975280763,2|0,0:0|1:0,0:0:0:0:
244,111,227130,1,2,0:0:0:0:
180,233,227294,1,2,1:0:0:0:
107,89,227458,2,0,P|95:133|92:169,1,80.9999975280763,2|0,0:0|1:0,0:0:0:0:
199,261,227786,1,2,0:0:0:0:
65,195,227950,1,2,1:0:0:0:
244,111,228114,2,0,P|286:100|325:97,1,80.9999975280763,2|0,0:0|1:0,0:0:0:0:
466,161,228442,5,2,0:0:0:0:
342,62,228606,1,2,1:0:0:0:
335,224,228770,2,0,L|344:305,1,80.9999975280763,2|0,0:0|1:0,0:0:0:0:
384,159,229097,1,2,0:0:0:0:
258,197,229261,1,2,1:0:0:0:
423,319,229425,2,0,L|503:310,1,80.9999975280763,2|0,0:0|1:0,0:0:0:0:
335,224,229753,5,2,0:0:0:0:
281,361,229917,1,2,1:0:0:0:
182,238,230081,2,0,P|142:225|98:235,1,80.9999975280763,2|0,0:0|1:0,0:0:0:0:
239,384,230409,1,2,0:0:0:0:
239,384,230491,1,2,0:0:0:0:
239,384,230573,2,0,B|244:313|259:261,1,121.499996292114,6|0,1:0|0:0,0:0:0:0:
254,181,230901,5,6,1:0:0:0:
356,324,231065,1,2,0:0:0:0:
271,145,231229,1,10,0:0:0:0:
190,316,231392,2,0,P|137:332|82:308,1,90,2|0,0:0|1:0,0:0:0:0:
191,124,231720,1,2,0:0:0:0:
276,281,231884,1,10,0:0:0:0:
360,82,232048,1,2,0:0:0:0:
254,242,232212,1,2,1:0:0:0:
176,44,232376,6,0,P|126:26|74:39,1,90,2|8,0:0|0:0,0:0:0:0:
171,206,232704,1,2,0:0:0:0:
273,49,232868,1,2,1:0:0:0:
350,262,233032,1,2,0:0:0:0:
390,59,233196,1,10,0:0:0:0:
374,247,233360,1,2,0:0:0:0:
273,49,233524,5,2,1:0:0:0:
451,183,233688,1,10,0:0:0:0:
270,88,233852,1,2,1:0:0:0:
241,289,234015,2,0,P|188:320|124:312,1,90,10|0,0:0|1:0,0:0:0:0:
209,151,234343,1,10,3:0:0:0:
209,151,234425,1,8,3:0:0:0:
209,151,234507,1,10,3:3:0:0:
329,321,234671,1,14,0:0:0:0:
321,155,234835,5,0,1:0:0:0:
137,298,234999,1,10,0:0:0:0:
270,88,235163,1,8,0:0:0:0:
324,358,235327,1,10,0:0:0:0:
152,212,235491,5,0,1:0:0:0:
364,156,235655,1,10,0:0:0:0:
201,359,235819,1,10,0:0:0:0:
55,111,235983,2,0,B|103:58|178:76|178:76|218:46|212:0|212:0|238:75|371:67,1,405.000015449525,10|0,0:0|0:0,0:0:0:0:
