osu file format v14

[General]
AudioFilename: audio.mp3
AudioLeadIn: 0
PreviewTime: 290100
Countdown: 0
SampleSet: Normal
StackLeniency: 0.7
Mode: 1
LetterboxInBreaks: 0
WidescreenStoryboard: 0

[Editor]
DistanceSpacing: 0.5
BeatDivisor: 4
GridSize: 4
TimelineZoom: 2.9

[Metadata]
Title:Sayonara no Kawari ni
TitleUnicode:☪ さよならのかわりに
Artist:Amatsuki
ArtistUnicode:天月
Creator:iloveyou4ever
Version:Farewell
Source:
Tags:伊東歌詞太郎
BeatmapID:1943457
BeatmapSetID:930640

[Difficulty]
HPDrainRate:5
CircleSize:5
OverallDifficulty:5.5
ApproachRate:5
SliderMultiplier:1.4
SliderTickRate:1

[Events]
//Background and Video events
0,0,"wallhaven-17175.jpg",0,-50
//Break Periods
2,290147,297886
//Storyboard Layer 0 (Background)
//Storyboard Layer 1 (Fail)
//Storyboard Layer 2 (Pass)
//Storyboard Layer 3 (Foreground)
//Storyboard Sound Samples

[TimingPoints]
1637,845.070422535211,4,1,0,52,1,0
1637,-65.7407407407408,4,1,0,52,0,0
4837,810.810810810811,4,1,0,52,1,0
4837,-68.5185185185185,4,1,0,52,0,0
8032,800,4,1,0,52,1,0
8032,-69.4444444444444,4,1,0,52,0,0
13658,821.917808219178,4,1,0,52,1,0
13658,-67.5925925925926,4,1,0,52,0,0
14466,779.220779220779,4,1,0,52,1,0
14466,-71.2962962962963,4,1,0,52,0,0
16803,857.142857142857,4,1,0,52,1,0
16803,-64.8148148148148,4,1,0,52,0,0
17625,800,4,1,0,52,1,0
17625,-69.4444444444444,4,1,0,52,0,0
24826,895.522388059701,4,1,0,52,1,0
24826,-62.0370370370371,4,1,0,52,0,0
25716,937.5,4,1,0,44,1,0
25716,-59.2592592592593,4,1,0,44,0,0
27825,1090.90909090909,4,1,0,36,1,0
27825,-50.925925925926,4,1,0,36,0,0
30456,304.568527918782,4,1,0,52,1,0
30456,-113.636363636364,4,1,0,52,0,0
31674,-105.263157894737,4,1,0,74,0,0
36547,-100,4,1,0,77,0,0
37613,-99.009900990099,4,1,0,77,0,0
37689,-98.0392156862745,4,1,0,77,0,0
37765,-97.0873786407767,4,1,0,77,0,0
37917,-96.1538461538461,4,1,0,77,0,0
38070,-95.2380952380952,4,1,0,77,0,0
38222,-94.3396226415094,4,1,0,77,0,0
38298,-93.4579439252336,4,1,0,77,0,0
38374,-92.5925925925926,4,1,0,77,0,0
38527,-91.6590284142988,4,1,0,77,0,0
38679,-90.7441016333938,4,1,0,77,0,0
38831,-89.8472596585804,4,1,0,77,0,0
38983,-88.8888888888889,4,1,0,77,0,0
40659,-90.9090909090909,4,1,0,72,0,0
40735,-92.1658986175115,4,1,0,72,0,0
40811,-93.4579439252336,4,1,0,72,0,0
41014,-94.7867298578199,4,1,0,72,0,0
41217,-96.1538461538461,4,1,0,72,0,0
41420,-97.5609756097561,4,1,0,82,0,0
51166,-99.009900990099,4,1,0,77,0,0
51471,-99.8003992015968,4,1,0,77,0,0
51775,-100.806451612903,4,1,0,77,0,0
52080,-101.626016260163,4,1,0,77,0,0
52384,-102.459016393443,4,1,0,77,0,0
52689,-103.305785123967,4,1,0,77,0,0
52994,-104.166666666667,4,1,0,77,0,0
53298,-105.042016806723,4,1,0,77,0,0
53450,-105.708245243129,4,1,0,77,0,0
53603,-106.609808102345,4,1,0,77,0,0
60912,-103.626943005181,4,1,0,77,0,0
68222,-100,4,1,0,77,0,0
70659,-98.0392156862745,4,1,0,82,0,0
89085,-98.8142292490118,4,1,0,82,0,0
89237,-99.601593625498,4,1,0,82,0,0
89390,-100.401606425703,4,1,0,82,0,0
89466,-101.214574898785,4,1,0,82,0,0
89542,-102.040816326531,4,1,0,82,0,0
89694,-102.040816326531,4,1,0,82,0,0
89846,-102.880658436214,4,1,0,82,0,0
89999,-103.734439834025,4,1,0,82,0,0
90075,-104.602510460251,4,1,0,82,0,0
90151,-105.485232067511,4,1,0,80,0,0
98527,-102.040816326531,4,1,0,82,0,0
99897,-98.0392156862745,4,1,0,82,0,0
108577,-97.2762645914397,4,1,0,82,0,0
108730,-96.5250965250965,4,1,0,82,0,0
108882,-95.7854406130268,4,1,0,82,0,0
108958,-95.0570342205323,4,1,0,82,0,0
109034,-94.3396226415094,4,1,0,82,0,0
109186,-93.6329588014981,4,1,0,82,0,0
109339,-92.9368029739777,4,1,0,82,0,0
109491,-92.2509225092251,4,1,0,82,0,0
109643,-91.5750915750916,4,1,0,82,0,0
109796,-90.9090909090909,4,1,0,82,0,0
109872,-90.2527075812274,4,1,0,82,0,0
109948,-89.6057347670251,4,1,0,82,0,0
110100,-88.9679715302491,4,1,0,82,0,0
110405,-88.339222614841,4,1,0,82,0,0
110481,-87.719298245614,4,1,0,82,0,0
110557,-87.1080139372822,4,1,0,82,0,0
110709,-86.5051903114187,4,1,0,82,0,0
111014,-85.8369098712446,4,1,0,82,0,0
111166,-85.1063829787234,4,1,0,82,0,0
112078,304.336799391326,4,1,0,82,1,0
112078,-94.3396226415094,4,1,0,82,0,1
121816,304.336799391326,4,1,0,82,1,9
121820,304.723209751143,4,1,0,82,1,1
121820,-95.4198473282443,4,1,0,82,0,1
130352,-94.2951438000943,4,1,0,82,0,1
131561,304.41400304414,4,1,0,82,1,1
131561,-94.3396226415094,4,1,0,82,0,1
141302,304.336799391326,4,1,0,82,1,9
141308,304.878048780488,4,1,0,82,1,1
141308,-94.2862530643032,4,1,0,82,0,1
145118,-95.0570342205323,4,1,0,82,0,1
145271,-95.7854406130268,4,1,0,82,0,1
145347,-96.5250965250965,4,1,0,82,0,1
145423,-97.2762645914397,4,1,0,82,0,1
145500,-98.0392156862745,4,1,0,82,0,1
145576,-98.8142292490118,4,1,0,82,0,1
145728,-100,4,1,0,82,0,1
145881,-101.010101010101,4,1,0,82,0,1
146033,-102.040816326531,4,1,0,82,0,1
146109,-103.092783505155,4,1,0,82,0,1
146186,-104.166666666667,4,1,0,82,0,1
148625,-104.166666666667,4,1,0,82,0,0
151064,304.568527918782,4,1,0,82,1,0
151064,-97.5609756097561,4,1,0,82,0,0
170556,-102.040816326531,4,1,0,77,0,0
187536,-97.0873786407767,4,1,0,82,0,0
189287,-98.2318271119843,4,1,0,82,0,0
189363,-99.403578528827,4,1,0,82,0,0
189439,-100.603621730382,4,1,0,82,0,0
189591,-102.354145342886,4,1,0,82,0,0
189744,-103.842159916926,4,1,0,82,0,0
189896,-105.374077976818,4,1,0,82,0,0
190048,-106.951871657754,4,1,0,82,0,0
198424,-100,4,1,0,82,0,0
199794,-97.5609756097561,4,1,0,82,0,0
207713,-96.7117988394584,4,1,0,82,0,0
207866,-96.3391136801541,4,1,0,82,0,0
208018,-95.9692898272553,4,1,0,82,0,0
208170,-95.6022944550669,4,1,0,82,0,0
208322,-95.2380952380952,4,1,0,82,0,0
208475,-94.876660341556,4,1,0,82,0,0
208551,-94.5179584120983,4,1,0,82,0,0
208627,-94.1619585687382,4,1,0,82,0,0
209540,304.336799391326,4,1,0,82,1,1
209540,-93.8086303939962,4,1,0,82,0,1
219278,304.800609601219,4,1,0,82,1,9
219282,304.800609601219,4,1,0,82,1,1
219282,-95.2380952380952,4,1,0,82,0,1
227816,-93.8086303939962,4,1,0,82,0,1
229033,304.336799391326,4,1,0,82,1,1
229033,-93.8086303939962,4,1,0,82,0,1
238773,304.800609601219,4,1,0,82,1,1
238773,-93.764650726676,4,1,0,82,0,1
242583,-94.6073793755913,4,1,0,82,0,1
242735,-95.4198473282443,4,1,0,82,0,1
242811,-96.2463907603465,4,1,0,82,0,1
242887,-97.0873786407767,4,1,0,82,0,1
242964,-97.9431929480901,4,1,0,82,0,1
243040,-98.8142292490118,4,1,0,82,0,1
243192,-99.7008973080758,4,1,0,82,0,1
243345,-100.603621730382,4,1,0,82,0,1
243497,-101.522842639594,4,1,0,82,0,1
243573,-102.459016393443,4,1,0,82,0,1
243649,-103.412616339193,4,1,0,82,0,1
246393,-102.040816326531,4,1,0,82,0,1
246697,-100.704934541793,4,1,0,82,0,1
247002,-99.403578528827,4,1,0,82,0,1
247307,-98.5221674876847,4,1,0,82,0,0
248524,304.568527918782,4,1,0,82,1,8
248526,304.568527918782,4,1,0,82,1,0
248526,-98.0392156862745,4,1,0,82,0,0
265581,-94.3396226415094,4,1,0,82,0,1
266190,-92.5925925925926,4,1,0,82,0,1
266800,-90.9090909090909,4,1,0,82,0,1
268018,-90.9090909090909,4,1,0,82,0,0
268322,-92.4214417744917,4,1,0,82,0,0
268627,-93.984962406015,4,1,0,82,0,0
268932,-95.6022944550669,4,1,0,82,0,0
269236,-97.2762645914397,4,1,0,82,0,0
269541,-99.009900990099,4,1,0,82,0,0
269845,-100.806451612903,4,1,0,82,0,0
276698,-99.009900990099,4,1,0,82,0,0
277764,-96.1538461538461,4,1,0,82,0,1
282180,-96.8523002421307,4,1,0,82,0,1
282333,-97.5609756097561,4,1,0,82,0,1
282485,-98.2800982800983,4,1,0,82,0,1
282637,-99.2063492063492,4,1,0,82,0,0
285683,-97.8473581213307,4,1,0,82,0,0
285987,-96.5250965250965,4,1,0,82,0,0
286292,-95.1474785918173,4,1,0,82,0,0
286597,-93.8086303939962,4,1,0,82,0,0
286901,-92.4214417744917,4,1,0,82,0,0
287206,-91.0746812386157,4,1,0,82,0,0
287510,-90.4977375565611,4,1,0,82,0,0
288729,-100,4,1,0,67,0,0
289947,304.568527918782,4,1,0,52,1,8
289949,304.568527918782,4,1,0,52,1,0
289949,-113.636363636364,4,1,0,52,0,0
299693,-108.695652173913,4,1,0,69,0,0
303953,297.029702970297,4,1,0,77,1,8
303953,-110.350915912602,4,1,0,77,0,0
304547,304.568527918782,4,1,0,77,1,0
304547,-104.166666666667,4,1,0,77,0,0
304567,304.568527918782,4,1,0,77,1,8
304567,-104.166666666667,4,1,0,77,0,0
305176,-102.880658436214,4,1,0,77,0,0
305480,-101.626016260163,4,1,0,77,0,0
305785,-100.300902708124,4,1,0,77,0,0
306089,-99.009900990099,4,1,0,77,0,0
306394,-98.0392156862745,4,1,0,77,0,0
306698,-96.1538461538461,4,1,0,77,0,0
308069,-96.8992248062015,4,1,0,80,0,0
308145,-97.65625,4,1,0,80,0,0
308221,-98.4251968503937,4,1,0,80,0,0
308374,-99.2063492063492,4,1,0,80,0,0
308526,-100,4,1,0,80,0,0
308678,-100.806451612903,4,1,0,80,0,0
308754,-101.626016260163,4,1,0,80,0,0
308830,-102.459016393443,4,1,0,80,0,0
308907,-103.305785123967,4,1,0,80,0,0
308983,-104.166666666667,4,1,0,80,0,0
309059,-105.042016806723,4,1,0,80,0,0
309135,-105.932203389831,4,1,0,80,0,0
309440,-106.951871657754,4,1,0,82,0,1
319186,-106.382978723404,4,1,0,82,0,0
319795,-106.382978723404,4,1,0,82,0,1
320099,-106.382978723404,4,1,0,82,0,1
324668,-105.042016806723,4,1,0,82,0,1
324973,-103.734439834025,4,1,0,82,0,1
325277,-102.354145342886,4,1,0,82,0,1
325582,-100.908173562059,4,1,0,82,0,1
325886,-99.403578528827,4,1,0,82,0,1
326191,-97.8473581213307,4,1,0,82,0,1
326495,-96.2463907603465,4,1,0,82,0,1
326648,-96.2463907603465,4,1,0,72,0,1
327714,-97.0873786407767,4,1,0,72,0,1
329541,-97.0873786407767,4,1,0,72,0,0
330150,-97.5609756097561,4,1,0,77,0,0
331368,304.568527918782,4,1,0,82,1,0
331368,-96.1538461538461,4,1,0,82,0,1
349794,-95.4198473282443,4,1,0,82,0,1
349946,-94.6969696969697,4,1,0,82,0,1
350098,-93.984962406015,4,1,0,82,0,1
350175,-93.2835820895522,4,1,0,82,0,1
350251,-92.5925925925926,4,1,0,82,0,1
350403,-91.9117647058823,4,1,0,82,0,1
350555,-91.2408759124088,4,1,0,82,0,1
350708,-90.5797101449275,4,1,0,82,0,1
351621,-90.5797101449275,4,1,0,82,0,0
353296,-90.5797101449275,4,1,0,74,0,0
354515,-90.5797101449275,4,1,0,66,0,0
355733,-90.5797101449275,4,1,0,57,0,0
356951,-90.5797101449275,4,1,0,47,0,0
358170,-90.5797101449275,4,1,0,36,0,0

[HitObjects]
402,210,1637,5,8,0:0:0:0:
316,162,2482,1,0,0:0:0:0:
364,168,2904,1,8,0:0:0:0:
386,224,4837,1,0,0:0:0:0:
406,181,5647,1,0,0:0:0:0:
470,197,6053,1,8,0:0:0:0:
391,133,7269,1,8,0:0:0:0:
343,204,8032,1,0,0:0:0:0:
376,181,8832,5,0,0:0:0:0:
409,172,9232,1,8,0:0:0:0:
409,172,10032,1,0,0:0:0:0:
378,155,10432,1,8,0:0:0:0:
441,185,11232,1,8,0:0:0:0:
377,154,12032,1,8,0:0:0:0:
411,158,12432,1,0,0:0:0:0:
419,192,12832,1,8,0:0:0:0:
334,174,13658,1,0,0:0:0:0:
447,176,14466,1,8,0:0:0:0:
242,157,15245,1,0,0:0:0:0:
276,161,15634,1,8,0:0:0:0:
423,178,16803,1,8,0:0:0:0:
359,184,17625,1,0,0:0:0:0:
412,180,18025,1,0,0:0:0:0:
446,179,18425,1,0,0:0:0:0:
480,171,18825,1,8,0:0:0:0:
413,149,19625,1,0,0:0:0:0:
433,216,20425,1,0,0:0:0:0:
442,182,20825,1,8,0:0:0:0:
442,182,21625,1,0,0:0:0:0:
391,184,22025,1,8,0:0:0:0:
450,167,23225,1,8,0:0:0:0:
481,157,24025,1,0,0:0:0:0:
380,167,24825,1,8,0:0:0:0:
406,180,25716,1,8,0:0:0:0:
433,158,26653,1,8,0:0:0:0:
348,91,27180,1,0,0:0:0:0:
421,106,27825,1,0,0:0:0:0:
421,106,27893,1,0,0:0:0:0:
453,180,27961,1,8,0:0:0:0:
296,197,30456,1,0,0:0:0:0:
296,197,30760,1,0,0:0:0:0:
303,196,31065,1,0,0:0:0:0:
433,193,31369,1,8,0:0:0:0:
408,175,31674,1,4,0:0:0:0:
405,150,31978,1,0,0:0:0:0:
427,173,32131,1,8,0:0:0:0:
469,123,32435,1,0,0:0:0:0:
454,152,32587,1,0,0:0:0:0:
427,173,32740,1,8,0:0:0:0:
427,173,33044,1,8,0:0:0:0:
330,159,33197,1,0,0:0:0:0:
360,171,33349,1,8,0:0:0:0:
424,174,33653,1,0,0:0:0:0:
424,174,33806,1,8,0:0:0:0:
424,174,33958,1,8,0:0:0:0:
456,172,34110,1,0,0:0:0:0:
456,172,34415,1,0,0:0:0:0:
456,172,34567,1,8,0:0:0:0:
456,172,34872,1,8,0:0:0:0:
427,156,35024,1,0,0:0:0:0:
456,172,35176,1,8,0:0:0:0:
399,205,35481,1,0,0:0:0:0:
358,162,35633,1,0,0:0:0:0:
456,172,35785,1,8,0:0:0:0:
358,183,36090,1,0,0:0:0:0:
358,183,36242,1,0,0:0:0:0:
358,183,36547,1,12,0:0:0:0:
414,215,36851,1,0,0:0:0:0:
441,192,37004,1,8,0:0:0:0:
407,181,37156,1,0,0:0:0:0:
441,186,37308,1,8,0:0:0:0:
472,170,37461,1,0,0:0:0:0:
437,168,37613,1,8,0:0:0:0:
437,168,37689,1,8,0:0:0:0:
441,192,37765,1,0,0:0:0:0:
441,192,37917,1,0,0:0:0:0:
437,168,38070,1,8,0:0:0:0:
441,186,38222,1,0,0:0:0:0:
441,186,38298,1,0,0:0:0:0:
441,192,38374,1,8,0:0:0:0:
464,165,38527,1,8,0:0:0:0:
464,165,38679,1,0,0:0:0:0:
441,192,38831,1,0,0:0:0:0:
441,186,38983,1,8,0:0:0:0:
426,198,40659,1,0,0:0:0:0:
426,198,40735,1,0,0:0:0:0:
410,189,40811,1,8,0:0:0:0:
360,192,41014,1,8,0:0:0:0:
360,192,41217,1,8,0:0:0:0:
409,179,41420,1,4,0:0:0:0:
456,182,41725,1,8,0:0:0:0:
456,182,41877,1,0,0:0:0:0:
421,178,42029,1,0,0:0:0:0:
386,175,42181,1,0,0:0:0:0:
421,178,42334,1,8,0:0:0:0:
448,192,42486,1,0,0:0:0:0:
456,182,42562,1,8,0:0:0:0:
421,178,42638,1,0,0:0:0:0:
421,178,42791,1,0,0:0:0:0:
448,192,42943,1,8,0:0:0:0:
472,218,43095,1,8,0:0:0:0:
483,231,43171,1,8,0:0:0:0:
493,191,43247,1,0,0:0:0:0:
462,210,43400,1,0,0:0:0:0:
421,178,43552,1,8,0:0:0:0:
421,178,43857,1,0,0:0:0:0:
421,178,44161,1,8,0:0:0:0:
456,184,44313,1,0,0:0:0:0:
456,184,44466,1,0,0:0:0:0:
456,184,44542,1,0,0:0:0:0:
456,184,44618,1,0,0:0:0:0:
491,182,44770,1,8,0:0:0:0:
421,178,44923,1,4,0:0:0:0:
505,139,45227,1,0,0:0:0:0:
456,184,45379,1,8,0:0:0:0:
456,184,45532,1,0,0:0:0:0:
438,179,45608,1,0,0:0:0:0:
456,191,45684,1,8,0:0:0:0:
421,178,45760,1,0,0:0:0:0:
473,191,45836,1,0,0:0:0:0:
440,180,45988,1,12,0:0:0:0:
456,184,46141,1,8,0:0:0:0:
420,188,46293,1,4,0:0:0:0:
438,179,46445,1,0,0:0:0:0:
456,191,46598,1,8,0:0:0:0:
456,191,46750,1,0,0:0:0:0:
438,179,47054,1,0,0:0:0:0:
473,181,47207,1,8,0:0:0:0:
473,181,47359,1,8,0:0:0:0:
473,181,47435,1,8,0:0:0:0:
473,181,47511,1,0,0:0:0:0:
473,181,47664,1,0,0:0:0:0:
508,182,47816,1,12,0:0:0:0:
472,182,47968,1,0,0:0:0:0:
473,164,48044,1,8,0:0:0:0:
473,181,48120,1,0,0:0:0:0:
489,213,48273,1,8,0:0:0:0:
508,182,48425,1,0,0:0:0:0:
437,170,48730,1,12,0:0:0:0:
437,170,48882,1,0,0:0:0:0:
473,181,49034,1,8,0:0:0:0:
437,170,49263,1,8,0:0:0:0:
419,167,49339,1,0,0:0:0:0:
499,156,49491,1,0,0:0:0:0:
473,181,49643,1,8,0:0:0:0:
473,181,49796,1,8,0:0:0:0:
473,181,49872,1,8,0:0:0:0:
473,181,49948,1,0,0:0:0:0:
473,181,50100,1,0,0:0:0:0:
473,181,50252,1,8,0:0:0:0:
473,181,50405,1,0,0:0:0:0:
473,181,50557,1,8,0:0:0:0:
473,181,50709,1,0,0:0:0:0:
473,181,50862,1,0,0:0:0:0:
401,183,51166,1,4,0:0:0:0:
449,132,51471,1,8,0:0:0:0:
473,181,51775,1,8,0:0:0:0:
473,181,52080,1,8,0:0:0:0:
473,181,52384,1,8,0:0:0:0:
405,200,52689,1,8,0:0:0:0:
439,170,52994,1,8,0:0:0:0:
404,171,53298,1,8,0:0:0:0:
439,170,53450,1,0,0:0:0:0:
439,170,53603,1,0,0:0:0:0:
439,170,53907,1,0,0:0:0:0:
439,170,54212,1,0,0:0:0:0:
439,170,54516,1,8,0:0:0:0:
439,170,54669,1,8,0:0:0:0:
404,175,54821,1,0,0:0:0:0:
439,170,55126,1,0,0:0:0:0:
439,170,55430,1,0,0:0:0:0:
489,218,55735,1,0,0:0:0:0:
480,192,55887,1,8,0:0:0:0:
457,207,56039,1,0,0:0:0:0:
416,256,56344,1,0,0:0:0:0:
416,256,56648,1,0,0:0:0:0:
439,170,56953,1,0,0:0:0:0:
416,160,57105,1,0,0:0:0:0:
439,170,57258,1,8,0:0:0:0:
416,192,57562,1,8,0:0:0:0:
399,163,57714,1,0,0:0:0:0:
438,167,57867,1,8,0:0:0:0:
467,186,58171,1,8,0:0:0:0:
457,217,58324,1,0,0:0:0:0:
439,170,58476,1,0,0:0:0:0:
503,156,58780,1,0,0:0:0:0:
503,156,59085,1,0,0:0:0:0:
439,170,59237,1,0,0:0:0:0:
442,182,59390,1,8,0:0:0:0:
442,182,59542,1,8,0:0:0:0:
474,175,59694,1,0,0:0:0:0:
474,175,59999,1,0,0:0:0:0:
502,190,60151,1,8,0:0:0:0:
474,175,60303,1,0,0:0:0:0:
474,175,60456,1,8,0:0:0:0:
474,175,60532,1,8,0:0:0:0:
474,175,60608,1,8,0:0:0:0:
474,175,60912,1,4,0:0:0:0:
474,175,61065,1,0,0:0:0:0:
442,187,61217,1,8,0:0:0:0:
442,187,61826,1,8,0:0:0:0:
506,164,62131,1,0,0:0:0:0:
474,175,62283,1,0,0:0:0:0:
442,187,62435,1,8,0:0:0:0:
472,202,62587,1,0,0:0:0:0:
442,187,63044,1,8,0:0:0:0:
490,138,63349,1,0,0:0:0:0:
466,162,63501,1,0,0:0:0:0:
434,173,63653,1,8,0:0:0:0:
434,173,64263,1,8,0:0:0:0:
434,173,64567,1,0,0:0:0:0:
434,173,64719,1,0,0:0:0:0:
434,173,64872,1,8,0:0:0:0:
434,173,65024,1,0,0:0:0:0:
401,183,65176,1,0,0:0:0:0:
467,195,65481,1,8,0:0:0:0:
497,134,65785,1,0,0:0:0:0:
482,164,65938,1,0,0:0:0:0:
448,164,66090,1,8,0:0:0:0:
482,164,66242,1,0,0:0:0:0:
448,164,66699,1,8,0:0:0:0:
485,174,67004,1,0,0:0:0:0:
485,174,67156,1,0,0:0:0:0:
448,164,67308,1,8,0:0:0:0:
448,164,67461,1,0,0:0:0:0:
448,164,67613,1,8,0:0:0:0:
448,164,67917,1,8,0:0:0:0:
469,160,68222,1,4,0:0:0:0:
469,160,68527,1,8,0:0:0:0:
453,197,68679,1,0,0:0:0:0:
448,164,68831,1,0,0:0:0:0:
435,159,68983,1,0,0:0:0:0:
435,159,69136,1,8,0:0:0:0:
401,154,69288,1,0,0:0:0:0:
401,154,69364,1,0,0:0:0:0:
469,160,69440,1,8,0:0:0:0:
448,164,69593,1,0,0:0:0:0:
447,181,69669,1,0,0:0:0:0:
417,146,69745,1,0,0:0:0:0:
469,160,69897,1,8,0:0:0:0:
448,164,70049,1,0,0:0:0:0:
435,176,70126,1,0,0:0:0:0:
448,164,70202,1,0,0:0:0:0:
480,173,70354,1,8,0:0:0:0:
419,204,70659,1,4,0:0:0:0:
358,165,70963,1,8,0:0:0:0:
391,175,71115,1,0,0:0:0:0:
428,178,71268,1,0,0:0:0:0:
428,178,71420,1,0,0:0:0:0:
462,187,71572,1,8,0:0:0:0:
462,187,71877,1,8,0:0:0:0:
462,187,72029,1,0,0:0:0:0:
428,178,72181,1,8,0:0:0:0:
434,213,72334,1,0,0:0:0:0:
446,200,72410,1,8,0:0:0:0:
411,172,72486,1,0,0:0:0:0:
428,178,72638,1,0,0:0:0:0:
428,178,72791,1,8,0:0:0:0:
428,178,73095,1,0,0:0:0:0:
428,178,73400,1,8,0:0:0:0:
459,160,73552,1,0,0:0:0:0:
459,160,73704,1,0,0:0:0:0:
459,160,73857,1,0,0:0:0:0:
459,160,74009,1,8,0:0:0:0:
474,168,74161,1,0,0:0:0:0:
474,168,74237,1,0,0:0:0:0:
402,174,74313,1,8,0:0:0:0:
459,160,74466,1,0,0:0:0:0:
493,169,74618,1,8,0:0:0:0:
475,166,74694,1,0,0:0:0:0:
493,169,74770,1,8,0:0:0:0:
402,174,74846,1,8,0:0:0:0:
474,168,74923,1,0,0:0:0:0:
438,171,75075,1,8,0:0:0:0:
402,174,75227,1,0,0:0:0:0:
320,192,75532,1,8,0:0:0:0:
384,160,75836,1,0,0:0:0:0:
448,192,75988,1,8,0:0:0:0:
448,160,76141,1,8,0:0:0:0:
474,168,76293,1,0,0:0:0:0:
447,178,76369,1,0,0:0:0:0:
402,174,76445,1,8,0:0:0:0:
447,178,76598,1,8,0:0:0:0:
474,168,76750,1,0,0:0:0:0:
456,163,76826,1,0,0:0:0:0:
456,163,76902,1,0,0:0:0:0:
412,169,77054,1,8,0:0:0:0:
412,169,77207,1,0,0:0:0:0:
447,178,77359,1,8,0:0:0:0:
456,163,77435,1,0,0:0:0:0:
449,142,77511,1,0,0:0:0:0:
451,124,77587,1,0,0:0:0:0:
447,178,77664,1,8,0:0:0:0:
447,178,77968,1,0,0:0:0:0:
447,178,78273,1,8,0:0:0:0:
384,160,78577,1,0,0:0:0:0:
384,160,78730,1,0,0:0:0:0:
416,160,78882,1,8,0:0:0:0:
447,178,79034,1,0,0:0:0:0:
480,160,79110,1,8,0:0:0:0:
447,178,79186,1,0,0:0:0:0:
447,178,79339,1,0,0:0:0:0:
447,178,79491,1,8,0:0:0:0:
447,178,79643,1,8,0:0:0:0:
480,192,79719,1,8,0:0:0:0:
447,178,79796,1,0,0:0:0:0:
447,178,79872,1,0,0:0:0:0:
447,178,79948,1,0,0:0:0:0:
480,160,80100,1,8,0:0:0:0:
447,178,80405,1,12,0:0:0:0:
480,128,80709,1,8,0:0:0:0:
480,160,80862,1,0,0:0:0:0:
448,160,80938,1,0,0:0:0:0:
448,160,81014,1,8,0:0:0:0:
480,160,81166,1,0,0:0:0:0:
448,160,81318,1,8,0:0:0:0:
480,160,81471,1,8,0:0:0:0:
448,160,81547,1,0,0:0:0:0:
448,160,81623,1,8,0:0:0:0:
448,160,81775,1,0,0:0:0:0:
448,160,81928,1,8,0:0:0:0:
416,192,82080,1,0,0:0:0:0:
416,192,82156,1,0,0:0:0:0:
448,192,82232,1,8,0:0:0:0:
448,192,82308,1,8,0:0:0:0:
448,192,82384,1,0,0:0:0:0:
480,160,82537,1,8,0:0:0:0:
448,160,82689,1,0,0:0:0:0:
416,192,82841,1,8,0:0:0:0:
448,160,83146,1,8,0:0:0:0:
384,192,83298,1,0,0:0:0:0:
416,160,83450,1,0,0:0:0:0:
448,160,83603,1,0,0:0:0:0:
448,160,83679,1,0,0:0:0:0:
416,160,83755,1,8,0:0:0:0:
416,160,83907,1,8,0:0:0:0:
448,160,84060,1,0,0:0:0:0:
448,160,84136,1,0,0:0:0:0:
448,160,84212,1,0,0:0:0:0:
416,160,84364,1,8,0:0:0:0:
448,160,84516,1,0,0:0:0:0:
416,160,84669,1,8,0:0:0:0:
416,160,84745,1,8,0:0:0:0:
416,160,84821,1,0,0:0:0:0:
416,192,84897,1,0,0:0:0:0:
448,160,84973,1,8,0:0:0:0:
448,160,85278,1,4,0:0:0:0:
480,192,85430,1,0,0:0:0:0:
448,192,85582,1,8,0:0:0:0:
512,192,85811,1,8,0:0:0:0:
448,160,85887,1,0,0:0:0:0:
448,160,86039,1,0,0:0:0:0:
416,160,86192,1,8,0:0:0:0:
448,160,86344,1,8,0:0:0:0:
448,160,86420,1,0,0:0:0:0:
480,160,86496,1,8,0:0:0:0:
480,160,86648,1,0,0:0:0:0:
448,160,86801,1,0,0:0:0:0:
448,160,86877,1,0,0:0:0:0:
448,160,86953,1,8,0:0:0:0:
448,160,87029,1,8,0:0:0:0:
448,160,87105,1,0,0:0:0:0:
448,160,87258,1,0,0:0:0:0:
448,160,87334,1,8,0:0:0:0:
416,160,87410,1,0,0:0:0:0:
448,192,87562,1,8,0:0:0:0:
448,192,87714,1,4,0:0:0:0:
480,160,87867,1,0,0:0:0:0:
416,160,88019,1,8,0:0:0:0:
448,160,88171,1,0,0:0:0:0:
448,160,88476,1,0,0:0:0:0:
448,160,88628,1,0,0:0:0:0:
416,192,88780,1,12,0:0:0:0:
448,160,89085,1,0,0:0:0:0:
448,160,89237,1,8,0:0:0:0:
416,160,89390,1,0,0:0:0:0:
416,160,89466,1,8,0:0:0:0:
448,160,89542,1,8,0:0:0:0:
448,160,89694,1,0,0:0:0:0:
416,160,89846,1,8,0:0:0:0:
448,160,89999,1,8,0:0:0:0:
448,160,90075,1,8,0:0:0:0:
448,160,90151,1,0,0:0:0:0:
384,192,90456,1,0,0:0:0:0:
384,160,90608,1,8,0:0:0:0:
448,192,90760,1,0,0:0:0:0:
416,192,90912,1,8,0:0:0:0:
416,192,91065,1,0,0:0:0:0:
416,224,91217,1,8,0:0:0:0:
480,224,91521,1,8,0:0:0:0:
466,193,91674,1,0,0:0:0:0:
435,179,91826,1,8,0:0:0:0:
416,192,91902,1,0,0:0:0:0:
416,192,91978,1,0,0:0:0:0:
447,181,92131,1,0,0:0:0:0:
480,180,92283,1,8,0:0:0:0:
448,189,92435,1,0,0:0:0:0:
447,181,92587,1,4,0:0:0:0:
480,180,92892,1,0,0:0:0:0:
445,236,93197,1,0,0:0:0:0:
413,177,93501,1,0,0:0:0:0:
413,177,93653,1,8,0:0:0:0:
380,118,93806,1,0,0:0:0:0:
413,177,93958,1,8,0:0:0:0:
446,175,94110,1,0,0:0:0:0:
413,177,94263,1,8,0:0:0:0:
399,168,94339,1,0,0:0:0:0:
384,159,94415,1,0,0:0:0:0:
413,177,94567,1,0,0:0:0:0:
439,157,94719,1,8,0:0:0:0:
439,157,94872,1,8,0:0:0:0:
439,157,94948,1,8,0:0:0:0:
436,173,95024,1,0,0:0:0:0:
499,153,95329,1,0,0:0:0:0:
436,173,95633,1,0,0:0:0:0:
480,160,95785,1,8,0:0:0:0:
499,153,95938,1,0,0:0:0:0:
480,192,96090,1,12,0:0:0:0:
480,160,96395,1,0,0:0:0:0:
480,160,96547,1,8,0:0:0:0:
499,153,96699,1,8,0:0:0:0:
480,160,96851,1,0,0:0:0:0:
480,160,97004,1,0,0:0:0:0:
480,160,97156,1,8,0:0:0:0:
480,160,97308,1,8,0:0:0:0:
480,160,97384,1,8,0:0:0:0:
448,160,97461,1,0,0:0:0:0:
480,224,97765,1,0,0:0:0:0:
448,160,98070,1,0,0:0:0:0:
448,192,98222,1,0,0:0:0:0:
448,192,98298,1,8,0:0:0:0:
480,192,98374,1,0,0:0:0:0:
448,160,98527,1,12,0:0:0:0:
480,224,98831,1,0,0:0:0:0:
480,224,98907,1,0,0:0:0:0:
480,224,98983,1,0,0:0:0:0:
480,192,99136,1,0,0:0:0:0:
480,192,99212,1,0,0:0:0:0:
480,192,99288,1,8,0:0:0:0:
480,192,99440,1,8,0:0:0:0:
480,192,99516,1,0,0:0:0:0:
480,192,99593,1,8,0:0:0:0:
480,192,99669,1,8,0:0:0:0:
480,192,99745,1,8,0:0:0:0:
480,224,99897,1,4,0:0:0:0:
416,192,100202,1,8,0:0:0:0:
384,192,100354,1,0,0:0:0:0:
400,196,100430,1,0,0:0:0:0:
480,192,100506,1,0,0:0:0:0:
384,192,100659,1,0,0:0:0:0:
480,192,100811,1,8,0:0:0:0:
448,160,100963,1,8,0:0:0:0:
448,160,101039,1,8,0:0:0:0:
448,160,101115,1,0,0:0:0:0:
480,192,101268,1,0,0:0:0:0:
480,160,101420,1,8,0:0:0:0:
448,192,101572,1,0,0:0:0:0:
448,160,101648,1,0,0:0:0:0:
448,160,101725,1,8,0:0:0:0:
448,160,101801,1,8,0:0:0:0:
416,160,101877,1,0,0:0:0:0:
448,160,102029,1,8,0:0:0:0:
416,160,102181,1,0,0:0:0:0:
448,160,102258,1,0,0:0:0:0:
448,160,102334,1,8,0:0:0:0:
448,160,102486,1,0,0:0:0:0:
416,160,102638,1,8,0:0:0:0:
416,160,102791,1,8,0:0:0:0:
473,202,103095,1,0,0:0:0:0:
469,184,103171,1,8,0:0:0:0:
444,180,103247,1,0,0:0:0:0:
473,160,103400,1,8,0:0:0:0:
495,187,103552,1,8,0:0:0:0:
458,192,103704,1,0,0:0:0:0:
444,180,103857,1,8,0:0:0:0:
444,180,103933,1,0,0:0:0:0:
469,184,104009,1,8,0:0:0:0:
469,184,104085,1,8,0:0:0:0:
444,180,104161,1,0,0:0:0:0:
408,179,104313,1,0,0:0:0:0:
444,180,104466,1,8,0:0:0:0:
429,110,104770,1,4,0:0:0:0:
444,180,104923,1,0,0:0:0:0:
444,180,105075,1,8,0:0:0:0:
444,180,105227,1,0,0:0:0:0:
384,128,105532,1,0,0:0:0:0:
384,128,105608,1,0,0:0:0:0:
384,160,105684,1,8,0:0:0:0:
444,180,105836,1,0,0:0:0:0:
416,160,105988,1,12,0:0:0:0:
444,180,106141,1,0,0:0:0:0:
479,183,106293,1,8,0:0:0:0:
444,180,106445,1,0,0:0:0:0:
461,178,106521,1,0,0:0:0:0:
461,178,106598,1,8,0:0:0:0:
444,180,106674,1,0,0:0:0:0:
479,183,106750,1,0,0:0:0:0:
444,180,106902,1,8,0:0:0:0:
448,160,107054,1,8,0:0:0:0:
448,160,107131,1,8,0:0:0:0:
479,183,107207,1,4,0:0:0:0:
461,178,107511,1,0,0:0:0:0:
501,194,107816,1,0,0:0:0:0:
479,183,107968,1,0,0:0:0:0:
479,183,108120,1,0,0:0:0:0:
443,176,108273,1,8,0:0:0:0:
461,178,108425,1,0,0:0:0:0:
479,183,108577,1,8,0:0:0:0:
479,183,108730,1,8,0:0:0:0:
461,178,108882,1,0,0:0:0:0:
461,178,108958,1,0,0:0:0:0:
461,178,109034,1,8,0:0:0:0:
479,183,109186,1,0,0:0:0:0:
479,183,109339,1,12,0:0:0:0:
461,178,109491,1,0,0:0:0:0:
443,176,109643,1,4,0:0:0:0:
461,178,109796,1,0,0:0:0:0:
448,160,109872,1,0,0:0:0:0:
461,178,109948,1,0,0:0:0:0:
479,183,110100,1,12,0:0:0:0:
461,178,110405,1,8,0:0:0:0:
461,178,110481,1,0,0:0:0:0:
461,178,110557,1,8,0:0:0:0:
480,160,110709,1,4,0:0:0:0:
404,152,111014,1,0,0:0:0:0:
423,181,111166,1,8,0:0:0:0:
423,181,112078,1,12,0:0:0:0:
288,256,112306,1,0,0:0:0:0:
320,256,112382,1,8,0:0:0:0:
352,256,112534,1,8,0:0:0:0:
352,256,112610,1,0,0:0:0:0:
352,256,112686,1,0,0:0:0:0:
416,192,112838,1,8,0:0:0:0:
448,192,112991,1,0,0:0:0:0:
416,192,113143,1,8,0:0:0:0:
416,160,113219,1,8,0:0:0:0:
416,192,113295,1,0,0:0:0:0:
448,192,113447,1,0,0:0:0:0:
448,192,113523,1,0,0:0:0:0:
480,192,113599,1,8,0:0:0:0:
480,192,113751,1,8,0:0:0:0:
448,192,113904,1,0,0:0:0:0:
448,192,113980,1,0,0:0:0:0:
448,160,114056,1,0,0:0:0:0:
448,160,114132,1,0,0:0:0:0:
448,192,114208,1,8,0:0:0:0:
448,192,114360,1,0,0:0:0:0:
448,192,114512,1,8,0:0:0:0:
448,128,114740,1,0,0:0:0:0:
448,160,114817,1,8,0:0:0:0:
416,160,114969,1,8,0:0:0:0:
416,160,115121,1,0,0:0:0:0:
448,160,115197,1,0,0:0:0:0:
416,160,115273,1,8,0:0:0:0:
448,160,115425,1,0,0:0:0:0:
480,192,115577,1,0,0:0:0:0:
480,160,115653,1,8,0:0:0:0:
480,160,115730,1,0,0:0:0:0:
480,160,115882,1,0,0:0:0:0:
416,160,116034,1,8,0:0:0:0:
448,160,116186,1,8,0:0:0:0:
448,224,116262,1,0,0:0:0:0:
448,160,116338,1,8,0:0:0:0:
448,192,116414,1,0,0:0:0:0:
416,160,116490,1,0,0:0:0:0:
448,160,116643,1,8,0:0:0:0:
448,160,116795,1,0,0:0:0:0:
416,192,116947,1,12,0:0:0:0:
445,196,117251,1,8,0:0:0:0:
480,160,117403,1,8,0:0:0:0:
480,160,117479,1,0,0:0:0:0:
448,160,117556,1,8,0:0:0:0:
445,196,117708,1,0,0:0:0:0:
440,213,117784,1,0,0:0:0:0:
448,160,117860,1,8,0:0:0:0:
448,160,118012,1,8,0:0:0:0:
448,160,118164,1,0,0:0:0:0:
448,160,118240,1,0,0:0:0:0:
448,160,118316,1,0,0:0:0:0:
416,192,118469,1,8,0:0:0:0:
448,160,118621,1,8,0:0:0:0:
465,166,118697,1,0,0:0:0:0:
465,166,118773,1,8,0:0:0:0:
416,160,118849,1,8,0:0:0:0:
416,160,118925,1,0,0:0:0:0:
416,192,119077,1,8,0:0:0:0:
416,160,119229,1,0,0:0:0:0:
448,128,119382,1,4,0:0:0:0:
416,160,119534,1,0,0:0:0:0:
448,160,119610,1,0,0:0:0:0:
448,160,119686,1,8,0:0:0:0:
448,160,119838,1,0,0:0:0:0:
448,160,119990,1,8,0:0:0:0:
480,160,120142,1,8,0:0:0:0:
416,160,120295,1,4,0:0:0:0:
416,192,120447,1,0,0:0:0:0:
352,160,120751,1,0,0:0:0:0:
416,192,120903,1,8,0:0:0:0:
448,192,121055,1,0,0:0:0:0:
480,192,121132,1,0,0:0:0:0:
480,192,121208,1,0,0:0:0:0:
480,192,121360,1,0,0:0:0:0:
480,192,121512,1,8,0:0:0:0:
480,192,121664,1,8,0:0:0:0:
375,188,121820,1,4,0:0:0:0:
432,119,122124,1,0,0:0:0:0:
459,144,122277,1,8,0:0:0:0:
448,192,122353,1,8,0:0:0:0:
448,192,122429,1,0,0:0:0:0:
448,192,122581,1,0,0:0:0:0:
483,179,122734,1,8,0:0:0:0:
464,174,122886,1,0,0:0:0:0:
464,174,122962,1,0,0:0:0:0:
483,179,123038,1,8,0:0:0:0:
464,174,123191,1,0,0:0:0:0:
483,179,123343,1,8,0:0:0:0:
448,192,123495,1,8,0:0:0:0:
445,174,123572,1,0,0:0:0:0:
483,179,123648,1,0,0:0:0:0:
483,179,123800,1,0,0:0:0:0:
445,174,123953,1,8,0:0:0:0:
445,174,124257,1,0,0:0:0:0:
445,174,124410,1,0,0:0:0:0:
445,174,124486,1,0,0:0:0:0:
445,174,124562,1,8,0:0:0:0:
445,174,124714,1,8,0:0:0:0:
445,174,124867,1,0,0:0:0:0:
445,174,124943,1,0,0:0:0:0:
445,174,125019,1,0,0:0:0:0:
445,174,125171,1,8,0:0:0:0:
445,174,125324,1,8,0:0:0:0:
415,152,125476,1,0,0:0:0:0:
415,152,125629,1,0,0:0:0:0:
385,174,125781,1,8,0:0:0:0:
445,174,126086,1,8,0:0:0:0:
409,184,126238,1,0,0:0:0:0:
409,184,126314,1,0,0:0:0:0:
445,174,126390,1,8,0:0:0:0:
409,184,126543,1,0,0:0:0:0:
437,159,126695,1,12,0:0:0:0:
507,182,127000,1,0,0:0:0:0:
469,174,127152,1,8,0:0:0:0:
480,188,127228,1,8,0:0:0:0:
480,188,127305,1,8,0:0:0:0:
469,174,127457,1,0,0:0:0:0:
469,174,127609,1,8,0:0:0:0:
478,158,127762,1,0,0:0:0:0:
409,186,128066,1,0,0:0:0:0:
445,174,128219,1,8,0:0:0:0:
445,174,128371,1,0,0:0:0:0:
445,174,128523,1,8,0:0:0:0:
445,174,128600,1,0,0:0:0:0:
445,174,128676,1,8,0:0:0:0:
427,167,128752,1,8,0:0:0:0:
445,174,128828,1,0,0:0:0:0:
426,179,128980,1,8,0:0:0:0:
426,179,129133,1,4,0:0:0:0:
445,174,129285,1,0,0:0:0:0:
448,224,129438,1,8,0:0:0:0:
427,167,129742,1,0,0:0:0:0:
384,160,129895,1,8,0:0:0:0:
384,160,129971,1,8,0:0:0:0:
384,192,130047,1,0,0:0:0:0:
421,192,130199,1,8,0:0:0:0:
427,167,130352,1,4,0:0:0:0:
427,167,130580,1,0,0:0:0:0:
445,171,130656,1,8,0:0:0:0:
463,173,130733,1,8,0:0:0:0:
480,179,130809,1,0,0:0:0:0:
480,179,130961,1,8,0:0:0:0:
462,186,131037,1,0,0:0:0:0:
462,186,131114,1,0,0:0:0:0:
473,205,131190,1,0,0:0:0:0:
463,173,131266,1,8,0:0:0:0:
427,167,131418,1,0,0:0:0:0:
419,186,131561,1,12,0:0:0:0:
486,212,131789,1,0,0:0:0:0:
470,202,131865,1,8,0:0:0:0:
462,186,132017,1,8,0:0:0:0:
462,186,132093,1,0,0:0:0:0:
455,182,132169,1,0,0:0:0:0:
470,202,132322,1,8,0:0:0:0:
437,183,132474,1,0,0:0:0:0:
418,183,132550,1,0,0:0:0:0:
418,183,132626,1,8,0:0:0:0:
399,183,132702,1,8,0:0:0:0:
418,183,132778,1,0,0:0:0:0:
450,199,132930,1,0,0:0:0:0:
462,186,133006,1,0,0:0:0:0:
412,195,133083,1,8,0:0:0:0:
399,183,133235,1,8,0:0:0:0:
437,183,133387,1,0,0:0:0:0:
437,183,133463,1,0,0:0:0:0:
418,183,133539,1,0,0:0:0:0:
437,183,133691,1,8,0:0:0:0:
437,183,133768,1,8,0:0:0:0:
455,179,133844,1,0,0:0:0:0:
471,170,133920,1,0,0:0:0:0:
437,183,133996,1,8,0:0:0:0:
471,170,134148,1,0,0:0:0:0:
437,183,134300,1,8,0:0:0:0:
421,164,134376,1,0,0:0:0:0:
472,172,134452,1,8,0:0:0:0:
455,179,134605,1,0,0:0:0:0:
437,183,134757,1,0,0:0:0:0:
439,165,134833,1,0,0:0:0:0:
455,179,134909,1,8,0:0:0:0:
439,165,135061,1,8,0:0:0:0:
439,165,135137,1,8,0:0:0:0:
437,183,135213,1,8,0:0:0:0:
437,183,135290,1,8,0:0:0:0:
472,172,135366,1,0,0:0:0:0:
455,179,135518,1,8,0:0:0:0:
421,164,135670,1,0,0:0:0:0:
421,164,135746,1,0,0:0:0:0:
402,160,135822,1,8,0:0:0:0:
402,160,135975,1,0,0:0:0:0:
421,164,136127,1,8,0:0:0:0:
421,164,136279,1,8,0:0:0:0:
385,152,136431,1,4,0:0:0:0:
459,155,136736,1,8,0:0:0:0:
432,188,136888,1,0,0:0:0:0:
466,191,136964,1,8,0:0:0:0:
484,196,137040,1,0,0:0:0:0:
421,164,137192,1,8,0:0:0:0:
421,164,137344,1,0,0:0:0:0:
466,191,137420,1,0,0:0:0:0:
450,187,137497,1,8,0:0:0:0:
421,164,137573,1,8,0:0:0:0:
450,187,137649,1,0,0:0:0:0:
450,187,137801,1,0,0:0:0:0:
450,187,137877,1,0,0:0:0:0:
432,188,137953,1,8,0:0:0:0:
450,187,138105,1,8,0:0:0:0:
484,171,138258,1,0,0:0:0:0:
484,171,138334,1,0,0:0:0:0:
484,171,138410,1,0,0:0:0:0:
484,171,138562,1,8,0:0:0:0:
432,188,138714,1,0,0:0:0:0:
400,204,138866,1,12,0:0:0:0:
450,187,139019,1,0,0:0:0:0:
440,156,139095,1,0,0:0:0:0:
400,204,139171,1,8,0:0:0:0:
432,188,139323,1,0,0:0:0:0:
432,188,139475,1,8,0:0:0:0:
396,180,139551,1,8,0:0:0:0:
400,204,139627,1,0,0:0:0:0:
396,180,139780,1,4,0:0:0:0:
440,156,139932,1,8,0:0:0:0:
364,160,140236,1,0,0:0:0:0:
396,180,140389,1,8,0:0:0:0:
472,192,140541,1,0,0:0:0:0:
416,184,140617,1,0,0:0:0:0:
432,192,140693,1,8,0:0:0:0:
436,188,140845,1,0,0:0:0:0:
436,188,140997,1,8,0:0:0:0:
436,188,141150,1,8,0:0:0:0:
425,177,141308,1,4,0:0:0:0:
436,184,141460,1,8,0:0:0:0:
416,184,141612,1,8,0:0:0:0:
448,164,141917,1,8,0:0:0:0:
436,188,142070,1,0,0:0:0:0:
436,188,142146,1,0,0:0:0:0:
396,204,142222,1,8,0:0:0:0:
432,192,142375,1,8,0:0:0:0:
408,172,142527,1,0,0:0:0:0:
444,180,142679,1,8,0:0:0:0:
408,172,142832,1,0,0:0:0:0:
444,180,143137,1,8,0:0:0:0:
472,204,143365,1,0,0:0:0:0:
472,184,143442,1,8,0:0:0:0:
472,184,143594,1,8,0:0:0:0:
444,180,143747,1,4,0:0:0:0:
372,160,144051,1,8,0:0:0:0:
372,160,144204,1,0,0:0:0:0:
472,184,144280,1,0,0:0:0:0:
424,176,144356,1,8,0:0:0:0:
444,144,144509,1,8,0:0:0:0:
424,176,144661,1,0,0:0:0:0:
393,198,144814,1,0,0:0:0:0:
393,198,144966,1,12,0:0:0:0:
424,212,145118,1,0,0:0:0:0:
472,184,145271,1,8,0:0:0:0:
472,184,145347,1,8,0:0:0:0:
444,180,145423,1,0,0:0:0:0:
444,180,145500,1,0,0:0:0:0:
424,176,145576,1,8,0:0:0:0:
424,176,145728,1,8,0:0:0:0:
408,168,145881,1,0,0:0:0:0:
428,200,146033,1,8,0:0:0:0:
412,192,146109,1,0,0:0:0:0:
396,184,146186,1,0,0:0:0:0:
444,180,146490,1,0,0:0:0:0:
408,168,146795,1,12,0:0:0:0:
392,236,147100,1,0,0:0:0:0:
400,204,147253,1,0,0:0:0:0:
468,208,147558,1,8,0:0:0:0:
440,192,147710,1,0,0:0:0:0:
500,164,148015,1,8,0:0:0:0:
432,176,148320,1,0,0:0:0:0:
404,160,148472,1,0,0:0:0:0:
432,176,148625,1,12,0:0:0:0:
456,180,150759,1,8,0:0:0:0:
456,180,151064,1,4,0:0:0:0:
504,168,151368,1,8,0:0:0:0:
504,168,151520,1,0,0:0:0:0:
504,168,151596,1,0,0:0:0:0:
484,164,151673,1,0,0:0:0:0:
504,168,151825,1,0,0:0:0:0:
484,164,151977,1,8,0:0:0:0:
484,164,152129,1,8,0:0:0:0:
484,164,152206,1,8,0:0:0:0:
468,164,152282,1,0,0:0:0:0:
468,164,152434,1,0,0:0:0:0:
468,164,152586,1,8,0:0:0:0:
432,172,152739,1,8,0:0:0:0:
416,172,152815,1,0,0:0:0:0:
432,172,152891,1,8,0:0:0:0:
432,172,153043,1,0,0:0:0:0:
452,144,153195,1,0,0:0:0:0:
432,172,153348,1,8,0:0:0:0:
396,164,153500,1,0,0:0:0:0:
468,180,153805,1,8,0:0:0:0:
432,172,153957,1,0,0:0:0:0:
432,172,154033,1,8,0:0:0:0:
496,160,154109,1,0,0:0:0:0:
496,160,154261,1,0,0:0:0:0:
460,168,154414,1,8,0:0:0:0:
432,172,154566,1,8,0:0:0:0:
432,172,154642,1,8,0:0:0:0:
396,168,154718,1,0,0:0:0:0:
396,168,154871,1,0,0:0:0:0:
428,184,155023,1,8,0:0:0:0:
496,160,155175,1,0,0:0:0:0:
432,172,155251,1,8,0:0:0:0:
460,168,155327,1,8,0:0:0:0:
468,184,155404,1,8,0:0:0:0:
432,172,155480,1,0,0:0:0:0:
432,172,155632,1,8,0:0:0:0:
432,172,155937,1,0,0:0:0:0:
460,168,156089,1,0,0:0:0:0:
460,168,156241,1,8,0:0:0:0:
468,184,156393,1,0,0:0:0:0:
456,172,156470,1,8,0:0:0:0:
432,172,156546,1,0,0:0:0:0:
432,172,156698,1,0,0:0:0:0:
432,172,156850,1,8,0:0:0:0:
432,172,157003,1,8,0:0:0:0:
460,168,157079,1,8,0:0:0:0:
460,168,157155,1,0,0:0:0:0:
460,168,157231,1,0,0:0:0:0:
460,148,157307,1,0,0:0:0:0:
488,168,157459,1,8,0:0:0:0:
452,164,157612,1,0,0:0:0:0:
452,164,157688,1,0,0:0:0:0:
432,172,157764,1,8,0:0:0:0:
432,172,157916,1,8,0:0:0:0:
396,168,158069,1,0,0:0:0:0:
460,200,158373,1,8,0:0:0:0:
428,184,158525,1,0,0:0:0:0:
432,172,158678,1,12,0:0:0:0:
432,172,158982,1,0,0:0:0:0:
432,172,159135,1,0,0:0:0:0:
468,164,159287,1,12,0:0:0:0:
420,112,159591,1,8,0:0:0:0:
432,172,159744,1,0,0:0:0:0:
432,172,159896,1,12,0:0:0:0:
468,164,160048,1,0,0:0:0:0:
468,164,160124,1,0,0:0:0:0:
432,172,160201,1,8,0:0:0:0:
432,172,160353,1,8,0:0:0:0:
432,172,160429,1,0,0:0:0:0:
432,172,160505,1,8,0:0:0:0:
432,172,160581,1,8,0:0:0:0:
432,172,160657,1,8,0:0:0:0:
432,172,160810,1,4,0:0:0:0:
468,164,161114,1,8,0:0:0:0:
468,164,161267,1,0,0:0:0:0:
432,160,161343,1,0,0:0:0:0:
468,164,161419,1,0,0:0:0:0:
468,164,161571,1,0,0:0:0:0:
432,160,161723,1,8,0:0:0:0:
432,160,161876,1,8,0:0:0:0:
432,160,161952,1,8,0:0:0:0:
468,164,162028,1,0,0:0:0:0:
468,164,162180,1,0,0:0:0:0:
432,160,162333,1,8,0:0:0:0:
468,164,162409,1,0,0:0:0:0:
468,164,162485,1,0,0:0:0:0:
468,164,162561,1,0,0:0:0:0:
468,164,162637,1,8,0:0:0:0:
432,160,162789,1,0,0:0:0:0:
432,160,162942,1,8,0:0:0:0:
476,104,163246,1,0,0:0:0:0:
452,132,163399,1,0,0:0:0:0:
448,168,163551,1,8,0:0:0:0:
484,172,163703,1,0,0:0:0:0:
448,168,163779,1,8,0:0:0:0:
448,168,163855,1,0,0:0:0:0:
420,188,164008,1,0,0:0:0:0:
448,168,164160,1,8,0:0:0:0:
448,168,164312,1,4,0:0:0:0:
448,168,164617,1,0,0:0:0:0:
484,172,164769,1,8,0:0:0:0:
484,172,164921,1,0,0:0:0:0:
484,172,164998,1,0,0:0:0:0:
484,172,165074,1,8,0:0:0:0:
448,168,165226,1,8,0:0:0:0:
413,177,165378,1,0,0:0:0:0:
448,168,165531,1,0,0:0:0:0:
468,197,165683,1,4,0:0:0:0:
464,125,165987,1,8,0:0:0:0:
468,197,166140,1,0,0:0:0:0:
468,197,166216,1,0,0:0:0:0:
468,197,166292,1,8,0:0:0:0:
436,180,166444,1,0,0:0:0:0:
471,173,166596,1,8,0:0:0:0:
471,173,166749,1,8,0:0:0:0:
456,184,166825,1,0,0:0:0:0:
436,180,166901,1,0,0:0:0:0:
468,197,167053,1,0,0:0:0:0:
471,173,167206,1,8,0:0:0:0:
449,201,167358,1,0,0:0:0:0:
436,180,167434,1,8,0:0:0:0:
453,180,167510,1,8,0:0:0:0:
420,165,167662,1,8,0:0:0:0:
420,165,167815,1,0,0:0:0:0:
398,133,168119,1,4,0:0:0:0:
471,173,168272,1,0,0:0:0:0:
453,180,168424,1,8,0:0:0:0:
399,176,168652,1,8,0:0:0:0:
399,176,168728,1,0,0:0:0:0:
471,173,168881,1,0,0:0:0:0:
452,142,169033,1,8,0:0:0:0:
453,180,169109,1,0,0:0:0:0:
435,177,169185,1,8,0:0:0:0:
417,174,169261,1,8,0:0:0:0:
399,176,169338,1,0,0:0:0:0:
471,173,169490,1,0,0:0:0:0:
471,173,169642,1,12,0:0:0:0:
453,175,169794,1,0,0:0:0:0:
453,175,169871,1,0,0:0:0:0:
507,173,169947,1,8,0:0:0:0:
507,173,170099,1,8,0:0:0:0:
471,173,170251,1,0,0:0:0:0:
490,165,170556,1,4,0:0:0:0:
453,175,170860,1,8,0:0:0:0:
378,100,171317,1,0,0:0:0:0:
453,175,171470,1,8,0:0:0:0:
360,126,171926,1,0,0:0:0:0:
382,173,172079,1,8,0:0:0:0:
453,175,172383,1,0,0:0:0:0:
450,160,172536,1,0,0:0:0:0:
380,173,172688,1,8,0:0:0:0:
446,195,172992,1,0,0:0:0:0:
404,138,173297,1,8,0:0:0:0:
469,219,173754,1,0,0:0:0:0:
394,171,173906,1,8,0:0:0:0:
466,175,174363,1,0,0:0:0:0:
466,175,174515,1,8,0:0:0:0:
429,176,174668,1,8,0:0:0:0:
490,240,174820,1,0,0:0:0:0:
429,176,174972,1,0,0:0:0:0:
429,176,175124,1,8,0:0:0:0:
466,175,175429,1,0,0:0:0:0:
466,175,175734,1,8,0:0:0:0:
369,133,176190,1,0,0:0:0:0:
459,35,176343,1,8,0:0:0:0:
435,137,176800,1,0,0:0:0:0:
445,174,176952,1,8,0:0:0:0:
472,238,177256,1,8,0:0:0:0:
410,169,177409,1,0,0:0:0:0:
445,174,177561,1,8,0:0:0:0:
498,166,177866,1,8,0:0:0:0:
393,159,178322,1,8,0:0:0:0:
493,188,178779,1,8,0:0:0:0:
388,181,179236,1,0,0:0:0:0:
493,188,179388,1,8,0:0:0:0:
423,182,179693,1,0,0:0:0:0:
423,182,179998,1,8,0:0:0:0:
489,204,180302,1,4,0:0:0:0:
423,182,180607,1,8,0:0:0:0:
499,254,181064,1,0,0:0:0:0:
489,204,181216,1,8,0:0:0:0:
458,197,181673,1,0,0:0:0:0:
458,197,181825,1,8,0:0:0:0:
431,176,182129,1,8,0:0:0:0:
401,157,182282,1,0,0:0:0:0:
431,176,182434,1,8,0:0:0:0:
431,176,182586,1,0,0:0:0:0:
431,176,182739,1,0,0:0:0:0:
500,168,183043,1,8,0:0:0:0:
395,162,183500,1,0,0:0:0:0:
429,164,183652,1,8,0:0:0:0:
507,233,184109,1,0,0:0:0:0:
429,164,184261,1,8,0:0:0:0:
429,164,184566,1,0,0:0:0:0:
429,164,184871,1,0,0:0:0:0:
434,233,185175,1,12,0:0:0:0:
442,163,185480,1,8,0:0:0:0:
373,242,185937,1,0,0:0:0:0:
427,302,186089,1,8,0:0:0:0:
442,163,186393,1,0,0:0:0:0:
506,190,186698,1,8,0:0:0:0:
437,177,187003,1,0,0:0:0:0:
471,174,187307,1,0,0:0:0:0:
416,177,187536,1,0,0:0:0:0:
437,177,187612,1,8,0:0:0:0:
471,174,187764,1,0,0:0:0:0:
471,174,187916,1,0,0:0:0:0:
437,177,188069,1,8,0:0:0:0:
471,174,188221,1,0,0:0:0:0:
471,174,188373,1,0,0:0:0:0:
437,177,188525,1,12,0:0:0:0:
437,177,188678,1,0,0:0:0:0:
437,177,188830,1,0,0:0:0:0:
437,177,188982,1,8,0:0:0:0:
437,177,189135,1,8,0:0:0:0:
471,174,189287,1,0,0:0:0:0:
471,174,189363,1,0,0:0:0:0:
437,177,189439,1,8,0:0:0:0:
437,177,189591,1,0,0:0:0:0:
471,174,189744,1,8,0:0:0:0:
504,183,189896,1,8,0:0:0:0:
471,170,190048,1,4,0:0:0:0:
428,221,190353,1,0,0:0:0:0:
451,196,190505,1,0,0:0:0:0:
471,174,190657,1,8,0:0:0:0:
471,170,190962,1,0,0:0:0:0:
438,179,191114,1,8,0:0:0:0:
471,174,191267,1,0,0:0:0:0:
471,174,191419,1,0,0:0:0:0:
471,174,191571,1,0,0:0:0:0:
471,170,191876,1,8,0:0:0:0:
439,229,192180,1,8,0:0:0:0:
505,236,192485,1,0,0:0:0:0:
454,191,192789,1,8,0:0:0:0:
421,200,192942,1,0,0:0:0:0:
454,191,193094,1,8,0:0:0:0:
454,191,193399,1,0,0:0:0:0:
454,191,193551,1,8,0:0:0:0:
423,177,193703,1,0,0:0:0:0:
454,191,193855,1,8,0:0:0:0:
454,191,194008,1,0,0:0:0:0:
420,192,194160,1,0,0:0:0:0:
425,251,194312,1,8,0:0:0:0:
426,183,194617,1,0,0:0:0:0:
454,191,194769,1,0,0:0:0:0:
441,159,194921,1,12,0:0:0:0:
486,177,195226,1,0,0:0:0:0:
454,191,195531,1,8,0:0:0:0:
465,256,195835,1,8,0:0:0:0:
459,222,195987,1,8,0:0:0:0:
454,191,196140,1,0,0:0:0:0:
454,191,196292,1,0,0:0:0:0:
447,158,196444,1,0,0:0:0:0:
414,166,196749,1,8,0:0:0:0:
447,158,197053,1,0,0:0:0:0:
447,158,197358,1,0,0:0:0:0:
474,177,197510,1,8,0:0:0:0:
448,196,197662,1,8,0:0:0:0:
474,177,197967,1,8,0:0:0:0:
460,208,198119,1,0,0:0:0:0:
407,168,198272,1,0,0:0:0:0:
474,177,198424,1,12,0:0:0:0:
407,168,198728,1,0,0:0:0:0:
390,169,198805,1,8,0:0:0:0:
406,170,198881,1,8,0:0:0:0:
430,193,199033,1,0,0:0:0:0:
474,177,199185,1,8,0:0:0:0:
474,177,199338,1,8,0:0:0:0:
474,177,199490,1,8,0:0:0:0:
474,177,199642,1,8,0:0:0:0:
474,177,199794,1,4,0:0:0:0:
432,212,200099,1,8,0:0:0:0:
463,228,200251,1,0,0:0:0:0:
464,168,200327,1,8,0:0:0:0:
448,172,200404,1,0,0:0:0:0:
412,184,200556,1,0,0:0:0:0:
448,176,200708,1,8,0:0:0:0:
448,172,200860,1,8,0:0:0:0:
448,172,200937,1,8,0:0:0:0:
412,184,201013,1,0,0:0:0:0:
448,176,201165,1,0,0:0:0:0:
448,172,201317,1,8,0:0:0:0:
448,172,201393,1,0,0:0:0:0:
412,184,201470,1,0,0:0:0:0:
428,184,201546,1,0,0:0:0:0:
428,184,201622,1,8,0:0:0:0:
455,207,201774,1,0,0:0:0:0:
412,184,201926,1,8,0:0:0:0:
416,188,202079,1,0,0:0:0:0:
412,184,202155,1,0,0:0:0:0:
428,184,202231,1,8,0:0:0:0:
455,207,202383,1,8,0:0:0:0:
360,158,202536,1,0,0:0:0:0:
448,172,202840,1,8,0:0:0:0:
416,188,202992,1,0,0:0:0:0:
416,188,203069,1,0,0:0:0:0:
448,172,203145,1,8,0:0:0:0:
416,188,203297,1,8,0:0:0:0:
451,181,203449,1,0,0:0:0:0:
486,175,203602,1,0,0:0:0:0:
448,172,203754,1,8,0:0:0:0:
416,188,203906,1,0,0:0:0:0:
404,176,203982,1,0,0:0:0:0:
416,188,204058,1,0,0:0:0:0:
416,188,204211,1,0,0:0:0:0:
424,204,204287,1,0,0:0:0:0:
380,186,204363,1,8,0:0:0:0:
416,188,204668,1,4,0:0:0:0:
424,160,204820,1,0,0:0:0:0:
440,192,204972,1,8,0:0:0:0:
452,184,205124,1,0,0:0:0:0:
452,184,205429,1,0,0:0:0:0:
436,180,205505,1,0,0:0:0:0:
452,184,205581,1,8,0:0:0:0:
424,160,205734,1,0,0:0:0:0:
452,180,205886,1,12,0:0:0:0:
452,184,206038,1,0,0:0:0:0:
420,168,206190,1,8,0:0:0:0:
472,164,206343,1,8,0:0:0:0:
472,164,206419,1,8,0:0:0:0:
436,180,206495,1,0,0:0:0:0:
452,192,206571,1,0,0:0:0:0:
452,184,206647,1,0,0:0:0:0:
456,172,206800,1,8,0:0:0:0:
456,172,206952,1,8,0:0:0:0:
456,172,207028,1,8,0:0:0:0:
488,176,207104,1,4,0:0:0:0:
416,168,207409,1,0,0:0:0:0:
456,228,207713,1,0,0:0:0:0:
456,228,207866,1,0,0:0:0:0:
456,228,208018,1,0,0:0:0:0:
460,192,208170,1,12,0:0:0:0:
460,192,208322,1,0,0:0:0:0:
460,192,208475,1,0,0:0:0:0:
460,192,208551,1,0,0:0:0:0:
476,188,208627,1,8,0:0:0:0:
512,180,208779,1,8,0:0:0:0:
512,180,208932,1,8,0:0:0:0:
512,180,209084,1,8,0:0:0:0:
512,180,209236,1,8,0:0:0:0:
512,180,209388,1,8,0:0:0:0:
435,176,209540,1,4,0:0:0:0:
476,172,209768,1,0,0:0:0:0:
476,172,209844,1,8,0:0:0:0:
476,172,209996,1,8,0:0:0:0:
476,172,210072,1,0,0:0:0:0:
476,172,210148,1,0,0:0:0:0:
456,172,210300,1,8,0:0:0:0:
476,172,210453,1,0,0:0:0:0:
452,200,210605,1,0,0:0:0:0:
476,172,210681,1,8,0:0:0:0:
456,172,210757,1,0,0:0:0:0:
456,172,210909,1,0,0:0:0:0:
456,172,210985,1,0,0:0:0:0:
440,168,211061,1,8,0:0:0:0:
476,172,211213,1,8,0:0:0:0:
476,172,211366,1,0,0:0:0:0:
476,172,211442,1,0,0:0:0:0:
476,172,211518,1,0,0:0:0:0:
476,172,211594,1,0,0:0:0:0:
476,172,211670,1,8,0:0:0:0:
440,176,211822,1,0,0:0:0:0:
456,172,211974,1,8,0:0:0:0:
440,176,212126,1,0,0:0:0:0:
440,176,212202,1,0,0:0:0:0:
440,176,212279,1,8,0:0:0:0:
440,176,212431,1,8,0:0:0:0:
408,160,212583,1,0,0:0:0:0:
444,172,212735,1,8,0:0:0:0:
440,176,212811,1,0,0:0:0:0:
460,176,212887,1,0,0:0:0:0:
480,176,212963,1,0,0:0:0:0:
460,176,213039,1,8,0:0:0:0:
460,176,213115,1,8,0:0:0:0:
480,176,213192,1,0,0:0:0:0:
460,176,213344,1,0,0:0:0:0:
460,176,213420,1,0,0:0:0:0:
460,176,213496,1,8,0:0:0:0:
460,176,213648,1,8,0:0:0:0:
460,176,213724,1,8,0:0:0:0:
460,176,213800,1,0,0:0:0:0:
460,176,213952,1,0,0:0:0:0:
480,176,214105,1,8,0:0:0:0:
460,208,214257,1,0,0:0:0:0:
428,188,214409,1,12,0:0:0:0:
428,188,214713,1,8,0:0:0:0:
428,188,214865,1,8,0:0:0:0:
460,176,214941,1,0,0:0:0:0:
428,188,215018,1,8,0:0:0:0:
464,180,215170,1,0,0:0:0:0:
404,180,215246,1,0,0:0:0:0:
460,176,215322,1,8,0:0:0:0:
404,180,215474,1,8,0:0:0:0:
428,188,215550,1,8,0:0:0:0:
460,176,215626,1,0,0:0:0:0:
428,188,215702,1,0,0:0:0:0:
440,172,215778,1,0,0:0:0:0:
428,188,215931,1,8,0:0:0:0:
440,172,216083,1,8,0:0:0:0:
440,172,216159,1,8,0:0:0:0:
428,188,216235,1,0,0:0:0:0:
428,188,216387,1,0,0:0:0:0:
460,176,216539,1,8,0:0:0:0:
428,188,216691,1,0,0:0:0:0:
428,188,216844,1,12,0:0:0:0:
484,204,216996,1,0,0:0:0:0:
448,200,217148,1,8,0:0:0:0:
426,164,217224,1,8,0:0:0:0:
448,200,217300,1,0,0:0:0:0:
448,200,217376,1,0,0:0:0:0:
432,192,217452,1,8,0:0:0:0:
424,176,217604,1,8,0:0:0:0:
424,176,217757,1,4,0:0:0:0:
424,176,217909,1,0,0:0:0:0:
460,176,218213,1,0,0:0:0:0:
496,184,218365,1,8,0:0:0:0:
496,184,218517,1,0,0:0:0:0:
496,184,218594,1,0,0:0:0:0:
496,184,218670,1,0,0:0:0:0:
496,184,218822,1,0,0:0:0:0:
480,216,218974,1,8,0:0:0:0:
460,176,219126,1,8,0:0:0:0:
489,188,219282,1,4,0:0:0:0:
392,192,219586,1,8,0:0:0:0:
428,184,219739,1,8,0:0:0:0:
440,196,219815,1,0,0:0:0:0:
496,184,219891,1,0,0:0:0:0:
496,184,220044,1,0,0:0:0:0:
464,168,220196,1,8,0:0:0:0:
440,196,220348,1,0,0:0:0:0:
460,188,220425,1,8,0:0:0:0:
440,184,220501,1,0,0:0:0:0:
428,184,220653,1,0,0:0:0:0:
428,184,220806,1,8,0:0:0:0:
396,164,220958,1,8,0:0:0:0:
428,184,221034,1,8,0:0:0:0:
428,184,221110,1,0,0:0:0:0:
472,204,221263,1,8,0:0:0:0:
460,188,221415,1,0,0:0:0:0:
428,184,221720,1,8,0:0:0:0:
460,188,221872,1,0,0:0:0:0:
460,188,222025,1,8,0:0:0:0:
460,188,222177,1,8,0:0:0:0:
460,188,222253,1,8,0:0:0:0:
460,188,222330,1,0,0:0:0:0:
460,188,222482,1,0,0:0:0:0:
460,188,222558,1,0,0:0:0:0:
460,188,222634,1,8,0:0:0:0:
460,188,222787,1,8,0:0:0:0:
444,156,222939,1,0,0:0:0:0:
444,156,223092,1,0,0:0:0:0:
460,188,223244,1,8,0:0:0:0:
444,156,223549,1,8,0:0:0:0:
444,156,223701,1,0,0:0:0:0:
444,156,223777,1,0,0:0:0:0:
424,160,223854,1,8,0:0:0:0:
388,168,224006,1,0,0:0:0:0:
420,184,224158,1,12,0:0:0:0:
492,172,224463,1,0,0:0:0:0:
456,172,224616,1,8,0:0:0:0:
456,172,224692,1,8,0:0:0:0:
456,172,224768,1,8,0:0:0:0:
420,176,224920,1,0,0:0:0:0:
420,176,225073,1,8,0:0:0:0:
456,172,225225,1,0,0:0:0:0:
456,172,225530,1,0,0:0:0:0:
420,176,225682,1,8,0:0:0:0:
420,176,225835,1,0,0:0:0:0:
412,140,225987,1,8,0:0:0:0:
428,152,226063,1,0,0:0:0:0:
412,140,226140,1,8,0:0:0:0:
412,140,226216,1,8,0:0:0:0:
428,152,226292,1,0,0:0:0:0:
476,172,226444,1,8,0:0:0:0:
428,152,226597,1,4,0:0:0:0:
436,188,226749,1,0,0:0:0:0:
436,188,226902,1,8,0:0:0:0:
476,172,227206,1,0,0:0:0:0:
476,172,227359,1,8,0:0:0:0:
440,168,227435,1,8,0:0:0:0:
476,172,227511,1,0,0:0:0:0:
440,168,227664,1,8,0:0:0:0:
440,168,227816,1,4,0:0:0:0:
476,172,228045,1,0,0:0:0:0:
440,168,228121,1,8,0:0:0:0:
440,168,228197,1,8,0:0:0:0:
440,168,228273,1,0,0:0:0:0:
440,168,228426,1,8,0:0:0:0:
440,168,228502,1,0,0:0:0:0:
440,168,228578,1,0,0:0:0:0:
440,168,228654,1,0,0:0:0:0:
440,168,228730,1,8,0:0:0:0:
440,168,228807,1,8,0:0:0:0:
424,176,228883,1,0,0:0:0:0:
461,232,229033,1,12,0:0:0:0:
426,198,229261,1,0,0:0:0:0:
408,192,229337,1,8,0:0:0:0:
372,180,229489,1,8,0:0:0:0:
372,180,229565,1,0,0:0:0:0:
408,192,229641,1,0,0:0:0:0:
400,155,229793,1,8,0:0:0:0:
422,184,229946,1,0,0:0:0:0:
422,184,230022,1,0,0:0:0:0:
400,155,230098,1,8,0:0:0:0:
400,155,230174,1,8,0:0:0:0:
412,168,230250,1,0,0:0:0:0:
408,192,230402,1,0,0:0:0:0:
408,192,230478,1,0,0:0:0:0:
422,184,230554,1,8,0:0:0:0:
385,174,230706,1,8,0:0:0:0:
385,174,230859,1,0,0:0:0:0:
385,174,230935,1,0,0:0:0:0:
385,174,231011,1,0,0:0:0:0:
385,174,231087,1,0,0:0:0:0:
385,174,231163,1,8,0:0:0:0:
385,174,231315,1,0,0:0:0:0:
421,167,231467,1,8,0:0:0:0:
439,164,231543,1,8,0:0:0:0:
420,163,231619,1,0,0:0:0:0:
439,164,231772,1,8,0:0:0:0:
421,171,231848,1,0,0:0:0:0:
385,174,231924,1,8,0:0:0:0:
385,174,232000,1,8,0:0:0:0:
385,174,232076,1,0,0:0:0:0:
385,174,232228,1,0,0:0:0:0:
455,174,232304,1,0,0:0:0:0:
421,167,232380,1,8,0:0:0:0:
420,163,232532,1,8,0:0:0:0:
455,174,232685,1,0,0:0:0:0:
436,176,232761,1,0,0:0:0:0:
417,179,232837,1,8,0:0:0:0:
455,174,232913,1,0,0:0:0:0:
385,174,232989,1,8,0:0:0:0:
385,174,233141,1,8,0:0:0:0:
421,167,233217,1,8,0:0:0:0:
385,174,233293,1,0,0:0:0:0:
421,167,233445,1,0,0:0:0:0:
421,167,233598,1,8,0:0:0:0:
417,179,233750,1,8,0:0:0:0:
421,167,233902,1,4,0:0:0:0:
458,163,234054,1,0,0:0:0:0:
458,163,234130,1,0,0:0:0:0:
458,163,234206,1,8,0:0:0:0:
458,163,234358,1,8,0:0:0:0:
439,165,234511,1,0,0:0:0:0:
469,185,234663,1,8,0:0:0:0:
450,181,234739,1,0,0:0:0:0:
431,178,234815,1,0,0:0:0:0:
424,195,234891,1,0,0:0:0:0:
439,165,234967,1,8,0:0:0:0:
420,161,235043,1,8,0:0:0:0:
420,161,235119,1,0,0:0:0:0:
439,165,235271,1,0,0:0:0:0:
439,165,235347,1,0,0:0:0:0:
469,185,235424,1,8,0:0:0:0:
497,160,235576,1,8,0:0:0:0:
458,163,235728,1,0,0:0:0:0:
458,163,235804,1,0,0:0:0:0:
458,163,235880,1,0,0:0:0:0:
469,185,236032,1,8,0:0:0:0:
437,204,236184,1,0,0:0:0:0:
469,185,236337,1,12,0:0:0:0:
458,163,236489,1,0,0:0:0:0:
458,163,236565,1,0,0:0:0:0:
439,165,236641,1,8,0:0:0:0:
402,171,236793,1,8,0:0:0:0:
458,163,236869,1,0,0:0:0:0:
437,181,236945,1,8,0:0:0:0:
402,171,237021,1,8,0:0:0:0:
383,170,237097,1,0,0:0:0:0:
402,171,237250,1,4,0:0:0:0:
418,204,237402,1,8,0:0:0:0:
453,116,237706,1,0,0:0:0:0:
434,148,237858,1,8,0:0:0:0:
416,180,238010,1,8,0:0:0:0:
398,173,238087,1,0,0:0:0:0:
380,167,238163,1,0,0:0:0:0:
344,156,238315,1,0,0:0:0:0:
416,180,238467,1,8,0:0:0:0:
448,161,238619,1,8,0:0:0:0:
398,173,238773,1,4,0:0:0:0:
361,163,238925,1,8,0:0:0:0:
398,173,239077,1,8,0:0:0:0:
398,173,239382,1,8,0:0:0:0:
429,152,239535,1,0,0:0:0:0:
398,173,239687,1,8,0:0:0:0:
448,161,239839,1,0,0:0:0:0:
448,161,239916,1,8,0:0:0:0:
411,168,239992,1,8,0:0:0:0:
411,168,240144,1,8,0:0:0:0:
448,161,240297,1,0,0:0:0:0:
446,177,240601,1,0,0:0:0:0:
446,177,240678,1,0,0:0:0:0:
446,177,240754,1,0,0:0:0:0:
482,168,240906,1,8,0:0:0:0:
444,168,241059,1,8,0:0:0:0:
410,152,241211,1,4,0:0:0:0:
420,188,241363,1,0,0:0:0:0:
482,168,241516,1,8,0:0:0:0:
446,177,241744,1,8,0:0:0:0:
444,168,241821,1,0,0:0:0:0:
428,156,241973,1,0,0:0:0:0:
423,166,242049,1,0,0:0:0:0:
446,177,242125,1,8,0:0:0:0:
446,177,242278,1,8,0:0:0:0:
460,158,242430,1,4,0:0:0:0:
423,166,242583,1,0,0:0:0:0:
446,177,242735,1,8,0:0:0:0:
427,175,242811,1,8,0:0:0:0:
446,177,242887,1,0,0:0:0:0:
446,177,242964,1,0,0:0:0:0:
427,175,243040,1,8,0:0:0:0:
464,185,243192,1,0,0:0:0:0:
428,188,243345,1,8,0:0:0:0:
428,181,243497,1,8,0:0:0:0:
446,182,243573,1,0,0:0:0:0:
464,185,243649,1,0,0:0:0:0:
400,164,243954,1,0,0:0:0:0:
400,164,244107,1,0,0:0:0:0:
368,160,244259,1,12,0:0:0:0:
424,200,244564,1,0,0:0:0:0:
400,164,244716,1,0,0:0:0:0:
468,148,245021,1,8,0:0:0:0:
400,164,245173,1,0,0:0:0:0:
464,140,245478,1,8,0:0:0:0:
400,160,245783,1,0,0:0:0:0:
404,172,245935,1,8,0:0:0:0:
436,184,246088,1,4,0:0:0:0:
380,224,246393,1,0,0:0:0:0:
460,164,246697,1,0,0:0:0:0:
460,164,247002,1,0,0:0:0:0:
392,180,247307,1,12,0:0:0:0:
440,160,247536,1,0,0:0:0:0:
460,164,247612,1,8,0:0:0:0:
460,164,247764,1,8,0:0:0:0:
444,168,247840,1,0,0:0:0:0:
428,172,247917,1,0,0:0:0:0:
428,172,248069,1,0,0:0:0:0:
440,160,248221,1,8,0:0:0:0:
440,160,248374,1,8,0:0:0:0:
407,214,248526,1,4,0:0:0:0:
344,132,248830,1,0,0:0:0:0:
376,144,248982,1,0,0:0:0:0:
408,160,249135,1,8,0:0:0:0:
436,184,249287,1,0,0:0:0:0:
468,172,249439,1,4,0:0:0:0:
468,172,249744,1,0,0:0:0:0:
436,184,249896,1,8,0:0:0:0:
436,184,250201,1,8,0:0:0:0:
460,160,250353,1,0,0:0:0:0:
460,160,250505,1,0,0:0:0:0:
460,160,250657,1,8,0:0:0:0:
460,160,250810,1,8,0:0:0:0:
460,160,250886,1,8,0:0:0:0:
444,164,250962,1,0,0:0:0:0:
476,100,251267,1,0,0:0:0:0:
460,132,251419,1,0,0:0:0:0:
484,160,251571,1,8,0:0:0:0:
484,160,251723,1,8,0:0:0:0:
444,164,251876,1,4,0:0:0:0:
376,160,252180,1,0,0:0:0:0:
468,172,252333,1,8,0:0:0:0:
468,172,252485,1,0,0:0:0:0:
468,172,252637,1,0,0:0:0:0:
468,172,252789,1,8,0:0:0:0:
468,172,252942,1,8,0:0:0:0:
376,160,253094,1,0,0:0:0:0:
432,172,253246,1,8,0:0:0:0:
432,172,253322,1,8,0:0:0:0:
416,172,253399,1,0,0:0:0:0:
468,172,253703,1,0,0:0:0:0:
468,172,253855,1,0,0:0:0:0:
468,172,254008,1,8,0:0:0:0:
432,176,254160,1,0,0:0:0:0:
396,172,254312,1,4,0:0:0:0:
464,200,254617,1,0,0:0:0:0:
432,176,254769,1,0,0:0:0:0:
464,200,254921,1,12,0:0:0:0:
396,172,255074,1,0,0:0:0:0:
432,176,255226,1,8,0:0:0:0:
432,176,255378,1,8,0:0:0:0:
396,172,255531,1,4,0:0:0:0:
448,176,255835,1,8,0:0:0:0:
376,168,256140,1,0,0:0:0:0:
448,164,256444,1,0,0:0:0:0:
484,112,256749,1,12,0:0:0:0:
448,164,257155,1,0,0:0:0:0:
448,164,257256,1,0,0:0:0:0:
424,180,257358,1,8,0:0:0:0:
448,164,257460,1,0,0:0:0:0:
448,164,257561,1,0,0:0:0:0:
472,168,257663,1,8,0:0:0:0:
472,168,257764,1,8,0:0:0:0:
472,168,257866,1,8,0:0:0:0:
448,164,257967,1,0,0:0:0:0:
456,184,258069,1,0,0:0:0:0:
456,184,258170,1,0,0:0:0:0:
436,172,258272,1,12,0:0:0:0:
456,184,258424,1,0,0:0:0:0:
448,164,258729,1,8,0:0:0:0:
456,184,258881,1,8,0:0:0:0:
420,180,259033,1,0,0:0:0:0:
436,172,259185,1,12,0:0:0:0:
448,164,259642,1,0,0:0:0:0:
428,160,259795,1,8,0:0:0:0:
428,160,259947,1,0,0:0:0:0:
420,176,260023,1,0,0:0:0:0:
464,164,260099,1,8,0:0:0:0:
448,164,260251,1,0,0:0:0:0:
440,216,260556,1,0,0:0:0:0:
408,236,260708,1,12,0:0:0:0:
468,200,261013,1,8,0:0:0:0:
436,184,261165,1,0,0:0:0:0:
400,184,261317,1,8,0:0:0:0:
400,184,261470,1,8,0:0:0:0:
468,200,261622,1,4,0:0:0:0:
372,148,262079,1,0,0:0:0:0:
388,156,262155,1,0,0:0:0:0:
404,156,262231,1,8,0:0:0:0:
388,156,262383,1,0,0:0:0:0:
388,156,262536,1,8,0:0:0:0:
420,172,262688,1,8,0:0:0:0:
420,172,262840,1,0,0:0:0:0:
420,172,262916,1,0,0:0:0:0:
420,172,262993,1,0,0:0:0:0:
456,180,263145,1,12,0:0:0:0:
456,180,263449,1,8,0:0:0:0:
456,180,263602,1,0,0:0:0:0:
456,180,263906,1,0,0:0:0:0:
456,180,263982,1,0,0:0:0:0:
456,180,264058,1,8,0:0:0:0:
456,180,264515,1,0,0:0:0:0:
456,180,264668,1,8,0:0:0:0:
424,168,264820,1,8,0:0:0:0:
424,168,264972,1,0,0:0:0:0:
424,168,265124,1,0,0:0:0:0:
456,180,265277,1,8,0:0:0:0:
399,131,265581,1,8,0:0:0:0:
424,216,265683,1,0,0:0:0:0:
424,216,265784,1,0,0:0:0:0:
399,131,265886,1,8,0:0:0:0:
480,184,265987,1,0,0:0:0:0:
480,184,266089,1,0,0:0:0:0:
432,184,266190,1,8,0:0:0:0:
432,184,266292,1,8,0:0:0:0:
449,166,266394,1,0,0:0:0:0:
456,180,266495,1,8,0:0:0:0:
456,180,266597,1,8,0:0:0:0:
449,166,266698,1,0,0:0:0:0:
413,168,266800,1,12,0:0:0:0:
432,176,267104,1,8,0:0:0:0:
432,176,267256,1,8,0:0:0:0:
432,176,267409,1,8,0:0:0:0:
432,176,267561,1,8,0:0:0:0:
432,176,267713,1,8,0:0:0:0:
467,184,267866,1,8,0:0:0:0:
467,184,267942,1,8,0:0:0:0:
436,196,268018,1,4,0:0:0:0:
432,184,268322,1,0,0:0:0:0:
432,184,268627,1,0,0:0:0:0:
467,184,268932,1,0,0:0:0:0:
467,184,269236,1,0,0:0:0:0:
432,184,269541,1,0,0:0:0:0:
472,242,269845,1,0,0:0:0:0:
418,194,270150,1,0,0:0:0:0:
465,202,270302,1,8,0:0:0:0:
432,188,270454,1,4,0:0:0:0:
481,171,270759,1,0,0:0:0:0:
481,171,271064,1,0,0:0:0:0:
409,174,271368,1,8,0:0:0:0:
481,171,271520,1,8,0:0:0:0:
481,171,271673,1,0,0:0:0:0:
502,165,271977,1,0,0:0:0:0:
470,181,272130,1,8,0:0:0:0:
446,177,272586,1,8,0:0:0:0:
410,183,272739,1,8,0:0:0:0:
485,196,272891,1,4,0:0:0:0:
446,177,273196,1,0,0:0:0:0:
485,196,273500,1,0,0:0:0:0:
485,196,273805,1,0,0:0:0:0:
423,159,273957,1,0,0:0:0:0:
441,174,274109,1,12,0:0:0:0:
485,196,274414,1,0,0:0:0:0:
485,196,274718,1,0,0:0:0:0:
440,167,275023,1,8,0:0:0:0:
448,196,275328,1,4,0:0:0:0:
502,198,275632,1,0,0:0:0:0:
485,196,275784,1,8,0:0:0:0:
473,181,276089,1,0,0:0:0:0:
473,181,276241,1,0,0:0:0:0:
437,184,276394,1,8,0:0:0:0:
485,196,276698,1,12,0:0:0:0:
461,223,276850,1,0,0:0:0:0:
461,223,276927,1,0,0:0:0:0:
437,184,277003,1,8,0:0:0:0:
473,181,277079,1,0,0:0:0:0:
473,181,277155,1,8,0:0:0:0:
473,181,277307,1,8,0:0:0:0:
455,183,277383,1,8,0:0:0:0:
455,183,277460,1,8,0:0:0:0:
437,184,277536,1,8,0:0:0:0:
473,181,277612,1,0,0:0:0:0:
507,171,277764,1,4,0:0:0:0:
507,171,278069,1,8,0:0:0:0:
473,181,278221,1,0,0:0:0:0:
447,155,278373,1,8,0:0:0:0:
437,184,278526,1,0,0:0:0:0:
437,184,278602,1,0,0:0:0:0:
455,183,278678,1,8,0:0:0:0:
473,181,278830,1,8,0:0:0:0:
473,181,278906,1,0,0:0:0:0:
473,181,278982,1,8,0:0:0:0:
473,181,279135,1,0,0:0:0:0:
473,181,279287,1,8,0:0:0:0:
450,153,279439,1,0,0:0:0:0:
450,153,279515,1,0,0:0:0:0:
437,184,279591,1,8,0:0:0:0:
473,181,279744,1,0,0:0:0:0:
437,184,279896,1,8,0:0:0:0:
431,155,280124,1,0,0:0:0:0:
452,175,280201,1,8,0:0:0:0:
452,175,280353,1,0,0:0:0:0:
450,153,280505,1,8,0:0:0:0:
437,184,280581,1,8,0:0:0:0:
473,181,280657,1,0,0:0:0:0:
456,174,280734,1,0,0:0:0:0:
452,175,280810,1,8,0:0:0:0:
474,147,280962,1,0,0:0:0:0:
473,181,281114,1,8,0:0:0:0:
473,181,281190,1,0,0:0:0:0:
473,181,281267,1,8,0:0:0:0:
455,179,281343,1,8,0:0:0:0:
473,181,281419,1,0,0:0:0:0:
473,181,281571,1,0,0:0:0:0:
449,154,281723,1,8,0:0:0:0:
483,163,281876,1,0,0:0:0:0:
483,163,281952,1,0,0:0:0:0:
500,167,282028,1,8,0:0:0:0:
473,181,282180,1,0,0:0:0:0:
449,154,282333,1,8,0:0:0:0:
449,154,282485,1,8,0:0:0:0:
449,154,282637,1,4,0:0:0:0:
505,197,282942,1,0,0:0:0:0:
472,182,283094,1,0,0:0:0:0:
436,176,283246,1,12,0:0:0:0:
507,176,283551,1,0,0:0:0:0:
471,173,283703,1,0,0:0:0:0:
436,176,284008,1,8,0:0:0:0:
507,176,284160,1,0,0:0:0:0:
507,176,284465,1,8,0:0:0:0:
471,171,284617,1,8,0:0:0:0:
471,171,284769,1,0,0:0:0:0:
471,171,284921,1,8,0:0:0:0:
471,171,285074,1,4,0:0:0:0:
471,171,285683,1,8,0:0:0:0:
471,171,285987,1,8,0:0:0:0:
471,171,286292,1,8,0:0:0:0:
471,171,286597,1,8,0:0:0:0:
407,202,286901,1,8,0:0:0:0:
346,156,287206,1,8,0:0:0:0:
388,168,287510,1,12,0:0:0:0:
256,192,287663,12,0,289947,0:0:0:0:
401,214,299086,5,8,0:0:0:0:
426,184,299695,1,4,0:0:0:0:
400,170,300304,1,8,0:0:0:0:
417,133,300913,1,0,0:0:0:0:
417,133,301218,1,0,0:0:0:0:
445,188,301522,1,8,0:0:0:0:
396,193,301979,1,8,0:0:0:0:
407,215,302131,1,0,0:0:0:0:
477,250,302740,1,8,0:0:0:0:
481,167,303350,1,0,0:0:0:0:
481,167,303654,1,0,0:0:0:0:
458,186,303953,1,8,0:0:0:0:
439,192,304101,1,0,0:0:0:0:
441,181,304250,1,8,0:0:0:0:
440,181,304398,1,8,0:0:0:0:
357,187,304547,1,4,0:0:0:0:
426,169,304871,1,0,0:0:0:0:
426,169,305176,1,8,0:0:0:0:
426,169,305480,1,8,0:0:0:0:
426,169,305785,1,8,0:0:0:0:
426,169,306089,1,8,0:0:0:0:
426,169,306394,1,8,0:0:0:0:
452,232,306698,1,8,0:0:0:0:
424,120,308069,1,0,0:0:0:0:
424,120,308145,1,0,0:0:0:0:
420,136,308221,1,8,0:0:0:0:
432,168,308374,1,0,0:0:0:0:
432,168,308526,1,0,0:0:0:0:
464,184,308678,1,8,0:0:0:0:
432,168,308754,1,8,0:0:0:0:
488,208,308830,1,0,0:0:0:0:
488,208,308907,1,0,0:0:0:0:
488,208,308983,1,0,0:0:0:0:
488,208,309059,1,0,0:0:0:0:
464,184,309135,1,8,0:0:0:0:
395,201,309440,1,4,0:0:0:0:
432,168,309744,1,0,0:0:0:0:
432,168,309896,1,0,0:0:0:0:
432,168,310049,1,8,0:0:0:0:
372,141,310353,1,0,0:0:0:0:
401,155,310506,1,0,0:0:0:0:
413,219,310810,1,8,0:0:0:0:
474,219,310962,1,0,0:0:0:0:
415,188,311115,1,0,0:0:0:0:
415,188,311267,1,8,0:0:0:0:
436,198,311572,1,8,0:0:0:0:
462,178,311724,1,8,0:0:0:0:
436,198,311876,1,4,0:0:0:0:
462,178,312181,1,0,0:0:0:0:
507,231,312333,1,8,0:0:0:0:
489,167,312638,1,0,0:0:0:0:
498,198,312790,1,0,0:0:0:0:
462,178,312942,1,12,0:0:0:0:
445,201,313247,1,0,0:0:0:0:
462,178,313399,1,0,0:0:0:0:
397,187,313704,1,8,0:0:0:0:
420,178,314008,1,0,0:0:0:0:
445,201,314160,1,8,0:0:0:0:
420,178,314313,1,4,0:0:0:0:
485,183,314617,1,0,0:0:0:0:
463,158,314770,1,0,0:0:0:0:
452,186,314922,1,8,0:0:0:0:
452,186,315074,1,8,0:0:0:0:
450,218,315226,1,0,0:0:0:0:
388,167,315379,1,8,0:0:0:0:
388,167,315683,1,8,0:0:0:0:
420,164,315836,1,0,0:0:0:0:
450,218,315988,1,0,0:0:0:0:
420,166,316140,1,8,0:0:0:0:
420,164,316445,1,0,0:0:0:0:
484,170,316749,1,4,0:0:0:0:
433,128,317054,1,0,0:0:0:0:
481,171,317358,1,0,0:0:0:0:
415,162,317663,1,12,0:0:0:0:
466,245,318120,1,0,0:0:0:0:
448,186,318272,1,0,0:0:0:0:
415,162,318577,1,8,0:0:0:0:
448,186,318729,1,0,0:0:0:0:
415,162,318881,1,8,0:0:0:0:
448,186,319186,1,0,0:0:0:0:
448,186,319338,1,0,0:0:0:0:
448,186,319490,1,0,0:0:0:0:
448,186,319643,1,0,0:0:0:0:
448,186,319795,1,12,0:0:0:0:
407,133,320099,1,0,0:0:0:0:
427,159,320252,1,0,0:0:0:0:
371,193,320556,1,8,0:0:0:0:
427,159,320709,1,0,0:0:0:0:
427,159,321013,1,8,0:0:0:0:
427,159,321318,1,0,0:0:0:0:
453,178,321470,1,8,0:0:0:0:
453,178,321622,1,4,0:0:0:0:
427,159,321927,1,8,0:0:0:0:
427,159,322079,1,8,0:0:0:0:
427,159,322231,1,0,0:0:0:0:
427,159,322384,1,0,0:0:0:0:
395,168,322536,1,12,0:0:0:0:
486,207,322993,1,0,0:0:0:0:
427,159,323145,1,8,0:0:0:0:
395,176,323450,1,8,0:0:0:0:
456,200,323754,1,0,0:0:0:0:
395,176,324059,1,12,0:0:0:0:
469,180,324668,1,8,0:0:0:0:
403,185,324973,1,0,0:0:0:0:
465,165,325277,1,8,0:0:0:0:
414,207,325582,1,0,0:0:0:0:
468,170,325886,1,8,0:0:0:0:
402,170,326191,1,0,0:0:0:0:
465,188,326495,1,4,0:0:0:0:
352,184,329541,1,8,0:0:0:0:
438,300,330150,1,4,0:0:0:0:
443,263,330303,1,8,0:0:0:0:
445,245,330379,1,8,0:0:0:0:
447,227,330455,1,8,0:0:0:0:
424,198,330607,1,0,0:0:0:0:
432,184,330683,1,0,0:0:0:0:
424,198,330759,1,8,0:0:0:0:
441,193,330836,1,0,0:0:0:0:
456,184,330912,1,8,0:0:0:0:
472,176,330988,1,8,0:0:0:0:
456,184,331064,1,0,0:0:0:0:
424,198,331140,1,0,0:0:0:0:
456,184,331216,1,8,0:0:0:0:
456,184,331369,1,4,0:0:0:0:
432,184,331672,1,8,0:0:0:0:
456,184,331824,1,0,0:0:0:0:
456,184,331900,1,0,0:0:0:0:
456,184,331977,1,0,0:0:0:0:
456,184,332129,1,0,0:0:0:0:
456,184,332281,1,8,0:0:0:0:
456,184,332433,1,8,0:0:0:0:
464,200,332510,1,8,0:0:0:0:
456,184,332586,1,0,0:0:0:0:
456,184,332738,1,0,0:0:0:0:
456,184,332890,1,8,0:0:0:0:
420,172,333043,1,0,0:0:0:0:
420,172,333119,1,0,0:0:0:0:
456,184,333195,1,8,0:0:0:0:
456,184,333271,1,0,0:0:0:0:
456,184,333347,1,8,0:0:0:0:
464,200,333499,1,0,0:0:0:0:
420,172,333804,1,8,0:0:0:0:
456,184,333956,1,0,0:0:0:0:
456,184,334109,1,8,0:0:0:0:
456,184,334261,1,0,0:0:0:0:
456,184,334337,1,0,0:0:0:0:
456,184,334413,1,0,0:0:0:0:
456,184,334565,1,0,0:0:0:0:
488,168,334718,1,8,0:0:0:0:
468,168,334794,1,8,0:0:0:0:
448,168,334870,1,0,0:0:0:0:
432,172,334946,1,0,0:0:0:0:
456,184,335022,1,8,0:0:0:0:
468,168,335175,1,0,0:0:0:0:
456,184,335327,1,8,0:0:0:0:
456,184,335479,1,0,0:0:0:0:
456,184,335555,1,0,0:0:0:0:
456,184,335631,1,8,0:0:0:0:
456,184,335708,1,0,0:0:0:0:
448,168,335784,1,0,0:0:0:0:
448,168,335860,1,0,0:0:0:0:
432,172,335936,1,8,0:0:0:0:
432,172,336088,1,8,0:0:0:0:
456,184,336241,1,0,0:0:0:0:
384,176,336545,1,8,0:0:0:0:
432,172,336697,1,0,0:0:0:0:
432,172,336774,1,0,0:0:0:0:
448,168,336850,1,0,0:0:0:0:
436,204,337002,1,0,0:0:0:0:
384,176,337078,1,0,0:0:0:0:
432,172,337154,1,8,0:0:0:0:
467,179,337307,1,8,0:0:0:0:
432,172,337459,1,0,0:0:0:0:
448,168,337611,1,0,0:0:0:0:
432,172,337763,1,8,0:0:0:0:
436,204,337916,1,0,0:0:0:0:
432,172,337992,1,0,0:0:0:0:
384,176,338068,1,0,0:0:0:0:
432,172,338220,1,0,0:0:0:0:
432,172,338373,1,8,0:0:0:0:
414,176,338449,1,0,0:0:0:0:
432,172,338525,1,8,0:0:0:0:
432,172,338601,1,8,0:0:0:0:
414,176,338677,1,0,0:0:0:0:
414,176,338829,1,0,0:0:0:0:
431,208,338982,1,12,0:0:0:0:
432,172,339286,1,8,0:0:0:0:
414,176,339439,1,0,0:0:0:0:
432,172,339591,1,8,0:0:0:0:
450,174,339743,1,8,0:0:0:0:
450,174,339819,1,8,0:0:0:0:
432,172,339895,1,0,0:0:0:0:
450,174,340048,1,0,0:0:0:0:
432,172,340200,1,12,0:0:0:0:
414,176,340352,1,0,0:0:0:0:
437,204,340505,1,4,0:0:0:0:
437,204,340657,1,0,0:0:0:0:
419,200,340733,1,0,0:0:0:0:
450,174,340809,1,8,0:0:0:0:
468,173,340885,1,0,0:0:0:0:
450,174,340961,1,8,0:0:0:0:
464,188,341114,1,4,0:0:0:0:
393,170,341418,1,8,0:0:0:0:
450,174,341571,1,0,0:0:0:0:
393,170,341647,1,8,0:0:0:0:
450,174,341723,1,0,0:0:0:0:
450,174,341875,1,0,0:0:0:0:
450,174,342027,1,8,0:0:0:0:
450,174,342180,1,0,0:0:0:0:
450,174,342256,1,0,0:0:0:0:
431,174,342332,1,8,0:0:0:0:
450,174,342408,1,8,0:0:0:0:
450,174,342484,1,0,0:0:0:0:
414,165,342637,1,8,0:0:0:0:
450,163,342789,1,0,0:0:0:0:
450,174,342941,1,8,0:0:0:0:
431,174,343017,1,0,0:0:0:0:
431,174,343093,1,0,0:0:0:0:
431,174,343170,1,0,0:0:0:0:
412,174,343246,1,8,0:0:0:0:
415,210,343398,1,0,0:0:0:0:
431,174,343550,1,0,0:0:0:0:
450,174,343855,1,8,0:0:0:0:
485,168,344007,1,0,0:0:0:0:
485,168,344159,1,0,0:0:0:0:
472,181,344236,1,0,0:0:0:0:
459,194,344312,1,0,0:0:0:0:
485,168,344464,1,8,0:0:0:0:
485,168,344616,1,4,0:0:0:0:
412,157,344921,1,0,0:0:0:0:
401,191,345073,1,8,0:0:0:0:
386,157,345225,1,0,0:0:0:0:
386,157,345378,1,12,0:0:0:0:
433,170,345530,1,0,0:0:0:0:
415,164,345606,1,0,0:0:0:0:
434,177,345682,1,8,0:0:0:0:
434,177,345835,1,0,0:0:0:0:
433,170,345987,1,4,0:0:0:0:
504,184,346291,1,8,0:0:0:0:
504,184,346596,1,0,0:0:0:0:
504,184,346748,1,0,0:0:0:0:
433,170,346900,1,8,0:0:0:0:
433,170,347053,1,0,0:0:0:0:
469,168,347205,1,4,0:0:0:0:
433,170,347357,1,0,0:0:0:0:
504,184,347510,1,8,0:0:0:0:
433,170,347662,1,0,0:0:0:0:
447,180,347738,1,0,0:0:0:0:
469,168,347814,1,8,0:0:0:0:
455,154,347966,1,8,0:0:0:0:
469,168,348119,1,0,0:0:0:0:
483,186,348423,1,12,0:0:0:0:
447,180,348728,1,0,0:0:0:0:
447,180,348880,1,8,0:0:0:0:
447,180,349032,1,0,0:0:0:0:
447,180,349185,1,0,0:0:0:0:
483,186,349337,1,8,0:0:0:0:
489,150,349489,1,12,0:0:0:0:
483,186,349642,1,0,0:0:0:0:
483,186,349794,1,0,0:0:0:0:
483,186,349946,1,12,0:0:0:0:
447,180,350098,1,0,0:0:0:0:
447,180,350175,1,0,0:0:0:0:
447,180,350251,1,8,0:0:0:0:
447,180,350403,1,8,0:0:0:0:
447,180,350555,1,8,0:0:0:0:
447,180,350708,1,8,0:0:0:0:
218,213,351621,1,4,0:0:0:0:
256,192,351774,12,0,359236,0:0:0:0:
