osu file format v14

[General]
AudioFilename: audio.mp3
AudioLeadIn: 0
PreviewTime:59649
Countdown: 0
SampleSet: Soft
StackLeniency: 0.7
Mode: 0
LetterboxInBreaks: 0
WidescreenStoryboard: 1

[Editor]
Bookmarks:85098
DistanceSpacing: 1
BeatDivisor: 4
GridSize: 4
TimelineZoom: 1.3

[Metadata]
Title:STARTRAiN
TitleUnicode:STARTRAiN
Artist:Amatsuki
ArtistUnicode:天月
Creator:browiec
Version:Insane
Source:新幹線変形ロボ シンカリオン
Tags:japanese pop male vocal cut ver version edit anime tv ending theme ed shinkansen henkei robo shinkalion the animation stixy darausfuigt あまつき
BeatmapID:2287402
BeatmapSetID:1094460

[Difficulty]
HPDrainRate:5.2
CircleSize:3.8
OverallDifficulty:8.4
ApproachRate:9
SliderMultiplier:1.7
SliderTickRate:1

[Events]
//Background and Video events
0,0,"IVE SPENT OVER 1 DAY LOOKING FOR A BG FOR THIS SET AAAAAAAAAAAAA.jpg",0,0
//Break Periods
//Storyboard Layer 0 (Background)
//Storyboard Layer 1 (Fail)
//Storyboard Layer 2 (Pass)
//Storyboard Layer 3 (Foreground)
//Storyboard Layer 4 (Overlay)
//Storyboard Sound Samples

[TimingPoints]
497,337.078651685393,4,2,1,50,1,0
5890,-100,4,2,1,60,0,0
13980,-100,4,2,1,70,0,0
24766,-100,4,2,1,50,0,0
25103,-133.333333333333,4,2,1,50,0,0
35553,-117.647058823529,4,2,1,60,0,0
43643,-111.111111111111,4,2,1,60,0,0
46339,-117.647058823529,4,2,1,60,0,0
51732,-133.333333333333,4,2,1,50,0,0
54429,-111.111111111111,4,2,1,50,0,0
55946,-100,4,2,1,50,0,0
58811,-200,4,2,1,50,0,0
59822,-95.2380952380952,4,2,1,80,0,1
85440,-95.2380952380952,4,2,1,60,0,0
87631,-100,4,2,1,60,0,0
88137,-100,4,2,1,70,0,0
101114,-100,4,2,1,5,0,0
101283,-100,4,2,1,70,0,0
101452,-117.647058823529,4,2,1,70,0,0

[Colours]
Combo1 : 228,116,225
Combo2 : 248,103,41
Combo3 : 255,255,0
Combo4 : 145,145,255

[HitObjects]
256,192,497,12,0,5131,0:0:0:0:
456,72,5721,5,8,0:0:0:0:
456,72,5805,1,8,0:0:0:0:
456,72,5889,2,0,L|464:172,1,85,14|0,0:0|0:0,0:0:0:0:
353,280,6227,2,0,L|361:180,1,85,14|0,0:0|0:0,0:0:0:0:
229,64,6564,1,2,1:2:0:0:
329,176,6732,1,2,1:2:0:0:
341,24,6901,1,10,0:2:0:0:
232,164,7070,6,0,B|120:140|120:140|52:172,1,170,2|2,1:2|1:2,0:0:0:0:
32,308,7575,1,8,0:0:0:0:
184,252,7744,2,0,B|272:288|272:224|352:252,1,170,6|0,1:2|1:0,0:0:0:0:
480,344,8249,1,8,0:0:0:0:
480,322,8333,1,8,0:3:0:0:
481,301,8417,1,8,0:3:0:0:
482,280,8501,1,8,0:3:0:0:
483,259,8586,6,0,L|487:163,1,85,14|0,0:0|0:0,0:0:0:0:
368,68,8923,2,0,L|372:164,1,85,14|0,0:0|0:0,0:0:0:0:
224,276,9261,1,2,1:2:0:0:
400,280,9429,1,2,1:2:0:0:
256,160,9598,1,10,0:2:0:0:
328,344,9766,6,0,P|384:376|484:328,1,170,2|2,1:2|1:2,0:0:0:0:
416,180,10272,1,8,0:0:0:0:
308,324,10440,2,0,P|256:332|204:304,1,85,6|0,1:2|0:0,0:0:0:0:
188,200,10777,1,2,1:2:0:0:
100,328,10946,2,0,L|96:228,1,85,8|2,0:0|1:2,0:0:0:0:
32,96,11283,6,0,P|80:76|128:88,1,85,10|8,0:0|0:0,0:0:0:0:
188,200,11620,1,8,0:0:0:0:
227,215,11704,1,8,0:0:0:0:
269,212,11788,1,10,0:0:0:0:
304,189,11872,1,8,0:0:0:0:
326,153,11957,2,0,L|320:96,3,42.5,10|8|10|8,0:0|0:0|0:0|0:0,0:0:0:0:
384,32,12294,1,8,0:0:0:0:
384,32,12379,1,8,0:0:0:0:
384,32,12463,6,0,B|432:0|476:32|476:32|484:84|436:112|436:112|428:152|460:188,1,255,2|2,1:2|0:0,0:0:0:0:
455,186,13643,2,0,P|404:211|379:286,1,127.5,2|0,0:0|0:0,0:0:0:0:
298,321,13980,6,0,L|290:209,1,85,4|0,1:2|0:0,0:0:0:0:
180,112,14317,2,0,L|173:196,1,85,10|0,0:2|0:0,0:0:0:0:
48,348,14654,1,2,1:2:0:0:
88,188,14822,1,2,1:2:0:0:
168,340,14991,1,8,0:2:0:0:
264,196,15159,6,0,P|316:188|372:228,1,85,2|0,1:2|0:0,0:0:0:0:
336,352,15496,2,0,P|303:310|309:242,1,85,2|8,1:2|0:2,0:0:0:0:
424,140,15834,1,2,0:0:0:0:
424,140,15918,1,8,0:2:0:0:
424,140,16002,1,0,1:2:0:0:
392,284,16171,1,0,1:2:0:0:
320,140,16339,2,0,L|324:48,1,85,8|0,0:2|0:0,0:0:0:0:
212,188,16676,6,0,B|168:180|168:180|92:192,1,85,0|0,1:2|0:0,0:0:0:0:
164,356,17013,2,0,B|172:312|172:312|160:236,1,85,10|0,0:2|0:0,0:0:0:0:
16,152,17350,1,2,1:2:0:0:
80,308,17519,1,0,1:2:0:0:
144,136,17688,2,0,L|152:40,1,85,10|0,0:2|1:2,0:0:0:0:
292,200,18025,5,2,0:0:0:0:
116,228,18193,1,0,1:2:0:0:
248,116,18362,2,0,P|300:104|352:128,1,85,10|2,0:2|0:0,0:0:0:0:
364,140,18614,1,8,0:2:0:0:
364,140,18699,1,0,1:2:0:0:
292,300,18867,1,2,1:2:0:0:
224,136,19036,1,8,0:2:0:0:
376,244,19204,1,8,0:0:0:0:
376,244,19289,1,8,0:0:0:0:
376,244,19373,6,0,L|468:236,1,85,4|0,1:2|0:0,0:0:0:0:
380,80,19710,2,0,L|288:72,1,85,10|0,0:2|0:0,0:0:0:0:
160,224,20047,1,2,1:2:0:0:
272,88,20216,1,2,1:2:0:0:
272,276,20384,1,8,0:2:0:0:
128,140,20553,6,0,P|84:168|72:220,1,85,2|0,1:2|0:0,0:0:0:0:
181,300,20890,2,0,P|178:247|139:211,1,85,2|8,1:2|0:2,0:0:0:0:
20,108,21227,1,2,0:0:0:0:
188,68,21395,1,0,1:2:0:0:
72,208,21564,1,8,0:2:0:0:
72,208,21648,1,8,0:2:0:0:
72,208,21732,1,8,0:2:0:0:
100,24,21901,2,0,P|104:68|112:92,1,42.5,0|0,1:2|1:2,0:0:0:0:
180,216,22070,5,8,0:2:0:0:
276,72,22238,2,0,P|324:64|380:88,1,85,8|0,0:2|1:2,0:0:0:0:
316,280,22575,5,8,0:2:0:0:
220,136,22743,2,0,P|172:128|116:152,1,85,8|0,0:2|1:2,0:0:0:0:
196,328,23081,5,8,0:2:0:0:
304,184,23249,2,0,B|312:137|312:137|308:100,1,85,8|0,0:2|1:2,0:0:0:0:
116,164,23586,5,8,0:2:0:0:
256,268,23754,2,0,B|302:276|302:276|340:272,1,85,8|0,0:2|1:2,0:0:0:0:
220,136,24092,5,8,0:2:0:0:
160,320,24261,2,0,P|76:344|20:288,1,170,4|0,1:2|1:2,0:0:0:0:
32,188,24766,1,4,1:2:0:0:
48,168,25103,6,0,B|136:172|92:116|188:120,2,127.500004863739,2|2|2,0:0|0:0|0:0,0:0:0:0:
124,312,26114,2,0,P|176:256|172:188,1,127.500004863739,2|2,0:0|0:0,0:0:0:0:
224,100,26620,2,0,P|256:156|332:177,1,127.500004863739,2|0,0:0|0:0,0:0:0:0:
404,144,27126,1,0,0:0:0:0:
428,240,27294,1,0,1:0:0:0:
428,240,27463,5,0,1:0:0:0:
244,280,27800,2,0,L|172:272,1,63.7500024318696,2|2,0:0|0:0,0:0:0:0:
280,364,28137,2,0,P|320:332|324:232,1,127.500004863739,2|2,0:0|0:0,0:0:0:0:
212,132,28811,2,0,L|224:276,1,127.500004863739,2|2,0:0|0:0,0:0:0:0:
111,320,29317,2,0,L|123:176,1,127.500004863739,2|0,0:0|0:0,0:0:0:0:
103,96,29822,2,0,P|71:108|49:129,1,63.7500024318696
7,220,30159,5,0,1:0:0:0:
200,288,30496,2,0,B|268:300|268:300|352:280,2,127.500004863739,2|2|2,0:0|0:0|0:0,0:0:0:0:
360,204,31508,2,0,P|400:240|400:332,1,127.500004863739,2|2,0:0|0:0,0:0:0:0:
260,368,32013,2,0,L|272:160,1,191.250007295609,2|2,0:0|0:0,0:0:0:0:
232,84,32688,1,0,1:0:0:0:
232,84,32856,6,0,P|192:64|108:96,1,127.500004863739,2|2,1:2|0:0,0:0:0:0:
120,216,33530,2,0,P|160:236|244:204,1,127.500004863739,2|2,0:0|0:0,0:0:0:0:
324,64,34204,2,0,B|399:46|372:108|464:88,1,127.500004863739,2|2,0:0|0:0,0:0:0:0:
512,156,34710,1,2,0:0:0:0:
448,232,34879,2,0,L|376:236,1,63.7500024318696,0|2,0:0|0:0,0:0:0:0:
352,240,35131,1,2,0:0:0:0:
352,240,35216,1,6,0:0:0:0:
256,80,35553,6,0,P|272:120|264:172,1,72.2500013780594,4|0,1:2|0:0,0:0:0:0:
112,152,35890,2,0,P|152:136|204:144,1,72.2500013780594,10|0,0:2|0:0,0:0:0:0:
332,208,36227,1,2,0:0:0:0:
160,228,36395,1,0,1:2:0:0:
312,116,36564,2,0,L|320:208,1,72.2500013780594,2|8,1:2|0:2,0:0:0:0:
224,356,36901,6,0,L|232:272,1,72.2500013780594,2|0,0:0|1:2,0:0:0:0:
188,148,37238,1,10,0:2:0:0:
112,292,37407,2,0,P|52:300|-8:216,1,144.500002756119,2|0,0:0|0:0,0:0:0:0:
80,144,37912,2,0,L|72:228,1,72.2500013780594,8|0,0:2|0:0,0:0:0:0:
192,328,38249,6,0,P|236:336|284:316,1,72.2500013780594,0|0,1:2|0:0,0:0:0:0:
328,204,38586,1,10,0:2:0:0:
352,336,38755,1,2,0:0:0:0:
420,208,38923,2,0,B|428:168|428:168|420:128,1,72.2500013780594,2|0,0:0|1:2,0:0:0:0:
248,168,39261,2,0,B|240:208|240:208|248:248,1,72.2500013780594,2|8,1:2|0:2,0:0:0:0:
336,88,39598,6,0,L|264:80,1,72.2500013780594,2|0,0:0|1:2,0:0:0:0:
328,204,39935,1,10,0:2:0:0:
420,84,40103,2,0,P|472:80|500:172,1,144.500002756119,2|0,0:0|1:2,0:0:0:0:
444,276,40609,2,0,P|440:224|412:196,1,72.2500013780594,8|0,0:2|0:0,0:0:0:0:
244,156,40946,6,0,L|240:236,1,72.2500013780594,0|0,1:2|0:0,0:0:0:0:
180,356,41283,1,10,0:2:0:0:
136,228,41452,1,2,0:0:0:0:
80,356,41620,2,0,P|40:364|-4:344,1,72.2500013780594,2|0,0:0|1:2,0:0:0:0:
12,232,41957,2,0,P|52:224|96:244,1,72.2500013780594,2|8,1:2|0:2,0:0:0:0:
200,368,42294,6,0,P|240:376|284:356,1,72.2500013780594,2|0,0:0|1:2,0:0:0:0:
364,272,42631,1,10,0:2:0:0:
215,198,42800,2,0,B|123:182|167:246|59:230,1,144.500002756119,2|0,0:0|0:0,0:0:0:0:
20,92,43305,1,10,0:2:0:0:
52,220,43474,1,2,0:0:0:0:
144,60,43643,6,0,L|236:52,1,76.4999976654053,6|0,1:2|0:0,0:0:0:0:
312,192,43980,2,0,L|220:184,1,76.4999976654053,10|0,0:2|0:0,0:0:0:0:
396,132,44317,1,2,1:2:0:0:
336,284,44485,1,2,1:2:0:0:
308,100,44654,1,8,0:2:0:0:
244,280,44822,6,0,B|184:288|184:288|152:272|152:272|76:280,1,152.999995330811,6|0,1:2|1:2,0:0:0:0:
208,192,45328,1,8,0:2:0:0:
288,364,45496,2,0,P|336:376|392:360,1,76.4999976654053,0|0,0:0|1:2,0:0:0:0:
342,207,45834,1,8,0:2:0:0:
342,207,45918,1,8,0:2:0:0:
342,207,46002,2,0,L|334:295,1,76.4999976654053,8|0,0:2|1:2,0:0:0:0:
248,184,46339,5,6,1:2:0:0:
400,132,46508,2,0,P|448:124|488:132,1,72.2500013780594,2|10,0:0|0:2,0:0:0:0:
480,276,46845,1,2,1:2:0:0:
480,276,47013,2,0,P|449:238|436:199,1,72.2500013780594,2|0,0:0|1:2,0:0:0:0:
364,120,47350,2,0,P|346:165|320:196,1,72.2500013780594,10|0,0:2|0:0,0:0:0:0:
248,312,47688,5,2,1:2:0:0:
212,176,47856,2,0,L|216:92,1,72.2500013780594,2|8,1:2|0:2,0:0:0:0:
92,248,48193,2,0,B|176:224|148:296|260:264,1,144.500002756119,2|0,1:2|1:2,0:0:0:0:
328,288,48699,2,0,P|320:233|324:193,1,72.2500013780594,10|0,0:2|0:0,0:0:0:0:
464,92,49036,5,2,1:2:0:0:
408,224,49204,1,2,0:0:0:0:
376,72,49373,1,10,0:2:0:0:
488,184,49541,1,2,1:2:0:0:
316,188,49710,2,0,L|216:196,1,72.2500013780594,2|0,0:0|1:2,0:0:0:0:
180,304,50047,1,10,0:2:0:0:
128,152,50216,6,0,P|112:188|68:212,1,72.2500013780594,2|0,0:0|1:0,0:0:0:0:
32,60,50553,2,0,P|71:55|113:81,1,72.2500013780594,2|8,1:2|0:0,0:0:0:0:
204,188,50890,1,2,1:2:0:0:
208,24,51058,2,0,L|200:116,1,72.2500013780594,8|8,0:3|0:3,0:0:0:0:
296,216,51395,2,0,L|288:124,1,72.2500013780594,8|8,0:3|0:3,0:0:0:0:
236,292,51732,6,0,B|308:332|364:284|364:284|344:312|344:348,1,191.250007295609,6|2,1:2|0:0,0:0:0:0:
448,272,52407,2,0,P|436:236|384:200,2,95.6250036478044,2|2|2,0:0|0:0|0:0,0:0:0:0:
356,380,53081,6,0,L|364:280,2,95.6250036478044,6|2|2,1:2|0:0|0:0,0:0:0:0:
272,180,53755,2,0,L|276:268,1,63.7500024318696,2|0,0:0|1:0,0:0:0:0:
248,276,54008,1,0,1:0:0:0:
248,276,54092,2,0,L|244:364,1,63.7500024318696,14|2,0:0|0:0,0:0:0:0:
112,380,54429,6,0,P|104:332|116:280,1,76.4999976654053,14|8,0:0|0:0,0:0:0:0:
96,140,54766,1,8,0:0:0:0:
16,268,54935,1,10,0:0:0:0:
16,96,55103,1,8,0:0:0:0:
92,224,55272,1,8,0:0:0:0:
192,64,55440,1,10,0:0:0:0:
172,248,55609,1,10,0:0:0:0:
100,48,55777,5,6,1:2:0:0:
240,200,55946,1,8,0:0:0:0:
278,212,56030,1,8,0:0:0:0:
318,206,56114,1,8,0:0:0:0:
352,184,56198,1,8,0:0:0:0:
373,149,56283,2,0,L|376:80,3,42.5,2|0|2|0,1:2|1:0|1:2|1:0,0:0:0:0:
296,40,56620,1,2,1:2:0:0:
296,40,56704,1,0,1:0:0:0:
296,40,56789,2,0,P|244:28|196:48,1,85,14|2,0:0|0:0,0:0:0:0:
144,240,57126,5,10,0:0:0:0:
256,116,57294,1,8,0:0:0:0:
248,296,57463,1,2,1:2:0:0:
248,296,57547,1,0,1:0:0:0:
248,296,57631,1,10,0:0:0:0:
344,144,57800,1,8,0:0:0:0:
336,344,57968,1,0,1:0:0:0:
212,188,58137,1,8,0:0:0:0:
400,272,58305,2,0,B|528:260|528:260|492:272|468:304,1,170,4|0,1:2|0:0,0:0:0:0:
504,296,59822,6,0,L|400:288,1,89.2499972763062,6|0,1:2|0:0,0:0:0:0:
280,176,60159,2,0,L|384:168,1,89.2499972763062,10|0,0:0|0:0,0:0:0:0:
260,336,60496,1,0,1:0:0:0:
184,184,60665,1,2,1:2:0:0:
144,340,60834,1,8,0:0:0:0:
68,172,61002,6,0,B|60:40|60:40|88:88,1,178.499994552612,2|0,1:2|1:0,0:0:0:0:
200,208,61508,1,8,0:0:0:0:
256,60,61676,1,10,0:0:0:0:
256,60,61761,1,8,0:0:0:0:
256,60,61845,2,0,P|304:52|352:72,1,89.2499972763062,2|0,1:2|1:0,0:0:0:0:
328,228,62182,2,0,P|297:190|290:138,1,89.2499972763062,10|0,0:0|0:0,0:0:0:0:
152,16,62519,6,0,L|160:140,1,89.2499972763062,2|0,1:2|0:0,0:0:0:0:
32,236,62856,2,0,L|40:112,1,89.2499972763062,10|0,0:2|0:0,0:0:0:0:
256,112,63193,1,0,1:0:0:0:
68,64,63362,1,2,1:2:0:0:
176,216,63530,1,8,0:0:0:0:
192,24,63699,6,0,B|152:84|152:84|200:216,1,178.499994552612,2|0,1:2|1:0,0:0:0:0:
264,336,64204,1,10,0:0:0:0:
320,176,64373,1,8,0:0:0:0:
320,176,64457,1,8,0:0:0:0:
320,176,64541,1,2,1:2:0:0:
168,280,64710,1,2,1:2:0:0:
352,268,64879,2,0,P|409:265|457:290,1,89.2499972763062,12|2,0:0|0:0,0:0:0:0:
252,360,65216,6,0,L|256:248,1,89.2499972763062,6|0,1:2|0:0,0:0:0:0:
128,152,65553,2,0,L|132:264,1,89.2499972763062,8|0,0:0|0:0,0:0:0:0:
252,128,65890,1,2,1:2:0:0:
96,72,66058,1,0,1:0:0:0:
224,216,66227,1,10,0:2:0:0:
280,44,66395,1,8,0:0:0:0:
280,44,66480,1,8,0:0:0:0:
280,44,66564,6,0,P|336:32|388:56,1,89.2499972763062,2|0,1:2|0:0,0:0:0:0:
412,176,66901,2,0,P|356:188|304:164,1,89.2499972763062,10|0,0:0|0:0,0:0:0:0:
180,104,67238,2,0,P|124:92|72:116,1,89.2499972763062,2|0,1:2|1:2,0:0:0:0:
48,236,67575,2,0,P|104:248|156:224,1,89.2499972763062,10|0,0:0|0:0,0:0:0:0:
268,64,67912,6,0,B|273:136|273:136|252:178|252:178|261:272,1,178.499994552612,6|8,1:2|0:0,0:0:0:0:
376,380,68418,1,2,0:0:0:0:
388,184,68586,1,2,1:2:0:0:
252,336,68755,1,2,1:2:0:0:
452,284,68923,1,8,0:0:0:0:
248,196,69092,6,0,B|144:168|188:272|56:240,1,178.499994552612,6|0,1:2|1:0,0:0:0:0:
184,104,69598,1,8,0:0:0:0:
232,280,69766,1,0,1:0:0:0:
272,64,69935,1,8,0:0:0:0:
168,216,70103,1,0,1:0:0:0:
200,16,70272,1,8,0:0:0:0:
288,200,70440,1,0,1:0:0:0:
368,8,70609,6,0,L|360:108,1,89.2499972763062,14|0,0:2|1:2,0:0:0:0:
464,228,70946,2,0,L|456:128,1,89.2499972763062,14|0,0:0|0:0,0:0:0:0:
272,224,71283,1,2,1:2:0:0:
480,252,71452,1,2,1:2:0:0:
300,336,71620,1,10,0:2:0:0:
336,148,71789,6,0,P|364:196|360:256,1,89.2499972763062,6|0,1:2|0:0,0:0:0:0:
212,300,72126,2,0,P|184:252|188:192,1,89.2499972763062,2|8,1:2|0:0,0:0:0:0:
200,56,72463,2,0,B|172:16|120:16|120:16|76:64|96:116,1,178.499994552612,6|0,1:2|1:0,0:0:0:0:
48,224,72968,1,8,0:3:0:0:
65,213,73052,1,8,0:3:0:0:
85,205,73136,1,8,0:3:0:0:
106,201,73220,1,8,0:3:0:0:
127,202,73305,6,0,L|235:210,1,89.2499972763062,6|0,1:2|0:0,0:0:0:0:
328,320,73643,2,0,L|220:328,1,89.2499972763062,14|0,0:0|0:0,0:0:0:0:
60,304,73980,1,2,1:2:0:0:
216,208,74148,1,2,1:2:0:0:
144,372,74317,1,10,0:2:0:0:
88,192,74485,6,0,B|80:144|80:144|92:96,1,89.2499972763062,2|0,1:2|0:0,0:0:0:0:
300,164,74822,2,0,B|308:212|308:212|296:260,1,89.2499972763062,2|8,1:2|0:0,0:0:0:0:
92,284,75159,2,0,L|204:280,1,89.2499972763062,6|0,1:2|0:0,0:0:0:0:
352,240,75496,1,2,1:2:0:0:
200,156,75665,2,0,P|192:108|208:64,1,89.2499972763062,8|2,0:0|0:0,0:0:0:0:
384,24,76002,6,0,L|380:120,1,89.2499972763062,6|0,1:2|0:0,0:0:0:0:
500,228,76339,2,0,L|496:132,1,89.2499972763062,8|0,0:0|0:0,0:0:0:0:
292,84,76676,1,2,1:2:0:0:
480,48,76845,1,0,1:0:0:0:
332,168,77013,2,0,P|276:176|220:144,1,89.2499972763062,10|0,0:0|0:0,0:0:0:0:
128,24,77350,6,0,L|132:120,1,89.2499972763062,2|0,1:2|0:0,0:0:0:0:
12,228,77687,2,0,L|16:132,1,89.2499972763062,10|0,0:2|0:0,0:0:0:0:
212,72,78025,1,2,1:2:0:0:
108,208,78193,1,0,1:0:0:0:
260,148,78362,2,0,P|320:140|368:160,1,89.2499972763062,10|0,0:0|0:0,0:0:0:0:
160,328,78699,6,0,B|168:252|168:252|156:212|156:212|164:120,1,178.499994552612,6|8,1:2|0:0,0:0:0:0:
268,20,79204,1,2,0:0:0:0:
292,192,79373,2,0,P|351:201|401:177,1,89.2499972763062,2|0,1:2|1:0,0:0:0:0:
380,36,79710,2,0,P|342:82|337:138,1,89.2499972763062,10|0,0:0|0:0,0:0:0:0:
276,292,80047,5,2,1:2:0:0:
240,104,80216,1,0,1:0:0:0:
164,280,80384,1,14,0:0:0:0:
128,80,80553,2,0,L|120:188,1,89.2499972763062,2|0,1:2|1:0,0:0:0:0:
68,340,80890,1,2,1:2:0:0:
68,340,80974,1,0,1:0:0:0:
68,340,81058,1,14,0:0:0:0:
20,164,81227,1,0,1:0:0:0:
188,324,81395,5,12,0:0:0:0:
204,108,81564,1,0,1:0:0:0:
112,264,81732,1,8,0:0:0:0:
112,56,81901,1,0,1:0:0:0:
244,236,82070,1,10,0:0:0:0:
228,16,82238,2,0,L|224:72,1,44.6249986381531,0|0,1:0|1:0,0:0:0:0:
80,176,82407,2,0,P|136:184|180:164,1,89.2499972763062,10|0,0:0|1:0,0:0:0:0:
368,52,82744,5,10,0:0:0:0:
344,248,82912,1,0,1:0:0:0:
500,72,83081,1,10,0:0:0:0:
284,128,83249,1,0,1:0:0:0:
508,212,83418,1,10,0:0:0:0:
376,32,83586,2,0,L|372:88,1,44.6249986381531,0|0,1:0|1:0,0:0:0:0:
324,228,83755,2,0,P|272:236|232:220,1,89.2499972763062,10|0,0:0|1:0,0:0:0:0:
120,96,84092,5,10,0:0:0:0:
200,304,84261,1,0,1:0:0:0:
256,88,84429,1,8,0:0:0:0:
92,232,84598,1,10,0:0:0:0:
92,232,84682,1,8,0:0:0:0:
92,232,84766,2,0,L|-8:236,1,89.2499972763062,10|8,0:0|0:3,0:0:0:0:
232,72,85103,2,0,P|244:120|228:188,1,89.2499972763062,10|10,0:3|0:3,0:0:0:0:
132,316,85440,6,0,B|208:328|252:268|252:268|292:328|376:312,1,267.749991828919,6|2,1:2|0:0,0:0:0:0:
366,313,87631,5,0,1:0:0:0:
276,216,87800,2,0,L|280:308,1,85,8|0,0:0|0:0,0:0:0:0:
324,136,88137,6,0,P|276:124|216:144,1,85,4|0,1:2|0:0,0:0:0:0:
120,256,88474,2,0,P|154:220|167:158,1,85,10|0,0:2|0:0,0:0:0:0:
248,40,88811,1,2,1:2:0:0:
276,216,88979,1,2,1:2:0:0:
352,52,89148,1,8,0:2:0:0:
408,216,89317,6,0,L|404:324,1,85,2|0,1:2|0:0,0:0:0:0:
260,236,89654,2,0,L|256:128,1,85,2|8,1:2|0:2,0:0:0:0:
376,308,89991,1,2,0:0:0:0:
376,308,90075,1,8,0:2:0:0:
376,308,90159,1,0,1:2:0:0:
188,288,90328,1,0,1:2:0:0:
352,200,90496,2,0,L|348:92,1,85,8|0,0:2|0:0,0:0:0:0:
160,168,90834,6,0,P|216:180|264:164,1,85,0|0,1:2|0:0,0:0:0:0:
252,24,91171,2,0,P|213:66|203:116,1,85,10|0,0:2|0:0,0:0:0:0:
264,272,91508,1,2,1:2:0:0:
300,104,91676,1,0,1:2:0:0:
356,268,91845,2,0,L|360:360,1,85,10|0,0:2|1:2,0:0:0:0:
256,184,92182,5,2,0:0:0:0:
208,348,92350,1,0,1:2:0:0:
148,176,92519,2,0,P|96:164|44:188,1,85,10|2,0:2|0:0,0:0:0:0:
32,200,92771,1,8,0:2:0:0:
32,200,92856,1,0,1:2:0:0:
128,336,93024,1,2,1:2:0:0:
176,160,93193,1,8,0:2:0:0:
272,292,93361,1,0,0:0:0:0:
280,300,93446,1,0,0:0:0:0:
280,300,93530,6,0,L|372:292,1,85,4|0,1:2|0:0,0:0:0:0:
444,168,93867,2,0,L|352:160,1,85,10|0,0:2|0:0,0:0:0:0:
172,88,94204,1,2,1:2:0:0:
356,64,94373,1,2,1:2:0:0:
240,212,94541,1,8,0:2:0:0:
272,24,94710,6,0,P|264:72|284:124,1,85,2|0,1:2|0:0,0:0:0:0:
424,200,95047,2,0,P|386:169|331:160,1,85,2|8,1:2|0:2,0:0:0:0:
196,280,95384,1,2,1:2:0:0:
273,106,95552,1,0,1:2:0:0:
324,296,95721,1,0,1:2:0:0:
324,296,95805,1,0,1:2:0:0:
324,296,95889,1,12,0:2:0:0:
184,136,96058,2,0,L|180:200,1,42.5,0|0,1:2|0:0,0:0:0:0:
148,356,96227,5,8,0:2:0:0:
60,204,96395,2,0,L|64:104,1,85,8|0,0:2|1:2,0:0:0:0:
256,228,96732,5,8,0:2:0:0:
84,292,96901,2,0,L|-16:288,1,85,8|0,0:2|1:2,0:0:0:0:
160,128,97238,5,8,0:2:0:0:
200,300,97407,2,0,P|248:320|288:316,1,85,8|0,0:2|1:2,0:0:0:0:
248,108,97744,5,8,0:2:0:0:
128,240,97913,2,0,P|108:288|112:328,1,85,8|0,0:2|1:2,0:0:0:0:
320,240,98249,5,8,0:2:0:0:
164,152,98418,2,0,L|68:148,1,85,8|0,1:2|0:0,0:0:0:0:
200,300,98755,5,4,1:2:0:0:
256,192,98923,12,0,101114,0:0:0:0:
208,96,101283,5,8,0:0:0:0:
300,280,101452,2,0,B|337:296|377:280|377:280|412:264|452:280,1,144.500002756119,8|0,0:0|0:0,0:0:0:0:
