osu file format v14

[General]
AudioFilename: audio.mp3
AudioLeadIn: 0
PreviewTime: 54778
Countdown: 0
SampleSet: Soft
StackLeniency: 0.5
Mode: 0
LetterboxInBreaks: 0
WidescreenStoryboard: 1

[Editor]
Bookmarks: 5650,7803,10265,10573,12727,14778,15496,25342,45034,48111,48727,49957,54880,59188,59803,64727,68419,69034,69650,74573,81650,84111,86573,88624,89342,99188,104111,121957,122573,123803,128727,133034,133650,138573,142265,142880,143496,148419,153342,162265,162573,163188,184111,188419,189034,193957,197650,198265,198880,213650,217342,217957,218573,223496,230573,233034,233342,235496,237547
DistanceSpacing: 1.4
BeatDivisor: 6
GridSize: 32
TimelineZoom: 3.350001

[Metadata]
Title:Readymade
TitleUnicode:レディメイド
Artist:Amatsuki
ArtistUnicode:天月
Creator:Kirishima-
Version:Pepekcz's Hard
Source:
Tags:surii suri three 3 すりぃ 狂言 Kyougen あまつき ado japanese pop jpop j-pop jazz swing 1/3 utaite cover male vocalist pepekcz hyokar reform kujinn
BeatmapID:3656005
BeatmapSetID:1756375

[Difficulty]
HPDrainRate:4
CircleSize:3.8
OverallDifficulty:7
ApproachRate:8
SliderMultiplier:1.4
SliderTickRate:1

[Events]
//Background and Video events
0,0,"background.jpg",0,0
Video,-322,"video.mp4"
//Break Periods
2,35387,43669
2,109234,118028
//Storyboard Layer 0 (Background)
//Storyboard Layer 1 (Fail)
//Storyboard Layer 2 (Pass)
//Storyboard Layer 3 (Foreground)
//Storyboard Layer 4 (Overlay)
//Storyboard Sound Samples

[TimingPoints]
727,307.692307692308,4,2,22,50,1,0
4932,-111.111111111111,4,2,22,80,0,0
5650,-100,4,2,22,70,0,0
15496,-125,4,2,22,50,0,0
25342,-111.111111111111,4,2,22,65,0,0
35188,-125,4,2,22,60,0,0
45034,-111.111111111111,4,2,22,65,0,0
52419,-111.111111111111,4,2,22,70,0,0
54880,-99.9999999999999,4,2,22,75,0,1
74573,-99.9999999999999,4,2,22,70,0,0
89342,-125,4,2,22,40,0,0
99188,-111.111111111111,4,2,22,80,0,0
99803,-111.111111111111,4,2,22,75,0,0
109034,-125,4,2,22,50,0,0
113650,-125,4,2,2,75,0,0
113957,-125,4,2,22,50,0,0
118880,-111.111111111111,4,2,22,65,0,0
126265,-111.111111111111,4,2,22,70,0,0
128727,-99.9999999999999,4,2,22,75,0,1
148419,-99.9999999999999,4,2,22,70,0,0
153342,-99.9999999999999,4,2,22,75,0,0
163188,-125,4,2,22,65,0,0
177957,-111.111111111111,4,2,22,65,0,0
180419,-111.111111111111,4,2,22,70,0,0
184111,-99.9999999999999,4,2,22,75,0,1
203803,-99.9999999999999,4,2,22,50,0,0
204111,-99.9999999999999,4,2,22,75,0,0
204419,-99.9999999999999,4,2,22,50,0,0
204727,-99.9999999999999,4,2,22,75,0,0
205034,-99.9999999999999,4,2,22,50,0,0
205342,-99.9999999999999,4,2,22,75,0,0
205650,-99.9999999999999,4,2,22,50,0,0
205957,-99.9999999999999,4,2,22,75,0,0
206265,-99.9999999999999,4,2,22,50,0,0
206573,-99.9999999999999,4,2,22,75,0,0
206880,-99.9999999999999,4,2,22,50,0,0
207188,-99.9999999999999,4,2,22,75,0,0
207496,-99.9999999999999,4,2,22,50,0,0
207803,-99.9999999999999,4,2,22,75,0,0
208727,-99.9999999999999,4,2,22,50,0,0
209034,-99.9999999999999,4,2,22,70,0,0
213650,-99.9999999999999,4,2,22,75,0,1
223496,-99.9999999999999,4,2,22,70,0,0
237547,-125,4,2,22,70,0,0
237855,-125,4,2,22,5,0,0

[Colours]
Combo1 : 207,159,255
Combo2 : 128,128,255
Combo3 : 69,89,228
Combo4 : 149,43,255

[HitObjects]
96,368,4932,6,0,P|48:332|72:268,1,125.999996154785,6|8,1:2|0:3,0:0:0:0:
136,240,5342,1,10,0:2:0:0:
276,308,5547,5,10,0:3:0:0:
276,308,5650,2,0,P|304:284|296:224,1,93.3333333333333,6|2,1:2|1:2,0:0:0:0:
240,176,5957,2,0,P|212:152|220:92,1,93.3333333333333,10|10,0:2|0:2,0:0:0:0:
276,40,6265,1,2,3:2:0:0:
416,104,6470,1,2,1:2:0:0:
416,104,6573,2,0,L|444:200,1,93.3333333333333,10|2,0:2|0:2,0:0:0:0:
420,276,6880,5,2,1:2:0:0:
288,340,7085,1,2,1:2:0:0:
288,340,7188,1,8,0:2:0:0:
184,240,7393,1,10,0:2:0:0:
184,240,7496,2,0,P|136:252|88:268,1,93.3333333333333,0|2,3:2|1:2,0:0:0:0:
0,316,7803,2,0,P|22:250|48:176,1,140,10|0,0:2|1:2,0:0:0:0:
20,40,8316,5,2,1:2:0:0:
20,40,8419,2,0,P|65:40|100:76,1,93.3333333333333,10|10,0:2|0:2,0:0:0:0:
128,152,8727,1,2,3:2:0:0:
260,76,8932,1,2,1:2:0:0:
260,76,9034,2,0,P|292:44|338:43,1,93.3333333333333,10|2,0:2|0:2,0:0:0:0:
408,92,9342,5,10,0:2:0:0:
340,228,9547,1,2,1:2:0:0:
340,228,9650,1,8,0:2:0:0:
416,364,9855,1,10,0:2:0:0:
416,364,9957,2,0,L|324:336,1,93.3333333333333,0|2,3:2|1:2,0:0:0:0:
228,300,10265,1,10,0:2:0:0:
72,364,10470,6,0,L|32:376,2,23.3333333333333,2|2|4,0:2|0:2|1:2,0:0:0:0:
160,244,10778,1,2,1:2:0:0:
160,244,10880,2,0,P|180:212|244:208,1,93.3333333333333,10|10,0:2|0:2,0:0:0:0:
300,252,11188,1,2,3:2:0:0:
448,212,11393,1,2,1:2:0:0:
448,212,11496,2,0,L|424:112,1,93.3333333333333,10|2,0:2|0:2,0:0:0:0:
404,40,11803,5,2,1:2:0:0:
264,88,12009,1,2,1:2:0:0:
264,88,12111,1,8,0:2:0:0:
128,40,12316,1,10,0:2:0:0:
128,40,12419,2,0,P|160:76|152:136,1,93.3333333333333,0|2,3:2|1:2,0:0:0:0:
124,220,12727,2,0,P|104:268|148:344,1,140,10|0,0:2|1:2,0:0:0:0:
292,316,13239,5,2,1:2:0:0:
292,316,13342,2,0,P|337:303|392:288,1,93.3333333333333,10|10,0:2|0:2,0:0:0:0:
464,272,13650,1,0,3:2:0:0:
492,128,13855,1,2,1:2:0:0:
492,128,13957,2,0,P|446:115|392:100,1,93.3333333333333,10|2,0:2|0:2,0:0:0:0:
356,32,14265,6,0,P|320:64|324:112,1,93.3333333333333,2|10,3:2|0:2,0:0:0:0:
368,176,14573,1,10,0:2:0:0:
292,316,14778,2,0,B|240:340|200:300|220:284|176:248|112:268,1,186.666666666667,6|10,1:2|0:2,0:0:0:0:
24,160,15393,5,10,0:2:0:0:
24,160,15496,1,4,1:2:0:0:
160,80,15803,1,8,0:3:0:0:
284,172,16111,2,0,P|316:196|352:192,1,74.6666666666667,6|4,0:3|0:3,0:0:0:0:
384,128,16419,2,0,P|348:92|288:100,2,112,2|8|8,0:2|0:3|0:3,0:0:0:0:
448,272,17342,2,0,P|412:308|352:300,1,112,10|10,0:3|0:3,0:0:0:0:
264,176,17957,6,0,P|184:202|80:240,1,186.666666666667,4|2,0:3|0:2,0:0:0:0:
28,284,18573,2,0,P|-8:244|8:184,1,112,6|2,0:3|0:2,0:0:0:0:
152,92,19188,2,0,L|232:68,1,74.6666666666667,6|6,0:3|0:3,0:0:0:0:
296,48,19496,1,8,0:3:0:0:
299,204,19803,2,0,P|246:183|193:165,1,112,2|2,0:2|0:2,0:0:0:0:
94,151,20316,5,2,0:2:0:0:
94,151,20419,2,0,P|59:195|63:256,1,112,4|8,0:3|0:3,0:0:0:0:
176,356,21034,2,0,P|212:345|264:332,1,74.6666666666667,6|4,0:3|0:3,0:0:0:0:
320,308,21342,2,0,P|309:271|296:220,1,74.6666666666667,2|0,0:2|0:0,0:0:0:0:
352,184,21650,2,0,P|371:131|396:64,1,112,6|10,0:3|0:3,0:0:0:0:
304,28,22162,1,6,0:3:0:0:
304,28,22265,2,0,P|244:28|208:72,1,112,8|10,0:3|0:3,0:0:0:0:
168,216,22880,6,0,P|222:202|288:188,1,112,6|8,0:3|0:3,0:0:0:0:
380,160,23393,1,2,0:2:0:0:
380,160,23496,2,0,P|420:184|424:248,1,112,6|2,0:3|0:2,0:0:0:0:
300,336,24111,1,6,0:3:0:0:
200,312,24316,2,0,P|164:284|176:216,2,112,6|2|10,0:3|0:2|0:3,0:0:0:0:
262,269,25034,1,4,0:3:0:0:
384,296,25239,5,10,0:3:0:0:
384,296,25342,2,0,P|445:274|516:252,1,125.999996154785,4|8,1:2|0:2,0:0:0:0:
504,132,25855,1,2,0:2:0:0:
504,132,25957,2,0,B|436:140|452:96|380:104,1,125.999996154785,2|8,1:2|0:2,0:0:0:0:
216,196,26573,2,0,P|172:156|188:88,1,125.999996154785,2|8,1:2|0:2,0:0:0:0:
308,68,27085,1,2,0:2:0:0:
308,68,27188,2,0,P|352:108|336:176,1,125.999996154785,2|8,1:2|0:2,0:0:0:0:
252,336,27803,6,0,P|188:317|120:300,1,125.999996154785,0|8,1:2|0:2,0:0:0:0:
18,360,28316,1,2,0:2:0:0:
18,360,28419,2,0,P|-6:320|2:280,1,83.9999974365235,2|2,1:2|0:2,0:0:0:0:
58,232,28727,1,10,0:2:0:0:
134,132,28932,1,2,0:2:0:0:
134,132,29034,2,0,P|127:91|119:48,1,83.9999974365235,2|2,1:2|0:2,0:0:0:0:
50,16,29342,1,8,0:2:0:0:
208,32,29547,1,2,0:2:0:0:
208,32,29650,1,0,1:2:0:0:
324,84,29855,2,0,P|352:84|372:72,1,41.9999987182618,2|8,0:2|0:2,0:0:0:0:
484,32,30162,5,2,0:2:0:0:
484,32,30265,2,0,P|465:88|444:160,1,125.999996154785,4|8,1:2|0:2,0:0:0:0:
372,324,30880,2,0,P|344:292|300:288,1,83.9999974365235,2|2,1:2|0:2,0:0:0:0:
236,328,31188,2,0,P|208:360|164:364,1,83.9999974365235,10|2,0:2|0:2,0:0:0:0:
104,320,31496,2,0,P|80:288|132:216,1,125.999996154785,2|10,1:2|0:2,0:0:0:0:
240,184,32009,1,2,0:2:0:0:
240,184,32111,2,0,P|276:160|264:80,1,125.999996154785,0|10,1:2|0:2,0:0:0:0:
92,16,32727,5,2,1:2:0:0:
8,184,33034,1,8,0:2:0:0:
124,332,33342,2,0,P|163:318|216:300,1,83.9999974365235,2|2,1:2|0:2,0:0:0:0:
276,340,33650,2,0,P|315:353|355:367,1,83.9999974365235,10|2,0:2|0:2,0:0:0:0:
432,344,33957,1,2,1:2:0:0:
400,188,34162,2,0,P|392:160|396:136,1,41.9999987182618,10|8,0:2|0:2,0:0:0:0:
464,44,34470,2,0,B|396:36|412:80|340:72,1,125.999996154785,10|10,0:3|0:2,0:0:0:0:
272,40,34880,2,0,P|220:28|168:80,1,125.999996154785,10|4,0:3|3:2,0:0:0:0:
32,40,44419,6,0,L|41:76,2,37.3333333333333,8|4|4,0:3|0:3|0:3,0:0:0:0:
112,52,44727,2,0,L|124:100,2,37.3333333333333,8|4|8,0:2|0:3|0:3,0:0:0:0:
212,120,45034,6,0,P|144:128|124:188,1,125.999996154785,4|10,1:2|0:2,0:0:0:0:
256,308,45650,2,0,P|276:250|304:176,1,125.999996154785,2|10,1:2|0:2,0:0:0:0:
380,92,46162,1,0,0:0:0:0:
380,92,46265,2,0,P|352:40|276:36,2,125.999996154785,2|10|2,1:2|0:2|1:2,0:0:0:0:
488,248,47188,1,10,0:2:0:0:
332,352,47496,6,0,B|276:377|228:332|252:312|207:278|138:300,1,209.999993591309,6|0,1:2|0:0,0:0:0:0:
68,360,48111,2,0,P|40:344|48:184,1,209.999993591309,6|0,1:2|0:0,0:0:0:0:
124,136,48727,2,0,P|183:120|252:104,1,125.999996154785,6|8,1:2|0:2,0:0:0:0:
412,16,49342,1,2,1:2:0:0:
508,100,49547,1,8,0:3:0:0:
508,100,49650,2,0,L|476:192,1,83.9999974365235,8|8,0:2|0:2,0:0:0:0:
440,272,49957,5,4,1:2:0:0:
272,360,50265,2,0,P|240:344|240:264,1,125.999996154785,10|2,0:2|1:2,0:0:0:0:
388,144,50880,2,0,P|420:112|412:72,1,83.9999974365235,10|4,0:2|0:3,0:0:0:0:
352,28,51188,1,0,1:2:0:0:
164,60,51496,2,0,P|146:122|128:196,2,125.999996154785,10|2|10,0:2|1:2|0:2,0:0:0:0:
352,28,52419,5,14,1:2:0:0:
472,176,52727,1,10,1:2:0:0:
344,312,53034,2,0,B|308:288|308:288|260:304,1,83.9999974365235,10|10,1:2|1:2,0:0:0:0:
96,376,53547,2,0,P|48:328|64:264,1,125.999996154785,14|8,1:2|0:2,0:0:0:0:
128,244,53957,2,0,P|176:196|160:132,1,125.999996154785,8|8,0:3|0:2,0:0:0:0:
168,143,54880,6,0,P|192:104|236:92,1,93.3333333333333,6|8,1:2|0:2,0:0:0:0:
280,16,55188,2,0,P|325:17|358:49,1,93.3333333333333,2|8,1:2|0:2,0:0:0:0:
448,48,55496,2,0,P|476:100|432:172,1,140,2|2,1:2|1:2,0:0:0:0:
316,252,56009,5,10,0:2:0:0:
316,252,56111,2,0,P|270:238|220:224,1,93.3333333333333,2|10,1:2|0:2,0:0:0:0:
200,312,56419,2,0,P|244:324|289:338,1,93.3333333333333,2|8,1:2|0:2,0:0:0:0:
376,324,56727,1,2,1:2:0:0:
496,236,56932,1,8,0:2:0:0:
496,236,57034,2,0,L|516:184,2,46.6666666666667,0|0|8,1:2|0:0|0:2,0:0:0:0:
460,316,57342,5,0,1:2:0:0:
368,208,57547,1,10,0:2:0:0:
368,208,57650,2,0,P|340:180|344:124,1,93.3333333333333,2|8,1:2|0:2,0:0:0:0:
372,48,57957,2,0,P|304:62|232:80,1,140,2|2,1:2|1:2,0:0:0:0:
104,152,58470,5,8,0:2:0:0:
104,152,58573,2,0,P|76:116|92:60,1,93.3333333333333,2|8,1:2|0:2,0:0:0:0:
168,56,58880,2,0,P|195:91|189:136,1,93.3333333333333,2|10,1:2|0:2,0:0:0:0:
168,236,59188,2,0,P|188:309|208:384,1,140,2|2,1:2|1:2,0:0:0:0:
376,380,59701,5,8,0:2:0:0:
376,380,59803,2,0,P|390:336|408:288,1,93.3333333333333,6|8,1:2|0:2,0:0:0:0:
464,224,60111,2,0,P|449:180|432:132,1,93.3333333333333,0|8,1:2|0:2,0:0:0:0:
500,80,60419,2,0,P|452:92|396:12,1,140,2|0,1:2|1:2,0:0:0:0:
248,28,60932,5,8,0:2:0:0:
248,28,61034,2,0,P|200:32|176:72,1,93.3333333333333,2|8,1:2|0:2,0:0:0:0:
88,80,61342,2,0,P|67:123|90:164,1,93.3333333333333,0|8,1:2|0:2,0:0:0:0:
176,152,61650,2,0,B|248:160|232:108|320:116,1,140,2|0,1:2|1:2,0:0:0:0:
440,196,62162,5,8,0:2:0:0:
440,196,62265,2,0,P|426:240|412:296,1,93.3333333333333,2|10,1:2|0:2,0:0:0:0:
392,368,62573,1,2,1:2:0:0:
280,280,62778,1,10,0:2:0:0:
280,280,62880,2,0,P|244:248|196:248,1,93.3333333333333,2|8,1:2|0:2,0:0:0:0:
140,308,63188,1,2,1:2:0:0:
12,240,63393,5,8,0:2:0:0:
12,240,63496,2,0,P|26:194|44:144,1,93.3333333333333,10|8,1:2|0:2,0:0:0:0:
32,64,63803,2,0,B|72:36|72:36|124:56,1,93.3333333333333,2|8,1:2|0:2,0:0:0:0:
176,116,64111,2,0,B|216:144|216:144|268:124,1,93.3333333333333,2|8,1:2|0:2,0:0:0:0:
332,80,64419,1,10,0:2:0:0:
472,180,64624,5,8,0:2:0:0:
472,180,64727,2,0,P|458:224|444:272,1,93.3333333333333,6|10,1:2|0:2,0:0:0:0:
416,352,65034,2,0,P|371:338|323:324,1,93.3333333333333,2|8,1:2|0:2,0:0:0:0:
240,300,65342,2,0,B|168:292|184:344|96:336,1,140,2|2,1:2|1:2,0:0:0:0:
12,228,65855,5,10,0:2:0:0:
12,228,65957,2,0,P|0:184|28:148,1,93.3333333333333,2|8,1:2|0:2,0:0:0:0:
112,172,66265,2,0,P|124:216|96:252,1,93.3333333333333,2|8,1:2|0:2,0:0:0:0:
32,312,66573,1,2,1:2:0:0:
188,364,66778,1,8,0:2:0:0:
188,364,66880,2,0,L|232:348,2,46.6666666666667,0|0|8,1:2|0:0|0:2,0:0:0:0:
108,336,67188,5,0,1:2:0:0:
208,224,67393,1,10,0:2:0:0:
208,224,67496,2,0,P|252:224|284:260,1,93.3333333333333,2|10,1:2|0:2,0:0:0:0:
324,336,67803,2,0,P|364:368|448:360,1,140,2|2,1:2|1:2,0:0:0:0:
484,200,68316,5,8,0:2:0:0:
484,200,68419,2,0,B|496:156|496:156|460:112,2,93.3333333333333,14|10|10,1:2|1:2|1:2,0:0:0:0:
320,232,69034,2,0,B|289:195|289:195|301:151,2,93.3333333333333,10|10|10,1:2|1:2|1:2,0:0:0:0:
448,359,69650,6,0,B|376:367|392:315|304:323,1,140,6|8,1:2|0:2,0:0:0:0:
176,364,70162,1,8,0:2:0:0:
176,364,70265,2,0,P|116:336|116:264,1,140,2|8,3:2|0:2,0:0:0:0:
196,144,70778,5,0,0:0:0:0:
196,144,70880,2,0,P|240:128|288:112,1,93.3333333333333,2|0,1:2|1:2,0:0:0:0:
348,48,71188,2,0,P|392:32|436:17,1,93.3333333333333,8|8,0:2|0:2,0:0:0:0:
508,72,71496,2,0,P|476:92|480:188,1,140,2|8,3:2|0:2,0:0:0:0:
444,332,72009,5,0,0:0:0:0:
444,332,72111,2,0,P|416:360|360:364,1,93.3333333333333,2|2,1:2|1:2,0:0:0:0:
288,324,72419,1,10,0:2:0:0:
208,204,72624,1,10,0:2:0:0:
208,204,72726,2,0,P|180:176|124:172,1,93.3333333333333,2|0,3:2|1:2,0:0:0:0:
52,212,73034,1,10,0:2:0:0:
8,356,73239,5,0,0:0:0:0:
8,356,73342,2,0,P|52:342|112:324,1,93.3333333333333,2|8,1:2|0:2,0:0:0:0:
184,340,73650,2,0,P|228:353|273:367,1,93.3333333333333,2|8,1:2|0:2,0:0:0:0:
360,364,73957,2,0,P|396:336|400:288,1,93.3333333333333,2|8,1:2|0:2,0:0:0:0:
344,224,74265,2,0,P|308:196|304:148,1,93.3333333333333,10|8,0:2|0:2,0:0:0:0:
376,72,74573,5,4,1:2:0:0:
156,24,74880,2,0,P|114:36|64:52,1,93.3333333333333,8|0,0:2|0:0,0:0:0:0:
12,116,75188,2,0,P|34:187|56:256,1,140,0|8,1:2|0:3,0:0:0:0:
176,348,75701,5,4,0:3:0:0:
176,348,75803,2,0,P|204:296|288:296,1,140,0|8,1:2|0:2,0:0:0:0:
412,364,76316,2,0,P|432:299|460:216,1,140,0|4,0:0|0:3,0:0:0:0:
484,152,76727,1,8,0:2:0:0:
384,48,76932,5,2,0:2:0:0:
384,48,77034,2,0,P|352:20|288:24,1,93.3333333333333,0|0,1:2|0:0,0:0:0:0:
236,68,77342,2,0,P|204:96|140:92,1,93.3333333333333,8|0,0:2|0:0,0:0:0:0:
80,60,77650,1,0,1:2:0:0:
20,196,77855,1,8,0:3:0:0:
20,196,77957,1,8,0:2:0:0:
116,316,78162,5,4,0:3:0:0:
116,316,78265,2,0,B|188:308|172:360|260:352,2,140,0|0|0,1:2|1:2|1:2,0:0:0:0:
20,196,79188,1,0,3:2:0:0:
24,184,79496,6,0,P|68:168|116:152,1,93.3333333333333,6|2,1:2|1:2,0:0:0:0:
180,108,79803,2,0,P|224:122|268:138,1,93.3333333333333,10|10,0:2|0:2,0:0:0:0:
344,176,80111,1,2,3:2:0:0:
472,96,80316,1,2,1:2:0:0:
472,96,80419,2,0,P|500:132|492:192,1,93.3333333333333,10|2,0:2|0:2,0:0:0:0:
460,252,80727,5,2,1:2:0:0:
336,336,80932,1,2,1:2:0:0:
336,336,81034,1,8,0:2:0:0:
216,252,81239,1,10,0:2:0:0:
216,252,81342,2,0,P|164:248|128:288,1,93.3333333333333,0|2,3:2|1:2,0:0:0:0:
56,344,81650,2,0,P|34:278|8:204,1,140,10|0,0:2|1:2,0:0:0:0:
100,96,82162,5,2,1:2:0:0:
100,96,82265,2,0,P|117:140|136:192,1,93.3333333333333,10|10,0:2|0:2,0:0:0:0:
134,273,82573,1,2,3:2:0:0:
276,372,82778,1,2,1:2:0:0:
276,372,82880,2,0,P|324:368|352:332,1,93.3333333333333,10|2,0:2|0:2,0:0:0:0:
336,252,83188,5,10,0:2:0:0:
432,140,83393,1,2,1:2:0:0:
432,140,83496,1,8,0:2:0:0:
320,48,83701,1,10,0:2:0:0:
320,48,83803,2,0,P|280:20|228:20,1,93.3333333333333,0|2,3:2|1:2,0:0:0:0:
148,76,84111,1,10,0:2:0:0:
44,184,84316,6,0,L|36:228,2,23.3333333333333,2|2|2,0:2|0:2|0:2,0:0:0:0:
265,142,84727,2,0,P|313:128|373:114,1,93.3333333333333,14|10,0:2|0:2,0:0:0:0:
437,102,85034,1,2,3:2:0:0:
449,254,85239,1,2,1:2:0:0:
449,254,85342,2,0,P|403:265|341:282,1,93.3333333333333,10|2,0:2|0:2,0:0:0:0:
277,294,85649,5,2,1:2:0:0:
148,360,85855,1,2,1:2:0:0:
148,360,85957,1,8,0:2:0:0:
56,248,86162,1,10,0:2:0:0:
56,248,86265,2,0,P|24:212|32:152,1,93.3333333333333,0|2,3:2|1:2,0:0:0:0:
63,94,86573,2,0,B|135:102|119:50|207:58,1,140,10|0,0:2|1:2,0:0:0:0:
364,84,87085,5,2,1:2:0:0:
364,84,87188,2,0,P|396:120|388:176,1,93.3333333333333,10|10,0:2|0:2,0:0:0:0:
344,228,87496,1,0,3:2:0:0:
196,300,87701,1,2,1:2:0:0:
196,300,87804,2,0,P|164:264|172:208,1,93.3333333333333,10|2,0:2|0:2,0:0:0:0:
216,156,88111,6,0,P|248:120|240:64,1,93.3333333333333,2|10,3:2|0:2,0:0:0:0:
188,16,88419,1,10,0:2:0:0:
56,116,88624,2,0,P|34:202|12:304,1,186.666666666667,6|10,1:2|0:2,0:0:0:0:
144,376,89239,5,10,0:2:0:0:
144,376,89342,1,4,1:2:0:0:
412,216,89957,2,0,P|407:255|428:284,1,74.6666666666667,2|0,1:2|0:0,0:0:0:0:
500,280,90265,2,0,P|513:230|476:182,2,112,2|0|0,0:2|1:2|0:0,0:0:0:0:
360,352,91188,2,0,P|308:337|248:324,1,112,2|2,1:2|0:2,0:0:0:0:
100,368,91803,6,0,P|40:328|60:228,1,186.666666666667,0|2,1:2|0:2,0:0:0:0:
116,176,92419,2,0,B|164:144|164:144|224:172,1,112,2|2,1:2|0:2,0:0:0:0:
324,284,93034,2,0,B|360:292|360:292|392:264,1,74.6666666666667,2|2,1:2|0:2,0:0:0:0:
436,208,93342,1,0,0:0:0:0:
484,116,93547,2,0,P|468:80|392:64,1,112,2|2,0:2|0:2,0:0:0:0:
276,152,94162,5,2,0:2:0:0:
276,152,94265,2,0,P|260:188|184:204,1,112,0|0,1:2|0:0,0:0:0:0:
52,140,94880,6,0,P|68:86|88:24,2,112,2|2|2,1:2|0:2|1:2,0:0:0:0:
16,292,95803,1,2,0:2:0:0:
104,356,96009,1,2,0:2:0:0:
104,356,96111,2,0,P|158:340|220:324,1,112,0|2,1:2|0:2,0:0:0:0:
364,360,96727,6,0,P|420:364|464:320,1,112,2|0,1:2|0:0,0:0:0:0:
436,232,97239,1,2,0:2:0:0:
436,232,97342,2,0,P|380:228|336:272,1,112,0|2,1:2|0:2,0:0:0:0:
188,228,97957,1,2,1:2:0:0:
88,260,98162,2,0,P|73:321|60:380,2,112,2|2|2,0:2|0:2|0:2,0:0:0:0:
56,192,98880,1,0,0:0:0:0:
188,40,99188,6,0,B|244:14|292:60|268:76|320:124|382:91,1,209.999993591309,12|0,1:2|0:0,0:0:0:0:
448,60,99803,2,0,P|504:132|468:248,1,209.999993591309,6|0,0:1|0:0,0:0:0:0:
412,288,100419,2,0,P|353:307|284:332,1,125.999996154785,2|2,1:2|1:2,0:0:0:0:
108,360,101034,2,0,B|91:306|27:305|27:305|83:274|84:210,1,209.999993591309,6|0,0:1|0:0,0:0:0:0:
100,144,101650,6,0,P|116:88|184:76,1,125.999996154785,2|2,1:2|0:2,0:0:0:0:
276,148,102162,1,2,0:2:0:0:
276,148,102265,2,0,P|316:132|360:116,1,83.9999974365235,6|2,0:1|0:2,0:0:0:0:
428,88,102573,1,2,0:2:0:0:
492,264,102880,1,2,1:2:0:0:
388,348,103085,1,2,0:2:0:0:
388,348,103188,1,0,1:2:0:0:
276,272,103393,2,0,P|220:293|156:320,2,125.999996154785,2|2|2,0:2|0:2|0:2,0:0:0:0:
376,264,104111,6,0,P|408:244|380:100,1,209.999993591309,0|0,1:2|0:0,0:0:0:0:
308,72,104727,2,0,P|246:55|176:40,1,125.999996154785,6|2,0:1|0:2,0:0:0:0:
40,164,105342,2,0,P|84:160|128:228,1,125.999996154785,2|2,1:2|1:2,0:0:0:0:
136,352,105855,1,2,0:2:0:0:
136,352,105957,2,0,L|232:320,1,83.9999974365235,6|2,0:1|0:2,0:0:0:0:
292,304,106265,1,2,0:2:0:0:
472,364,106573,6,0,P|446:270|412:152,1,209.999993591309,2|2,1:2|0:2,0:0:0:0:
456,92,107188,2,0,P|420:44|344:52,1,125.999996154785,6|2,0:1|0:2,0:0:0:0:
252,112,107701,1,2,0:2:0:0:
252,112,107803,2,0,P|196:128|144:80,1,125.999996154785,2|2,1:2|1:2,0:0:0:0:
36,20,108316,1,2,0:2:0:0:
36,20,108419,2,0,P|48:61|60:104,1,83.9999974365235,4|0,0:1|1:2,0:0:0:0:
32,176,108727,2,0,P|49:239|68:316,1,125.999996154785,0|4,1:2|1:2,0:0:0:0:
492,364,118778,5,8,0:2:0:0:
492,364,118880,2,0,P|464:316|392:316,1,125.999996154785,4|10,1:2|0:2,0:0:0:0:
216,360,119496,2,0,P|154:343|88:324,1,125.999996154785,2|10,1:2|0:2,0:0:0:0:
48,208,120009,1,0,0:0:0:0:
48,208,120111,2,0,P|16:164|56:96,2,125.999996154785,2|10|2,1:2|0:2|1:2,0:0:0:0:
224,280,121034,1,10,0:2:0:0:
320,116,121342,6,0,P|356:44|484:52,1,209.999993591309,6|0,1:2|0:0,0:0:0:0:
500,140,121957,2,0,B|525:195|480:244|460:220|424:276|456:332,1,209.999993591309,6|0,1:2|0:0,0:0:0:0:
368,376,122573,2,0,P|306:360|236:344,1,125.999996154785,6|8,1:2|0:2,0:0:0:0:
56,368,123188,1,2,1:2:0:0:
60,244,123393,1,8,0:3:0:0:
60,244,123496,2,0,P|100:254|156:272,1,83.9999974365235,8|8,0:2|0:2,0:0:0:0:
236,244,123803,5,4,1:2:0:0:
400,340,124111,2,0,P|444:308|440:236,1,125.999996154785,10|2,0:2|1:2,0:0:0:0:
376,64,124727,2,0,P|331:51|284:40,1,83.9999974365235,10|4,0:2|0:3,0:0:0:0:
220,68,125034,1,0,1:2:0:0:
100,216,125342,2,0,P|68:216|24:136,2,125.999996154785,10|2|10,0:2|1:2|0:2,0:0:0:0:
284,176,126265,5,14,1:2:0:0:
404,324,126573,1,10,1:2:0:0:
504,164,126880,2,0,B|516:125|516:125|492:89,1,83.9999974365235,10|10,1:2|1:2,0:0:0:0:
316,24,127393,6,0,P|259:35|184:56,1,125.999996154785,14|8,1:2|0:2,0:0:0:0:
116,44,127803,2,0,P|164:92|148:156,1,125.999996154785,8|8,0:3|0:2,0:0:0:0:
76,244,128316,1,0,0:0:0:0:
76,244,128419,1,8,0:2:0:0:
196,344,128624,5,8,0:2:0:0:
196,344,128727,2,0,P|241:354|292:368,1,93.3333333333333,6|8,1:2|0:2,0:0:0:0:
340,296,129034,2,0,P|385:284|430:273,1,93.3333333333333,2|8,1:2|0:2,0:0:0:0:
512,312,129342,2,0,P|468:272|488:196,1,140,2|2,1:2|1:2,0:0:0:0:
512,56,129855,5,10,0:2:0:0:
512,56,129957,2,0,P|464:52|428:80,1,93.3333333333333,2|10,1:2|0:2,0:0:0:0:
372,148,130265,2,0,P|324:152|288:124,1,93.3333333333333,2|8,1:2|0:2,0:0:0:0:
240,52,130573,1,2,1:2:0:0:
96,68,130778,1,8,0:2:0:0:
96,68,130880,2,0,L|76:16,2,46.6666666666667,0|0|8,1:2|0:0|0:2,0:0:0:0:
128,152,131188,5,0,1:2:0:0:
48,312,131393,1,10,0:2:0:0:
48,312,131496,2,0,P|72:340|132:352,1,93.3333333333333,2|8,1:2|0:2,0:0:0:0:
176,280,131803,2,0,P|204:224|284:224,1,140,2|2,1:2|1:2,0:0:0:0:
414,289,132316,5,8,0:2:0:0:
414,289,132419,2,0,B|444:253|444:253|422:197,1,93.3333333333333,2|8,1:2|0:2,0:0:0:0:
341,190,132727,2,0,B|310:225|310:225|332:281,1,93.3333333333333,2|10,1:2|0:2,0:0:0:0:
356,372,133034,2,0,B|284:380|300:328|212:336,1,140,2|2,1:2|1:2,0:0:0:0:
60,364,133547,5,8,0:2:0:0:
60,364,133650,2,0,P|32:328|44:268,1,93.3333333333333,6|8,1:2|0:2,0:0:0:0:
104,224,133957,2,0,P|132:188|120:128,1,93.3333333333333,0|8,1:2|0:2,0:0:0:0:
84,68,134265,2,0,P|146:47|228:24,1,140,2|0,1:2|1:2,0:0:0:0:
356,100,134778,5,8,0:2:0:0:
356,100,134881,2,0,P|384:64|368:8,1,93.3333333333333,2|8,1:2|0:2,0:0:0:0:
292,4,135188,2,0,P|265:39|271:84,1,93.3333333333333,0|8,1:2|0:2,0:0:0:0:
308,168,135496,2,0,P|327:240|344:308,1,140,2|0,1:2|1:2,0:0:0:0:
208,364,136009,5,8,0:2:0:0:
208,364,136111,2,0,P|196:315|184:264,1,93.3333333333333,2|10,1:2|0:2,0:0:0:0:
244,204,136419,1,2,1:2:0:0:
140,104,136624,5,10,0:2:0:0:
140,104,136726,2,0,P|151:152|164:204,1,93.3333333333333,2|8,1:2|0:2,0:0:0:0:
104,264,137034,1,2,1:2:0:0:
236,348,137239,5,8,0:2:0:0:
236,348,137342,2,0,B|276:376|276:376|317:360,1,93.3333333333333,10|8,1:2|0:2,0:0:0:0:
388,304,137650,2,0,P|401:259|416:212,1,93.3333333333333,2|8,1:2|0:2,0:0:0:0:
484,160,137957,2,0,P|470:115|456:70,1,93.3333333333333,2|8,1:2|0:2,0:0:0:0:
400,4,138265,1,10,0:2:0:0:
256,92,138470,5,8,0:2:0:0:
256,92,138573,2,0,P|224:124|160:124,1,93.3333333333333,6|10,1:2|0:2,0:0:0:0:
112,68,138880,2,0,P|80:36|16:36,1,93.3333333333333,2|8,1:2|0:2,0:0:0:0:
16,116,139188,2,0,P|36:185|56:252,1,140,2|2,1:2|1:2,0:0:0:0:
168,356,139701,5,10,0:2:0:0:
168,356,139803,2,0,P|214:340|276:320,1,93.3333333333333,2|8,1:2|0:2,0:0:0:0:
316,260,140111,2,0,P|301:215|286:171,1,93.3333333333333,2|8,1:2|0:2,0:0:0:0:
252,88,140419,1,2,1:2:0:0:
396,44,140624,1,8,0:2:0:0:
396,44,140727,2,0,L|376:-8,2,46.6666666666667,0|0|8,1:2|0:0|0:2,0:0:0:0:
424,128,141034,5,0,1:2:0:0:
484,272,141239,1,10,0:2:0:0:
484,272,141342,2,0,P|452:308|400:312,1,93.3333333333333,2|10,1:2|0:2,0:0:0:0:
324,284,141650,2,0,B|252:276|268:328|180:320,1,140,2|2,1:2|1:2,0:0:0:0:
48,244,142162,5,8,0:2:0:0:
48,244,142265,2,0,P|20:204|36:152,2,93.3333333333333,14|10|10,1:2|1:2|1:2,0:0:0:0:
184,144,142880,2,0,P|211:180|204:225,2,93.3333333333333,10|10|10,1:2|1:2|1:2,0:0:0:0:
80,12,143496,6,0,P|150:26|220:44,1,140,6|8,1:2|0:2,0:0:0:0:
360,124,144009,1,8,0:2:0:0:
360,124,144111,2,0,P|388:124|428:32,1,140,2|8,3:2|0:2,0:0:0:0:
288,80,144624,5,0,0:0:0:0:
288,80,144727,2,0,P|275:125|260:184,1,93.3333333333333,2|0,1:2|1:2,0:0:0:0:
324,232,145034,2,0,P|336:277|352:336,1,93.3333333333333,8|8,0:2|0:2,0:0:0:0:
276,372,145342,2,0,P|240:332|156:336,1,140,2|8,3:2|0:2,0:0:0:0:
16,376,145855,5,0,0:0:0:0:
16,376,145957,2,0,P|29:331|44:284,1,93.3333333333333,2|2,1:2|1:2,0:0:0:0:
72,200,146265,1,10,0:2:0:0:
136,68,146470,1,10,0:2:0:0:
136,68,146573,2,0,P|164:40|220:36,1,93.3333333333333,2|0,3:2|1:2,0:0:0:0:
288,88,146880,1,10,0:2:0:0:
428,40,147085,5,0,0:0:0:0:
428,40,147188,2,0,P|456:72|452:128,1,93.3333333333333,2|8,1:2|0:2,0:0:0:0:
384,176,147496,2,0,P|354:211|356:256,1,93.3333333333333,2|8,1:2|0:2,0:0:0:0:
396,336,147803,2,0,P|349:350|296:368,1,93.3333333333333,2|8,1:2|0:2,0:0:0:0:
228,324,148111,2,0,P|212:278|192:220,1,93.3333333333333,10|8,0:2|0:2,0:0:0:0:
256,144,148419,5,4,1:2:0:0:
64,28,148727,2,0,P|24:56|24:112,1,93.3333333333333,8|0,0:2|0:0,0:0:0:0:
40,176,149034,2,0,P|59:242|80:316,1,140,0|8,1:2|0:3,0:0:0:0:
220,368,149547,5,4,0:3:0:0:
220,368,149650,2,0,B|292:376|276:324|364:332,1,140,0|8,1:2|0:2,0:0:0:0:
492,380,150162,2,0,P|479:319|460:228,1,140,0|4,0:0|0:3,0:0:0:0:
484,160,150574,1,8,0:2:0:0:
388,52,150778,5,2,0:2:0:0:
388,52,150880,2,0,P|341:35|292:20,1,93.3333333333333,0|0,1:2|0:0,0:0:0:0:
224,60,151188,2,0,P|192:100|204:148,1,93.3333333333333,8|0,0:2|0:0,0:0:0:0:
252,204,151496,1,0,1:2:0:0:
392,148,151701,1,8,0:3:0:0:
392,148,151803,1,8,0:2:0:0:
428,296,152009,5,4,0:3:0:0:
428,296,152111,2,0,P|480:288|504:212,2,140,0|0|0,1:2|1:2|1:2,0:0:0:0:
394,384,153034,1,2,3:2:0:0:
244,224,153239,5,2,0:2:0:0:
244,224,153342,2,0,P|193:204|144:188,1,93.3333333333333,6|10,1:2|0:2,0:0:0:0:
84,148,153650,2,0,P|40:192|68:276,1,140,2|2,1:2|1:2,0:0:0:0:
180,348,154162,1,10,0:2:0:0:
180,348,154265,1,2,1:2:0:0:
312,272,154470,5,10,0:2:0:0:
312,272,154573,1,0,1:2:0:0:
444,344,154778,1,10,0:2:0:0:
444,344,154880,2,0,P|484:312|484:264,1,93.3333333333333,2|10,1:2|0:2,0:0:0:0:
428,212,155188,2,0,P|416:184|416:160,3,46.6666666666667,2|2|10|2,1:2|0:2|0:2|1:2,0:0:0:0:
496,44,155701,5,8,0:2:0:0:
496,44,155803,1,0,1:2:0:0:
348,76,156009,1,10,0:2:0:0:
348,76,156111,2,0,P|300:61|252:48,1,93.3333333333333,2|10,1:2|0:2,0:0:0:0:
176,28,156419,2,0,P|112:50|36:80,1,140,2|2,1:2|1:2,0:0:0:0:
16,224,156932,5,10,0:2:0:0:
16,224,157034,2,0,P|48:224|80:280,1,93.3333333333333,2|10,1:2|0:2,0:0:0:0:
104,352,157342,2,0,P|136:352|168:296,1,93.3333333333333,2|10,1:2|0:2,0:0:0:0:
152,224,157650,2,0,B|224:232|208:180|296:188,1,140,2|2,1:2|1:2,0:0:0:0:
448,236,158162,5,10,0:2:0:0:
448,236,158265,2,0,P|496:272|476:352,1,140,2|0,1:2|1:2,0:0:0:0:
340,328,158778,1,8,0:2:0:0:
340,328,158880,1,0,1:2:0:0:
196,360,159085,1,10,0:2:0:0:
196,360,159188,2,0,P|148:360|112:324,1,93.3333333333333,2|10,1:2|0:2,0:0:0:0:
108,248,159496,6,0,P|121:203|140:148,1,93.3333333333333,2|8,1:2|0:2,0:0:0:0:
104,80,159803,2,0,P|140:36|228:56,1,140,2|0,1:2|1:2,0:0:0:0:
344,132,160316,1,10,0:2:0:0:
344,132,160419,2,0,L|396:148,2,46.6666666666667,2|2|10,1:2|0:2|0:2,0:0:0:0:
300,60,160727,5,2,1:2:0:0:
244,220,160932,1,8,0:2:0:0:
244,220,161034,2,0,P|244:248|256:276,2,46.6666666666667,2|2|10,1:2|0:2|0:2,0:0:0:0:
328,220,161342,2,0,P|352:234|382:237,2,46.6666666666667,2|2|10,1:2|0:2|0:2,0:0:0:0:
388,145,161650,2,0,P|412:108|364:20,1,140,2|2,1:2|1:2,0:0:0:0:
216,64,162162,5,10,0:2:0:0:
216,64,162265,2,0,P|169:49|108:32,1,93.3333333333333,6|10,1:2|0:2,0:0:0:0:
32,84,162573,2,0,P|51:152|72:232,1,140,2|8,1:2|0:2,0:0:0:0:
172,336,163085,5,8,0:2:0:0:
172,336,163188,2,0,P|196:292|256:288,1,112,6|10,1:2|0:2,0:0:0:0:
389,364,163803,1,2,1:2:0:0:
471,299,164009,2,0,L|481:256,1,37.3333333333333,2|10,1:2|0:2,0:2:0:0:
412,188,164316,1,2,0:2:0:0:
412,188,164419,2,0,P|359:170|296:152,1,112,2|10,1:2|0:2,0:0:0:0:
164,84,165034,2,0,P|204:116|208:176,1,112,2|10,1:2|0:2,0:0:0:0:
140,316,165650,5,2,1:2:0:0:
52,260,165855,1,2,0:2:0:0:
52,260,165957,2,0,P|37:208|20:140,1,112,10|2,0:2|1:2,0:0:0:0:
68,57,166470,2,0,P|90:49|107:49,1,37.3333333333333,0|10,1:2|0:2,0:2:0:0:
188,120,166778,1,2,0:2:0:0:
188,120,166880,2,0,P|173:173|158:228,2,112,2|10|2,1:2|0:2|1:2,0:0:0:0:
276,60,167701,1,2,1:2:0:0:
276,60,167803,2,0,P|316:72|358:91,1,74.6666666666667,10|2,0:2|0:2,0:0:0:0:
391,149,168111,5,6,1:2:0:0:
504,36,168419,2,0,P|484:91|464:152,2,112,10|2|10,0:2|1:2|0:2,0:0:0:0:
368,116,169342,2,0,P|385:62|404:10,2,112,2|10|2,1:2|0:2|1:2,0:0:0:0:
384,272,170265,1,10,0:2:0:0:
256,364,170573,6,0,P|208:364|176:304,1,112,2|10,1:2|0:2,0:0:0:0:
24,268,171188,2,0,P|0:226|35:168,1,112,2|10,1:2|0:2,0:0:0:0:
184,160,171803,2,0,B|245:188|296:144|268:120|328:72|384:104,2,224,2|2|2,1:2|1:2|1:2,0:0:0:0:
52,76,173342,5,8,0:2:0:0:
20,228,173650,1,0,1:2:0:0:
136,336,173957,2,0,P|171:320|216:304,1,74.6666666666667,10|0,0:2|0:0,0:0:0:0:
272,272,174265,2,0,P|381:303|488:336,1,224,2|0,1:2|1:2,0:0:0:0:
424,192,175188,1,8,0:2:0:0:
508,60,175496,6,0,P|480:32|432:32,1,74.6666666666667,0|2,1:2|0:2,0:0:0:0:
380,60,175803,1,10,0:2:0:0:
308,136,176009,1,2,0:2:0:0:
308,136,176111,2,0,P|272:180|220:180,1,112,2|10,1:2|0:2,0:0:0:0:
132,120,176624,1,2,0:2:0:0:
132,120,176727,2,0,P|114:171|96:228,1,112,2|10,1:2|0:2,0:0:0:0:
184,356,177342,2,0,P|237:338|296:320,1,112,2|8,1:2|0:2,0:0:0:0:
476,368,177957,5,4,1:2:0:0:
392,200,178265,2,0,P|356:152|284:160,1,125.999996154785,10|2,0:2|1:2,0:0:0:0:
144,268,178880,2,0,P|112:296|64:296,1,83.9999974365235,10|4,0:2|0:3,0:0:0:0:
16,240,179188,1,0,1:2:0:0:
80,60,179496,2,0,P|137:78|208:104,2,125.999996154785,10|2|10,0:2|1:2|0:2,0:0:0:0:
16,240,180419,5,14,1:2:0:0:
176,340,180727,1,10,1:2:0:0:
328,228,181034,2,0,P|317:191|304:148,1,83.9999974365235,10|10,1:2|1:2,0:0:0:0:
464,48,181547,2,0,P|445:113|428:176,1,125.999996154785,14|8,1:2|0:2,0:0:0:0:
460,244,181957,2,0,P|477:304|494:365,1,125.999996154785,8|8,0:3|0:2,0:0:0:0:
494,365,184111,6,0,P|461:330|413:330,1,93.3333333333333,6|8,1:2|0:2,0:0:0:0:
332,356,184419,2,0,P|286:352|256:319,1,93.3333333333333,2|8,1:2|0:2,0:0:0:0:
200,252,184727,2,0,B|128:244|144:296|56:288,1,140,2|2,1:2|1:2,0:0:0:0:
28,144,185239,5,10,0:2:0:0:
28,144,185342,2,0,P|24:100|68:64,1,93.3333333333333,2|10,1:2|0:2,0:0:0:0:
144,48,185650,2,0,P|186:60|236:76,1,93.3333333333333,2|8,1:2|0:2,0:0:0:0:
300,132,185957,1,2,1:2:0:0:
436,68,186162,1,8,0:2:0:0:
436,68,186265,2,0,L|416:16,2,46.6666666666667,0|0|8,1:2|0:0|0:2,0:0:0:0:
468,152,186573,5,0,1:2:0:0:
476,328,186778,1,10,0:2:0:0:
476,328,186880,2,0,B|440:360|440:360|380:344,1,93.3333333333333,2|8,1:2|0:2,0:0:0:0:
324,324,187188,2,0,P|307:259|284:176,1,140,2|2,1:2|1:2,0:0:0:0:
335,42,187701,5,8,0:2:0:0:
335,42,187803,2,0,P|371:18|423:26,1,93.3333333333333,2|8,1:2|0:2,0:0:0:0:
432,112,188111,2,0,P|396:136|344:128,1,93.3333333333333,2|10,1:2|0:2,0:0:0:0:
248,104,188419,2,0,B|176:112|192:60|104:68,1,140,2|2,1:2|1:2,0:0:0:0:
32,216,188932,5,8,0:2:0:0:
32,216,189034,2,0,P|46:263|64:320,1,93.3333333333333,6|8,1:2|0:2,0:0:0:0:
128,364,189342,2,0,P|172:349|228:332,1,93.3333333333333,0|8,1:2|0:2,0:0:0:0:
284,276,189650,2,0,B|356:268|340:320|428:312,1,140,2|0,1:2|1:2,0:0:0:0:
468,176,190162,5,8,0:2:0:0:
468,176,190265,2,0,P|496:140|480:84,1,93.3333333333333,2|8,1:2|0:2,0:0:0:0:
412,56,190573,2,0,P|368:64|320:76,1,93.3333333333333,0|8,1:2|0:2,0:0:0:0:
248,128,190880,2,0,P|185:110|104:88,1,140,2|0,1:2|1:2,0:0:0:0:
40,224,191393,5,8,0:2:0:0:
40,224,191496,2,0,P|76:252|128:256,1,93.3333333333333,2|10,1:2|0:2,0:0:0:0:
204,228,191803,1,2,1:2:0:0:
340,160,192009,5,10,0:2:0:0:
340,160,192112,2,0,P|376:132|428:128,1,93.3333333333333,2|8,1:2|0:2,0:0:0:0:
504,156,192419,1,2,1:2:0:0:
488,308,192624,5,8,0:2:0:0:
488,308,192727,2,0,P|441:324|388:344,1,93.3333333333333,10|8,1:2|0:2,0:0:0:0:
324,296,193034,2,0,P|280:280|236:264,1,93.3333333333333,2|8,1:2|0:2,0:0:0:0:
164,312,193342,2,0,P|117:328|64:348,1,93.3333333333333,2|8,1:2|0:2,0:0:0:0:
4,292,193650,1,10,0:2:0:0:
112,152,193855,5,8,0:2:0:0:
112,152,193958,2,0,P|136:113|114:63,1,93.3333333333333,6|10,1:2|0:2,0:0:0:0:
33,59,194265,2,0,P|8:97|30:147,1,93.3333333333333,2|8,1:2|0:2,0:0:0:0:
60,220,194573,2,0,B|120:256|120:256|188:216,1,140,2|2,1:2|1:2,0:0:0:0:
288,116,195085,5,10,0:2:0:0:
288,116,195188,2,0,P|320:88|372:92,1,93.3333333333333,2|8,1:2|0:2,0:0:0:0:
436,148,195496,2,0,P|446:193|460:252,1,93.3333333333333,2|8,1:2|0:2,0:0:0:0:
476,324,195803,1,2,1:2:0:0:
332,296,196009,1,8,0:2:0:0:
332,296,196111,2,0,L|352:244,2,46.6666666666667,0|0|8,1:2|0:0|0:2,0:0:0:0:
296,376,196419,5,0,1:2:0:0:
220,252,196624,1,10,0:2:0:0:
220,252,196727,2,0,P|207:206|192:148,1,93.3333333333333,2|10,1:2|0:2,0:0:0:0:
140,92,197034,2,0,P|100:84|56:160,1,140,2|2,1:2|1:2,0:0:0:0:
128,312,197547,5,8,0:2:0:0:
128,312,197650,2,0,P|81:325|28:344,2,93.3333333333333,14|10|10,1:2|1:2|1:2,0:0:0:0:
272,228,198265,2,0,P|318:241|372:260,2,93.3333333333333,10|10|10,1:2|1:2|1:2,0:0:0:0:
184,372,198880,6,0,P|167:307|148:228,1,140,6|8,1:2|0:2,0:0:0:0:
124,92,199393,1,8,0:2:0:0:
124,92,199496,2,0,B|196:84|180:136|268:128,1,140,2|8,3:2|0:2,0:0:0:0:
400,76,200009,5,0,0:0:0:0:
400,76,200111,2,0,P|428:120|420:164,1,93.3333333333333,2|0,1:2|1:2,0:0:0:0:
352,212,200419,2,0,P|324:256|332:300,1,93.3333333333333,8|8,0:2|0:2,0:0:0:0:
384,364,200727,2,0,P|318:350|240:336,1,140,2|8,3:2|0:2,0:0:0:0:
100,364,201239,5,0,0:0:0:0:
100,364,201342,2,0,B|68:330|68:330|79:275,1,93.3333333333333,2|2,1:2|1:2,0:0:0:0:
120,208,201650,1,10,0:2:0:0:
228,104,201855,5,10,0:2:0:0:
228,104,201958,2,0,B|259:137|259:137|248:192,1,93.3333333333333,2|0,3:2|1:2,0:0:0:0:
208,260,202266,1,10,0:2:0:0:
148,124,202470,5,0,0:0:0:0:
148,124,202573,2,0,P|120:92|132:36,1,93.3333333333333,2|8,1:2|0:2,0:0:0:0:
208,16,202880,2,0,P|256:30|308:48,1,93.3333333333333,2|8,1:2|0:2,0:0:0:0:
384,28,203188,2,0,P|428:13|472:0,1,93.3333333333333,2|8,1:2|0:2,0:0:0:0:
508,84,203496,2,0,P|514:128|485:163,1,93.3333333333333,10|8,0:2|0:2,0:0:0:0:
416,212,203803,5,2,0:2:0:0:
416,212,204111,2,0,P|353:238|280:272,1,140,10|2,3:2|0:2,0:0:0:0:
84,360,204727,2,0,P|48:336|44:280,1,93.3333333333333,10|2,3:2|0:2,0:0:0:0:
104,232,205034,5,2,0:2:0:0:
104,232,205342,2,0,P|144:208|132:120,1,140,10|2,3:2|0:2,0:0:0:0:
340,32,205957,2,0,P|350:77|364:136,1,93.3333333333333,10|0,3:2|0:0,0:0:0:0:
400,204,206265,5,2,0:2:0:0:
400,204,206573,2,0,B|328:196|344:248|256:240,1,140,10|2,3:2|0:2,0:0:0:0:
64,328,207188,2,0,P|108:342|160:360,1,93.3333333333333,10|0,3:2|0:0,0:0:0:0:
236,332,207496,5,2,0:2:0:0:
236,332,207803,2,0,P|300:312|380:292,2,140,10|10|10,3:2|3:2|3:2,0:0:0:0:
64,188,208727,5,2,0:2:0:0:
64,188,209034,2,0,P|32:152|40:104,1,93.3333333333333,4|8,1:2|0:2,0:0:0:0:
112,60,209342,2,0,P|179:78|256:104,1,140,2|8,3:2|0:2,0:0:0:0:
392,56,209855,5,0,0:0:0:0:
392,56,209957,1,2,1:2:0:0:
496,252,210265,2,0,P|453:268|404:288,1,93.3333333333333,8|8,0:2|0:2,0:0:0:0:
356,352,210573,2,0,P|316:344|300:248,1,140,2|8,3:2|0:2,0:0:0:0:
392,56,211188,6,0,P|348:24|304:28,1,93.3333333333333,2|0,1:2|1:2,0:0:0:0:
252,84,211496,2,0,P|216:136|128:132,2,140,10|2|10,0:2|3:2|0:2,0:0:0:0:
28,56,212419,6,0,P|48:125|68:196,1,140,2|10,1:2|0:2,0:0:0:0:
20,332,212932,1,8,0:3:0:0:
20,332,213034,2,0,P|52:284|132:288,1,140,6|10,0:3|0:2,0:0:0:0:
280,356,213547,5,8,0:2:0:0:
280,356,213650,2,0,P|322:339|384:320,1,93.3333333333333,6|10,1:2|0:2,0:0:0:0:
444,368,213957,2,0,P|472:344|472:284,1,93.3333333333333,2|8,1:2|0:2,0:0:0:0:
412,228,214265,2,0,P|368:184|384:112,1,140,2|2,1:2|1:2,0:0:0:0:
496,12,214778,5,10,0:2:0:0:
496,12,214880,2,0,P|448:26|396:44,1,93.3333333333333,2|8,1:2|0:2,0:0:0:0:
320,60,215188,2,0,P|275:45|231:31,1,93.3333333333333,2|8,1:2|0:2,0:0:0:0:
144,8,215496,1,2,1:2:0:0:
36,112,215701,1,8,0:2:0:0:
36,112,215803,2,0,L|56:176,2,46.6666666666667,0|0|8,1:2|0:0|0:2,0:0:0:0:
64,28,216111,5,0,1:2:0:0:
176,124,216316,1,10,0:2:0:0:
176,124,216419,2,0,P|163:168|148:224,1,93.3333333333333,2|10,1:2|0:2,0:0:0:0:
132,300,216727,2,0,B|204:308|188:256|276:264,1,140,2|2,1:2|1:2,0:0:0:0:
488,380,217342,6,0,P|508:340|496:288,2,93.3333333333333,14|10|10,1:2|1:2|1:2,0:0:0:0:
356,276,217957,2,0,P|335:317|344:362,2,93.3333333333333,10|10|10,1:2|1:2|1:2,0:0:0:0:
456,140,218573,6,0,P|436:88|344:72,1,140,6|8,1:2|0:2,0:0:0:0:
268,184,219085,1,8,0:2:0:0:
268,184,219188,2,0,P|203:161|132:140,1,140,2|8,3:2|0:2,0:0:0:0:
20,44,219701,5,0,0:0:0:0:
20,44,219803,2,0,P|32:88|48:144,1,93.3333333333333,2|0,1:2|1:2,0:0:0:0:
12,216,220111,2,0,P|24:260|40:316,1,93.3333333333333,8|8,0:2|0:2,0:0:0:0:
100,368,220419,2,0,B|176:380|152:320|244:332,1,140,2|8,3:2|0:2,0:0:0:0:
372,280,220932,5,0,0:0:0:0:
372,280,221034,2,0,P|384:248|352:192,1,93.3333333333333,2|2,1:2|1:2,0:0:0:0:
284,148,221342,1,10,0:2:0:0:
116,192,221547,1,10,0:2:0:0:
116,192,221649,2,0,P|92:152|104:108,1,93.3333333333333,2|0,3:2|1:2,0:0:0:0:
176,56,221957,1,10,0:2:0:0:
324,20,222162,5,0,0:0:0:0:
324,20,222265,2,0,P|362:30|424:48,1,93.3333333333333,2|8,1:2|0:2,0:0:0:0:
480,104,222573,2,0,P|504:144|492:200,1,93.3333333333333,2|8,1:2|0:2,0:0:0:0:
412,208,222880,2,0,P|388:248|400:304,1,93.3333333333333,2|8,1:2|0:2,0:0:0:0:
456,356,223188,2,0,P|410:367|366:380,1,93.3333333333333,10|8,0:2|0:2,0:0:0:0:
276,320,223496,5,4,1:2:0:0:
56,364,223803,2,0,P|36:344|48:276,1,93.3333333333333,8|0,0:2|0:0,0:0:0:0:
116,248,224111,2,0,P|168:220|156:132,1,140,0|8,1:2|0:3,0:0:0:0:
52,64,224624,5,4,0:3:0:0:
52,64,224727,2,0,P|117:44|192:24,1,140,0|8,1:2|0:2,0:0:0:0:
312,104,225239,2,0,B|384:112|368:60|456:68,1,140,2|4,0:2|0:3,0:0:0:0:
500,132,225650,1,8,0:2:0:0:
476,284,225855,5,2,0:2:0:0:
476,284,225957,2,0,P|444:312|380:308,1,93.3333333333333,0|0,1:2|0:0,0:0:0:0:
328,268,226265,2,0,P|296:240|232:244,1,93.3333333333333,8|0,0:2|0:0,0:0:0:0:
176,280,226573,1,0,1:2:0:0:
64,188,226778,1,8,0:3:0:0:
64,188,226880,1,8,0:2:0:0:
160,72,227085,5,4,0:3:0:0:
160,72,227188,2,0,P|204:24|288:36,2,140,0|0|0,1:2|1:2|1:2,0:0:0:0:
64,188,228111,1,0,3:2:0:0:
52,192,228419,6,0,P|32:232|56:288,1,93.3333333333333,6|2,1:2|1:2,0:0:0:0:
108,332,228727,2,0,P|152:356|200:336,1,93.3333333333333,10|10,0:2|0:2,0:0:0:0:
256,292,229034,1,2,3:2:0:0:
400,348,229239,1,2,1:2:0:0:
400,348,229342,2,0,P|416:303|436:252,1,93.3333333333333,10|2,0:2|0:2,0:0:0:0:
472,184,229650,5,2,1:2:0:0:
364,88,229855,1,2,1:2:0:0:
364,88,229957,1,8,0:2:0:0:
256,192,230162,1,10,0:2:0:0:
256,192,230265,2,0,P|208:192|172:156,1,93.3333333333333,0|2,3:2|1:2,0:0:0:0:
140,64,230573,2,0,P|128:32|24:24,1,140,10|0,0:2|1:2,0:0:0:0:
20,164,231085,5,2,1:2:0:0:
20,164,231188,2,0,P|31:209|44:260,1,93.3333333333333,10|10,0:2|0:2,0:0:0:0:
112,304,231496,1,2,3:2:0:0:
252,368,231701,5,2,1:2:0:0:
252,368,231804,2,0,P|263:322|276:272,1,93.3333333333333,10|2,0:2|0:2,0:0:0:0:
228,208,232112,1,10,0:2:0:0:
336,104,232316,1,2,1:2:0:0:
336,104,232419,1,8,0:2:0:0:
472,180,232624,1,10,0:2:0:0:
472,180,232727,2,0,P|500:228|488:280,1,93.3333333333333,0|2,3:2|1:2,0:0:0:0:
436,352,233034,1,10,0:2:0:0:
328,224,233239,6,0,L|336:192,2,23.3333333333333,2|2|4,0:2|0:2|1:2,0:0:0:0:
232,340,233547,1,2,1:2:0:0:
232,340,233650,2,0,P|192:368|136:368,1,93.3333333333333,10|10,0:2|0:2,0:0:0:0:
80,324,233957,1,2,3:2:0:0:
44,184,234162,1,2,1:2:0:0:
44,184,234265,2,0,P|84:156|140:156,1,93.3333333333333,10|2,0:2|0:2,0:0:0:0:
196,200,234572,5,2,1:2:0:0:
320,112,234778,1,2,1:2:0:0:
320,112,234880,1,8,0:2:0:0:
436,204,235085,1,10,0:2:0:0:
436,204,235188,2,0,P|421:247|404:304,1,93.3333333333333,0|2,3:2|1:2,0:0:0:0:
320,352,235496,2,0,P|300:288|276:212,1,140,10|4,0:2|1:2,0:0:0:0:
248,76,236009,5,2,0:2:0:0:
248,76,236111,2,0,B|212:48|212:48|152:60,1,93.3333333333333,10|10,0:2|0:2,0:0:0:0:
100,108,236419,1,8,0:2:0:0:
128,260,236624,1,10,0:2:0:0:
128,260,236726,2,0,B|164:288|164:288|224:276,1,93.3333333333333,10|10,0:2|0:2,0:0:0:0:
278,218,237034,6,0,B|314:190|314:190|374:202,1,93.3333333333333,2|10,1:2|0:2,0:0:0:0:
428,252,237342,1,10,0:2:0:0:
328,360,237547,2,0,B|240:408|160:332|208:292|112:220|40:280,1,336,6|0,1:2|0:0,0:0:0:0:
