osu file format v14

[General]
AudioFilename: audio.mp3
AudioLeadIn: 0
PreviewTime: 54778
Countdown: 0
SampleSet: Soft
StackLeniency: 0.5
Mode: 0
LetterboxInBreaks: 0
WidescreenStoryboard: 1

[Editor]
Bookmarks: 4932,15496,25342,35188,45034,54880,74573,79496,89342,99188,109034,118880,128727,148419,153342,163188,177957,184111,203803,213650,223496,228419,238470
DistanceSpacing: 1.4
BeatDivisor: 6
GridSize: 32
TimelineZoom: 1.950002

[Metadata]
Title:Readymade
TitleUnicode:レディメイド
Artist:Amatsuki
ArtistUnicode:天月
Creator:Kirishima-
Version:Strike
Source:
Tags:surii suri three 3 すりぃ 狂言 Kyougen あまつき ado japanese pop jpop j-pop jazz swing 1/3 utaite cover male vocalist pepekcz hyokar reform kujinn
BeatmapID:3594273
BeatmapSetID:1756375

[Difficulty]
HPDrainRate:5.5
CircleSize:4.5
OverallDifficulty:9.2
ApproachRate:9.5
SliderMultiplier:2
SliderTickRate:1

[Events]
//Background and Video events
0,0,"background.jpg",0,0
Video,-322,"video.mp4"
//Break Periods
//Storyboard Layer 0 (Background)
//Storyboard Layer 1 (Fail)
//Storyboard Layer 2 (Pass)
//Storyboard Layer 3 (Foreground)
//Storyboard Layer 4 (Overlay)
//Storyboard Sound Samples

[TimingPoints]
727,307.692307692308,4,2,22,50,1,0
4932,-50,4,2,22,80,0,0
5650,-66.6666666666667,4,2,22,70,0,1
5957,-90.9090909090909,4,2,22,70,0,0
7393,-83.3333333333333,4,2,22,70,0,0
8111,-90.9090909090909,4,2,22,70,0,0
9855,-66.6666666666667,4,2,22,70,0,0
10573,-66.6666666666667,4,2,22,70,0,1
10880,-90.9090909090909,4,2,22,70,0,0
12316,-83.3333333333333,4,2,22,70,0,0
13034,-90.9090909090909,4,2,22,70,0,0
14265,-83.3333333333333,4,2,22,70,0,0
15496,-133.333333333333,4,2,22,50,0,0
25342,-111.111111111111,4,2,22,65,0,0
35188,-117.647058823529,4,2,22,60,0,0
45034,-111.111111111111,4,2,22,65,0,0
52419,-100,4,2,22,70,0,0
53547,-66.6666666666667,4,2,22,70,0,0
53957,-100,4,2,22,70,0,0
54880,-50,4,2,22,75,0,1
55188,-83.3333333333333,4,2,22,75,0,1
58573,-50,4,2,22,75,0,1
58880,-83.3333333333333,4,2,22,75,0,1
63496,-66.6666666666667,4,2,22,75,0,1
64624,-66.6666666666667,4,2,22,75,0,0
64727,-83.3333333333333,4,2,22,75,0,1
68111,-200,4,2,22,75,0,1
68316,-200,4,2,22,75,0,0
68419,-66.6666666666667,4,2,22,75,0,1
69547,-66.6666666666667,4,2,22,75,0,0
69650,-50,4,2,22,75,0,1
69957,-83.3333333333333,4,2,22,75,0,1
73342,-66.6666666666667,4,2,22,75,0,1
74573,-100,4,2,22,70,0,0
79496,-66.6666666666667,4,2,22,70,0,1
79803,-90.9090909090909,4,2,22,70,0,0
81239,-83.3333333333333,4,2,22,70,0,0
81957,-90.9090909090909,4,2,22,70,0,0
83701,-66.6666666666667,4,2,22,70,0,0
84419,-200,4,2,22,70,0,0
84727,-66.6666666666667,4,2,22,70,0,1
85034,-90.9090909090909,4,2,22,70,0,0
86162,-83.3333333333333,4,2,22,70,0,0
86880,-90.9090909090909,4,2,22,70,0,0
88111,-83.3333333333333,4,2,22,70,0,0
89342,-200,4,2,22,40,0,0
99188,-26.3374320325925,4,2,22,80,0,1
99803,-66.6666666666667,4,2,22,75,0,1
100111,-500,4,2,22,75,0,1
100419,-40,4,2,22,75,0,1
101034,-50,4,2,22,75,0,1
101342,-500,4,2,22,75,0,1
101650,-66.6666666666667,4,2,22,75,0,1
102265,-50,4,2,22,75,0,1
102880,-66.6666666666667,4,2,22,75,0,1
104111,-50,4,2,22,75,0,1
104419,-500,4,2,22,75,0,1
104727,-66.6666666666667,4,2,22,75,0,1
105342,-40,4,2,22,75,0,1
105957,-50,4,2,22,75,0,1
106265,-500,4,2,22,75,0,1
106573,-66.6666666666667,4,2,22,75,0,1
106880,-50,4,2,22,75,0,1
107188,-66.6666666666667,4,2,22,75,0,1
107803,-50,4,2,22,75,0,1
108419,-100,4,2,22,75,0,1
109034,-133.333333333333,4,2,22,50,0,0
113650,-133.333333333333,4,2,2,75,0,0
113957,-133.333333333333,4,2,22,50,0,0
118880,-111.111111111111,4,2,22,65,0,0
126265,-100,4,2,22,70,0,0
127393,-58.8235294117647,4,2,22,70,0,0
127803,-100,4,2,22,70,0,0
128727,-50,4,2,22,75,0,1
129034,-83.3333333333333,4,2,22,75,0,1
132419,-50,4,2,22,75,0,1
132727,-83.3333333333333,4,2,22,75,0,1
137342,-66.6666666666667,4,2,22,75,0,1
138470,-66.6666666666667,4,2,22,75,0,0
138573,-83.3333333333333,4,2,22,75,0,1
141957,-200,4,2,22,75,0,1
142162,-200,4,2,22,75,0,0
142265,-66.6666666666667,4,2,22,75,0,1
143393,-66.6666666666667,4,2,22,75,0,0
143496,-50,4,2,22,75,0,1
143803,-83.3333333333333,4,2,22,75,0,1
147188,-66.6666666666667,4,2,22,75,0,1
148419,-100,4,2,22,70,0,0
153342,-90.9090909090909,4,2,22,75,0,0
163188,-111.111111111111,4,2,22,65,0,0
177957,-111.111111111111,4,2,22,65,0,0
180419,-100,4,2,22,70,0,0
184111,-50,4,2,22,75,0,1
184419,-83.3333333333333,4,2,22,75,0,1
187803,-50,4,2,22,75,0,1
188111,-83.3333333333333,4,2,22,75,0,1
192727,-66.6666666666667,4,2,22,75,0,1
193855,-66.6666666666667,4,2,22,75,0,0
193957,-83.3333333333333,4,2,22,75,0,1
197342,-200,4,2,22,75,0,1
197547,-200,4,2,22,75,0,0
197650,-66.6666666666667,4,2,22,75,0,1
198778,-66.6666666666667,4,2,22,75,0,0
198880,-50,4,2,22,75,0,1
199188,-83.3333333333333,4,2,22,75,0,1
202573,-66.6666666666667,4,2,22,75,0,1
203803,-500,4,2,22,50,0,0
204111,-50,4,2,22,75,0,0
204419,-500,4,2,22,50,0,0
204727,-50,4,2,22,75,0,0
205034,-500,4,2,22,50,0,0
205342,-50,4,2,22,75,0,0
205650,-500,4,2,22,50,0,0
205957,-50,4,2,22,75,0,0
206265,-500,4,2,22,50,0,0
206573,-50,4,2,22,75,0,0
206880,-500,4,2,22,50,0,0
207188,-50,4,2,22,75,0,0
207496,-500,4,2,22,50,0,0
207803,-50,4,2,22,75,0,0
208727,-500,4,2,22,50,0,0
209034,-100,4,2,22,70,0,0
213650,-83.3333333333333,4,2,22,75,0,1
217034,-200,4,2,22,75,0,1
217342,-66.6666666666667,4,2,22,75,0,1
218470,-66.6666666666667,4,2,22,75,0,0
218573,-50,4,2,22,75,0,1
218880,-83.3333333333333,4,2,22,75,0,1
222265,-66.6666666666667,4,2,22,75,0,1
223496,-100,4,2,22,70,0,0
228111,-100,4,2,22,5,0,0
228419,-66.6666666666667,4,2,22,70,0,1
228727,-90.9090909090909,4,2,22,70,0,0
230162,-83.3333333333333,4,2,22,70,0,0
230880,-90.9090909090909,4,2,22,70,0,0
232624,-66.6666666666667,4,2,22,70,0,0
233342,-66.6666666666667,4,2,22,70,0,1
233650,-90.9090909090909,4,2,22,70,0,0
235085,-83.3333333333333,4,2,22,70,0,0
235803,-90.9090909090909,4,2,22,70,0,0
237547,-133.333333333333,4,2,22,70,0,1
237855,-133.333333333333,4,2,22,5,0,1
238470,-133.333333333333,4,2,22,5,0,0

[Colours]
Combo1 : 207,159,255
Combo2 : 128,128,255
Combo3 : 69,89,228
Combo4 : 149,43,255

[HitObjects]
101,369,4932,6,0,B|46:362|20:304|38:256|79:226|126:238|126:238|79:226|59:180|59:180|98:143|79:99,1,400,6|8,1:2|0:3,0:0:0:0:
20,42,5342,1,10,0:2:0:0:
2,122,5444,1,2,1:2:0:0:
99,20,5547,1,10,0:3:0:0:
224,127,5650,6,0,B|274:154|315:112|312:104|310:95|350:55|401:80,1,200.000007629395,6|2,1:2|1:2,0:0:0:0:
389,215,5957,2,0,P|352:217|322:197,1,73.3333355712891,10|0,0:2|0:0,0:0:0:0:
372,146,6162,1,10,0:2:0:0:
456,236,6265,2,0,P|440:268|408:284,1,73.3333355712891,2|0,3:2|0:0,0:0:0:0:
275,252,6470,1,2,1:2:0:0:
370,345,6573,2,0,P|344:320|338:284,1,73.3333355712891,10|0,0:2|0:0,0:0:0:0:
442,166,6778,1,2,0:2:0:0:
253,184,6880,6,0,P|204:236|225:303,1,146.666671142578,2|2,1:2|1:2,0:0:0:0:
272,355,7188,1,8,0:2:0:0:
285,364,7393,1,10,0:2:0:0:
275,252,7496,2,0,P|197:235|120:211,1,159.999995117188,0|2,3:2|1:2,0:0:0:0:
60,313,7803,2,0,P|98:301|137:292,1,79.9999975585938,10|0,0:2|0:0,0:0:0:0:
171,152,8009,1,2,0:2:0:0:
109,97,8111,5,0,1:2:0:0:
98,87,8316,1,2,1:2:0:0:
140,30,8419,2,0,P|170:11|206:13,1,73.3333355712891,10|0,0:2|0:0,0:0:0:0:
323,111,8624,1,10,0:2:0:0:
241,130,8727,2,0,P|253:95|260:60,1,73.3333355712891,2|0,3:2|0:0,0:0:0:0:
368,167,8932,1,2,1:2:0:0:
315,248,9034,2,0,P|307:212|296:178,1,73.3333355712891,10|0,0:2|0:0,0:0:0:0:
394,100,9239,1,2,0:2:0:0:
465,250,9342,6,0,B|436:227|436:187|436:187|424:224|386:237,1,146.666671142578,10|2,0:2|1:2,0:0:0:0:
228,201,9650,1,8,0:2:0:0:
208,195,9855,1,10,0:2:0:0:
67,134,9957,2,0,P|134:89|128:170,1,200.000007629395,0|2,3:2|1:2,0:0:0:0:
67,208,10265,2,0,P|103:241|152:239,1,100.000003814697,10|0,0:2|0:0,0:0:0:0:
208,195,10470,2,0,P|231:203|256:208,1,50.0000019073487,2|2,0:2|0:2,0:0:0:0:
314,297,10573,6,0,P|285:201|262:103,1,200.000007629395,4|2,1:2|1:2,0:0:0:0:
421,0,10880,2,0,P|409:35|402:71,1,73.3333355712891,10|0,0:2|0:0,0:0:0:0:
425,138,11085,1,10,0:2:0:0:
478,52,11188,2,0,P|485:88|496:123,1,73.3333355712891,2|0,3:2|0:0,0:0:0:0:
403,206,11393,1,2,1:2:0:0:
332,87,11496,2,0,P|343:122|350:158,1,73.3333355712891,10|0,0:2|0:0,0:0:0:0:
473,191,11701,1,2,0:2:0:0:
391,300,11803,6,0,B|306:313|339:253|256:265,1,146.666671142578,2|2,1:2|1:2,0:0:0:0:
202,313,12111,1,8,0:2:0:0:
191,325,12316,1,10,0:2:0:0:
270,335,12419,2,0,P|326:284|303:212,1,159.999995117188,0|2,3:2|1:2,0:0:0:0:
350,158,12727,2,0,P|329:125|330:85,1,79.9999975585938,10|0,0:2|0:0,0:0:0:0:
360,20,12932,1,2,0:2:0:0:
242,59,13034,5,0,1:2:0:0:
227,63,13239,1,2,1:2:0:0:
169,21,13342,2,0,P|134:33|98:40,1,73.3333355712891,10|0,0:2|0:0,0:0:0:0:
25,133,13547,1,10,0:2:0:0:
73,186,13650,1,0,3:2:0:0:
84,197,13855,1,2,1:2:0:0:
165,98,13957,2,0,P|130:110|94:117,1,73.3333355712891,10|0,0:2|0:0,0:0:0:0:
139,244,14162,1,2,0:2:0:0:
25,133,14265,6,0,P|4:167|5:207,1,79.9999975585938,2|0,3:2|0:0,0:0:0:0:
79,350,14470,1,10,0:2:0:0:
199,191,14573,2,0,P|219:224|218:264,1,79.9999975585938,10|0,0:2|0:0,0:0:0:0:
41,278,14778,6,0,B|105:245|150:296|147:307|144:318|193:366|252:335,1,239.999992675781,6|8,1:2|0:3,0:0:0:0:
299,267,15188,2,0,P|332:247|372:248,1,79.9999975585938,10|0,0:2|0:0,0:0:0:0:
430,304,15393,1,10,0:2:0:0:
353,327,15496,6,0,P|375:256|391:183,1,150.000005722046,4|8,1:2|0:3,0:0:0:0:
345,80,16111,2,0,P|361:113|357:77,1,100.000003814697,6|4,0:3|0:3,0:0:0:0:
356,94,16419,2,0,P|308:109|259:120,1,100.000003814697,2|0,0:2|0:0,0:0:0:0:
211,192,16727,2,0,P|230:123|179:72,1,150.000005722046,8|8,0:3|0:3,0:0:0:0:
159,67,17239,1,4,0:3:0:0:
64,116,17342,2,0,P|113:127|161:141,1,100.000003814697,10|0,0:3|0:0,0:0:0:0:
308,167,17650,2,0,P|259:178|212:192,1,100.000003814697,10|0,0:3|0:0,0:0:0:0:
99,374,17957,6,0,P|121:303|137:230,1,150.000005722046,4|8,0:3|0:3,0:0:0:0:
142,210,18470,1,2,0:2:0:0:
202,291,18573,2,0,P|242:263|291:268,1,100.000003814697,6|10,0:3|0:3,0:0:0:0:
405,195,18880,2,0,P|356:200|317:171,1,100.000003814697,2|0,0:2|0:0,0:0:0:0:
286,95,19188,1,6,0:3:0:0:
352,23,19393,2,0,P|363:72|378:119,1,100.000003814697,6|0,0:3|0:0,0:0:0:0:
317,171,19701,2,0,P|302:219|291:268,1,100.000003814697,2|0,0:2|0:0,0:0:0:0:
353,321,20009,2,0,P|313:349|265:344,1,100.000003814697,2|0,0:2|0:0,0:0:0:0:
212,283,20316,1,2,0:2:0:0:
203,279,20419,6,0,B|116:266|149:328|65:315,1,150.000005722046,4|8,0:3|0:3,0:0:0:0:
24,186,21034,2,0,L|72:174,1,50.0000019073487,6|0,0:3|0:0,0:0:0:0:
138,200,21239,1,4,0:3:0:0:
82,246,21342,2,0,P|96:198|107:149,1,100.000003814697,2|0,0:2|0:0,0:0:0:0:
154,46,21650,2,0,P|165:95|181:142,1,100.000003814697,6|4,0:3|0:3,0:0:0:0:
209,208,21957,1,10,0:3:0:0:
302,100,22162,1,6,0:3:0:0:
370,118,22265,2,0,P|320:170|252:150,1,150.000005722046,8|10,0:3|0:3,0:0:0:0:
252,150,22880,6,0,P|323:173|396:189,1,150.000005722046,6|8,0:3|0:3,0:0:0:0:
416,192,23393,1,2,0:2:0:0:
474,234,23496,2,0,P|433:263|385:257,1,100.000003814697,6|10,0:3|0:3,0:0:0:0:
378,329,23803,2,0,P|333:308|314:263,1,100.000003814697,2|0,0:2|0:0,0:0:0:0:
345,198,24111,1,6,0:3:0:0:
292,113,24316,2,0,P|281:162|265:209,1,100.000003814697,6|0,0:3|0:0,0:0:0:0:
148,304,24624,2,0,P|196:288|245:277,1,100.000003814697,2|0,0:2|0:0,0:0:0:0:
314,264,24932,1,10,0:3:0:0:
195,215,25034,1,4,0:3:0:0:
185,212,25239,1,10,0:3:0:0:
48,188,25342,6,0,B|94:210|131:174|129:167|127:159|164:124|209:145,1,179.999994506836,4|8,1:2|0:2,0:0:0:0:
325,269,25855,1,2,0:2:0:0:
314,264,25957,2,0,P|276:220|286:162,1,119.999996337891,2|0,1:2|0:0,0:0:0:0:
347,120,26265,2,0,P|356:63|319:18,1,119.999996337891,8|0,0:2|0:0,0:0:0:0:
312,8,26573,6,0,P|364:74|441:43,1,179.999994506836,2|8,1:2|0:2,0:0:0:0:
451,33,27085,1,2,0:2:0:0:
511,84,27188,2,0,P|492:142|479:200,1,119.999996337891,2|0,1:2|0:0,0:0:0:0:
411,226,27496,2,0,P|429:284|442:342,1,119.999996337891,8|0,0:2|0:0,0:0:0:0:
510,275,27803,6,0,P|422:256|336:230,1,179.999994506836,0|8,1:2|0:2,0:0:0:0:
325,225,28316,1,2,0:2:0:0:
287,165,28419,2,0,P|229:156|184:193,1,119.999996337891,2|2,1:2|0:2,0:0:0:0:
188,265,28727,2,0,P|143:303|85:293,1,119.999996337891,10|2,0:2|0:2,0:0:0:0:
124,233,29034,5,2,1:2:0:0:
49,171,29239,2,0,P|67:114|80:56,1,119.999996337891,2|0,0:2|0:0,0:0:0:0:
137,15,29547,2,0,P|194:5|239:42,1,119.999996337891,2|0,0:2|0:0,0:0:0:0:
243,112,29855,2,0,P|256:171|274:228,1,119.999996337891,2|0,0:2|0:0,0:0:0:0:
302,294,30162,1,2,0:2:0:0:
439,318,30265,6,0,B|393:296|356:332|358:339|360:347|323:382|278:361,1,179.999994506836,4|8,1:2|0:2,0:0:0:0:
155,197,30778,1,2,0:2:0:0:
146,189,30880,2,0,P|88:181|44:218,1,119.999996337891,2|2,1:2|0:2,0:0:0:0:
6,279,31188,2,0,P|63:288|107:251,1,119.999996337891,10|2,0:2|0:2,0:0:0:0:
241,225,31496,6,0,P|175:278|206:355,1,179.999994506836,2|10,1:2|0:2,0:0:0:0:
370,259,32009,1,2,0:2:0:0:
359,265,32111,2,0,P|302:284|243:297,1,119.999996337891,0|0,1:2|0:0,0:0:0:0:
146,189,32419,1,10,0:2:0:0:
288,20,32727,6,0,P|261:107|242:194,1,179.999994506836,2|8,1:2|0:2,0:0:0:0:
240,206,33239,1,2,0:2:0:0:
330,165,33342,2,0,P|367:209|358:266,1,119.999996337891,2|2,1:2|0:2,0:0:0:0:
478,356,33650,2,0,P|440:312|449:255,1,119.999996337891,10|2,0:2|0:2,0:0:0:0:
505,195,33957,5,2,1:2:0:0:
320,84,34162,1,10,0:2:0:0:
309,89,34265,1,8,0:2:0:0:
500,66,34470,2,0,P|441:53|384:35,1,119.999996337891,10|0,0:3|0:0,0:0:0:0:
311,3,34778,1,10,0:2:0:0:
299,7,34880,2,0,P|241:26|183:39,1,119.999996337891,10|0,0:3|0:0,0:0:0:0:
15,60,35188,5,4,3:2:0:0:
39,137,35393,1,2,0:2:0:0:
44,146,35496,2,0,P|87:179|142:171,1,113.333335494995,8|2,0:1|0:2,0:0:0:0:
152,167,35803,2,0,P|100:187|80:239,1,113.333335494995,2|2,3:2|0:2,0:0:0:0:
83,249,36111,1,10,0:1:0:0:
130,367,36316,1,2,0:2:0:0:
140,364,36419,6,0,P|194:346|250:334,1,113.333335494995,2|2,3:2|0:2,0:0:0:0:
260,333,36727,2,0,P|204:321|150:303,1,113.333335494995,10|2,0:1|0:2,0:0:0:0:
140,298,37034,1,2,3:2:0:0:
328,355,37342,1,8,0:1:0:0:
500,187,37650,5,0,3:2:0:0:
488,107,37855,1,2,0:2:0:0:
483,98,37957,2,0,P|440:65|385:73,1,113.333335494995,10|2,0:1|0:2,0:0:0:0:
374,79,38265,2,0,P|319:86|275:53,1,113.333335494995,2|2,3:2|0:2,0:0:0:0:
271,42,38573,1,10,0:1:0:0:
166,10,38778,1,2,0:2:0:0:
169,20,38880,6,0,P|187:74|199:130,1,113.333335494995,2|2,3:2|0:2,0:0:0:0:
187,131,39188,2,0,P|175:75|157:21,1,113.333335494995,10|2,0:1|0:2,0:0:0:0:
146,25,39496,1,2,3:2:0:0:
210,209,39803,1,8,0:1:0:0:
506,275,40111,5,0,3:2:0:0:
464,342,40316,1,2,0:2:0:0:
453,337,40419,2,0,P|398:329|354:362,1,113.333335494995,10|2,0:1|0:2,0:0:0:0:
351,373,40727,2,0,P|358:318|325:274,1,113.333335494995,2|2,3:2|0:2,0:0:0:0:
314,269,41034,1,10,0:1:0:0:
245,377,41239,1,2,0:2:0:0:
233,372,41342,2,0,P|180:354|124:342,1,113.333335494995,2|0,3:2|0:0,0:0:0:0:
0,288,41650,2,0,P|55:276|109:258,1,113.333335494995,10|0,0:1|0:0,0:0:0:0:
160,195,41957,2,0,P|167:140|133:96,1,113.333335494995,2|0,3:2|0:0,0:0:0:0:
63,58,42265,1,10,0:1:0:0:
109,258,42573,5,0,3:2:0:0:
256,79,42880,2,0,P|309:96|365:108,1,113.333335494995,10|0,0:1|0:0,0:0:0:0:
376,111,43188,2,0,P|320:122|266:140,1,113.333335494995,2|0,3:2|0:0,0:0:0:0:
256,146,43496,1,10,0:1:0:0:
109,258,43701,1,2,0:2:0:0:
119,253,43803,6,0,P|173:245|217:279,1,113.333335494995,2|0,3:2|0:0,0:0:0:0:
222,289,44111,2,0,P|265:322|320:315,1,113.333335494995,10|2,0:1|0:2,0:0:0:0:
460,266,44419,1,8,0:3:0:0:
487,218,44521,1,4,0:3:0:0:
473,165,44624,1,4,0:3:0:0:
424,138,44727,1,8,0:2:0:0:
376,111,44829,1,4,0:3:0:0:
361,58,44932,1,8,0:3:0:0:
389,11,45034,6,0,P|370:67|358:126,1,119.999996337891,4|0,1:2|0:0,0:0:0:0:
354,138,45342,1,10,0:2:0:0:
269,52,45547,1,2,0:2:0:0:
258,48,45650,1,2,1:2:0:0:
199,197,45855,1,0,1:2:0:0:
187,198,45957,2,0,P|128:211|71:228,1,119.999996337891,10|0,0:2|0:0,0:0:0:0:
39,293,46265,6,0,P|2:247|11:190,1,119.999996337891,2|0,1:2|0:0,0:0:0:0:
72,153,46573,2,0,P|81:95|44:50,1,119.999996337891,10|0,0:2|0:0,0:0:0:0:
12,114,46880,1,2,1:2:0:0:
119,19,47085,1,2,1:2:0:0:
129,13,47188,2,0,P|186:3|231:40,1,119.999996337891,10|0,0:2|0:0,0:0:0:0:
286,222,47496,6,0,B|332:244|369:208|367:201|365:193|402:158|447:179,1,179.999994506836,6|8,1:2|0:2,0:0:0:0:
447,179,48111,6,0,P|381:127|413:48,1,179.999994506836,6|8,1:2|0:2,0:0:0:0:
412,49,48727,6,0,P|385:136|366:223,1,179.999994506836,6|8,1:2|0:2,0:0:0:0:
366,223,49342,5,2,1:2:0:0:
424,278,49547,1,8,0:3:0:0:
428,289,49650,1,8,0:2:0:0:
384,357,49855,1,8,0:2:0:0:
372,352,49957,6,0,P|315:333|257:320,1,119.999996337891,4|0,1:2|0:0,0:0:0:0:
244,317,50265,1,10,0:2:0:0:
158,263,50470,1,4,0:3:0:0:
169,261,50573,2,0,P|227:247|284:228,1,119.999996337891,2|4,1:2|0:3,0:0:0:0:
311,154,50880,1,10,0:2:0:0:
314,142,50983,1,8,0:3:0:0:
317,130,51085,1,4,0:3:0:0:
320,119,51188,6,0,P|365:82|422:91,1,119.999996337891,0|0,1:2|0:0,0:0:0:0:
433,96,51496,1,10,0:2:0:0:
316,0,51701,1,4,0:3:0:0:
310,10,51803,2,0,P|264:46|207:37,1,119.999996337891,2|4,1:2|0:3,0:0:0:0:
94,108,52111,1,10,0:2:0:0:
97,120,52214,1,8,0:3:0:0:
100,132,52316,1,4,0:3:0:0:
103,143,52419,6,0,B|116:144|129:147|129:147|136:148|136:148|143:152|143:152|156:156|167:160,1,66.6666666666667,14|0,1:2|0:0,0:0:0:0:
149,305,52727,6,0,B|161:299|174:296|174:296|181:293|181:293|189:293|189:293|202:290|213:288,1,66.6666666666667,10|0,1:2|0:0,0:0:0:0:
338,384,53034,6,0,B|346:373|355:363|355:363|360:357|360:357|366:353|366:353|376:344|385:337,1,66.6666666666667,10|0,1:2|0:0,0:0:0:0:
485,312,53239,6,0,B|486:298|489:285|489:285|490:278|490:278|494:271|494:271|498:258|502:247,1,66.6666666666667,10|0,1:2|0:0,0:0:0:0:
247,61,53547,6,0,B|261:48|279:43|279:43|285:39|285:39|293:40|293:40|308:38|323:42|323:42|329:47|329:47|337:47|337:47|351:53|362:62|362:62|365:69|365:69|364:77|364:77|367:92|376:103|376:103|379:110|379:110|386:114|386:114|391:118|396:122,1,200.000007629395,14|0,1:2|0:0,0:0:0:0:
446,59,53855,1,8,0:2:0:0:
451,47,53957,1,8,0:3:0:0:
187,3,54162,1,4,0:3:0:0:
174,5,54265,2,0,B|158:7|146:9|146:9|140:13|140:13|132:12|132:12|122:14|113:17|113:17|106:17|106:17|99:21|99:21|87:25|80:27|80:27|73:31|73:31|66:32|66:32|55:36|48:39|48:39|47:39,1,133.333333333333,8|0,0:2|0:0,0:0:0:0:
47,39,54880,6,0,B|18:31|18:31|68:-8|136:10|159:69|159:69|125:80|114:113,1,266.666666666667,6|8,1:2|0:2,0:0:0:0:
132,217,55188,2,0,P|139:150|76:173,1,159.999995117188,2|8,1:2|0:2,0:0:0:0:
9,247,55496,2,0,B|49:230|81:259|79:265|77:272|110:302|152:285,1,159.999995117188,2|8,1:2|0:2,0:0:0:0:
224,156,55803,2,0,P|263:154|296:175,1,79.9999975585938,2|0,1:2|0:0,0:0:0:0:
327,243,56009,1,10,0:2:0:0:
265,301,56111,6,0,P|256:261|244:224,1,79.9999975585938,2|0,1:2|0:0,0:0:0:0:
368,184,56316,1,10,0:2:0:0:
336,315,56419,2,0,P|284:371|211:348,1,159.999995117188,2|8,1:2|0:2,0:0:0:0:
203,335,56727,2,0,P|280:353|357:378,1,159.999995117188,2|8,1:2|0:2,0:0:0:0:
438,168,57034,1,0,1:2:0:0:
368,184,57137,1,0,1:2:0:0:
417,236,57239,1,8,0:2:0:0:
389,115,57342,2,0,P|349:113|316:134,1,79.9999975585938,0|0,1:2|0:0,0:0:0:0:
280,249,57547,5,10,0:2:0:0:
265,255,57650,2,0,B|221:272|188:242|190:235|192:229|160:200|120:217,1,159.999995117188,2|8,1:2|0:2,0:0:0:0:
139,286,57957,2,0,P|190:229|162:159,1,159.999995117188,2|8,1:2|0:2,0:0:0:0:
131,31,58265,2,0,B|136:73|179:89|179:89|134:81|107:115,1,159.999995117188,2|8,1:2|0:2,0:0:0:0:
48,248,58573,6,0,B|25:219|-10:219|-10:219|98:190|98:190|125:236|169:230,1,266.666666666667,2|8,1:2|0:2,0:0:0:0:
229,188,58880,2,0,P|241:149|248:110,1,79.9999975585938,2|0,1:2|0:0,0:0:0:0:
162,159,59085,1,10,0:2:0:0:
291,264,59188,2,0,P|266:187|248:110,1,159.999995117188,2|8,1:2|0:2,0:0:0:0:
266,40,59496,1,2,1:2:0:0:
331,11,59598,1,0,1:2:0:0:
397,39,59701,1,8,0:2:0:0:
497,180,59803,6,0,B|452:146|403:182|403:182|401:214|375:231,1,159.999995117188,6|8,1:2|0:2,0:0:0:0:
259,157,60111,2,0,P|298:155|332:176,1,79.9999975585938,0|0,1:2|0:0,0:0:0:0:
375,302,60316,1,8,0:2:0:0:
232,258,60419,2,0,P|295:236|287:302,1,159.999995117188,2|8,1:2|0:2,0:0:0:0:
262,370,60727,1,0,1:2:0:0:
192,384,60829,1,0,1:0:0:0:
136,339,60932,1,8,0:2:0:0:
141,267,61034,6,0,P|168:196|118:139,1,159.999995117188,2|8,1:2|0:2,0:0:0:0:
21,227,61342,2,0,P|59:216|99:209,1,79.9999975585938,0|0,1:2|0:0,0:0:0:0:
136,71,61547,1,8,0:2:0:0:
40,121,61650,2,0,P|117:139|193:163,1,159.999995117188,2|8,1:2|0:2,0:0:0:0:
262,186,61957,1,0,1:2:0:0:
296,249,62060,1,0,1:2:0:0:
257,309,62162,1,8,0:2:0:0:
305,362,62265,6,0,P|344:360|377:380,1,79.9999975585938,2|0,1:2|0:0,0:0:0:0:
432,245,62470,1,10,0:2:0:0:
482,295,62573,2,0,P|448:315|409:313,1,79.9999975585938,2|0,1:2|0:0,0:0:0:0:
307,214,62778,1,10,0:2:0:0:
287,283,62880,2,0,B|327:300|359:271|357:265|355:258|388:228|432:245,1,159.999995117188,2|8,1:2|0:2,0:0:0:0:
501,225,63188,1,2,1:2:0:0:
510,153,63291,1,0,1:2:0:0:
462,99,63393,1,8,0:2:0:0:
337,86,63496,6,0,B|362:41|362:41|400:80|401:140|367:175,1,200.000007629395,10|8,1:2|0:2,0:0:0:0:
215,214,63803,2,0,B|268:206|288:153|288:153|278:209|321:242,1,200.000007629395,2|8,1:2|0:2,0:0:0:0:
401,250,64111,2,0,P|303:271|207:300,1,200.000007629395,2|8,1:2|0:2,0:0:0:0:
13,249,64419,1,10,0:2:0:0:
21,320,64521,1,8,0:2:0:0:
88,341,64624,1,8,0:2:0:0:
138,291,64727,6,0,P|128:253|122:214,1,79.9999975585938,6|0,1:2|0:0,0:0:0:0:
72,162,64932,1,10,0:2:0:0:
99,63,65034,2,0,B|136:47|170:71|170:71|127:58|94:92,1,159.999995117188,2|8,1:2|0:2,0:0:0:0:
152,149,65342,2,0,P|125:78|175:21,1,159.999995117188,2|8,1:2|0:2,0:0:0:0:
272,68,65650,2,0,P|233:77|195:90,1,79.9999975585938,2|0,1:2|0:0,0:0:0:0:
245,1,65855,1,10,0:2:0:0:
223,157,65957,6,0,P|299:133|377:114,1,159.999995117188,2|8,1:2|0:2,0:0:0:0:
471,210,66265,2,0,B|437:183|445:138|445:138|429:181|387:186,1,159.999995117188,2|8,1:2|0:2,0:0:0:0:
371,260,66573,2,0,P|410:259|444:280,1,79.9999975585938,2|0,1:2|0:0,0:0:0:0:
393,329,66778,1,8,0:2:0:0:
337,373,66880,2,0,B|316:349|322:318|322:318|284:270|232:292,1,159.999995117188,0|8,1:2|0:2,0:0:0:0:
148,304,67188,5,0,1:2:0:0:
146,379,67291,1,0,1:2:0:0:
164,309,67393,1,10,0:2:0:0:
181,239,67496,2,0,P|171:201|165:161,1,79.9999975585938,2|0,1:2|0:0,0:0:0:0:
104,124,67701,1,10,0:2:0:0:
241,186,67803,2,0,P|246:146|257:107,1,79.9999975585938,2|0,1:2|0:0,0:0:0:0:
247,37,68009,1,10,0:2:0:0:
163,65,68111,6,0,P|175:87|174:62,1,66.6666666666667,2|8,1:2|0:2,0:0:0:0:
106,11,68419,6,0,P|76:49|81:98,1,100.000003814697,14|0,1:2|0:0,0:0:0:0:
1,109,68624,6,0,P|21:154|66:175,1,100.000003814697,10|0,1:2|0:0,0:0:0:0:
38,250,68829,6,0,P|87:256|127:227,1,100.000003814697,10|0,1:2|0:0,0:0:0:0:
143,148,69034,6,0,P|187:168|206:213,1,100.000003814697,10|0,1:2|0:0,0:0:0:0:
283,188,69239,6,0,P|287:236|258:275,1,100.000003814697,10|0,1:2|0:0,0:0:0:0:
319,329,69444,6,0,P|279:357|230:351,1,100.000003814697,10|0,1:2|0:0,0:0:0:0:
178,290,69650,6,0,B|247:249|298:309|295:321|292:333|343:391|409:352,1,266.666666666667,6|0,1:2|0:0,0:0:0:0:
494,174,69957,2,0,P|454:172|421:192,1,79.9999975585938,8|0,0:2|0:0,0:0:0:0:
399,267,70162,1,8,0:2:0:0:
477,249,70265,2,0,P|452:172|434:95,1,159.999995117188,2|0,3:2|1:2,0:0:0:0:
421,24,70573,1,8,0:2:0:0:
367,71,70675,1,0,1:2:0:0:
433,13,70778,1,0,1:2:0:0:
353,1,70880,6,0,P|297:51|319:124,1,159.999995117188,2|0,1:2|1:2,0:0:0:0:
467,155,71188,2,0,P|427:149|389:139,1,79.9999975585938,8|0,0:2|0:0,0:0:0:0:
272,179,71393,1,8,0:2:0:0:
296,246,71496,2,0,P|363:255|342:192,1,159.999995117188,2|0,3:2|1:2,0:0:0:0:
226,234,71803,1,8,0:2:0:0:
202,166,71906,1,0,1:2:0:0:
249,111,72009,1,0,1:2:0:0:
232,41,72111,6,0,P|198:20|159:22,1,79.9999975585938,2|0,1:2|0:0,0:0:0:0:
111,75,72316,1,2,1:2:0:0:
129,145,72419,2,0,P|163:126|181:91,1,79.9999975585938,10|0,0:2|0:0,0:0:0:0:
42,57,72624,1,10,0:2:0:0:
61,126,72727,2,0,B|44:166|73:198|79:196|86:194|116:227|98:271,1,159.999995117188,2|0,3:2|1:2,0:0:0:0:
44,318,73034,1,10,0:2:0:0:
30,248,73137,1,0,1:2:0:0:
111,340,73239,1,0,1:2:0:0:
220,224,73342,6,0,B|246:264|233:317|191:340|191:340|193:304|166:282,1,200.000007629395,2|8,1:2|0:2,0:0:0:0:
111,340,73650,2,0,P|197:305|256:377,1,200.000007629395,2|8,1:2|0:2,0:0:0:0:
177,384,73957,2,0,P|156:286|128:190,1,200.000007629395,2|8,1:2|0:2,0:0:0:0:
104,123,74265,1,10,0:2:0:0:
207,52,74368,1,8,0:2:0:0:
139,62,74470,1,8,0:2:0:0:
256,169,74573,6,0,P|318:145|382:128,1,133.333333333333,4|0,1:2|0:0,0:0:0:0:
480,65,74880,2,0,P|415:47|353:23,1,133.333333333333,8|0,0:2|0:0,0:0:0:0:
341,18,75188,1,0,1:2:0:0:
253,64,75393,1,4,0:3:0:0:
240,58,75496,2,0,P|208:47|175:40,1,66.6666666666667,8|8,0:3|0:3,0:0:0:0:
39,206,75701,1,4,0:3:0:0:
42,193,75803,6,0,P|89:149|151:164,1,133.333333333333,0|0,1:2|0:0,0:0:0:0:
163,170,76111,1,8,0:2:0:0:
212,242,76316,1,2,0:2:0:0:
208,254,76419,1,0,1:2:0:0:
143,320,76624,1,4,0:3:0:0:
130,324,76727,2,0,P|97:324|68:308,1,66.6666666666667,8|0,0:2|0:0,0:0:0:0:
5,276,76932,1,0,0:0:0:0:
65,236,77034,6,0,P|40:299|23:363,1,133.333333333333,0|0,1:2|0:0,0:0:0:0:
36,368,77342,2,0,P|53:303|77:241,1,133.333333333333,8|0,0:2|0:0,0:0:0:0:
89,246,77650,1,0,1:2:0:0:
130,115,77855,1,8,0:3:0:0:
132,127,77957,2,0,P|138:159|149:191,1,66.6666666666667,8|8,0:2|0:3,0:0:0:0:
196,258,78162,1,4,0:3:0:0:
208,254,78265,5,0,1:2:0:0:
395,121,78573,1,0,1:2:0:0:
204,0,78880,2,0,P|233:95|256:193,1,200,0|0,1:2|3:2,0:0:0:0:
256,193,79496,6,0,P|262:113|195:158,1,200.000007629395,6|2,1:2|1:2,0:0:0:0:
194,229,79803,2,0,P|219:256|254:264,1,73.3333355712891,10|0,0:2|0:0,0:0:0:0:
377,279,80009,1,10,0:2:0:0:
382,207,80111,2,0,P|346:211|320:235,1,73.3333355712891,2|0,3:2|0:0,0:0:0:0:
312,307,80316,1,2,1:2:0:0:
442,250,80419,2,0,P|450:285|436:319,1,73.3333355712891,10|0,0:2|0:0,0:0:0:0:
370,351,80624,1,2,0:2:0:0:
241,245,80727,6,0,P|312:228|382:207,1,146.666671142578,2|2,1:2|1:2,0:0:0:0:
449,179,81034,1,8,0:2:0:0:
464,173,81239,1,10,0:2:0:0:
292,75,81342,2,0,P|343:131|415:108,1,159.999995117188,0|2,3:2|1:2,0:0:0:0:
507,28,81650,2,0,P|495:66|486:105,1,79.9999975585938,10|0,0:2|0:0,0:0:0:0:
512,227,81855,1,2,0:2:0:0:
474,288,81957,5,0,1:2:0:0:
467,301,82162,1,2,1:2:0:0:
425,359,82265,2,0,P|388:361|358:341,1,73.3333355712891,10|0,0:2|0:0,0:0:0:0:
367,271,82470,1,10,0:2:0:0:
317,220,82573,2,0,P|280:218|250:238,1,73.3333355712891,2|0,3:2|0:0,0:0:0:0:
220,302,82778,1,2,1:2:0:0:
279,360,82880,2,0,P|287:324|298:289,1,73.3333355712891,10|0,0:2|0:0,0:0:0:0:
180,243,83085,1,2,0:2:0:0:
143,383,83188,6,0,P|126:311|105:241,1,146.666671142578,10|2,0:2|1:2,0:0:0:0:
44,205,83496,1,8,0:2:0:0:
35,186,83701,1,10,0:2:0:0:
5,121,83803,2,0,B|55:94|96:136|93:144|91:153|131:193|182:168,1,200.000007629395,0|2,3:2|1:2,0:0:0:0:
234,106,84111,2,0,P|235:58|202:22,1,100.000003814697,10|0,0:2|0:0,0:0:0:0:
72,30,84316,2,0,P|96:25|120:16,1,50.0000019073487,2|2,0:2|0:2,0:0:0:0:
155,91,84419,1,2,0:2:0:0:
348,142,84727,6,0,P|252:113|155:91,1,200.000007629395,14|10,0:2|0:2,0:0:0:0:
46,171,85034,2,0,P|81:160|117:152,1,73.3333355712891,2|0,3:2|0:0,0:0:0:0:
181,281,85239,1,2,1:2:0:0:
239,221,85342,2,0,P|203:212|168:201,1,73.3333355712891,10|0,0:2|0:0,0:0:0:0:
63,367,85547,1,2,0:2:0:0:
13,316,85650,6,0,P|80:296|130:345,1,146.666671142578,2|2,1:2|1:2,0:0:0:0:
102,228,85957,1,8,0:2:0:0:
97,212,86162,1,10,0:2:0:0:
65,84,86265,2,0,B|70:126|113:142|113:142|68:134|41:168,1,159.999995117188,0|2,3:2|1:2,0:0:0:0:
135,73,86573,2,0,P|168:51|207:52,1,79.9999975585938,10|0,0:2|0:0,0:0:0:0:
276,70,86778,1,2,0:2:0:0:
351,21,86880,5,0,1:2:0:0:
362,12,87085,1,2,1:2:0:0:
415,113,87188,2,0,P|380:101|344:93,1,73.3333355712891,10|0,0:2|0:0,0:0:0:0:
190,128,87393,1,10,0:2:0:0:
265,79,87496,1,0,3:2:0:0:
276,70,87701,1,2,1:2:0:0:
329,171,87803,2,0,P|294:159|258:151,1,73.3333355712891,10|0,0:2|0:0,0:0:0:0:
151,246,88009,1,2,0:2:0:0:
217,272,88111,6,0,P|222:233|204:198,1,79.9999975585938,2|0,3:2|0:0,0:0:0:0:
137,176,88316,1,10,0:2:0:0:
101,296,88419,2,0,P|81:262|84:223,1,79.9999975585938,10|0,0:2|0:0,0:0:0:0:
123,105,88624,2,0,P|105:197|53:119,1,239.999992675781,6|8,1:2|0:3,0:0:0:0:
87,12,89034,2,0,L|77:51,1,39.9999987792969,10|2,0:2|0:2,0:0:0:0:
94,9,89137,2,0,L|84:48,1,39.9999987792969,2|2,0:2|0:2,0:0:0:0:
101,5,89239,2,0,L|91:44,1,39.9999987792969,10|2,0:2|0:2,0:0:0:0:
256,52,89342,6,0,L|256:152,1,100,4|0,1:2|0:0,0:0:0:0:
184,136,89957,2,0,B|184:69,1,66.6666666666667,2|0,1:2|0:0,0:0:0:0:
328,69,90265,2,0,B|328:136,1,66.6666666666667,2|0,0:2|0:0,0:0:0:0:
256,332,90573,6,0,L|256:232,1,100,0|0,1:2|0:0,0:0:0:0:
328,248,91188,2,0,B|328:315,1,66.6666666666667,2|0,1:2|0:0,0:0:0:0:
184,315,91496,2,0,B|184:248,1,66.6666666666667,2|0,0:2|0:0,0:0:0:0:
256,152,91803,6,0,L|256:52,1,100,0|0,1:2|0:0,0:0:0:0:
184,56,92316,1,2,0:2:0:0:
184,69,92419,2,0,B|184:136,1,66.6666666666667,2|2,1:2|0:2,0:0:0:0:
328,136,92727,2,0,B|328:69,1,66.6666666666667,2|2,0:2|0:2,0:0:0:0:
256,152,93034,1,2,1:2:0:0:
328,203,93239,2,0,B|328:136,1,66.6666666666667,2|0,0:2|0:0,0:0:0:0:
184,202,93547,2,0,B|184:135,1,66.6666666666667,2|0,0:2|0:0,0:0:0:0:
256,85,93855,2,0,B|256:152,1,66.6666666666667,2|0,0:2|0:0,0:0:0:0:
256,219,94162,5,2,0:2:0:0:
256,232,94265,2,0,L|256:332,1,100,0|0,1:2|0:0,0:0:0:0:
328,315,94880,2,0,B|328:248,1,66.6666666666667,2|0,1:2|0:0,0:0:0:0:
184,248,95188,2,0,B|184:315,1,66.6666666666667,2|0,0:2|0:0,0:0:0:0:
256,332,95496,2,0,L|256:365,2,33.3333333333333,2|2|0,1:2|0:2|0:0,0:0:0:0:
256,232,95803,1,2,0:2:0:0:
256,39,96009,5,2,0:2:0:0:
256,52,96111,2,0,L|256:152,1,100,0|2,1:2|0:2,0:0:0:0:
184,36,96727,2,0,L|184:136,1,100,2|0,1:2|0:0,0:0:0:0:
328,56,97239,1,2,0:2:0:0:
328,69,97342,2,0,B|328:136,1,66.6666666666667,0|2,1:2|0:2,0:0:0:0:
184,69,97650,2,0,B|184:136,1,66.6666666666667,2|0,0:2|0:0,0:0:0:0:
256,232,97957,5,2,1:2:0:0:
256,332,98162,2,0,L|256:232,1,100,2|2,0:2|0:2,0:0:0:0:
256,52,98778,2,0,L|256:152,1,100,2|2,0:2|0:2,0:0:0:0:
3,211,99188,6,0,B|6:208|9:206|9:206|4:197|4:197|12:203|12:203|14:201|16:200|16:200|24:206|24:206|21:197|21:197|23:195|25:194|25:194|22:184|22:184|29:192|29:192|31:190|33:189|33:189|40:197|40:197|38:187|38:187|40:186|43:185|43:185|42:175|42:175|47:184|47:184|50:183|52:182|52:182|57:191|57:191|57:181|57:181|59:180|62:180|62:180|62:169|62:169|67:179|67:179|69:178|72:178|72:178|75:188|75:188|77:177|77:177|79:177|82:177|82:177|84:167|84:167|87:177|87:177|89:177|92:177|92:177|94:187|94:187|97:177|97:177|99:177|102:177|102:177|105:168|105:168|106:178|106:178|109:178|111:179|111:179|112:189|112:189|116:180|116:180|119:180|121:181|121:181|126:172|126:172|126:182|126:182|128:183|131:184|131:184|129:194|129:194|135:186|135:186|138:187|140:188|140:188|147:180|147:180|144:190|144:190|147:191|149:193|149:193|145:202|145:202|153:195|153:195|155:197|157:198|157:198|165:192|165:192|161:201|161:201|163:203|165:205|165:205|160:214|160:214|168:208|168:208|170:210|172:212|172:212|181:207|181:207|175:216|175:216|177:217|178:219|178:219|172:227|172:227|181:223|181:223|183:225|184:228|184:228|194:224|194:224|187:232|187:232|188:234|189:236|189:236|182:243|182:243|192:240|192:240|193:243|194:245|194:245|204:243|204:243|196:249|196:249|197:252|198:254|198:254|190:260|190:260|201:258|201:258|202:261|203:263|203:263|213:261|213:261|205:267|205:267|206:270|207:272|207:272|199:278|199:278|209:276|209:276|210:279|211:281|211:281|221:279|221:279|214:285|214:285|215:288|216:290|216:290|208:297|208:297|218:294|218:294|220:296|221:298|221:298|231:295|231:295|224:303|224:303|225:305|227:307|227:307|220:315|220:315|230:311|230:311|231:313|233:314|233:314|242:310|242:310|236:318|236:318|238:320|240:322|240:322|235:331|235:331|243:325|243:325|245:327|247:328|247:328|255:322|255:322|251:331|251:331|253:333|255:334|255:334|252:344|252:344|260:337|260:337|262:338|264:339|264:339|271:332|271:332|268:342|268:342|271:343|273:344|273:344|272:354|272:354|278:345|278:345|280:346|282:347|282:347|287:338|287:338|287:348|287:348|290:349|292:350|292:350|292:360|292:360|297:351|297:351|299:351|302:351|302:351|305:342|305:342|307:352|307:352|309:352|312:352|312:352|314:363|314:363|317:353|317:353|319:353|322:353|322:353|324:342|324:342|327:352|327:352|329:352|332:352|332:352|335:361|335:361|337:351|337:351|339:351|342:350|342:350|342:340|342:340|346:349|346:349|349:349|351:348|351:348|357:357|357:357|356:347|356:347|359:346|361:345|361:345|360:335|360:335|366:343|366:343|368:342|370:341|370:341|377:349|377:349|375:339|375:339|377:338|379:337|379:337|376:327|376:327|383:334|383:334|386:333|388:332|388:332|395:338|395:338|392:329|392:329|394:327|396:326|396:326|391:316|391:316|399:322|399:322|402:320|404:318|404:318|405:317,1,1265.62584247581,12|0,1:2|0:0,0:0:0:0:
465,126,99803,6,0,B|512:107|512:107|445:89|445:89|440:79|440:79|373:62,1,200.000007629395,6|0,0:1|0:0,0:0:0:0:
395,141,100111,2,0,L|369:134,1,26.6666666666667,2|0,0:2|0:0,0:0:0:0:
331,5,100419,2,0,B|304:22|302:55|302:55|251:92|204:57,1,166.666666666667,2|0,1:2|0:0,0:0:0:0:
127,55,100624,1,2,0:2:0:0:
124,47,100727,2,0,B|113:6|113:6|175:18|216:87|214:166|167:207|167:207|157:168,1,333.333333333333,2|0,1:2|0:0,0:0:0:0:
157,168,101034,2,0,B|217:133|295:154|330:215|330:215|302:191|267:198,1,266.666666666667,6|0,0:1|0:0,0:0:0:0:
283,269,101342,2,0,L|290:294,1,26.6666666666667,2|0,0:2|0:0,0:0:0:0:
197,274,101650,6,0,B|169:275|152:294|152:294|162:268|188:262,1,100.000003814697,2|0,1:2|0:0,0:0:0:0:
204,345,101855,2,0,B|229:294|189:254|180:256|172:259|130:218|157:168,1,200.000007629395,2|0,0:2|0:0,0:0:0:0:
221,198,102162,1,2,0:2:0:0:
140,316,102265,2,0,P|85:349|25:324,1,133.333333333333,6|0,0:1|0:0,0:0:0:0:
0,180,102470,1,2,0:2:0:0:
14,181,102573,2,0,P|70:211|78:275,1,133.333333333333,2|0,0:2|0:0,0:0:0:0:
11,253,102778,1,2,0:2:0:0:
97,36,102880,6,0,P|101:116|35:70,1,200.000007629395,2|2,1:2|0:2,0:0:0:0:
35,69,103188,2,0,P|82:83|131:94,1,100.000003814697,0|0,1:2|0:0,0:0:0:0:
250,156,103393,1,2,0:2:0:0:
240,158,103496,2,0,P|191:168|143:183,1,100.000003814697,4|0,0:1|0:0,0:0:0:0:
22,239,103701,2,0,P|119:261|215:290,1,200.000007629395,2|0,0:2|0:0,0:0:0:0:
224,294,104009,1,2,0:2:0:0:
143,183,104111,6,0,B|120:160|120:160|249:194|249:194|235:249|178:256,1,266.666666666667,0|0,1:2|0:0,0:0:0:0:
99,251,104419,2,0,L|92:276,1,26.6666666666667,2|0,0:2|0:0,0:0:0:0:
146,382,104727,2,0,B|101:357|101:357|140:319|200:318|235:352,1,200.000007629395,6|0,0:1|0:0,0:0:0:0:
370,370,105034,2,0,P|298:310|333:223,1,200.000007629395,2|0,0:2|0:0,0:0:0:0:
407,214,105342,6,0,B|391:172|421:136|421:136|384:167|343:149,1,166.666666666667,2|0,1:2|0:0,0:0:0:0:
369,64,105547,1,2,0:2:0:0:
371,72,105650,2,0,P|389:153|414:232,1,166.666666666667,2|0,1:2|0:0,0:0:0:0:
318,320,105855,1,2,0:2:0:0:
511,342,105957,2,0,B|452:326|452:326|446:317|446:317|386:300,1,133.333333333333,6|0,0:1|0:0,0:0:0:0:
403,379,106162,1,2,0:2:0:0:
396,377,106265,2,0,L|370:370,1,26.6666666666667,2|0,0:2|0:0,0:0:0:0:
325,247,106573,6,0,P|321:211|336:243,1,100.000003814697,2|0,1:2|0:0,0:0:0:0:
393,171,106778,1,2,0:2:0:0:
304,141,106880,2,0,B|333:133|333:133|283:94|215:112|192:171|192:171|226:182|237:215,1,266.666666666667,2|2,0:2|0:2,0:0:0:0:
169,331,107188,2,0,P|152:285|170:240,1,100.000003814697,6|0,0:1|0:0,0:0:0:0:
308,231,107393,1,2,0:2:0:0:
303,240,107496,2,0,P|272:277|224:285,1,100.000003814697,2|0,0:2|0:0,0:0:0:0:
123,186,107701,1,2,0:2:0:0:
304,141,107803,6,0,B|333:96|318:32|262:-6|220:7|190:38|199:83|234:102,1,266.666666666667,2|2,1:2|0:2,0:0:0:0:
234,102,108111,2,0,P|297:82|362:67,1,133.333333333333,2|0,1:2|0:0,0:0:0:0:
499,104,108316,1,2,0:2:0:0:
401,216,108419,2,0,P|368:222|336:233,1,66.6666666666667,4|0,0:1|0:0,0:0:0:0:
433,75,108624,1,0,1:2:0:0:
450,156,108727,2,0,P|418:145|386:139,1,66.6666666666667,0|0,1:2|0:0,0:0:0:0:
319,164,108932,1,0,1:2:0:0:
193,161,109034,5,4,1:2:0:0:
193,161,109342,2,0,P|164:122|169:73,1,100.000003814697,10|2,0:1|0:2,0:0:0:0:
171,63,109650,2,0,P|151:108|106:128,1,100.000003814697,2|2,3:2|0:2,0:0:0:0:
97,131,109957,2,0,P|145:126|185:155,1,100.000003814697,10|2,0:1|0:2,0:0:0:0:
193,161,110265,1,2,3:2:0:0:
313,256,110573,1,10,0:1:0:0:
194,288,110880,2,0,P|244:237|313:256,1,150.000005722046,2|8,3:2|0:1,0:0:0:0:
313,256,111496,5,0,3:2:0:0:
84,360,111803,2,0,P|73:311|59:263,1,100.000003814697,10|2,0:1|0:2,0:0:0:0:
56,253,112111,1,2,3:2:0:0:
0,138,112419,1,10,0:1:0:0:
114,19,112727,2,0,P|162:29|210:43,1,100.000003814697,2|2,3:2|0:2,0:0:0:0:
220,46,113034,2,0,P|171:56|123:70,1,100.000003814697,10|2,0:1|0:2,0:0:0:0:
113,73,113342,2,0,P|186:89|257:111,1,150.000005722046,2|4,3:2|0:1,0:0:0:0:
258,111,113957,5,0,3:2:0:0:
462,14,114265,2,0,P|468:62|438:101,1,100.000003814697,10|2,0:1|0:2,0:0:0:0:
431,107,114573,2,0,P|401:145|406:194,1,100.000003814697,2|2,3:2|0:2,0:0:0:0:
408,204,114880,2,0,P|394:155|383:107,1,100.000003814697,10|2,0:1|0:2,0:0:0:0:
381,97,115188,1,2,3:2:0:0:
512,264,115496,1,10,0:1:0:0:
299,318,115803,2,0,P|368:299|419:350,2,150.000005722046,2|10|0,3:2|0:1|3:2,0:0:0:0:
512,264,116727,5,10,0:1:0:0:
350,368,117034,1,2,3:2:0:0:
224,239,117342,2,0,P|273:228|322:215,1,100.000003814697,10|0,0:1|0:0,0:0:0:0:
319,206,117650,2,0,P|271:219|222:229,1,100.000003814697,2|0,3:2|0:0,0:0:0:0:
142,232,117957,1,10,0:1:0:0:
207,54,118162,1,2,0:2:0:0:
206,64,118265,2,0,P|196:113|182:161,1,100.000003814697,0|0,3:2|0:0,0:0:0:0:
222,229,118573,1,8,0:2:0:0:
51,352,118778,1,8,0:2:0:0:
13,291,118880,6,0,P|71:283|116:320,1,119.999996337891,4|0,1:2|0:0,0:0:0:0:
162,375,119188,1,10,0:2:0:0:
222,230,119393,1,0,0:0:0:0:
234,234,119496,1,2,1:2:0:0:
343,365,119701,1,0,1:2:0:0:
338,354,119803,2,0,P|330:297|367:252,1,119.999996337891,10|0,0:2|0:0,0:0:0:0:
399,317,120111,6,0,P|343:298|284:286,1,119.999996337891,2|0,1:2|0:0,0:0:0:0:
234,234,120419,2,0,P|177:253|118:264,1,119.999996337891,10|0,0:2|0:0,0:0:0:0:
47,264,120727,1,2,1:2:0:0:
243,163,120932,1,2,1:2:0:0:
246,153,121034,2,0,P|256:94|276:37,1,119.999996337891,10|0,0:2|0:0,0:0:0:0:
348,37,121342,6,0,P|367:124|393:210,1,179.999994506836,6|8,1:2|0:2,0:0:0:0:
465,206,121957,6,0,P|412:140|334:171,1,179.999994506836,6|8,1:2|0:2,0:0:0:0:
311,308,122573,6,0,B|333:262|297:225|290:227|282:229|247:192|268:147,1,179.999994506836,6|8,1:2|0:2,0:0:0:0:
334,171,123188,5,2,1:2:0:0:
245,282,123393,1,8,0:3:0:0:
233,278,123496,1,8,0:2:0:0:
109,201,123701,1,8,0:2:0:0:
141,137,123803,6,0,P|178:183|169:240,1,119.999996337891,4|0,1:2|0:0,0:0:0:0:
164,250,124111,1,10,0:2:0:0:
54,151,124316,1,4,0:3:0:0:
48,162,124419,2,0,P|40:219|77:265,1,119.999996337891,2|4,1:2|0:3,0:0:0:0:
233,278,124727,1,10,0:2:0:0:
230,290,124829,1,8,0:3:0:0:
227,302,124932,1,4,0:3:0:0:
224,313,125034,6,0,P|165:324|108:344,1,119.999996337891,0|0,1:2|0:0,0:0:0:0:
97,349,125342,1,10,0:2:0:0:
37,157,125547,1,4,0:3:0:0:
48,162,125650,2,0,P|104:181|163:193,1,119.999996337891,2|4,1:2|0:3,0:0:0:0:
361,231,125957,1,10,0:2:0:0:
373,234,126060,1,8,0:3:0:0:
385,237,126162,1,4,0:3:0:0:
396,240,126265,6,0,B|397:253|400:266|400:266|401:273|401:273|405:280|405:280|409:293|413:304,1,66.6666666666667,14|0,1:2|0:0,0:0:0:0:
163,193,126573,6,0,B|162:206|159:219|159:219|158:226|158:226|154:233|154:233|150:246|146:257,1,66.6666666666667,10|0,1:2|0:0,0:0:0:0:
289,43,126880,6,0,B|290:56|293:69|293:69|294:76|294:76|298:83|298:83|302:96|306:107,1,66.6666666666667,10|0,1:2|0:0,0:0:0:0:
135,1,127085,6,0,B|143:10|147:23|147:23|151:29|151:29|151:36|151:36|152:46|150:55|150:55|147:62|147:62|146:70|146:70|143:78|137:85|137:85|135:92|135:92|128:96|128:96|117:104|106:108|106:108|105:108,1,133.333333333333,10|0,1:2|0:0,0:0:0:0:
25,139,127393,6,0,B|-1:112|-1:112|0:112|0:112|8:112|8:112|14:116|14:116|44:125|44:125|51:129|51:129|59:129|59:129|89:136|89:136|97:136|97:136|104:140|104:140|147:151|147:151|134:148|134:148|140:151|140:151|147:151|147:151|143:168|135:181|135:181|131:190|131:190|125:194|125:194|115:206|101:212|101:212|93:213|93:213|86:218|86:218|76:221|66:223|66:223|64:223,1,340.000006484985,14|8,1:2|0:2,0:0:0:0:
49,224,127803,1,8,0:3:0:0:
7,330,128009,1,4,0:3:0:0:
19,326,128111,2,0,B|20:326|20:326|27:323|38:319|38:319|45:318|45:318|52:314|52:314|59:312|71:308|71:308|78:304|78:304|85:304|85:304|94:301|104:299|104:299|112:300|112:300|118:296|118:296|130:294|146:292,1,133.333333333333,8|0,0:2|0:0,0:0:0:0:
151,217,128419,2,0,B|162:221|175:225|175:225|182:229|182:229|189:230|189:230|202:233|215:234,1,66.6666666666667,8|0,0:2|0:0,0:0:0:0:
246,169,128624,1,8,0:2:0:0:
367,266,128727,6,0,B|402:247|411:202|381:171|339:158|283:196|268:260|297:305,1,266.666666666667,6|8,1:2|0:2,0:0:0:0:
280,377,129034,2,0,B|320:394|352:365|350:359|348:352|381:322|423:339,1,159.999995117188,2|8,1:2|0:2,0:0:0:0:
506,378,129342,2,0,P|451:327|473:254,1,159.999995117188,2|8,1:2|0:2,0:0:0:0:
456,185,129650,2,0,P|477:151|475:112,1,79.9999975585938,2|0,1:2|0:0,0:0:0:0:
423,63,129855,1,10,0:2:0:0:
330,153,129957,6,0,P|367:140|407:133,1,79.9999975585938,2|0,1:2|0:0,0:0:0:0:
491,42,130162,1,10,0:2:0:0:
456,185,130265,2,0,P|379:160|302:142,1,159.999995117188,2|8,1:2|0:2,0:0:0:0:
174,110,130573,2,0,B|216:115|232:158|232:158|224:113|258:86,1,159.999995117188,2|8,1:2|0:2,0:0:0:0:
328,73,130880,1,0,1:2:0:0:
302,142,130983,1,0,1:2:0:0:
283,19,131085,1,8,0:2:0:0:
373,131,131188,6,0,P|369:170|343:200,1,79.9999975585938,0|0,1:2|0:0,0:0:0:0:
211,255,131393,1,10,0:2:0:0:
157,208,131496,2,0,P|229:185|281:240,1,159.999995117188,2|8,1:2|0:2,0:0:0:0:
258,309,131803,2,0,P|239:231|215:155,1,159.999995117188,2|8,1:2|0:2,0:0:0:0:
214,65,132111,2,0,B|254:71|269:110|269:110|240:76|193:87,1,159.999995117188,2|8,1:2|0:2,0:0:0:0:
10,45,132419,6,0,B|-19:37|-19:37|31:-2|99:16|122:75|122:75|88:86|77:119,1,266.666666666667,2|8,1:2|0:2,0:0:0:0:
145,143,132727,2,0,P|130:179|123:219,1,79.9999975585938,2|0,1:2|0:0,0:0:0:0:
22,319,132932,1,10,0:2:0:0:
2,250,133034,2,0,B|42:233|74:262|72:268|70:275|103:305|146:287,1,159.999995117188,2|8,1:2|0:2,0:0:0:0:
195,233,133342,1,2,1:2:0:0:
263,212,133444,1,0,1:2:0:0:
326,246,133547,1,8,0:2:0:0:
369,371,133650,6,0,P|386:294|411:217,1,159.999995117188,6|8,1:2|0:2,0:0:0:0:
480,237,133957,2,0,P|481:198|460:165,1,79.9999975585938,0|0,1:2|0:0,0:0:0:0:
335,96,134162,1,8,0:2:0:0:
281,143,134265,2,0,P|353:166|405:111,1,159.999995117188,2|8,1:2|0:2,0:0:0:0:
267,73,134573,1,0,1:2:0:0:
228,191,134675,1,0,1:2:0:0:
214,121,134778,1,8,0:2:0:0:
287,231,134880,6,0,P|210:206|132:188,1,159.999995117188,2|8,1:2|0:2,0:0:0:0:
44,281,135188,2,0,P|81:266|120:260,1,79.9999975585938,0|0,1:2|0:0,0:0:0:0:
219,363,135393,1,8,0:2:0:0:
150,382,135496,2,0,B|133:342|162:310|168:312|175:314|205:281|187:238,1,159.999995117188,2|8,1:2|0:2,0:0:0:0:
133,188,135803,1,0,1:2:0:0:
64,163,135906,1,0,1:2:0:0:
33,97,136009,1,8,0:2:0:0:
58,29,136111,6,0,P|91:9|131:12,1,79.9999975585938,2|0,1:2|0:0,0:0:0:0:
187,143,136316,1,10,0:2:0:0:
239,94,136419,2,0,P|205:73|166:75,1,79.9999975585938,2|0,1:2|0:0,0:0:0:0:
79,235,136624,1,10,0:2:0:0:
9,221,136727,2,0,P|61:165|133:188,1,159.999995117188,2|8,1:2|0:2,0:0:0:0:
147,258,137034,1,2,1:2:0:0:
201,211,137137,1,0,1:2:0:0:
79,235,137239,1,8,0:2:0:0:
239,306,137342,6,0,B|292:314|312:367|312:367|302:311|345:278,1,200.000007629395,10|8,1:2|0:2,0:0:0:0:
425,270,137650,2,0,P|327:249|231:220,1,200.000007629395,2|8,1:2|0:2,0:0:0:0:
164,333,137957,2,0,B|139:282|179:242|188:244|196:247|238:206|211:156,1,200.000007629395,2|8,1:2|0:2,0:0:0:0:
181,90,138265,1,10,0:2:0:0:
289,163,138368,1,8,0:2:0:0:
164,80,138470,1,8,0:2:0:0:
291,17,138573,6,0,P|328:30|368:37,1,79.9999975585938,6|0,1:2|0:0,0:0:0:0:
447,168,138778,1,10,0:2:0:0:
497,76,138880,2,0,P|421:100|344:119,1,159.999995117188,2|8,1:2|0:2,0:0:0:0:
341,284,139188,2,0,B|374:240|338:191|338:191|306:189|289:163,1,159.999995117188,2|8,1:2|0:2,0:0:0:0:
201,47,139496,2,0,P|227:17|265:6,1,79.9999975585938,2|0,1:2|0:0,0:0:0:0:
276,90,139701,1,10,0:2:0:0:
275,19,139803,6,0,P|211:60|221:135,1,159.999995117188,2|8,1:2|0:2,0:0:0:0:
289,163,140111,2,0,P|296:238|232:279,1,159.999995117188,2|8,1:2|0:2,0:0:0:0:
166,245,140419,2,0,P|192:216|231:207,1,79.9999975585938,2|0,1:2|0:0,0:0:0:0:
374,272,140624,1,8,0:2:0:0:
437,237,140727,2,0,P|436:169|376:200,1,159.999995117188,0|8,1:2|0:2,0:0:0:0:
430,339,141034,5,0,1:2:0:0:
494,306,141137,1,0,1:2:0:0:
425,324,141239,1,10,0:2:0:0:
357,343,141342,2,0,P|320:330|280:323,1,79.9999975585938,2|0,1:2|0:0,0:0:0:0:
215,190,141547,1,10,0:2:0:0:
195,273,141650,2,0,P|233:259|273:253,1,79.9999975585938,2|0,1:2|0:0,0:0:0:0:
270,136,141855,1,10,0:2:0:0:
125,160,141957,6,0,P|137:182|136:157,1,66.6666666666667,2|8,1:2|0:2,0:0:0:0:
198,114,142265,6,0,P|159:83|111:88,1,100.000003814697,14|0,1:2|0:0,0:0:0:0:
150,253,142470,6,0,P|195:234|215:190,1,100.000003814697,10|0,1:2|0:0,0:0:0:0:
53,141,142675,6,0,P|46:189|74:228,1,100.000003814697,10|0,1:2|0:0,0:0:0:0:
312,165,142880,6,0,P|264:179|215:190,1,100.000003814697,10|0,1:2|0:0,0:0:0:0:
50,326,143085,6,0,P|61:277|75:229,1,100.000003814697,10|0,1:2|0:0,0:0:0:0:
41,17,143291,6,0,P|77:50|111:87,1,100.000003814697,10|0,1:2|0:0,0:0:0:0:
266,371,143496,6,0,P|229:243|198:114,1,266.666666666667,6|0,1:2|0:0,0:0:0:0:
133,11,143803,2,0,P|126:50|112:87,1,79.9999975585938,8|0,0:2|0:0,0:0:0:0:
75,229,144009,1,8,0:2:0:0:
5,213,144111,2,0,P|56:157|128:179,1,159.999995117188,2|0,3:2|1:2,0:0:0:0:
198,200,144419,1,8,0:2:0:0:
143,250,144521,1,0,1:2:0:0:
209,189,144624,1,0,1:2:0:0:
252,316,144727,6,0,B|292:333|324:304|322:298|320:291|353:261|396:279,1,159.999995117188,2|0,1:2|1:2,0:0:0:0:
496,185,145034,2,0,P|462:205|423:204,1,79.9999975585938,8|0,0:2|0:0,0:0:0:0:
359,145,145239,1,8,0:2:0:0:
441,126,145342,2,0,P|416:202|397:279,1,159.999995117188,2|0,3:2|1:2,0:0:0:0:
374,346,145650,1,8,0:2:0:0:
305,364,145752,1,0,1:2:0:0:
252,316,145855,1,0,1:2:0:0:
182,327,145957,6,0,P|145:341|105:347,1,79.9999975585938,2|0,1:2|0:0,0:0:0:0:
27,326,146162,1,2,1:2:0:0:
165,204,146265,2,0,P|128:191|89:184,1,79.9999975585938,10|0,0:2|0:0,0:0:0:0:
2,249,146470,1,10,0:2:0:0:
84,268,146573,2,0,P|60:192|42:115,1,159.999995117188,2|0,3:2|1:2,0:0:0:0:
159,36,146880,1,10,0:2:0:0:
123,109,146983,1,0,1:2:0:0:
167,22,147085,1,0,1:2:0:0:
335,188,147188,6,0,B|357:161|393:163|393:163|370:121|317:108|277:134,1,200.000007629395,2|8,1:2|0:2,0:0:0:0:
167,22,147496,2,0,B|200:65|256:55|256:55|203:75|195:128,1,200.000007629395,2|8,1:2|0:2,0:0:0:0:
248,280,147803,2,0,P|250:199|185:246,1,200.000007629395,2|8,1:2|0:2,0:0:0:0:
189,318,148111,1,10,0:2:0:0:
137,168,148214,1,8,0:2:0:0:
196,336,148316,1,8,0:2:0:0:
16,297,148419,6,0,P|-2:236|36:185,1,133.333333333333,4|0,1:2|0:0,0:0:0:0:
85,119,148727,2,0,P|65:180|104:231,1,133.333333333333,8|0,0:2|0:0,0:0:0:0:
117,238,149034,1,0,1:2:0:0:
239,290,149239,1,4,0:3:0:0:
226,286,149342,2,0,P|192:286|164:301,1,66.6666666666667,8|8,0:3|0:3,0:0:0:0:
135,378,149547,1,4,0:3:0:0:
215,367,149650,6,0,P|233:302|257:240,1,133.333333333333,0|0,1:2|0:0,0:0:0:0:
263,229,149957,1,8,0:2:0:0:
322,165,150162,1,2,0:2:0:0:
334,161,150265,1,0,1:2:0:0:
212,66,150470,1,4,0:3:0:0:
218,78,150573,2,0,P|229:110|236:143,1,66.6666666666667,8|0,0:2|0:0,0:0:0:0:
326,259,150778,1,0,0:0:0:0:
372,208,150880,6,0,P|312:188|263:229,1,133.333333333333,0|0,1:2|0:0,0:0:0:0:
267,300,151188,2,0,P|217:340|157:320,1,133.333333333333,8|0,0:2|0:0,0:0:0:0:
148,311,151496,1,0,1:2:0:0:
22,334,151701,1,8,0:3:0:0:
32,343,151803,2,0,P|60:358|93:358,1,66.6666666666667,8|8,0:2|0:3,0:0:0:0:
204,267,152009,1,4,0:3:0:0:
200,255,152111,5,0,1:2:0:0:
158,132,152419,1,0,1:2:0:0:
120,5,152727,2,0,P|182:28|246:46,1,133.333333333333,0|0,1:2|0:0,0:0:0:0:
259,50,153034,1,2,3:2:0:0:
480,124,153239,1,2,0:2:0:0:
326,125,153342,6,0,P|361:113|397:106,1,73.3333355712891,6|0,1:2|0:0,0:0:0:0:
465,125,153547,1,10,0:2:0:0:
344,195,153650,2,0,P|379:183|415:176,1,73.3333355712891,2|0,1:2|0:0,0:0:0:0:
484,196,153855,1,10,0:2:0:0:
361,265,153957,2,0,P|396:253|432:246,1,73.3333355712891,2|0,1:2|0:0,0:0:0:0:
501,266,154162,1,10,0:2:0:0:
374,335,154265,2,0,P|307:313|292:244,1,146.666671142578,2|10,1:2|0:2,0:0:0:0:
344,195,154573,1,0,1:2:0:0:
259,374,154778,5,10,0:2:0:0:
224,311,154880,2,0,P|154:289|83:272,1,146.666671142578,2|10,1:2|0:2,0:0:0:0:
33,114,155188,1,2,1:2:0:0:
38,128,155291,1,2,0:2:0:0:
43,142,155393,1,10,0:2:0:0:
48,156,155496,2,0,B|61:241|1:208|13:291,1,146.666671142578,2|8,1:2|0:2,0:0:0:0:
17,306,155803,1,0,1:2:0:0:
244,165,156009,5,10,0:2:0:0:
192,216,156111,2,0,P|155:218|125:198,1,73.3333355712891,2|0,1:2|0:0,0:0:0:0:
175,148,156316,1,10,0:2:0:0:
261,234,156419,2,0,P|244:267|212:283,1,73.3333355712891,2|0,1:2|0:0,0:0:0:0:
79,253,156624,1,10,0:2:0:0:
178,346,156727,2,0,P|150:323|141:289,1,73.3333355712891,2|0,1:2|0:0,0:0:0:0:
244,165,156932,1,10,0:2:0:0:
283,303,157034,6,0,P|248:291|212:283,1,73.3333355712891,2|0,1:2|0:0,0:0:0:0:
126,199,157239,1,10,0:2:0:0:
107,366,157342,2,0,P|142:353|178:346,1,73.3333355712891,2|0,1:2|0:0,0:0:0:0:
249,151,157547,1,10,0:2:0:0:
283,303,157650,2,0,P|289:267|302:232,1,73.3333355712891,2|0,1:2|0:0,0:0:0:0:
171,133,157855,1,10,0:2:0:0:
145,269,157957,2,0,P|138:233|126:199,1,73.3333355712891,2|0,1:2|0:0,0:0:0:0:
226,73,158162,1,10,0:2:0:0:
302,233,158265,6,0,P|369:252|419:203,1,146.666671142578,2|8,1:2|0:2,0:0:0:0:
423,188,158573,1,0,1:2:0:0:
226,73,158778,1,8,0:2:0:0:
229,88,158880,1,0,1:2:0:0:
394,25,159085,1,10,0:2:0:0:
389,39,159188,2,0,P|368:109|351:181,1,146.666671142578,2|10,1:2|0:2,0:0:0:0:
245,270,159496,6,0,B|274:247|274:207|274:207|286:244|324:257,1,146.666671142578,2|8,1:2|0:2,0:0:0:0:
296,333,159803,1,2,1:2:0:0:
193,208,160009,1,10,0:2:0:0:
178,205,160111,1,0,1:2:0:0:
64,21,160316,1,10,0:2:0:0:
4,77,160419,1,2,1:2:0:0:
20,147,160521,1,2,0:2:0:0:
44,164,160624,1,10,0:2:0:0:
58,169,160727,6,0,B|143:182|110:122|193:134,1,146.666671142578,2|8,1:2|0:2,0:0:0:0:
239,292,161034,1,2,1:2:0:0:
227,283,161137,1,2,0:2:0:0:
220,255,161239,1,10,0:2:0:0:
243,215,161342,1,2,1:2:0:0:
308,196,161444,1,2,0:2:0:0:
342,129,161547,1,10,0:2:0:0:
310,44,161650,2,0,P|258:-3|190:15,1,146.666671142578,2|10,1:2|0:2,0:0:0:0:
109,160,161957,6,0,P|101:124|89:89,1,73.3333355712891,2|0,1:2|0:0,0:0:0:0:
163,81,162162,1,10,0:2:0:0:
171,217,162265,2,0,P|178:181|190:146,1,73.3333355712891,6|0,1:2|0:0,0:0:0:0:
120,24,162470,1,10,0:2:0:0:
98,237,162573,2,0,P|80:165|59:95,1,146.666671142578,2|10,1:2|0:2,0:0:0:0:
190,15,162880,1,8,0:2:0:0:
151,152,162983,1,8,0:2:0:0:
260,4,163085,1,8,0:2:0:0:
296,154,163188,6,0,P|353:164|398:127,1,119.999996337891,6|0,1:2|0:0,0:0:0:0:
406,118,163496,2,0,P|362:156|362:214,1,119.999996337891,10|0,0:2|0:0,0:0:0:0:
367,225,163803,1,2,1:2:0:0:
478,284,164009,1,2,1:2:0:0:
474,295,164111,1,10,0:2:0:0:
370,373,164316,1,2,0:2:0:0:
358,368,164419,6,0,P|301:350|242:337,1,119.999996337891,2|0,1:2|0:0,0:0:0:0:
213,271,164727,2,0,P|155:289|97:301,1,119.999996337891,10|0,0:2|0:0,0:0:0:0:
20,277,165034,1,2,1:2:0:0:
206,187,165239,1,2,1:2:0:0:
195,192,165342,2,0,P|137:210|79:222,1,119.999996337891,10|2,0:2|0:2,0:0:0:0:
16,17,165650,5,2,1:2:0:0:
149,117,165855,1,2,0:2:0:0:
153,106,165957,1,10,0:2:0:0:
5,195,166162,1,0,0:0:0:0:
1,184,166265,1,2,1:2:0:0:
159,312,166470,1,2,1:2:0:0:
148,305,166573,2,0,P|90:295|45:332,1,119.999996337891,10|2,0:2|0:2,0:0:0:0:
109,365,166880,5,2,1:2:0:0:
182,242,167085,1,2,0:2:0:0:
193,246,167188,2,0,P|250:264|308:276,1,119.999996337891,10|0,0:2|0:0,0:0:0:0:
320,278,167496,1,2,1:2:0:0:
443,194,167701,1,2,1:2:0:0:
439,205,167803,1,10,0:2:0:0:
298,113,168009,1,2,0:2:0:0:
307,121,168111,6,0,P|364:131|409:94,1,119.999996337891,6|0,1:2|0:0,0:0:0:0:
346,61,168419,2,0,P|333:119|315:176,1,119.999996337891,10|0,0:2|0:0,0:0:0:0:
313,188,168727,1,2,1:2:0:0:
507,299,168932,1,0,1:2:0:0:
496,293,169034,2,0,P|438:283|393:320,1,119.999996337891,10|0,0:2|0:0,0:0:0:0:
298,380,169342,6,0,P|316:322|328:264,1,119.999996337891,2|0,1:2|0:0,0:0:0:0:
389,226,169650,2,0,P|370:168|358:110,1,119.999996337891,10|0,0:2|0:0,0:0:0:0:
357,98,169957,1,2,1:2:0:0:
289,15,170162,1,0,1:2:0:0:
278,11,170265,1,10,0:2:0:0:
186,43,170470,1,0,0:0:0:0:
175,49,170573,6,0,P|137:93|147:151,1,119.999996337891,2|0,1:2|0:0,0:0:0:0:
211,184,170880,2,0,P|220:241|183:286,1,119.999996337891,10|0,0:2|0:0,0:0:0:0:
151,223,171188,1,2,1:2:0:0:
208,112,171393,1,0,1:2:0:0:
219,108,171496,1,10,0:2:0:0:
102,288,171701,1,0,0:0:0:0:
113,284,171803,6,0,P|198:257|286:236,1,179.999994506836,2|8,1:2|0:2,0:0:0:0:
287,236,172419,2,0,P|229:245|185:207,1,119.999996337891,2|0,1:2|1:2,0:0:0:0:
180,196,172727,1,8,0:2:0:0:
292,14,173034,6,0,B|314:60|278:97|271:95|263:93|228:130|249:175,1,179.999994506836,2|8,1:2|0:2,0:0:0:0:
249,175,173650,1,0,1:2:0:0:
8,249,173855,1,0,1:2:0:0:
14,239,173957,2,0,P|58:201|116:211,1,119.999996337891,10|0,0:2|0:0,0:0:0:0:
126,217,174265,6,0,P|60:165|91:87,1,179.999994506836,2|8,1:2|0:2,0:0:0:0:
91,87,174880,1,0,1:2:0:0:
262,177,175085,1,0,1:2:0:0:
249,175,175188,2,0,P|191:163|134:145,1,119.999996337891,8|0,0:2|0:0,0:0:0:0:
53,27,175496,5,0,1:2:0:0:
17,150,175701,1,2,0:2:0:0:
6,154,175803,1,10,0:2:0:0:
125,23,176009,1,2,0:2:0:0:
135,18,176111,2,0,P|192:8|237:45,1,119.999996337891,2|0,1:2|1:2,0:0:0:0:
242,56,176419,1,10,0:2:0:0:
376,139,176624,1,2,0:2:0:0:
364,143,176727,6,0,P|307:161|249:175,1,119.999996337891,2|0,1:2|0:0,0:0:0:0:
167,241,177034,2,0,P|225:253|282:271,1,119.999996337891,10|0,0:2|0:0,0:0:0:0:
294,275,177342,1,2,1:2:0:0:
336,360,177547,1,0,1:2:0:0:
347,356,177650,1,8,0:2:0:0:
495,71,177957,6,0,P|450:34|393:43,1,119.999996337891,4|0,1:2|0:0,0:0:0:0:
383,51,178265,1,10,0:2:0:0:
300,153,178470,1,4,0:3:0:0:
291,160,178573,2,0,P|233:169|188:132,1,119.999996337891,2|4,1:2|0:3,0:0:0:0:
95,14,178880,1,10,0:2:0:0:
83,17,178983,1,8,0:3:0:0:
71,20,179085,1,4,0:3:0:0:
60,23,179188,6,0,P|48:82|30:138,1,119.999996337891,0|0,1:2|0:0,0:0:0:0:
26,150,179496,1,10,0:2:0:0:
122,189,179701,1,4,0:3:0:0:
124,200,179803,2,0,P|136:258|154:315,1,119.999996337891,2|4,1:2|0:3,0:0:0:0:
305,348,180111,1,10,0:2:0:0:
308,336,180214,1,8,0:3:0:0:
311,324,180316,1,4,0:3:0:0:
314,313,180419,6,0,B|327:312|340:309|340:309|347:308|347:308|354:304|354:304|367:300|378:296,1,66.6666666666667,14|0,1:2|0:0,0:0:0:0:
181,232,180727,6,0,B|169:228|157:222|157:222|150:219|150:219|145:213|145:213|133:206|124:200,1,66.6666666666667,10|0,1:2|0:0,0:0:0:0:
288,177,181034,6,0,B|298:169|308:160|308:160|314:156|314:156|318:149|318:149|327:139|334:130,1,66.6666666666667,10|0,1:2|0:0,0:0:0:0:
168,30,181239,6,0,B|172:40|179:52|179:52|181:60|181:60|185:66|185:66|192:77|201:87,1,66.6666666666667,10|0,1:2|0:0,0:0:0:0:
437,337,181547,6,0,B|445:328|449:315|449:315|453:309|453:309|453:302|453:302|454:292|452:283|452:283|449:276|449:276|448:268|448:268|445:260|439:253|439:253|437:246|437:246|430:242|430:242|419:234|408:230|408:230|407:230,1,133.333333333333,14|0,1:2|0:0,0:0:0:0:
378,296,181855,1,8,0:2:0:0:
366,299,181957,1,8,0:3:0:0:
201,87,182162,1,4,0:3:0:0:
187,86,182265,2,0,B|171:84|159:82|159:82|153:78|153:78|145:79|145:79|135:77|126:74|126:74|119:74|119:74|112:70|112:70|100:66|93:64|93:64|86:60|86:60|79:59|79:59|68:55|61:52|61:52|60:52,1,133.333333333333,8|0,0:2|0:0,0:0:0:0:
60,52,184111,6,0,B|89:29|89:-6|89:-6|118:102|118:102|72:129|78:173,1,266.666666666667,6|8,1:2|0:2,0:0:0:0:
127,236,184419,2,0,P|194:230|159:173,1,159.999995117188,2|8,1:2|0:2,0:0:0:0:
53,303,184727,2,0,P|130:321|206:346,1,159.999995117188,2|8,1:2|0:2,0:0:0:0:
334,260,185034,2,0,P|296:273|257:282,1,79.9999975585938,2|0,1:2|0:0,0:0:0:0:
159,173,185239,5,10,0:2:0:0:
281,145,185342,2,0,P|261:179|226:196,1,79.9999975585938,2|0,1:2|0:0,0:0:0:0:
112,227,185547,1,10,0:2:0:0:
88,157,185650,2,0,P|140:102|213:125,1,159.999995117188,2|8,1:2|0:2,0:0:0:0:
334,260,185957,2,0,B|378:277|411:247|409:240|407:234|439:205|479:222,1,159.999995117188,2|8,1:2|0:2,0:0:0:0:
459,291,186265,1,0,1:2:0:0:
357,192,186368,1,0,1:2:0:0:
470,301,186470,1,8,0:2:0:0:
330,359,186573,6,0,P|292:346|253:337,1,79.9999975585938,0|0,1:2|0:0,0:0:0:0:
150,196,186778,1,10,0:2:0:0:
97,299,186880,2,0,P|172:273|250:255,1,159.999995117188,2|8,1:2|0:2,0:0:0:0:
277,102,187188,2,0,P|274:169|214:138,1,159.999995117188,2|8,1:2|0:2,0:0:0:0:
215,66,187496,2,0,P|155:35|152:102,1,159.999995117188,2|8,1:2|0:2,0:0:0:0:
436,72,187803,6,0,B|471:53|480:8|450:-23|408:-36|352:2|337:66|366:111,1,266.666666666667,2|8,1:2|0:2,0:0:0:0:
434,153,188111,2,0,P|455:186|454:225,1,79.9999975585938,2|0,1:2|0:0,0:0:0:0:
412,284,188316,1,10,0:2:0:0:
247,291,188419,2,0,B|292:257|341:293|341:293|343:325|369:342,1,159.999995117188,2|8,1:2|0:2,0:0:0:0:
483,292,188727,1,2,1:2:0:0:
440,349,188829,1,0,1:2:0:0:
498,294,188932,1,8,0:2:0:0:
295,346,189034,6,0,B|278:302|308:269|315:271|321:273|350:241|333:201,1,159.999995117188,6|8,1:2|0:2,0:0:0:0:
187,199,189342,2,0,P|226:208|264:221,1,79.9999975585938,0|0,1:2|0:0,0:0:0:0:
386,67,189547,1,8,0:2:0:0:
314,69,189650,2,0,B|315:112|356:132|356:132|312:120|282:151,1,159.999995117188,2|8,1:2|0:2,0:0:0:0:
333,201,189957,1,0,1:2:0:0:
316,271,190060,1,0,1:2:0:0:
247,291,190162,1,8,0:2:0:0:
218,357,190265,6,0,P|145:380|93:325,1,159.999995117188,2|8,1:2|0:2,0:0:0:0:
69,166,190573,2,0,P|90:199|89:238,1,79.9999975585938,0|0,1:2|0:0,0:0:0:0:
15,305,190778,1,8,0:2:0:0:
10,221,190880,2,0,P|87:238|163:265,1,159.999995117188,2|8,1:2|0:2,0:0:0:0:
234,280,191188,1,0,1:2:0:0:
282,226,191291,1,0,1:2:0:0:
259,158,191393,1,8,0:2:0:0:
71,134,191496,6,0,P|62:173|50:211,1,79.9999975585938,2|0,1:2|0:0,0:0:0:0:
212,212,191701,1,10,0:2:0:0:
140,71,191803,2,0,P|149:109|161:147,1,79.9999975585938,2|0,1:2|0:0,0:0:0:0:
132,224,192009,1,10,0:2:0:0:
65,54,192111,2,0,P|140:80|218:98,1,159.999995117188,2|8,1:2|0:2,0:0:0:0:
285,71,192419,1,2,1:2:0:0:
352,93,192521,1,0,1:2:0:0:
380,159,192624,1,8,0:2:0:0:
311,334,192727,6,0,B|285:294|298:241|340:218|340:218|338:254|365:276,1,200.000007629395,10|8,1:2|0:2,0:0:0:0:
420,218,193034,2,0,P|334:252|275:179,1,200.000007629395,2|8,1:2|0:2,0:0:0:0:
246,27,193342,2,0,B|273:77|231:118|223:115|214:113|174:153|199:204,1,200.000007629395,2|8,1:2|0:2,0:0:0:0:
251,302,193650,1,10,0:2:0:0:
354,172,193752,1,8,0:2:0:0:
240,318,193855,1,8,0:2:0:0:
129,216,193957,6,0,P|145:252|179:273,1,79.9999975585938,6|0,1:2|0:0,0:0:0:0:
311,334,194162,1,10,0:2:0:0:
365,286,194265,2,0,P|293:263|240:318,1,159.999995117188,2|8,1:2|0:2,0:0:0:0:
165,371,194573,2,0,B|121:388|88:358|90:351|92:345|60:316|20:333,1,159.999995117188,2|8,1:2|0:2,0:0:0:0:
14,347,194880,2,0,P|53:346|86:368,1,79.9999975585938,2|0,1:2|0:0,0:0:0:0:
146,293,195085,1,10,0:2:0:0:
79,190,195188,6,0,B|95:227|71:261|71:261|84:218|50:185,1,159.999995117188,2|8,1:2|0:2,0:0:0:0:
2,238,195496,2,0,P|77:210|155:192,1,159.999995117188,2|8,1:2|0:2,0:0:0:0:
220,126,195803,2,0,P|181:116|143:104,1,79.9999975585938,2|0,1:2|0:0,0:0:0:0:
22,11,196009,1,8,0:2:0:0:
2,81,196111,2,0,B|45:82|65:123|65:123|53:79|84:49,1,159.999995117188,0|8,1:2|0:2,0:0:0:0:
143,104,196419,5,0,1:2:0:0:
121,182,196521,1,0,1:2:0:0:
149,89,196624,1,10,0:2:0:0:
181,236,196727,2,0,P|201:202|200:163,1,79.9999975585938,2|0,1:2|0:0,0:0:0:0:
65,123,196932,1,10,0:2:0:0:
278,144,197034,2,0,P|262:108|229:87,1,79.9999975585938,2|0,1:2|0:0,0:0:0:0:
121,182,197239,1,10,0:2:0:0:
202,320,197342,6,0,P|213:351|220:384,1,66.6666666666667,2|8,1:2|0:2,0:0:0:0:
255,257,197650,6,0,P|265:208|280:160,1,100.000003814697,14|0,1:2|0:0,0:0:0:0:
187,170,197855,6,0,P|176:121|160:73,1,100.000003814697,10|0,1:2|0:0,0:0:0:0:
337,101,198060,6,0,P|323:53|312:4,1,100.000003814697,10|0,1:2|0:0,0:0:0:0:
95,0,198265,6,0,P|85:48|70:96,1,100.000003814697,10|0,1:2|0:0,0:0:0:0:
358,180,198470,6,0,P|344:227|333:276,1,100.000003814697,10|0,1:2|0:0,0:0:0:0:
167,249,198675,6,0,P|182:296|193:345,1,100.000003814697,10|0,1:2|0:0,0:0:0:0:
502,316,198880,6,0,B|478:345|485:378|485:378|438:366|411:318|422:276|422:276|457:265|468:231,1,266.666666666667,6|0,1:2|0:0,0:0:0:0:
400,207,199188,2,0,P|379:173|380:134,1,79.9999975585938,8|0,0:2|0:0,0:0:0:0:
439,3,199393,1,8,0:2:0:0:
509,19,199496,2,0,P|455:73|383:50,1,159.999995117188,2|0,3:2|1:2,0:0:0:0:
323,90,199803,1,8,0:2:0:0:
439,3,199906,1,0,1:2:0:0:
380,134,200009,1,0,1:2:0:0:
267,8,200111,6,0,P|294:83|313:161,1,159.999995117188,2|0,1:2|1:2,0:0:0:0:
369,205,200419,2,0,P|355:242|346:281,1,79.9999975585938,8|0,0:2|0:0,0:0:0:0:
235,371,200624,1,8,0:2:0:0:
216,301,200727,2,0,B|259:300|279:259|279:259|267:303|298:333,1,159.999995117188,2|0,3:2|1:2,0:0:0:0:
367,349,201034,1,8,0:2:0:0:
416,297,201137,1,0,1:2:0:0:
393,228,201239,1,0,1:2:0:0:
300,184,201342,6,0,P|261:186|228:166,1,79.9999975585938,2|0,1:2|0:0,0:0:0:0:
173,301,201547,1,2,1:2:0:0:
121,251,201650,2,0,P|154:230|194:231,1,79.9999975585938,10|0,0:2|0:0,0:0:0:0:
298,332,201855,1,10,0:2:0:0:
318,263,201957,2,0,B|278:246|246:275|248:281|250:288|217:318|173:301,1,159.999995117188,2|0,3:2|1:2,0:0:0:0:
13,227,202265,1,10,0:2:0:0:
105,322,202368,1,0,1:2:0:0:
0,211,202470,1,0,1:2:0:0:
181,132,202573,6,0,B|224:165|214:221|214:221|234:168|287:160,1,200.000007629395,2|8,1:2|0:2,0:0:0:0:
347,300,202880,2,0,B|320:322|322:358|322:358|280:335|267:282|293:242,1,200.000007629395,2|8,1:2|0:2,0:0:0:0:
426,149,203188,2,0,P|428:229|363:182,1,200.000007629395,2|8,1:2|0:2,0:0:0:0:
359,27,203496,1,10,0:2:0:0:
286,160,203598,1,8,0:2:0:0:
370,10,203701,1,8,0:2:0:0:
287,7,203803,6,0,L|280:32,1,26.6666666666667,2|0,0:2|0:0,0:0:0:0:
219,86,204111,6,0,B|190:78|190:78|240:39|308:57|331:116|331:116|297:127|286:160,1,266.666666666667,10|0,3:2|0:0,0:0:0:0:
353,184,204419,6,0,L|359:209,1,26.6666666666667,2|0,0:2|0:0,0:0:0:0:
475,299,204727,6,0,B|498:270|533:270|533:270|425:241|425:241|398:287|354:281,1,266.666666666667,10|2,3:2|0:2,0:0:0:0:
288,214,205034,6,0,L|295:240,1,26.6666666666667,2|2,0:2|0:2,0:0:0:0:
183,301,205342,6,0,B|160:278|160:278|289:312|289:312|275:367|218:374,1,266.666666666667,10|0,3:2|0:0,0:0:0:0:
148,364,205650,6,0,L|122:357,1,26.6666666666667,2|0,0:2|0:0,0:0:0:0:
107,230,205957,6,0,B|84:259|91:292|91:292|44:280|17:232|28:190|28:190|63:179|74:145,1,266.666666666667,10|0,3:2|0:0,0:0:0:0:
0,95,206265,6,0,L|7:121,1,26.6666666666667,2|2,0:2|0:2,0:0:0:0:
107,230,206573,6,0,B|91:206|91:206|155:168|233:189|270:253|270:253|241:269,1,266.666666666667,10|0,3:2|0:0,0:0:0:0:
157,314,206880,6,0,L|164:288,1,26.6666666666667,2|0,0:2|0:0,0:0:0:0:
170,115,207188,6,0,B|142:131|142:131|187:160|184:219|184:219|211:166|264:164|264:164|250:138,1,266.666666666667,10|0,3:2|0:0,0:0:0:0:
233,44,207496,6,0,L|226:70,1,26.6666666666667,2|0,0:2|0:0,0:0:0:0:
320,99,207803,6,0,B|355:80|364:35|334:4|292:-9|236:29|221:93|250:138,1,266.666666666667,10|2,3:2|0:2,0:0:0:0:
410,167,208111,2,0,B|445:148|454:103|424:72|382:59|326:97|311:161|340:206,1,266.666666666667,10|0,3:2|0:0,0:0:0:0:
500,235,208419,2,0,B|535:216|544:171|514:140|472:127|416:165|401:229|430:274,1,266.666666666667,10|0,3:2|0:0,0:0:0:0:
500,316,208727,6,0,L|493:341,1,26.6666666666667,2|0,0:2|0:0,0:0:0:0:
430,274,209034,6,0,P|412:209|388:147,1,133.333333333333,4|8,1:2|0:2,0:0:0:0:
512,7,209342,2,0,P|488:69|471:134,1,133.333333333333,2|0,3:2|1:2,0:0:0:0:
497,212,209650,1,8,0:2:0:0:
425,21,209855,1,2,0:2:0:0:
420,33,209957,6,0,P|373:76|311:61,1,133.333333333333,2|0,1:2|1:2,0:0:0:0:
355,7,210265,2,0,P|331:69|313:133,1,133.333333333333,8|8,0:2|0:2,0:0:0:0:
379,160,210573,2,0,P|332:203|270:189,1,133.333333333333,2|0,3:2|1:2,0:0:0:0:
260,180,210880,1,8,0:2:0:0:
121,128,211085,1,2,0:2:0:0:
126,140,211188,6,0,P|149:202|167:266,1,133.333333333333,2|0,1:2|1:2,0:0:0:0:
172,278,211496,1,10,0:2:0:0:
377,374,211701,1,10,0:2:0:0:
380,364,211803,1,2,3:2:0:0:
172,278,212009,1,0,1:2:0:0:
167,267,212111,2,0,P|149:203|126:141,1,133.333333333333,10|0,0:2|0:0,0:0:0:0:
191,113,212419,6,0,P|144:69|82:83,1,133.333333333333,2|0,1:2|0:0,0:0:0:0:
71,91,212727,1,10,0:2:0:0:
53,225,212932,1,8,0:3:0:0:
58,237,213034,2,0,P|104:281|167:267,1,133.333333333333,6|8,0:3|0:2,0:0:0:0:
272,164,213342,1,10,0:2:0:0:
291,236,213444,1,8,0:2:0:0:
222,216,213547,1,8,0:2:0:0:
340,184,213650,6,0,P|342:144|321:111,1,79.9999975585938,6|0,1:2|0:0,0:0:0:0:
195,41,213855,1,10,0:2:0:0:
191,113,213957,2,0,B|237:118|262:80|258:74|254:68|278:32|321:38,1,159.999995117188,2|8,1:2|0:2,0:0:0:0:
448,127,214265,2,0,P|393:75|415:2,1,159.999995117188,2|8,1:2|0:2,0:0:0:0:
430,7,214573,2,0,P|407:39|407:78,1,79.9999975585938,2|0,1:2|0:0,0:0:0:0:
482,190,214778,1,10,0:2:0:0:
438,248,214880,6,0,B|404:203|347:224|347:224|335:253|307:264,1,159.999995117188,2|8,1:2|0:2,0:0:0:0:
221,144,215188,2,0,P|287:149|253:206,1,159.999995117188,2|8,1:2|0:2,0:0:0:0:
160,281,215496,2,0,P|172:242|181:203,1,79.9999975585938,2|0,1:2|0:0,0:0:0:0:
236,276,215701,1,8,0:2:0:0:
149,367,215803,2,0,P|131:289|104:213,1,159.999995117188,0|8,1:2|0:2,0:0:0:0:
51,166,216111,5,0,1:2:0:0:
119,143,216214,1,0,1:2:0:0:
173,191,216316,1,10,0:2:0:0:
241,172,216419,2,0,P|222:136|187:119,1,79.9999975585938,2|0,1:2|0:0,0:0:0:0:
104,214,216624,1,10,0:2:0:0:
206,50,216727,2,0,P|166:49|133:70,1,79.9999975585938,2|0,1:2|0:0,0:0:0:0:
119,143,216932,1,10,0:2:0:0:
323,26,217034,6,0,L|306:91,1,66.6666666666667,2|8,1:2|0:2,0:0:0:0:
344,189,217342,6,0,B|392:176|392:176|357:141,1,100.000003814697,14|0,1:2|0:0,0:0:0:0:
241,172,217547,6,0,B|228:220|228:220|275:207,1,100.000003814697,10|0,1:2|0:0,0:0:0:0:
306,91,217752,6,0,B|270:55|270:55|258:103,1,100.000003814697,10|0,1:2|0:0,0:0:0:0:
299,344,217957,6,0,P|329:306|325:257,1,100.000003814697,10|0,1:2|0:0,0:0:0:0:
127,57,218162,6,0,P|144:102|188:122,1,100.000003814697,10|0,1:2|0:0,0:0:0:0:
461,51,218368,6,0,P|412:43|372:71,1,100.000003814697,10|0,1:2|0:0,0:0:0:0:
118,192,218573,6,0,B|88:197|88:197|135:240|204:227|231:169|231:169|198:156|189:122,1,266.666666666667,6|0,1:2|0:0,0:0:0:0:
280,26,218880,2,0,P|267:63|258:102,1,79.9999975585938,8|0,0:2|0:0,0:0:0:0:
226,226,219085,1,8,0:2:0:0:
108,116,219188,2,0,P|134:191|152:269,1,159.999995117188,2|0,3:2|1:2,0:0:0:0:
158,341,219496,1,8,0:2:0:0:
226,226,219598,1,0,1:2:0:0:
93,310,219701,1,0,1:2:0:0:
254,377,219803,6,0,B|298:394|331:364|329:357|327:351|359:322|399:339,1,159.999995117188,2|0,1:2|1:2,0:0:0:0:
499,289,220111,2,0,P|460:290|427:269,1,79.9999975585938,8|0,0:2|0:0,0:0:0:0:
295,212,220316,1,8,0:2:0:0:
309,141,220419,2,0,P|364:194|342:267,1,159.999995117188,2|0,3:2|1:2,0:0:0:0:
272,280,220727,1,8,0:2:0:0:
295,212,220829,1,0,1:2:0:0:
226,226,220932,1,0,1:2:0:0:
398,108,221034,6,0,P|435:122|474:128,1,79.9999975585938,2|0,1:2|0:0,0:0:0:0:
386,198,221239,1,2,1:2:0:0:
333,37,221342,2,0,P|372:31|409:16,1,79.9999975585938,10|0,0:2|0:0,0:0:0:0:
309,141,221547,1,10,0:2:0:0:
511,56,221650,2,0,P|484:131|466:209,1,159.999995117188,2|0,3:2|1:2,0:0:0:0:
430,283,221957,1,10,0:2:0:0:
398,108,222060,1,0,1:2:0:0:
433,299,222162,1,0,1:2:0:0:
220,171,222265,6,0,B|175:146|175:146|214:108|274:107|309:141,1,200.000007629395,2|8,1:2|0:2,0:0:0:0:
348,293,222573,2,0,B|340:240|287:220|287:220|343:230|376:187,1,200.000007629395,2|8,1:2|0:2,0:0:0:0:
383,106,222880,2,0,P|404:204|433:300,1,200.000007629395,2|8,1:2|0:2,0:0:0:0:
384,365,223188,1,10,0:2:0:0:
287,220,223291,1,8,0:2:0:0:
304,361,223393,1,8,0:2:0:0:
142,240,223496,6,0,P|98:287|114:349,1,133.333333333333,4|0,1:2|0:0,0:0:0:0:
199,371,223803,2,0,P|242:323|226:261,1,133.333333333333,8|0,0:2|0:0,0:0:0:0:
171,306,224111,1,0,1:2:0:0:
287,206,224316,1,4,0:3:0:0:
291,193,224419,2,0,P|291:159|276:131,1,66.6666666666667,8|8,0:3|0:3,0:0:0:0:
199,102,224624,1,4,0:3:0:0:
210,182,224727,6,0,P|275:200|337:224,1,133.333333333333,0|0,1:2|0:0,0:0:0:0:
348,228,225034,1,8,0:2:0:0:
274,47,225239,1,2,0:2:0:0:
262,51,225342,1,0,1:2:0:0:
137,203,225547,1,4,0:3:0:0:
125,197,225650,2,0,P|93:186|60:179,1,66.6666666666667,8|0,0:2|0:0,0:0:0:0:
27,243,225855,1,0,0:0:0:0:
77,293,225957,6,0,P|98:232|61:179,1,133.333333333333,0|0,1:2|0:0,0:0:0:0:
162,38,226265,2,0,P|121:87|141:148,1,133.333333333333,8|0,0:2|0:0,0:0:0:0:
150,157,226573,1,0,1:2:0:0:
42,33,226778,1,8,0:3:0:0:
45,45,226880,2,0,P|45:77|30:107,1,66.6666666666667,8|8,0:2|0:3,0:0:0:0:
62,179,227085,1,4,0:3:0:0:
66,191,227188,5,0,1:2:0:0:
162,38,227496,1,0,1:2:0:0:
281,168,227803,2,0,B|250:203|260:244|260:244|201:229|167:169|181:117|181:117|226:103|238:61,1,333.333333333333,0|0,1:2|0:0,0:0:0:0:
162,38,228419,6,0,P|259:60|355:89,1,200.000007629395,6|2,1:2|1:2,0:0:0:0:
428,203,228727,2,0,P|392:210|357:221,1,73.3333355712891,10|0,0:2|0:0,0:0:0:0:
275,139,228932,1,10,0:2:0:0:
297,281,229034,2,0,P|332:288|367:299,1,73.3333355712891,2|0,3:2|0:0,0:0:0:0:
495,249,229239,1,2,1:2:0:0:
423,361,229342,2,0,P|387:368|352:379,1,73.3333355712891,10|0,0:2|0:0,0:0:0:0:
287,210,229547,1,2,0:2:0:0:
201,335,229650,6,0,B|116:348|149:288|66:300,1,146.666671142578,2|2,1:2|1:2,0:0:0:0:
12,348,229957,1,8,0:2:0:0:
1,360,230162,1,10,0:2:0:0:
80,370,230265,2,0,P|136:319|113:247,1,159.999995117188,0|2,3:2|1:2,0:0:0:0:
43,230,230573,2,0,P|22:196|24:157,1,79.9999975585938,10|0,0:2|0:0,0:0:0:0:
44,88,230778,1,2,0:2:0:0:
135,136,230880,5,0,1:2:0:0:
149,140,231085,1,2,1:2:0:0:
203,226,231188,2,0,P|211:190|222:155,1,73.3333355712891,10|0,0:2|0:0,0:0:0:0:
198,87,231393,1,10,0:2:0:0:
142,278,231496,2,0,P|134:242|123:207,1,73.3333355712891,2|0,3:2|0:0,0:0:0:0:
129,71,231701,1,2,1:2:0:0:
272,245,231803,2,0,P|280:209|291:174,1,73.3333355712891,10|0,0:2|0:0,0:0:0:0:
178,18,232009,1,2,0:2:0:0:
149,140,232111,6,0,P|219:118|290:101,1,146.666671142578,10|2,0:2|1:2,0:0:0:0:
352,136,232419,1,8,0:2:0:0:
368,147,232624,1,10,0:2:0:0:
232,327,232727,2,0,P|225:246|292:291,1,200.000007629395,0|2,3:2|1:2,0:0:0:0:
242,343,233034,2,0,P|200:316|190:268,1,100.000003814697,10|0,0:2|0:0,0:0:0:0:
291,174,233239,2,0,P|266:169|242:160,1,50.0000019073487,2|2,0:2|0:2,0:0:0:0:
225,14,233342,6,0,B|252:64|210:105|202:102|193:100|153:140|178:191,1,200.000007629395,4|2,1:2|1:2,0:0:0:0:
292,100,233650,2,0,P|326:110|362:118,1,73.3333355712891,10|0,0:2|0:0,0:0:0:0:
417,168,233855,1,10,0:2:0:0:
416,23,233957,2,0,P|381:34|346:42,1,73.3333355712891,2|0,3:2|0:0,0:0:0:0:
291,174,234162,1,2,1:2:0:0:
205,47,234265,2,0,P|241:39|276:29,1,73.3333355712891,10|0,0:2|0:0,0:0:0:0:
430,95,234470,1,2,0:2:0:0:
321,217,234573,6,0,P|272:167|292:100,1,146.666671142578,2|2,1:2|1:2,0:0:0:0:
416,23,234880,1,8,0:2:0:0:
429,15,235085,1,10,0:2:0:0:
343,149,235188,2,0,P|267:125|189:108,1,159.999995117188,0|2,3:2|1:2,0:0:0:0:
211,40,235496,2,0,P|171:38|138:59,1,79.9999975585938,10|0,0:2|0:0,0:0:0:0:
121,129,235701,1,2,0:2:0:0:
170,245,235803,6,0,B|255:258|222:198|305:210,1,146.666671142578,4|2,1:2|0:2,0:0:0:0:
305,350,236111,2,0,P|297:314|286:279,1,73.3333355712891,10|0,0:2|0:0,0:0:0:0:
343,149,236316,1,10,0:2:0:0:
237,229,236419,1,8,0:2:0:0:
384,208,236521,1,10,0:2:0:0:
273,137,236624,1,10,0:2:0:0:
365,279,236727,2,0,P|373:243|384:208,1,73.3333355712891,10|10,0:2|0:2,0:0:0:0:
318,81,236932,1,10,0:2:0:0:
237,229,237034,6,0,P|206:248|170:246,1,73.3333355712891,2|0,1:2|0:0,0:0:0:0:
0,128,237239,1,10,0:2:0:0:
38,276,237342,2,0,P|68:296|105:294,1,73.3333355712891,10|0,0:2|0:0,0:0:0:0:
132,74,237547,6,0,B|142:57|159:45|159:45|166:38|166:38|176:35|176:35|189:28|204:24|204:24|214:25|214:25|223:21|223:21|238:19|253:20|253:20|262:20|262:20|272:23|272:23|287:27|300:33|300:33|308:40|308:40|318:43|318:43|330:52|341:63|341:63|349:69|349:69|354:77|354:77|363:88|371:101|371:101|376:110|376:110|382:117|382:117|391:130|402:139|402:139|411:143|411:143|419:151|419:151|432:157|447:159|447:159|457:162|457:162|467:160|467:160|488:160|506:156,1,450.000017166138,6|0,1:2|0:0,0:0:0:0:
