osu file format v14

[General]
AudioFilename: audio.mp3
AudioLeadIn: 0
PreviewTime: 133949
Countdown: 0
SampleSet: None
StackLeniency: 0.7
Mode: 0
LetterboxInBreaks: 0
WidescreenStoryboard: 0

[Editor]
DistanceSpacing: 0.97
BeatDivisor: 4
GridSize: 32
TimelineZoom: 3.299999

[Metadata]
Title:Peace Sign
TitleUnicode:ピースサイン
Artist:Amatsuki
ArtistUnicode:天月
Creator:chucentry
Version:Hero
Source:僕のヒーローアカデミア
Tags:HeroAca Kenshi Yonezu cover all might boku no hero academia deku
BeatmapID:1605074
BeatmapSetID:763350

[Difficulty]
HPDrainRate:7
CircleSize:4
OverallDifficulty:8
ApproachRate:9.3
SliderMultiplier:2
SliderTickRate:1

[Events]
//Background and Video events
0,0,"maxresdefault (10).jpg",0,0
//Break Periods
2,84649,133395
//Storyboard Layer 0 (Background)
//Storyboard Layer 1 (Fail)
//Storyboard Layer 2 (Pass)
//Storyboard Layer 3 (Foreground)
//Storyboard Sound Samples

[TimingPoints]
449,300,4,2,1,40,1,0
449,-125,4,2,1,40,0,0
9749,-200,4,2,1,40,0,0
10049,-100,4,2,1,40,0,0
19649,-133.333333333333,4,2,1,40,0,0
37645,-111.111111111111,4,2,1,40,0,0
58049,-76.9230769230769,4,2,1,40,0,0
59549,-200,4,2,1,60,0,0
60449,-76.9230769230769,4,2,1,60,0,0
60749,-100,4,2,1,60,0,0
64499,-90.9090909090909,4,2,1,60,0,0
65099,-83.3333333333333,4,2,1,60,0,0
65249,-76.9230769230769,4,2,1,60,0,0
65549,-100,4,2,1,60,0,0
69149,-76.9230769230769,4,2,1,60,0,0
70049,-100,4,2,1,60,0,0

[Colours]
Combo1 : 0,73,108
Combo2 : 255,0,0
Combo3 : 255,255,255
Combo4 : 0,0,0

[HitObjects]
47,140,449,6,0,P|126:154|221:133,1,160
272,73,899,1,0,0:0:0:0:
338,142,1049,2,0,L|325:231,1,80
432,79,1349,2,0,L|445:168,1,80
272,73,1649,6,0,P|192:70|112:66,1,160
34,123,2099,1,0,0:0:0:0:
54,216,2249,2,0,P|100:196|124:166,1,80
199,207,2549,2,0,P|204:157|190:121,1,80
135,272,2849,6,0,P|193:297|276:251,1,160
367,169,3299,1,0,0:0:0:0:
367,169,3449,2,0,P|375:249|382:344,1,160
290,365,3899,1,0,0:0:0:0:
462,371,4049,6,0,P|471:335|466:285,1,80
367,169,4349,2,0,P|395:196|431:213,1,80
299,105,4649,2,0,P|334:86|373:78,1,80
195,186,4949,2,0,P|223:213|259:230,1,80
57,90,5249,6,0,P|109:93|221:53,1,160
299,105,5699,1,0,0:0:0:0:
195,186,5849,2,0,P|155:181|115:177,1,80
124,267,6149,2,0,P|84:270|44:275,1,80
231,300,6449,6,0,P|278:274|401:255,1,160
316,183,6899,2,0,P|300:145|299:104,1,80
396,21,7199,1,0,0:0:0:0:
455,145,7349,2,0,P|415:143|378:127,1,80
185,46,7649,6,0,P|116:49|50:144,1,160
298,106,8099,2,0,P|311:62|316:17,1,80
148,126,8399,2,0,P|149:165|156:205,1,80
334,235,8699,1,0,0:0:0:0:
26,354,8849,5,0,0:0:0:0:
77,168,8999,1,0,0:0:0:0:
113,346,9149,5,0,0:0:0:0:
156,205,9299,1,0,0:0:0:0:
200,338,9449,5,0,0:0:0:0:
235,242,9599,1,0,0:0:0:0:
300,320,9749,6,0,P|342:321|388:332,1,75
453,367,10049,6,0,P|461:321|445:270,1,100
382,139,10349,1,0,0:0:0:0:
235,242,10499,2,0,P|220:198|231:131,1,100
424,57,10799,2,0,P|414:102|405:167,1,100
282,320,11099,6,0,P|233:333|170:305,1,100
119,168,11399,1,0,0:0:0:0:
235,242,11549,1,0,0:0:0:0:
324,86,11699,2,0,P|278:83|225:81,1,100
252,261,11999,5,0,0:0:0:0:
192,61,12149,1,0,0:0:0:0:
24,186,12299,2,0,B|72:185|72:185|117:207|117:207|170:204,1,150
251,168,12599,5,0,0:0:0:0:
138,318,12749,1,0,0:0:0:0:
336,371,12899,2,0,B|332:319|332:319|349:278|349:278|339:219,1,150
333,130,13199,5,0,0:0:0:0:
425,339,13349,1,0,0:0:0:0:
237,250,13499,1,0,0:0:0:0:
443,200,13649,1,0,0:0:0:0:
229,97,13799,1,0,0:0:0:0:
381,25,13949,1,0,0:0:0:0:
340,225,14099,1,0,0:0:0:0:
229,97,14249,5,0,0:0:0:0:
183,76,14324,1,0,0:0:0:0:
134,79,14399,1,0,0:0:0:0:
91,103,14474,1,0,0:0:0:0:
63,144,14549,2,0,P|69:167|84:210,1,50
237,250,14699,2,0,P|240:225|246:200,1,50
31,294,14849,6,0,P|77:307|138:279,1,100
161,159,15149,1,0,0:0:0:0:
281,327,15299,2,0,P|315:293|321:226,1,100
232,74,15599,2,0,P|243:120|298:159,1,100
480,166,15899,6,0,P|428:163|367:158,1,100
232,74,16199,2,0,P|182:77|132:80,1,100
23,213,16499,2,0,P|75:238|176:193,1,150
189,190,16799,5,0,0:0:0:0:
259,332,16949,1,0,0:0:0:0:
342,226,17099,2,0,P|393:231|463:238,1,100
283,344,17399,5,0,0:0:0:0:
216,181,17549,1,0,0:0:0:0:
310,93,17699,2,0,P|359:98|409:103,1,100
189,73,17999,5,0,0:0:0:0:
228,222,18149,1,0,0:0:0:0:
391,201,18299,2,0,P|399:152|409:103,1,100
129,153,18599,5,0,0:0:0:0:
309,281,18749,1,0,0:0:0:0:
111,317,18899,1,0,0:0:0:0:
111,317,18974,1,0,0:0:0:0:
111,317,19049,1,0,0:0:0:0:
243,124,19199,5,0,0:0:0:0:
327,324,19349,1,0,0:0:0:0:
434,64,19499,1,0,0:0:0:0:
484,149,19649,6,0,P|423:161|343:96,1,150.000005722046
240,59,20099,2,0,P|174:60|76:71,1,150.000005722046
13,169,20549,2,0,P|48:186|92:185,1,75.0000028610231
197,164,20849,6,0,P|178:209|150:309,1,150.000005722046
281,221,21299,2,0,P|300:266|328:366,1,150.000005722046
150,306,21749,2,0,P|190:315|235:316,1,75.0000028610231
468,264,22049,6,0,P|413:262|308:252,1,150.000005722046
343,163,22499,2,0,P|268:170|193:173,1,150.000005722046
145,77,22949,2,0,P|196:82|247:84,1,75.0000028610231
348,33,23249,6,0,P|315:81|346:165,1,150.000005722046
449,118,23699,1,0,0:0:0:0:
403,223,23849,2,0,P|357:197|250:195,1,150.000005722046
186,241,24299,1,0,0:0:0:0:
299,349,24449,6,0,P|308:310|322:252,1,75.0000028610231
261,191,24749,1,0,0:0:0:0:
420,296,24899,2,0,P|411:257|397:199,1,75.0000028610231
278,117,25199,1,0,0:0:0:0:
278,117,25349,2,0,P|269:153|260:190,1,75.0000028610231
173,339,25649,6,0,P|125:340|73:249,1,150.000005722046
20,174,26099,2,0,P|92:185|175:194,1,150.000005722046
247,148,26549,1,0,0:0:0:0:
335,164,26699,1,0,0:0:0:0:
402,223,26849,6,0,P|416:262|417:308,1,75.0000028610231
275,282,27149,1,0,0:0:0:0:
275,282,27299,2,0,P|261:321|260:367,1,75.0000028610231
402,223,27599,1,0,0:0:0:0:
335,164,27749,1,0,0:0:0:0:
247,148,27899,1,0,0:0:0:0:
168,193,28049,6,0,P|182:240|189:280,1,75.0000028610231
335,164,28349,2,0,P|342:127|353:91,1,75.0000028610231
256,58,28649,1,0,0:0:0:0:
419,140,28799,1,0,0:0:0:0:
437,137,28874,1,0,0:0:0:0:
456,135,28949,1,0,0:0:0:0:
430,249,29099,1,0,0:0:0:0:
317,198,29249,6,0,P|237:193|144:193,1,150.000005722046
104,308,29699,2,0,P|178:307|253:303,1,150.000005722046
382,247,30149,2,0,P|393:210|390:157,1,75.0000028610231
263,42,30449,5,0,0:0:0:0:
302,122,30599,1,0,0:0:0:0:
387,149,30749,1,0,0:0:0:0:
471,117,30899,2,0,P|476:73|485:20,1,75.0000028610231
302,122,31199,2,0,P|305:159|307:196,1,75.0000028610231
404,304,31499,1,0,0:0:0:0:
404,304,31649,6,0,P|344:303|249:290,1,150.000005722046
102,355,32099,1,0,0:0:0:0:
102,355,32249,2,0,P|146:337|184:300,1,75.0000028610231
36,227,32549,2,0,P|73:256|124:270,1,75.0000028610231
113,105,32849,6,0,P|106:152|119:203,1,75.0000028610231
257,110,33149,1,0,0:0:0:0:
257,110,33299,2,0,P|212:127|174:164,1,75.0000028610231
110,178,33599,1,0,0:0:0:0:
98,266,33749,1,0,0:0:0:0:
167,320,33899,1,0,0:0:0:0:
245,361,34049,6,0,P|253:326|242:276,1,75.0000028610231
110,178,34349,2,0,P|146:183|198:192,1,75.0000028610231
321,276,34649,2,0,P|285:281|233:290,1,75.0000028610231
110,178,34949,2,0,P|104:214|112:251,1,75.0000028610231
247,131,35249,5,0,0:0:0:0:
247,131,35399,1,0,0:0:0:0:
148,66,35549,2,0,P|110:61|63:73,1,75.0000028610231
13,186,35849,1,0,0:0:0:0:
13,186,35999,1,0,0:0:0:0:
112,251,36149,2,0,P|150:256|197:244,1,75.0000028610231
247,131,36449,6,0,P|325:138|412:141,1,150.000005722046
426,216,36899,2,0,P|441:142|466:72,1,150.000005722046
311,26,37349,2,0,P|316:63|323:114,1,75.0000028610231
284,221,37649,6,0,P|277:265|270:310,1,89.9999972534181
387,241,37949,1,0,0:0:0:0:
175,253,38099,2,0,P|181:208|188:163,1,89.9999972534181
311,26,38399,1,0,0:0:0:0:
281,125,38549,1,0,0:0:0:0:
178,135,38699,1,0,0:0:0:0:
58,46,38849,6,0,B|22:98|22:98|42:214,1,179.999994506836
19,356,39299,2,0,P|110:349|207:342,1,179.999994506836
298,224,39749,2,0,P|289:270|284:319,1,89.9999972534181
387,211,40049,6,0,P|351:158|236:172,1,179.999994506836
429,294,40499,2,0,P|438:208|454:107,1,179.999994506836
388,35,40949,1,0,0:0:0:0:
285,20,41099,1,0,0:0:0:0:
228,106,41249,6,0,P|240:151|249:207,1,89.9999972534181
347,167,41549,1,0,0:0:0:0:
347,167,41699,2,0,P|325:243|306:349,1,179.999994506836
403,283,42149,1,0,0:0:0:0:
403,283,42299,1,0,0:0:0:0:
228,306,42449,6,0,P|183:300|138:295,1,89.9999972534181
24,218,42749,1,0,0:0:0:0:
24,218,42899,2,0,P|68:212|113:207,1,89.9999972534181
201,151,43199,1,0,0:0:0:0:
292,198,43349,1,0,0:0:0:0:
312,299,43499,1,0,0:0:0:0:
413,320,43649,6,0,P|461:316|507:314,1,89.9999972534181
292,198,43949,1,0,0:0:0:0:
292,198,44099,2,0,P|336:200|381:203,1,89.9999972534181
312,299,44399,2,0,P|267:300|222:303,1,89.9999972534181
57,352,44699,1,0,0:0:0:0:
57,352,44774,1,0,0:0:0:0:
57,352,44849,6,0,P|63:304|78:228,1,89.9999972534181
183,110,45149,1,0,0:0:0:0:
183,110,45299,2,0,P|188:154|196:198,1,89.9999972534181
265,311,45599,1,0,0:0:0:0:
401,371,45749,1,0,0:0:0:0:
358,213,45899,1,0,0:0:0:0:
251,331,46049,6,0,P|209:326|153:320,1,89.9999972534181
280,192,46349,1,0,0:0:0:0:
396,348,46499,2,0,P|440:342|485:337,1,89.9999972534181
395,249,46799,1,0,0:0:0:0:
260,349,46949,1,0,0:0:0:0:
419,248,47099,1,0,0:0:0:0:
241,194,47249,6,0,P|193:191|138:190,1,89.9999972534181
218,64,47549,1,0,0:0:0:0:
352,191,47699,2,0,P|341:237|331:292,1,89.9999972534181
143,274,47999,2,0,P|152:317|161:362,1,89.9999972534181
232,219,48299,1,0,0:0:0:0:
64,333,48449,6,0,P|20:318|2:190,2,179.999994506836
143,274,49199,1,0,0:0:0:0:
245,369,49349,1,0,0:0:0:0:
289,221,49499,1,0,0:0:0:0:
182,123,49649,6,0,P|92:119|-8:110,2,179.999994506836
289,221,50399,1,0,0:0:0:0:
245,369,50549,1,0,0:0:0:0:
143,274,50699,1,0,0:0:0:0:
23,260,50849,6,0,P|27:304|34:349,1,89.9999972534181
133,172,51149,1,0,0:0:0:0:
251,253,51299,1,0,0:0:0:0:
251,253,51374,1,0,0:0:0:0:
251,253,51449,2,0,P|258:208|262:163,1,89.9999972534181
165,44,51749,2,0,P|209:36|254:32,1,89.9999972534181
443,237,52049,6,0,P|399:241|343:234,1,89.9999972534181
171,211,52349,2,0,P|160:254|170:312,1,89.9999972534181
250,152,52649,2,0,P|193:121|121:133,1,134.999995880127
97,152,52949,1,0,0:0:0:0:
163,16,53099,1,0,0:0:0:0:
213,229,53249,6,0,P|302:221|335:144,2,179.999994506836
125,130,53999,1,0,0:0:0:0:
296,70,54149,2,0,P|343:63|391:80,1,89.9999972534181
177,47,54449,5,0,0:0:0:0:
335,146,54599,1,0,0:0:0:0:
181,209,54749,2,0,P|134:205|77:200,1,89.9999972534181
16,134,55049,5,0,0:0:0:0:
45,346,55199,1,0,0:0:0:0:
45,346,55349,2,0,P|89:342|134:338,1,89.9999972534181
278,167,55649,6,0,P|270:250|259:373,1,179.999994506836
365,305,56099,1,0,0:0:0:0:
181,209,56249,1,0,0:0:0:0:
261,346,56399,1,0,0:0:0:0:
366,172,56549,2,0,P|321:169|276:166,1,89.9999972534181
132,142,56849,5,0,0:0:0:0:
287,244,56999,1,0,0:0:0:0:
101,223,57149,5,0,0:0:0:0:
366,172,57299,1,0,0:0:0:0:
137,303,57449,5,0,0:0:0:0:
307,82,57599,1,0,0:0:0:0:
393,355,57749,1,0,0:0:0:0:
187,210,57899,1,0,0:0:0:0:
428,63,58049,5,0,0:0:0:0:
428,63,58124,1,0,0:0:0:0:
428,63,58199,2,0,L|287:50,1,129.999994049073
187,210,58499,6,0,P|245:248|284:149,1,194.999991073609
131,339,58799,6,0,P|50:348|20:255,1,194.999991073609
55,178,59099,5,0,0:0:0:0:
55,178,59549,6,0,P|81:134|90:80,2,100
29,207,60449,6,0,B|118:175|118:254|220:210,1,194.999991073609
250,194,60749,5,0,0:0:0:0:
90,379,60899,2,0,P|83:330|76:281,1,100
328,258,61199,2,0,P|335:208|342:159,1,100
236,52,61499,6,0,P|164:49|123:116,1,150
120,144,61799,1,0,0:0:0:0:
226,226,61949,1,0,0:0:0:0:
342,159,62099,1,0,0:0:0:0:
322,27,62249,1,0,0:0:0:0:
120,144,62399,2,0,P|70:157|22:138,1,100
226,226,62699,6,0,L|216:347,1,100
120,144,62999,1,0,0:0:0:0:
120,144,63149,1,0,0:0:0:0:
337,190,63299,6,0,L|327:311,1,100
198,75,63599,1,0,0:0:0:0:
198,75,63749,1,0,0:0:0:0:
448,154,63899,6,0,L|438:275,1,100
309,39,64199,1,0,0:0:0:0:
309,39,64349,1,0,0:0:0:0:
233,198,64499,6,0,P|169:197|159:111,1,165.000005035401
302,248,64799,6,0,P|366:247|378:158,1,165.000005035401
233,198,65099,6,0,P|221:228|217:266,1,59.9999981689454
348,346,65249,6,0,B|264:295|242:379|160:328,1,194.999991073609
134,309,65549,1,0,0:0:0:0:
233,198,65699,2,0,P|286:193|353:190,1,100
126,59,65999,2,0,P|179:65|246:71,1,100
467,277,66299,6,0,B|417:288|417:288|378:271|378:271|333:298|272:269,1,200
136,216,66749,1,0,0:0:0:0:
300,43,66899,1,0,0:0:0:0:
332,190,67049,1,0,0:0:0:0:
120,328,67199,5,0,0:0:0:0:
265,124,67349,1,0,0:0:0:0:
356,321,67499,1,0,0:0:0:0:
111,215,67649,6,0,B|152:215|177:229|177:229|220:207|220:207|253:225|302:211,1,200
41,268,68099,1,0,0:0:0:0:
41,268,68249,2,0,P|31:219|42:164,1,100
228,299,68549,2,0,P|190:332|137:350,1,100
162,122,68849,2,0,P|209:137|251:174,1,100
56,313,69149,6,0,P|138:266|227:298,1,194.999991073609
418,184,69449,6,0,P|361:213|233:144,1,194.999991073609
162,122,69749,5,0,0:0:0:0:
110,104,69824,1,0,0:0:0:0:
57,117,69899,1,0,0:0:0:0:
19,156,69974,1,0,0:0:0:0:
7,209,70049,6,0,B|15:258|24:319,1,100
239,75,70349,1,0,0:0:0:0:
269,266,70499,2,0,B|260:315|251:376,1,100
95,192,70799,2,0,P|149:187|221:182,1,100
343,139,71099,6,0,P|328:90|338:34,1,100
445,202,71399,1,0,0:0:0:0:
269,266,71549,1,0,0:0:0:0:
442,341,71699,1,0,0:0:0:0:
343,139,71849,1,0,0:0:0:0:
218,339,71999,2,0,P|267:353|318:339,1,100
121,238,72299,6,0,P|121:190|119:130,1,100
269,266,72599,1,0,0:0:0:0:
117,364,72749,1,0,0:0:0:0:
232,187,72899,6,0,P|281:179|331:197,1,100
120,262,73199,1,0,0:0:0:0:
218,104,73349,1,0,0:0:0:0:
303,287,73499,6,0,P|352:282|402:276,1,100
448,168,73799,1,0,0:0:0:0:
218,104,73949,1,0,0:0:0:0:
303,287,74099,2,0,P|298:237|292:187,1,100
90,55,74399,2,0,P|84:104|79:154,1,100
28,320,74699,1,0,0:0:0:0:
30,332,74774,1,0,0:0:0:0:
32,344,74849,6,0,P|101:314|181:316,1,150
248,357,75149,1,0,0:0:0:0:
356,218,75299,2,0,P|306:213|257:204,1,100
93,253,75599,2,0,P|83:203|79:154,1,100
262,10,75899,6,0,B|271:75|271:75|246:139|246:139|257:213,1,200
334,296,76349,1,0,0:0:0:0:
176,355,76499,1,0,0:0:0:0:
364,283,76649,1,0,0:0:0:0:
132,189,76799,1,0,0:0:0:0:
354,71,76949,1,0,0:0:0:0:
96,19,77099,1,0,0:0:0:0:
474,141,77249,6,0,B|470:187|482:215|482:215|462:245|462:245|470:287|452:343,1,200
282,263,77699,1,0,0:0:0:0:
282,263,77849,2,0,P|290:315|300:372,1,100
161,204,78149,2,0,P|153:255|143:313,1,100
358,170,78449,6,0,L|471:162,1,100
161,204,78749,2,0,L|48:196,1,100
130,34,79049,1,0,0:0:0:0:
145,35,79124,1,0,0:0:0:0:
161,38,79199,1,0,0:0:0:0:
177,40,79274,1,0,0:0:0:0:
193,43,79349,5,0,0:0:0:0:
242,44,79424,1,0,0:0:0:0:
279,76,79499,1,0,0:0:0:0:
290,124,79574,1,0,0:0:0:0:
270,168,79649,6,0,P|261:218|248:288,1,100
405,224,79949,1,0,0:0:0:0:
185,129,80099,2,0,P|169:215|148:336,1,200
71,180,80549,1,0,0:0:0:0:
350,125,80699,1,0,0:0:0:0:
241,40,80849,6,0,B|192:27|192:27|143:36,1,100
350,125,81149,1,0,0:0:0:0:
71,180,81299,2,0,P|24:256|70:353,1,200
231,312,81749,1,0,0:0:0:0:
231,312,81899,1,0,0:0:0:0:
168,206,82049,6,0,P|161:156|156:106,1,100
343,275,82349,2,0,P|338:324|331:374,1,100
456,294,82649,1,0,0:0:0:0:
440,198,82799,1,0,0:0:0:0:
356,149,82949,1,0,0:0:0:0:
265,180,83099,1,0,0:0:0:0:
207,258,83249,6,0,P|158:265|108:257,1,100
356,149,83549,2,0,P|349:199|341:262,1,100
289,55,83849,5,0,0:0:0:0:
351,366,83999,1,0,0:0:0:0:
254,194,84449,5,0,0:0:0:0:
447,163,133949,6,0,P|401:126|301:120,1,150
231,240,134249,6,0,P|277:203|377:197,1,150
458,318,134549,6,0,P|412:281|312:275,1,150
