osu file format v14

[General]
AudioFilename: audio.MP3
AudioLeadIn: 0
PreviewTime: 58174
Countdown: 0
SampleSet: Normal
StackLeniency: 0.7
Mode: 0
LetterboxInBreaks: 0
WidescreenStoryboard: 0

[Editor]
Bookmarks: 6404
DistanceSpacing: 1
BeatDivisor: 4
GridSize: 8
TimelineZoom: 1

[Metadata]
Title:Outer Science
TitleUnicode:アウターサイエンス
Artist:Amatsuki
ArtistUnicode:天月
Creator:CookieKivi
Version:No matter what you do, destiny won't change
Source:メカクシティアクターズ
Tags:Shizen no Teki-P Shidu Kagerou Daze Mekaku City Actors Cover Vocaloid IA Nico Nico Douga mafumafu Snake of Clearing Eyes Mekakucity Records Underdogs Hazu- Amanogawa Kakeru DTM9_Nowa
BeatmapID:964182
BeatmapSetID:449324

[Difficulty]
HPDrainRate:6
CircleSize:4
OverallDifficulty:8
ApproachRate:9.4
SliderMultiplier:1.4
SliderTickRate:1

[Events]
//Background and Video events
0,0,"BGOuterScienceEdited.png",0,0
Video,0,"video.avi"
//Break Periods
2,80450,81497
2,82912,83988
2,85373,86450
2,87835,89219
2,139527,140574
2,141989,143035
2,144450,145527
//Storyboard Layer 0 (Background)
//Storyboard Layer 1 (Fail)
//Storyboard Layer 2 (Pass)
//Storyboard Layer 3 (Foreground)
//Storyboard Sound Samples

[TimingPoints]
251,307.692307692308,4,1,1,70,1,0
21174,-66.6666666666667,4,1,1,80,0,0
31020,-66.6666666666667,4,1,1,80,0,0
50712,-133.333333333333,4,2,1,60,0,0
58712,-100,4,2,1,60,0,0
59174,-66.6666666666667,4,2,1,60,0,0
60558,-66.6666666666667,4,1,1,80,0,1
79943,-50,4,1,1,80,0,1
80251,-133.333333333333,4,2,1,70,0,0
90097,-66.6666666666667,4,1,1,70,0,0
109789,-133.333333333333,4,2,1,60,0,0
119635,-66.6666666666667,4,1,1,80,0,1
139020,-66.6666666666667,4,1,1,60,0,0
139327,-133.333333333333,4,2,1,60,0,0
149174,-66.6666666666667,4,1,1,80,0,0
153481,-133.333333333333,4,1,1,80,0,0
154097,-66.6666666666667,4,1,1,80,0,0
155943,-133.333333333333,4,1,1,80,0,0
156878,-66.6666666666667,4,1,1,80,0,0
158404,-100,4,1,1,80,0,0
160251,-133.333333333333,4,1,1,80,0,0
168712,-133.333333333333,4,1,1,80,0,0
169020,-100,4,1,1,80,0,0
169481,-83.3333333333333,4,1,1,80,0,0
169789,-66.6666666666667,4,1,1,80,0,0
170097,-66.6666666666667,4,1,1,80,0,1
191020,-66.6666666666667,4,1,1,60,0,1
192251,-66.6666666666667,4,1,1,80,0,0

[Colours]
Combo1 : 255,0,0
Combo2 : 58,58,58
Combo3 : 128,0,0
Combo4 : 121,121,121
SliderBorder : 110,110,110

[HitObjects]
256,192,6404,12,0,9789,0:0:0:0:
248,68,10097,5,0,0:0:0:0:
368,288,10404,1,0,0:0:0:0:
164,108,10712,1,0,0:0:0:0:
144,228,10866,1,0,0:0:0:0:
52,140,11020,2,0,L|40:112,7,17.5
28,72,11347,6,0,P|72:60|160:104,1,140,0|8,0:0|0:0,0:0:0:0:
240,188,11789,2,0,P|292:208|324:208,1,70
342,87,12097,1,0,0:0:0:0:
400,212,12251,1,8,0:0:0:0:
295,135,12404,6,0,P|319:99|355:83,1,70
432,128,12712,1,0,0:0:0:0:
456,288,12866,1,8,0:0:0:0:
400,212,13020,2,0,P|360:232|328:236,1,70
229,206,13327,1,0,0:0:0:0:
270,64,13481,1,8,0:0:0:0:
152,92,13635,1,0,0:0:0:0:
136,108,13712,1,0,0:0:0:0:
128,128,13789,6,0,P|124:188|136:272,1,140,0|8,0:0|0:0,0:0:0:0:
220,332,14251,2,0,P|232:296|236:256,1,70
328,124,14558,1,0,0:0:0:0:
232,176,14712,1,8,0:0:0:0:
128,128,14866,6,0,P|136:84|148:60,1,70
268,64,15174,1,0,0:0:0:0:
128,128,15327,1,8,0:0:0:0:
80,240,15481,2,0,P|144:248|220:232,1,140
292,160,15943,1,8,0:0:0:0:
360,80,16097,1,0,0:0:0:0:
400,80,16174,1,0,0:0:0:0:
436,92,16251,5,0,0:0:0:0:
376,208,16404,1,0,0:0:0:0:
292,160,16558,1,8,0:0:0:0:
204,160,16712,2,0,P|164:168|112:264,1,140
200,252,17174,1,8,0:0:0:0:
314,236,17327,6,0,P|362:220|382:200,1,70
312,84,17635,2,0,P|312:148|332:172,1,70,0|8,0:0|0:0,0:0:0:0:
392,48,17943,2,0,P|364:20|248:24,1,140
168,144,18404,1,8,0:0:0:0:
64,64,18558,1,0,0:0:0:0:
28,176,18712,6,0,P|16:228|48:316,1,140,0|8,0:0|0:0,0:0:0:0:
136,324,19174,1,0,0:0:0:0:
160,208,19327,1,0,0:0:0:0:
228,320,19481,1,0,0:0:0:0:
88,200,19635,2,0,P|104:160|152:144,1,70,8|0,0:0|0:0,0:0:0:0:
236,144,19943,6,0,B|272:160|320:140,1,70
380,76,20251,2,0,P|416:64|464:72,1,70,8|0,0:0|0:0,0:0:0:0:
376,240,20558,1,0,0:0:0:0:
304,145,20712,1,0,0:0:0:0:
276,280,20866,1,8,0:0:0:0:
311,32,21020,1,0,0:0:0:0:
236,96,21174,6,0,P|180:120|128:108,1,105.000004005432
68,56,21481,1,8,0:0:0:0:
172,24,21635,1,8,0:0:0:0:
276,232,21789,6,0,P|332:208|384:220,1,105.000004005432
444,272,22096,1,8,0:0:0:0:
340,304,22250,1,8,0:0:0:0:
336,60,22404,6,0,L|448:128,1,105.000004005432
332,160,22712,1,8,0:0:0:0:
432,204,22866,1,8,0:0:0:0:
144,332,23020,6,0,L|72:244,1,105.000004005432
220,316,23327,1,8,0:0:0:0:
148,212,23481,1,8,0:0:0:0:
200,56,23635,6,0,P|268:40|312:64,1,105.000004005432
248,120,23943,1,8,0:0:0:0:
360,152,24097,1,8,0:0:0:0:
260,328,24251,6,0,P|192:344|148:320,1,105.000004005432
212,264,24559,1,8,0:0:0:0:
135,193,24713,1,8,0:0:0:0:
132,72,24866,5,0,0:0:0:0:
212,264,25020,1,0,0:0:0:0:
248,36,25174,1,0,0:0:0:0:
52,144,25327,1,0,0:0:0:0:
111,271,25481,2,0,L|138:308,7,26.2500010013581
152,315,25789,1,8,0:0:0:0:
192,324,25866,1,0,0:0:0:0:
232,320,25943,1,0,0:0:0:0:
272,308,26020,1,0,0:0:0:0:
308,288,26097,6,0,P|324:236|324:168,1,105.000004005432
296,104,26404,1,8,0:0:0:0:
296,104,26558,1,8,0:0:0:0:
60,320,26712,6,0,P|140:340|176:328,1,105.000004005432
220,276,27020,1,8,0:0:0:0:
220,276,27174,1,8,0:0:0:0:
416,92,27327,6,0,P|372:136|368:200,1,105.000004005432
412,244,27635,1,8,0:0:0:0:
412,244,27789,1,8,0:0:0:0:
156,140,27943,6,0,P|84:140|32:112,1,105.000004005432
116,68,28251,1,8,0:0:0:0:
116,68,28404,1,8,0:0:0:0:
256,148,28558,6,0,L|256:260,1,105.000004005432
260,340,28866,1,8,0:0:0:0:
260,340,29020,1,8,0:0:0:0:
144,108,29174,2,0,L|144:220,1,105.000004005432
152,296,29481,1,8,0:0:0:0:
152,296,29635,1,8,0:0:0:0:
444,128,29789,5,0,0:0:0:0:
392,272,29943,1,0,0:0:0:0:
328,120,30097,1,0,0:0:0:0:
280,268,30251,1,0,0:0:0:0:
64,80,30558,2,0,B|76:76|76:76|84:88|100:84|100:84|104:96|120:92|120:92|124:104|140:100|140:100|144:112|156:108|156:108|164:120|176:116|176:116|184:128|196:124|196:124|204:136|216:132|216:132|224:144|240:140|240:140|248:160,1,210.000008010865
312,176,31020,6,0,P|396:128|348:28,1,210.000008010865,0|8,0:0|0:0,0:0:0:0:
324,99,31481,1,0,0:0:0:0:
160,108,31635,1,0,0:0:0:0:
208,192,31789,1,0,0:0:0:0:
224,32,31943,1,8,0:0:0:0:
312,176,32097,1,0,0:0:0:0:
320,340,32251,1,0,0:0:0:0:
368,252,32404,1,0,0:0:0:0:
227,339,32558,6,2,P|179:320|137:289,1,105.000004005432,10|2,0:0|0:0,0:0:0:0:
80,208,32866,1,0,0:0:0:0:
177,136,33020,1,0,0:0:0:0:
212,248,33174,1,8,0:0:0:0:
48,136,33327,1,0,0:0:0:0:
112,76,33481,6,0,P|184:56|264:168,1,210.000008010865,0|8,0:0|0:0,0:0:0:0:
288,240,33943,1,0,0:0:0:0:
384,124,34097,1,0,0:0:0:0:
388,284,34251,1,0,0:0:0:0:
232,164,34404,1,8,0:0:0:0:
448,204,34558,1,0,0:0:0:0:
232,296,34712,5,0,0:0:0:0:
334,210,34866,1,0,0:0:0:0:
284,112,35020,2,2,P|224:88|176:104,1,105.000004005432,10|2,0:0|0:0,0:0:0:0:
112,136,35327,1,0,0:0:0:0:
104,176,35404,1,0,0:0:0:0:
120,216,35481,1,0,0:0:0:0:
156,236,35558,1,0,0:0:0:0:
196,232,35635,6,0,P|248:172|159:176,1,210.000008010865,8|2,0:0|0:0,0:0:0:0:
91,272,36097,5,0,0:0:0:0:
149,77,36251,1,8,0:0:0:0:
250,258,36404,1,0,0:0:0:0:
52,141,36558,1,0,0:0:0:0:
266,111,36712,1,0,0:0:0:0:
34,220,36866,1,8,0:0:0:0:
223,48,37020,1,0,0:0:0:0:
327,218,37174,5,2,0:0:0:0:
152,168,37327,1,0,0:0:0:0:
366,124,37481,1,8,0:0:0:0:
196,303,37635,1,2,0:0:0:0:
247,157,37789,1,0,0:0:0:0:
369,290,37943,1,0,0:0:0:0:
296,84,38097,2,0,L|388:176,1,105.000004005432,8|0,0:0|0:0,0:0:0:0:
410,47,38404,5,2,0:0:0:0:
465,250,38558,1,0,0:0:0:0:
296,84,38712,1,8,0:0:0:0:
496,120,38866,1,0,0:0:0:0:
280,220,39020,1,0,0:0:0:0:
410,47,39174,1,0,0:0:0:0:
373,235,39327,1,8,0:0:0:0:
243,143,39481,1,0,0:0:0:0:
84,72,39635,6,0,P|76:136|60:156,1,52.5000020027161
156,140,39789,2,0,P|128:184|112:188,1,52.5000020027161
164,256,39943,2,0,P|108:260|92:252,1,52.5000020027161
92,336,40097,2,0,P|48:308|85:188,1,157.500006008148
121,149,40404,2,0,L|196:130,1,52.5000020027161,8|0,0:0|0:0,0:0:0:0:
265,112,40558,2,0,L|356:130,1,52.5000020027161,8|0,0:0|0:0,0:0:0:0:
425,164,40712,2,0,L|450:233,1,52.5000020027161,8|0,0:0|0:0,0:0:0:0:
404,284,40866,6,0,P|344:308|196:256,1,210.000008010865,0|8,0:0|0:0,0:0:0:0:
310,224,41327,1,0,0:0:0:0:
246,179,41481,2,0,P|218:133|233:72,1,105.000004005432
294,117,41789,2,0,P|352:66|405:70,1,105.000004005432,8|0,0:0|0:0,0:0:0:0:
370,149,42097,1,0,0:0:0:0:
476,86,42251,1,0,0:0:0:0:
430,251,42404,1,8,0:0:0:0:
319,223,42558,2,0,L|291:341,2,105.000004005432
256,152,43020,1,8,0:0:0:0:
164,164,43174,1,0,0:0:0:0:
108,100,43327,6,0,P|80:148|180:248,1,210.000008010865,0|8,0:0|0:0,0:0:0:0:
284,140,43789,1,0,0:0:0:0:
164,164,43943,1,0,0:0:0:0:
233,296,44097,1,0,0:0:0:0:
224,72,44251,1,8,0:0:0:0:
318,272,44404,1,0,0:0:0:0:
245,206,44558,5,0,0:0:0:0:
351,59,44712,1,0,0:0:0:0:
224,72,44866,1,8,0:0:0:0:
376,208,45020,2,0,P|444:192|336:72,1,315.000012016297,0|8,0:0|0:0,0:0:0:0:
36,320,45789,6,0,P|88:360|152:352,1,105.000004005432
176,248,46097,1,8,0:0:0:0:
108,288,46251,1,0,0:0:0:0:
204,324,46404,2,0,P|248:292|240:204,1,105.000004005432
216,176,46712,2,0,P|204:108|224:68,1,105.000004005432,8|0,0:0|0:0,0:0:0:0:
288,128,47020,1,0,0:0:0:0:
364,48,47174,1,0,0:0:0:0:
400,172,47327,1,8,0:0:0:0:
276,48,47481,1,0,0:0:0:0:
320,224,47635,1,0,0:0:0:0:
208,244,47789,6,0,P|120:260|96:256,1,105.000004005432,0|8,0:0|0:0,0:0:0:0:
31,199,48097,2,0,P|36:147|55:99,1,105.000004005432
124,40,48404,1,0,0:0:0:0:
188,92,48558,1,8,0:0:0:0:
264,120,48712,2,0,P|348:116|376:96,1,105.000004005432
304,44,49020,1,0,0:0:0:0:
264,120,49174,2,0,P|228:204|232:240,1,105.000004005432,8|0,0:0|0:0,0:0:0:0:
320,192,49481,5,0,0:0:0:0:
400,284,49635,1,0,0:0:0:0:
420,160,49789,1,0,0:0:0:0:
284,328,49943,1,8,0:0:0:0:
284,328,50251,1,8,0:0:0:0:
256,312,50404,1,8,0:0:0:0:
232,296,50558,1,8,0:0:0:0:
208,280,50712,6,0,B|144:280|100:240|100:240|56:144,1,210.000008010865
41,78,51481,2,0,P|113:74|117:74,1,52.5000020027161
173,80,51789,2,0,L|233:128,1,52.5000020027161
274,168,52097,1,0,0:0:0:0:
274,168,52404,2,0,P|330:188|390:164,2,105.000004005432
330,101,53174,6,0,P|279:83|185:197,1,210.000008010865
225,264,53943,1,0,0:0:0:0:
311,292,54097,1,0,0:0:0:0:
396,276,54251,1,0,0:0:0:0:
454,220,54404,2,0,L|458:144,3,52.5000020027161
405,111,55020,2,0,L|353:95,3,52.5000020027161
283,112,55635,2,0,P|203:128|123:92,1,157.500006008148
47,180,56404,6,0,L|75:252,1,52.5000020027161
124,291,56712,1,0,0:0:0:0:
208,311,56866,2,0,P|237:326|259:328,1,52.5000020027161
208,311,57327,2,0,P|256:327|320:303,1,105.000004005432
256,99,57789,1,0,0:0:0:0:
256,216,57943,1,0,0:0:0:0:
68,136,58251,6,0,L|104:176,1,52.5000020027161
183,151,58712,6,0,L|136:100,1,70
212,72,59174,6,0,L|304:164,1,105.000004005432
256,276,59635,5,8,0:0:0:0:
108,96,60558,5,0,0:0:0:0:
128,272,60712,1,0,0:0:0:0:
248,120,60866,1,8,0:0:0:0:
28,216,61020,1,0,0:0:0:0:
260,272,61174,1,0,0:0:0:0:
213,188,61327,2,0,P|153:180|109:196,1,105.000004005432,0|8,0:0|0:0,0:0:0:0:
212,60,61635,1,0,0:0:0:0:
323,196,61789,5,0,0:0:0:0:
440,55,61943,1,0,0:0:0:0:
293,62,62097,1,8,0:0:0:0:
440,176,62251,1,0,0:0:0:0:
396,248,62404,1,0,0:0:0:0:
364,276,62481,1,0,0:0:0:0:
324,292,62558,1,0,0:0:0:0:
284,296,62635,1,0,0:0:0:0:
244,284,62712,1,8,0:0:0:0:
308,212,62866,1,0,0:0:0:0:
240,120,63020,6,0,P|184:100|140:104,1,105.000004005432
172,180,63327,1,8,0:0:0:0:
336,112,63481,1,0,0:0:0:0:
304,232,63635,1,0,0:0:0:0:
284,56,63789,1,0,0:0:0:0:
416,204,63943,1,8,0:0:0:0:
200,248,64097,6,0,P|128:244|92:212,1,105.000004005432
167,169,64404,2,0,P|231:157|279:181,2,105.000004005432,0|8|0,0:0|0:0|0:0,0:0:0:0:
104,84,64866,1,0,0:0:0:0:
60,169,65020,1,0,0:0:0:0:
266,171,65174,5,8,0:0:0:0:
132,300,65327,1,0,0:0:0:0:
184,144,65481,1,0,0:0:0:0:
240,300,65635,1,0,0:0:0:0:
152,224,65789,1,8,0:0:0:0:
272,212,65943,2,0,P|352:188|376:64,1,210.000008010865
300,124,66404,5,8,0:0:0:0:
424,256,66558,1,0,0:0:0:0:
178,181,66712,2,0,P|246:189|278:221,1,105.000004005432
204,256,67020,1,8,0:0:0:0:
256,72,67174,1,0,0:0:0:0:
80,228,67327,1,0,0:0:0:0:
120,68,67481,5,0,0:0:0:0:
204,256,67635,1,8,0:0:0:0:
60,152,67789,1,0,0:0:0:0:
256,144,67943,2,0,P|316:228|240:312,1,210.000008010865,0|8,0:0|0:0,0:0:0:0:
232,224,68404,1,0,0:0:0:0:
164,168,68558,1,0,0:0:0:0:
304,76,68712,1,0,0:0:0:0:
176,80,68866,1,8,0:0:0:0:
80,152,69020,6,0,P|80:216|192:296,1,210.000008010865
172,192,69481,1,8,0:0:0:0:
312,64,69635,1,0,0:0:0:0:
332,288,69789,1,0,0:0:0:0:
128,88,69943,1,0,0:0:0:0:
380,124,70097,1,8,0:0:0:0:
252,232,70251,1,0,0:0:0:0:
248,96,70404,6,0,P|320:64|424:140,1,210.000008010865,0|8,0:0|0:0,0:0:0:0:
328,148,70866,1,0,0:0:0:0:
240,192,71020,2,0,P|176:204|112:160,1,105.000004005432
192,116,71327,1,8,0:0:0:0:
220,288,71481,2,0,P|292:308|384:212,1,210.000008010865
288,224,71943,1,8,0:0:0:0:
196,116,72097,1,0,0:0:0:0:
144,216,72251,1,0,0:0:0:0:
288,224,72404,1,0,0:1:0:0:
396,120,72558,5,8,0:0:0:0:
320,88,72712,1,0,0:0:0:0:
277,77,72789,1,0,0:0:0:0:
236,96,72866,6,0,P|172:124|104:120,1,105.000004005432
232,260,73174,1,8,0:0:0:0:
90,62,73327,1,0,0:0:0:0:
60,239,73481,1,0,0:0:0:0:
264,180,73635,2,0,P|336:168|392:188,1,105.000004005432,0|8,0:0|0:0,0:0:0:0:
144,280,73943,1,0,0:0:0:0:
228,84,74097,5,0,0:0:0:0:
308,268,74251,2,0,P|380:292|432:276,1,105.000004005432,0|8,0:0|0:0,0:0:0:0:
252,180,74558,1,0,0:0:0:0:
376,196,74712,1,0,0:0:0:0:
316,124,74866,1,0,0:0:0:0:
220,54,75020,1,8,0:0:0:0:
192,172,75174,1,0,0:0:0:0:
112,240,75327,6,0,P|52:276|0:268,1,105.000004005432
40,196,75635,2,0,P|112:156|160:180,1,105.000004005432,8|0,0:0|0:0,0:0:0:0:
208,188,75943,1,0,0:0:0:0:
251,40,76097,1,0,0:0:0:0:
306,245,76251,1,8,0:0:0:0:
410,145,76404,1,0,0:0:0:0:
352,40,76558,6,0,P|292:28|224:44,1,105.000004005432
160,128,76866,2,0,P|252:144|296:128,1,105.000004005432,8|0,0:0|0:0,0:0:0:0:
124,36,77174,1,0,0:0:0:0:
336,116,77327,5,0,0:0:0:0:
264,280,77481,1,8,0:0:0:0:
224,64,77635,1,0,0:0:0:0:
444,184,77789,1,0,0:0:0:0:
176,204,77943,1,0,0:0:0:0:
392,68,78097,1,8,0:0:0:0:
400,292,78251,1,0,0:0:0:0:
260,64,78404,1,0,0:0:0:0:
192,308,78558,1,0,0:0:0:0:
300,152,78712,5,8,0:0:0:0:
152,72,78866,1,0,0:0:0:0:
176,204,79020,1,0,0:0:0:0:
264,68,79174,1,0,0:0:0:0:
16,344,79481,1,8,0:0:0:0:
80,136,79789,1,0,0:0:0:0:
84,140,79943,2,0,P|180:148|84:92,1,280,0|2,0:0|0:0,0:0:0:0:
183,132,82097,6,0,L|179:191,1,52.5000020027161
272,317,82404,2,0,L|278:255,1,52.5000020027161
183,132,82712,1,0,0:0:0:0:
167,36,84558,6,0,B|157:72|192:108|192:108|164:134|164:134|225:152|225:211,1,210.000008010865
228,107,87020,5,0,0:0:0:0:
227,277,87174,1,0,0:0:0:0:
328,139,87327,1,0,0:0:0:0:
165,193,87481,1,0,0:0:0:0:
339,240,87635,1,0,0:0:0:0:
154,33,89789,5,2,0:0:0:0:
140,43,89840,1,2,0:0:0:0:
131,58,89892,1,2,0:0:0:0:
66,88,89994,1,0,0:0:0:0:
84,160,90097,6,0,P|80:200|228:216,1,210.000008010865,0|8,0:0|0:0,0:0:0:0:
160,184,90558,1,0,0:0:0:0:
200,120,90712,2,0,P|240:84|308:84,1,105.000004005432
272,155,91020,2,0,P|323:161|359:198,1,105.000004005432,8|0,0:0|0:0,0:0:0:0:
388,288,91327,1,0,0:0:0:0:
432,136,91481,1,0,0:0:0:0:
264,240,91635,1,8,0:0:0:0:
188,196,91789,2,0,P|180:248|320:304,2,210.000008010865,0|8|0,0:0|0:0|0:0,0:0:0:0:
264,240,92558,6,0,P|272:184|144:128,1,210.000008010865,0|8,0:0|0:0,0:0:0:0:
80,176,93020,1,0,0:0:0:0:
80,36,93174,1,0,0:0:0:0:
188,196,93327,1,0,0:0:0:0:
104,256,93481,1,8,0:0:0:0:
208,44,93635,1,0,0:0:0:0:
304,76,93789,2,0,P|352:128|352:176,1,105.000004005432
312,312,94097,2,0,P|276:260|268:216,1,105.000004005432,8|0,0:0|0:0,0:0:0:0:
232,126,94404,6,0,P|160:91|119:112,1,105.000004005432
110,114,94635,1,0,0:0:0:0:
94,142,94712,2,0,P|80:198|152:140,1,210.000008010865,8|0,0:0|0:0,0:0:0:0:
105,35,95174,5,0,0:0:0:0:
221,64,95327,2,0,P|272:52|341:70,1,105.000004005432,8|0,0:0|0:0,0:0:0:0:
398,131,95635,2,0,P|400:183|387:234,1,105.000004005432
290,287,95943,2,0,P|276:201|286:156,1,105.000004005432,8|0,0:0|0:0,0:0:0:0:
159,199,96251,6,0,P|137:137|86:113,1,105.000004005432
85,240,96558,2,0,P|133:284|189:281,1,105.000004005432,8|0,0:0|0:0,0:0:0:0:
254,214,96866,1,0,0:0:0:0:
374,193,97020,1,0,0:0:0:0:
261,324,97174,1,8,0:0:0:0:
264,112,97327,1,0,0:0:0:0:
114,111,97481,5,0,0:0:0:0:
117,214,97635,1,0,0:0:0:0:
195,23,97789,1,8,0:0:0:0:
197,261,97943,1,0,0:0:0:0:
352,130,98097,1,0,0:0:0:0:
112,292,98251,1,0,0:0:0:0:
37,142,98404,1,8,0:0:0:0:
303,234,98558,1,0,0:0:0:0:
220,72,98712,6,0,L|196:139,1,52.5000020027161,2|0,0:0|0:0,0:0:0:0:
278,131,98866,2,0,L|253:200,1,52.5000020027161,2|0,0:0|0:0,0:0:0:0:
338,214,99020,2,0,L|287:269,1,52.5000020027161,2|0,0:0|0:0,0:0:0:0:
228,296,99174,2,0,P|120:268|96:156,1,210.000008010865,8|8,0:0|0:0,0:0:0:0:
116,92,99635,1,8,0:0:0:0:
180,212,99789,1,8,0:0:0:0:
216,88,99943,6,0,P|320:60|388:136,1,210.000008010865,0|8,0:0|0:0,0:0:0:0:
292,152,100404,1,0,0:0:0:0:
280,280,100558,1,0,0:0:0:0:
292,152,100712,1,0,0:0:0:0:
200,184,100866,2,0,P|116:176|104:64,1,210.000008010865,8|0,0:0|0:0,0:0:0:0:
168,112,101327,1,0,0:0:0:0:
244,40,101481,1,8,0:0:0:0:
320,121,101635,2,0,P|392:177|448:297,2,210.000008010865,0|8|0,0:0|0:0|0:0,0:0:0:0:
286,189,102404,6,0,P|246:133|338:41,1,210.000008010865,0|8,0:0|0:0,0:0:0:0:
488,192,102866,1,0,0:0:0:0:
436,44,103020,1,0,0:0:0:0:
376,240,103174,1,0,0:0:0:0:
512,92,103327,1,8,0:0:0:0:
324,39,103481,1,0,0:0:0:0:
240,172,103635,6,0,P|168:204|128:176,2,105.000004005432,0|0|8,0:0|0:0|0:0,0:0:0:0:
180,124,104097,2,0,P|112:120|100:256,1,210.000008010865
152,280,104558,1,8,0:0:0:0:
192,288,104635,1,0,0:0:0:0:
232,284,104712,1,0,0:0:0:0:
272,272,104789,1,0,0:0:0:0:
303,251,104866,6,0,P|335:191|295:39,1,210.000008010865,0|8,0:0|0:0,0:0:0:0:
252,136,105327,1,0,0:0:0:0:
140,44,105481,1,0,0:0:0:0:
140,184,105635,1,0,0:0:0:0:
310,56,105789,1,8,0:0:0:0:
60,124,105943,1,0,0:0:0:0:
232,208,106097,2,0,P|244:264|236:320,1,105.000004005432
184,92,106404,1,8,0:0:0:0:
116,284,106558,1,0,0:0:0:0:
352,192,106866,6,0,L|464:192,2,105.000004005432,0|8|0,0:0|0:0|0:0,0:0:0:0:
272,192,107327,1,0,0:0:0:0:
144,264,107481,1,0,0:0:0:0:
184,136,107635,1,8,0:0:0:0:
48,176,107789,1,0,0:0:0:0:
120,80,107943,2,0,P|188:56|232:68,1,105.000004005432
288,100,108251,1,8,0:0:0:0:
344,160,108404,1,0,0:0:0:0:
380,232,108558,6,0,P|296:288|184:252,1,210.000008010865
140,208,109020,1,8,0:0:0:0:
92,92,109327,5,8,0:0:0:0:
112,308,109481,1,8,0:0:0:0:
258,163,109635,1,8,0:0:0:0:
232,340,109789,6,0,B|304:344|372:276|372:276|396:212,1,210.000008010865,2|0,0:0|0:0,0:0:0:0:
356,160,110558,2,0,P|312:148|296:144,2,52.5000020027161
424,124,111020,1,0,0:0:0:0:
432,84,111174,1,0,0:0:0:0:
232,76,111481,1,0,0:0:0:0:
120,48,111789,1,0,0:0:0:0:
28,148,112097,1,0,0:0:0:0:
64,171,112251,6,0,B|108:186|166:162|166:162|225:138|284:155,1,210.000008010865
436,112,113020,5,0,0:0:0:0:
404,216,113174,1,0,0:0:0:0:
332,112,113327,1,0,0:0:0:0:
456,292,113481,2,0,P|400:304|348:292,1,105.000004005432
268,152,113943,2,0,P|280:212|304:248,1,105.000004005432
392,216,114404,1,0,0:0:0:0:
396,132,114558,1,0,0:0:0:0:
344,68,114712,5,0,0:0:0:0:
93,67,115327,1,0,0:0:0:0:
108,80,115481,6,0,L|96:144,2,52.5000020027161
180,48,115943,2,0,P|248:48|296:80,1,105.000004005432
344,120,116404,2,0,P|392:136|452:108,1,105.000004005432
392,56,116866,1,0,0:0:0:0:
392,56,117020,1,0,0:0:0:0:
160,112,117327,6,0,L|120:164,1,52.5000020027161
212,248,117789,2,0,L|252:200,1,52.5000020027161
260,192,118020,1,0,0:0:0:0:
272,180,118097,1,0,0:0:0:0:
336,140,118251,2,0,B|396:148|432:176|432:176|496:168,1,157.500006008148
160,76,119635,5,0,0:0:0:0:
176,224,119789,1,0,0:0:0:0:
264,120,119943,1,8,0:0:0:0:
48,224,120097,1,0,0:0:0:0:
180,304,120251,2,0,P|248:264|252:196,1,105.000004005432
160,76,120558,2,0,P|200:148|260:168,1,105.000004005432,8|0,0:0|0:0,0:0:0:0:
324,52,120866,5,0,0:0:0:0:
360,208,121020,1,0,0:0:0:0:
420,120,121174,1,8,0:0:0:0:
294,306,121327,1,0,0:0:0:0:
424,328,121481,1,0,0:0:0:0:
442,290,121558,1,0,0:0:0:0:
457,250,121635,1,0,0:0:0:0:
460,208,121712,1,0,0:0:0:0:
462,166,121789,2,0,P|434:82|414:70,1,105.000004005432,8|0,0:0|0:0,0:0:0:0:
316,44,122097,5,0,0:0:0:0:
272,208,122251,1,0,0:0:0:0:
391,141,122404,1,8,0:0:0:0:
162,269,122558,2,0,P|146:181|170:145,1,105.000004005432
296,304,122866,1,0,0:0:0:0:
256,84,123020,1,8,0:0:0:0:
150,170,123174,6,0,P|86:182|14:62,2,210.000008010865,0|8|0,0:0|0:0|0:0,0:0:0:0:
102,94,123943,1,0,0:0:0:0:
192,24,124097,1,0,0:0:0:0:
312,32,124251,1,8,0:0:0:0:
240,152,124404,1,0,0:0:0:0:
344,192,124558,6,0,P|328:248|284:280,1,105.000004005432
228,348,124866,2,0,P|188:304|200:236,1,105.000004005432,8|0,0:0|0:0,0:0:0:0:
104,248,125174,1,0,0:0:0:0:
216,104,125327,1,0,0:0:0:0:
256,200,125481,1,8,0:0:0:0:
124,140,125635,1,0,0:0:0:0:
340,160,125789,6,0,P|380:108|376:60,1,105.000004005432
256,200,126097,2,0,P|304:240|368:240,1,105.000004005432,8|0,0:0|0:0,0:0:0:0:
296,80,126404,1,0,0:0:0:0:
257,62,126481,1,0,0:0:0:0:
216,52,126558,1,0,0:0:0:0:
177,69,126635,1,0,0:0:0:0:
144,95,126712,1,8,0:0:0:0:
232,149,126866,1,0,0:0:0:0:
160,196,127020,6,0,P|132:284|236:336,1,210.000008010865,0|8,0:0|0:0,0:0:0:0:
208,260,127481,2,0,P|240:208|216:144,2,105.000004005432
288,328,127943,1,8,0:0:0:0:
392,232,128097,1,0,0:0:0:0:
296,112,128251,5,0,0:0:0:0:
208,256,128404,1,0,0:0:0:0:
160,88,128558,1,8,0:0:0:0:
304,248,128712,1,8,0:0:0:0:
112,176,128866,5,0,0:0:0:0:
256,32,129020,1,0,0:0:0:0:
112,256,129174,1,8,0:0:0:0:
352,176,129327,1,8,0:0:0:0:
240,300,129481,6,0,P|316:316|420:228,1,210.000008010865,0|8,0:0|0:0,0:0:0:0:
308,224,129943,1,0,0:0:0:0:
348,104,130097,1,0,0:0:0:0:
476,308,130251,1,0,0:0:0:0:
216,148,130404,1,8,0:0:0:0:
456,152,130558,1,0,0:0:0:0:
184,232,130712,5,0,0:0:0:0:
256,48,130866,1,0,0:0:0:0:
288,152,131020,1,8,0:0:0:0:
112,92,131174,1,0,0:0:0:0:
60,184,131327,1,0,0:0:0:0:
77,222,131404,1,0,0:0:0:0:
100,256,131481,1,0,0:0:0:0:
123,290,131558,1,0,0:0:0:0:
144,326,131635,1,8,0:0:0:0:
305,334,131789,5,0,0:0:0:0:
252,208,131943,2,0,P|292:156|392:248,1,210.000008010865,0|8,0:0|0:0,0:0:0:0:
324,220,132404,1,0,0:0:0:0:
136,184,132558,1,0,0:0:0:0:
248,328,132712,1,0,0:0:0:0:
260,76,132866,1,8,0:0:0:0:
392,176,133020,5,0,0:0:0:0:
164,256,133174,2,0,P|72:228|56:192,1,105.000004005432
320,152,133481,2,0,P|356:112|416:100,1,105.000004005432,8|0,0:0|0:0,0:0:0:0:
256,264,133789,1,0,0:0:0:0:
256,236,133866,1,0,0:0:0:0:
256,204,133943,1,0,0:0:0:0:
256,172,134020,1,0,0:0:0:0:
256,136,134097,5,8,0:0:0:0:
176,328,134251,1,0,0:0:0:0:
105,118,134404,1,0,0:0:0:0:
316,316,134558,1,0,0:0:0:0:
356,204,134712,1,8,0:0:0:0:
120,188,134866,6,0,P|60:172|92:44,1,210.000008010865
176,264,135327,1,8,0:0:0:0:
248,120,135481,1,0,0:0:0:0:
292,254,135635,2,0,P|365:287|425:263,2,105.000004005432,0|0|8,0:0|0:0|0:0,0:0:0:0:
356,212,136097,2,0,P|252:192|219:280,1,210.000008010865
256,344,136558,5,8,0:0:0:0:
132,176,136712,1,0,0:0:0:0:
92,336,136866,1,0,0:0:0:0:
264,148,137020,1,0,0:0:0:0:
196,348,137174,1,8,0:0:0:0:
68,248,137327,1,0,0:0:0:0:
180,80,137481,5,0,0:0:0:0:
232,292,137635,1,0,0:0:0:0:
376,228,137789,1,8,0:0:0:0:
128,128,137943,1,0,0:0:0:0:
272,256,138097,1,0,0:0:0:0:
328,76,138251,1,8,0:0:0:0:
348,84,138558,1,8,0:0:0:0:
368,96,138866,1,0,0:0:0:0:
388,108,139020,2,0,P|436:204|432:244,1,105.000004005432
424,228,139327,5,4,0:0:0:0:
236,172,141174,6,0,P|200:120|169:114,1,52.5000020027161,2|0,0:0|0:0,0:0:0:0:
138,100,141481,1,2,0:0:0:0:
138,100,141635,1,0,0:0:0:0:
256,24,141789,1,4,0:0:0:0:
264,232,143635,6,0,B|259:195|276:152|276:152|240:156|240:156|252:108|232:64,1,210.000008010865
320,272,146097,5,2,0:0:0:0:
248,224,146251,1,0,0:0:0:0:
392,220,146404,1,2,0:0:0:0:
244,144,146558,1,0,0:0:0:0:
388,140,146712,1,0,0:0:0:0:
100,124,147789,6,0,P|172:152|208:132,1,105.000004005432
156,72,148251,2,0,P|104:48|68:56,1,52.5000020027161
248,88,148558,1,0,0:0:0:0:
68,236,148866,5,8,0:1:0:0:
84,244,148943,1,0,0:0:0:0:
104,248,149020,1,0,0:0:0:0:
128,248,149097,1,0,0:0:0:0:
148,244,149174,6,0,P|188:196|192:144,1,105.000004005432,4|0,0:0|0:0,0:0:0:0:
104,160,149481,1,8,0:0:0:0:
160,80,149635,1,0,0:0:0:0:
256,88,149789,1,0,0:0:0:0:
296,196,149943,1,0,0:0:0:0:
180,244,150097,1,8,0:0:0:0:
88,256,150251,1,0,0:0:0:0:
192,148,150404,5,0,0:0:0:0:
171,342,150558,1,0,0:0:0:0:
296,196,150712,1,8,0:0:0:0:
96,172,150866,1,0,0:0:0:0:
152,64,151020,6,0,P|220:40|260:56,1,105.000004005432,2|0,0:0|0:0,0:0:0:0:
324,64,151327,2,0,P|288:120|240:124,1,105.000004005432,10|0,0:0|0:0,0:0:0:0:
152,64,151635,5,0,0:0:0:0:
172,192,151789,1,0,0:0:0:0:
296,280,151943,1,8,0:0:0:0:
312,148,152097,1,0,0:0:0:0:
200,312,152251,5,0,0:0:0:0:
376,228,152404,1,0,0:0:0:0:
240,128,152558,1,8,0:0:0:0:
256,232,152712,1,0,0:0:0:0:
300,92,152866,1,0,0:0:0:0:
128,64,153020,1,0,0:0:0:0:
132,192,153174,1,8,0:0:0:0:
216,32,153327,1,0,0:0:0:0:
208,140,153481,6,0,B|232:168|236:208|236:208|204:272|204:272|228:336,1,210.000008010865
308,340,154251,5,0,0:0:0:0:
380,168,154404,1,8,0:0:0:0:
408,300,154558,1,0,0:0:0:0:
240,240,154712,1,0,0:0:0:0:
304,140,154866,2,0,P|356:92|396:92,1,105.000004005432,0|8,0:0|0:0,0:0:0:0:
464,220,155174,5,0,0:0:0:0:
488,104,155327,1,0,0:0:0:0:
320,28,155481,1,0,0:0:0:0:
392,224,155635,1,8,0:0:0:0:
304,144,155789,1,0,0:0:0:0:
168,64,155943,6,0,L|144:128,1,52.5000020027161,2|0,0:0|0:0,0:0:0:0:
196,232,156251,2,0,L|220:172,1,52.5000020027161,2|0,0:0|0:0,0:0:0:0:
244,80,156558,2,0,P|324:84|356:104,1,105.000004005432,4|8,0:0|0:0,0:0:0:0:
400,196,157020,5,0,0:0:0:0:
280,152,157174,1,0,0:0:0:0:
428,312,157327,1,0,0:0:0:0:
316,256,157481,1,8,0:0:0:0:
132,192,157635,6,0,P|200:196|240:220,1,105.000004005432
60,256,157943,1,0,0:0:0:0:
136,304,158097,1,0,0:0:0:0:
216,284,158251,1,0,0:0:0:0:
296,160,158404,6,2,P|308:92|192:148,1,280
248,244,159174,1,2,0:0:0:0:
356,232,159327,1,2,0:0:0:0:
340,328,159481,1,0,0:0:0:0:
232,336,159635,1,2,0:0:0:0:
196,340,159712,1,0,0:0:0:0:
164,324,159789,1,2,0:0:0:0:
60,192,159943,2,2,P|88:216|176:204,1,105
172,208,160251,6,0,P|224:156|348:204,1,210.000008010865
260,228,161481,1,0,0:0:0:0:
171,207,162097,2,0,B|127:171|123:139|129:94,1,105.000004005432
200,80,162712,2,0,P|156:44|44:124,1,210.000008010865
48,192,163635,1,0,0:0:0:0:
100,260,163943,2,0,P|140:308|144:360,2,105.000004005432
228,88,164866,5,0,0:0:0:0:
279,75,165020,1,0,0:0:0:0:
331,74,165174,1,0,0:0:0:0:
380,90,165327,1,0,0:0:0:0:
418,125,165481,1,0,0:0:0:0:
442,171,165635,1,0,0:0:0:0:
233,342,165943,5,0,0:0:0:0:
180,346,166097,1,0,0:0:0:0:
127,346,166251,1,0,0:0:0:0:
77,329,166404,1,0,0:0:0:0:
48,284,166558,1,0,0:0:0:0:
38,232,166712,1,0,0:0:0:0:
42,179,166866,1,0,0:0:0:0:
148,80,167174,6,0,P|180:64|216:68,2,52.5000020027161
196,136,167635,2,0,P|270:115|284:84,1,105.000004005432
342,35,168097,1,0,0:0:0:0:
388,116,168251,1,0,0:0:0:0:
480,100,168404,1,0,0:0:0:0:
208,228,168712,6,0,P|148:232|108:212,1,105.000004005432
168,160,169174,2,0,P|144:116|148:68,1,70
220,104,169481,2,0,P|236:60|272:36,1,83.9999974365235
300,104,169789,2,0,P|372:104|412:136,1,105.000004005432
475,215,170097,6,0,P|415:259|335:171,1,210.000008010865,8|8,0:0|0:0,0:0:0:0:
408,180,170558,1,0,0:0:0:0:
266,241,170712,2,0,P|286:194|335:178,1,105.000004005432,8|0,0:0|0:0,0:0:0:0:
361,318,171020,1,8,0:0:0:0:
272,96,171174,1,0,0:0:0:0:
192,228,171327,1,8,0:0:0:0:
148,84,171481,1,0,0:0:0:0:
335,178,171635,1,8,0:0:0:0:
70,141,171789,1,0,0:0:0:0:
76,260,171943,6,0,P|116:316|132:316,3,52.5000020027161,8|0|0|0,0:0|0:0|0:0|0:0,0:0:0:0:
132,328,172251,1,8,0:0:0:0:
172,336,172327,1,0,0:0:0:0:
212,340,172404,1,0,0:0:0:0:
252,336,172481,1,0,0:0:0:0:
292,320,172558,6,0,P|360:236|368:208,1,105.000004005432,8|0,0:0|0:0,0:0:0:0:
328,56,172866,1,8,0:0:0:0:
408,328,173020,1,0,0:0:0:0:
248,248,173174,1,8,0:0:0:0:
396,124,173327,1,0,0:0:0:0:
501,282,173481,1,8,0:0:0:0:
240,128,173635,1,0,0:0:0:0:
136,228,173789,5,8,0:0:0:0:
164,72,173943,1,0,0:0:0:0:
331,201,174097,1,8,0:0:0:0:
36,256,174251,1,0,0:0:0:0:
108,296,174404,5,8,0:0:0:0:
148,300,174481,1,0,0:0:0:0:
192,300,174558,1,0,0:0:0:0:
232,288,174635,1,0,0:0:0:0:
268,268,174712,1,8,0:0:0:0:
300,240,174789,1,0,0:0:0:0:
331,201,174866,1,0,0:0:0:0:
348,168,174943,1,0,0:0:0:0:
380,144,175020,1,8,0:0:0:0:
404,240,175174,5,0,0:0:0:0:
245,84,175327,1,8,0:0:0:0:
176,96,175481,2,0,P|212:148|315:81,1,210.000008010865
152,216,175943,1,8,0:0:0:0:
400,76,176097,1,0,0:0:0:0:
208,288,176251,6,0,P|140:308|88:284,1,105.000004005432,8|0,0:0|0:0,0:0:0:0:
152,216,176558,2,0,P|204:192|264:196,1,105.000004005432,8|0,0:0|0:0,0:0:0:0:
152,72,176866,1,8,0:0:0:0:
344,272,177020,1,0,0:0:0:0:
271,80,177174,1,8,0:0:0:0:
52,204,177327,1,0,0:0:0:0:
96,136,177481,6,0,P|132:192|24:284,1,210.000008010865,8|8,0:0|0:0,0:0:0:0:
256,199,177943,1,0,0:0:0:0:
200,120,178097,2,8,P|264:104|344:240,1,210.000008010865
316,296,178558,6,0,P|404:272|428:144,1,210.000008010865
392,84,179020,1,8,0:0:0:0:
392,84,179174,1,8,0:0:0:0:
312,64,179327,6,0,P|224:68|180:88,1,105.000004005432
144,128,179635,1,8,0:0:0:0:
124,164,179712,1,0,0:0:0:0:
111,205,179789,1,8,0:0:0:0:
108,244,179866,1,0,0:0:0:0:
115,284,179943,5,0,0:0:0:0:
314,197,180097,1,0,0:0:0:0:
219,326,180251,1,8,0:0:0:0:
228,107,180404,1,0,0:0:0:0:
346,304,180558,1,8,0:0:0:0:
191,224,180712,1,0,0:0:0:0:
370,88,180866,1,8,0:0:0:0:
230,108,181020,1,0,0:0:0:0:
120,142,181174,6,0,P|115:76|131:15,1,105.000004005432,8|0,0:0|0:0,0:0:0:0:
80,244,181481,2,0,P|42:200|35:147,1,105.000004005432,8|0,0:0|0:0,0:0:0:0:
176,278,181789,5,8,0:0:0:0:
216,287,181866,1,0,0:0:0:0:
257,292,181943,1,0,0:0:0:0:
299,293,182020,1,0,0:0:0:0:
340,284,182097,1,8,0:0:0:0:
376,264,182174,1,0,0:0:0:0:
408,236,182251,1,0,0:0:0:0:
433,203,182327,1,0,0:0:0:0:
435,161,182404,5,8,0:0:0:0:
360,48,182558,1,0,0:0:0:0:
248,168,182712,1,8,0:0:0:0:
240,48,182866,1,0,0:0:0:0:
360,168,183020,1,8,0:0:0:0:
352,276,183174,1,0,0:0:0:0:
435,161,183327,1,8,0:0:0:0:
280,308,183481,1,0,0:0:0:0:
184,232,183635,6,0,P|112:192|104:152,1,105.000004005432,8|0,0:0|0:0,0:0:0:0:
232,72,183943,2,0,P|190:101|182:152,1,105.000004005432,8|0,0:0|0:0,0:0:0:0:
262,142,184251,1,8,0:0:0:0:
299,156,184327,1,0,0:0:0:0:
334,178,184404,1,0,0:0:0:0:
360,210,184481,1,0,0:0:0:0:
378,247,184558,5,8,0:0:0:0:
266,240,184712,1,0,0:0:0:0:
256,320,184866,1,8,0:0:0:0:
356,108,185020,1,0,0:0:0:0:
192,240,185174,1,8,0:0:0:0:
196,56,185327,2,0,P|120:48|164:160,1,210.000008010865
224,160,185789,1,8,0:0:0:0:
288,48,185943,5,0,0:0:0:0:
352,264,186097,1,8,0:0:0:0:
196,312,186251,1,0,0:0:0:0:
392,112,186404,1,8,0:0:0:0:
316,160,186558,2,0,P|376:200|480:112,1,210.000008010865
180,56,187020,5,8,0:0:0:0:
132,224,187174,1,0,0:0:0:0:
64,100,187327,1,8,0:0:0:0:
252,156,187481,1,0,0:0:0:0:
360,288,187635,1,8,0:0:0:0:
352,96,187789,1,0,0:0:0:0:
236,296,187943,1,8,0:0:0:0:
176,104,188097,1,8,0:0:0:0:
416,192,188251,1,8,0:0:0:0:
264,176,188404,1,0,0:0:0:0:
140,184,188558,6,0,P|88:228|88:288,1,105.000004005432,8|0,0:0|0:0,0:0:0:0:
136,328,188866,1,8,0:0:0:0:
332,272,189020,2,0,P|352:200|352:148,1,105.000004005432,8|0,0:0|0:0,0:0:0:0:
300,108,189327,1,8,0:0:0:0:
72,112,189481,2,0,P|144:116|200:80,1,105.000004005432,8|8,0:0|0:0,0:0:0:0:
208,232,189789,5,8,0:0:0:0:
317,45,189943,1,0,0:0:0:0:
337,292,190097,1,8,0:0:0:0:
471,160,190251,1,0,0:0:0:0:
132,132,190404,1,8,0:0:0:0:
394,106,190558,1,0,0:0:0:0:
276,272,190712,1,8,0:0:0:0:
217,42,190866,1,0,0:0:0:0:
148,252,191020,5,8,0:0:0:0:
68,184,191174,2,0,P|52:132|84:60,1,105.000004005432,0|2,0:0|0:0,0:0:0:0:
132,132,191481,2,0,P|156:196|116:260,1,105.000004005432,0|2,0:0|0:0,0:0:0:0:
72,301,191789,1,0,0:0:0:0:
96,312,191866,1,0,0:0:0:0:
125,315,191943,2,0,P|184:319|288:216,1,210.000008010865,2|4,0:0|0:0,0:0:0:0:
