osu file format v14

[General]
AudioFilename: amatsuki.mp3
AudioLeadIn: 0
PreviewTime: 83299
Countdown: 1
SampleSet: Normal
StackLeniency: 0.7
Mode: 1
LetterboxInBreaks: 0
WidescreenStoryboard: 0

[Editor]
DistanceSpacing: 1
BeatDivisor: 6
GridSize: 32
TimelineZoom: 3.3

[Metadata]
Title:Nagareboshi
TitleUnicode:流れ星
Artist:Amatsuki
ArtistUnicode:天月-あまつき-
Creator:iloveyou4ever
Version:Wish
Source:
Tags:箱庭ドラマチック 佐香智久 堀江晶太
BeatmapID:1696049
BeatmapSetID:808205

[Difficulty]
HPDrainRate:5
CircleSize:2
OverallDifficulty:6
ApproachRate:5
SliderMultiplier:1.4
SliderTickRate:1

[Events]
//Background and Video events
0,0,"hoshi.jpg",0,50
//Break Periods
2,236828,241053
//Storyboard Layer 0 (Background)
//Storyboard Layer 1 (Fail)
//Storyboard Layer 2 (Pass)
//Storyboard Layer 3 (Foreground)
//Storyboard Sound Samples

[TimingPoints]
2253,340.9091,4,1,0,30,1,0
2253,-100,4,1,0,30,0,0
2593,-102.040816326531,4,1,0,30,0,0
2934,-104.166666666667,4,1,0,30,0,0
3105,-105.820105820106,4,1,0,30,0,0
3275,-107.52688172043,4,1,0,30,0,0
3446,-109.289617486339,4,1,0,30,0,0
3616,-111.111111111111,4,1,0,30,0,0
4554,-111.1111,4,1,0,15,0,0
4895,-111.1111,4,1,0,30,0,0
6088,-111.1111,4,1,0,40,0,0
6258,-111.1111,4,1,0,30,0,0
7622,-105.2632,4,1,0,54,0,0
10434,-105.2632,4,1,0,55,0,0
10605,-104.1667,4,1,0,55,0,0
10775,-103.0928,4,1,0,55,0,0
10946,-102.0408,4,1,0,55,0,0
11116,-101.0101,4,1,0,55,0,0
11287,-100,4,1,0,55,0,0
11457,-99.0099,4,1,0,55,0,0
11628,-98.03922,4,1,0,55,0,0
11798,-97.08738,4,1,0,55,0,0
11883,-96.33911,4,1,0,55,0,0
11968,-95.60229,4,1,0,55,0,0
12139,-94.87666,4,1,0,55,0,0
12224,-94.16196,4,1,0,55,0,0
12309,-93.45795,4,1,0,55,0,0
12395,-92.76438,4,1,0,55,0,0
12480,-92.08103,4,1,0,55,0,0
13162,-100,4,1,0,65,0,0
24071,-100,4,1,0,40,0,0
25434,-117.6471,4,1,0,40,0,0
34468,-105.2632,4,1,0,45,0,0
44866,-105.2632,4,1,0,47,0,0
45207,-105.2632,4,1,0,49,0,0
45633,-100,4,1,0,60,0,0
66855,-101.0101,4,1,0,60,0,0
67025,-102.0408,4,1,0,60,0,0
67196,-103.0928,4,1,0,60,0,0
67281,-103.8066,4,1,0,60,0,0
67366,-104.712,4,1,0,60,0,0
67537,-105.8201,4,1,0,60,0,0
67707,-106.9519,4,1,0,60,0,0
75037,-105.8201,4,1,0,60,0,0
75207,-104.712,4,1,0,60,0,0
75378,-103.6269,4,1,0,60,0,0
75548,-102.5641,4,1,0,60,0,0
75633,-101.9108,4,1,0,60,0,0
75718,-101.2658,4,1,0,60,0,0
75804,-100.6289,4,1,0,60,0,0
75889,-100,4,1,0,60,0,0
82878,-99.60159,4,1,0,60,0,0
82963,-99.20635,4,1,0,60,0,0
83048,-98.81423,4,1,0,60,0,0
83218,-98.42519,4,1,0,60,0,0
83304,-98.03922,4,1,0,60,0,0
83389,-97.65625,4,1,0,60,0,0
83559,-97.27627,4,1,0,60,0,0
83645,-96.89922,4,1,0,60,0,0
83730,-96.52509,4,1,0,60,0,0
83815,-96.15385,4,1,0,60,0,0
83900,-95.78544,4,1,0,60,0,0
83985,-95.41985,4,1,0,60,0,0
84071,-95.05704,4,1,0,60,0,1
106400,-95.05704,4,1,0,60,0,0
107082,-95.05704,4,1,0,60,0,1
108957,-93.72071,4,1,0,60,0,1
109128,-92.42144,4,1,0,60,0,1
109298,-91.07468,4,1,0,60,0,1
109468,-89.6861,4,1,0,60,0,1
109639,-88.26125,4,1,0,60,0,1
109809,-86.80556,4,1,0,60,0,0
111003,-91.743119266055,4,1,0,60,0,0
111088,-93.0232558139535,4,1,0,60,0,0
111173,-94.3396226415094,4,1,0,60,0,0
111258,-95.6937799043062,4,1,0,60,0,0
111343,-97.0873786407767,4,1,0,60,0,0
121826,-97.5609756097561,4,1,0,60,0,0
121912,-98.0392156862745,4,1,0,60,0,0
121997,-98.5221674876847,4,1,0,60,0,0
122082,-99.009900990099,4,1,0,60,0,0
122167,-99.502487562189,4,1,0,60,0,0
122253,-100,4,1,0,60,0,0
143389,-100.603621730382,4,1,0,60,0,0
143474,-101.214574898785,4,1,0,60,0,0
143559,-101.83299389002,4,1,0,60,0,0
143645,-102.459016393443,4,1,0,60,0,0
143730,-103.092783505155,4,1,0,60,0,0
143815,-103.734439834025,4,1,0,60,0,0
143900,-104.384133611691,4,1,0,60,0,0
143985,-105.042016806723,4,1,0,60,0,0
144071,-105.708245243129,4,1,0,60,0,0
149525,-114.942528735632,4,1,0,40,0,0
152253,-105.263157894737,4,1,0,57,0,0
154639,-103.896103896104,4,1,0,57,0,0
154809,-102.564102564103,4,1,0,57,0,0
154895,-101.26582278481,4,1,0,57,0,0
154980,-100,4,1,0,60,0,0
157366,-98.7654320987654,4,1,0,60,0,0
157537,-97.5609756097561,4,1,0,60,0,0
157622,-96.3855421686747,4,1,0,60,0,0
157707,-95.2380952380952,4,1,0,60,0,0
159071,-90.9090909090909,4,1,0,60,0,0
160434,-94.3396226415094,4,1,0,60,0,1
182764,-94.3396226415094,4,1,0,60,0,0
183446,-94.3396226415094,4,1,0,60,0,1
185321,-93.4579439252336,4,1,0,60,0,1
185491,-92.5069380203515,4,1,0,60,0,1
185662,-91.4913083257091,4,1,0,60,0,1
185832,-90.4159132007233,4,1,0,60,0,1
186003,-89.2857142857143,4,1,0,60,0,1
186173,-88.1057268722467,4,1,0,60,0,0
187707,-98.0392156862745,4,1,0,60,0,0
209014,-96.1538461538461,4,1,0,60,0,0
209184,-94.3396226415094,4,1,0,60,0,0
209355,-93.0232558139535,4,1,0,60,0,0
209525,-91.743119266055,4,1,0,65,0,1
212508,-89.2857142857143,4,1,0,65,0,1
213020,-86.9565217391304,4,1,0,65,0,1
213531,-84.7457627118644,4,1,0,65,0,1
213787,-85.6164383561644,4,1,0,65,0,1
213872,-86.5051903114187,4,1,0,65,0,1
213957,-87.4125874125874,4,1,0,64,0,1
214128,-88.339222614841,4,1,0,64,0,1
214213,-89.2857142857143,4,1,0,64,0,1
214298,-90.2527075812274,4,1,0,63,0,1
214383,-91.2408759124088,4,1,0,63,0,1
214468,-92.2509225092251,4,1,0,63,0,1
214554,-93.2835820895522,4,1,0,62,0,1
214639,-94.3396226415094,4,1,0,62,0,1
214724,-95.4198473282443,4,1,0,62,0,1
214809,-96.5250965250965,4,1,0,61,0,1
214895,-97.65625,4,1,0,61,0,1
214980,-98.8142292490118,4,1,0,61,0,0
215150,-100,4,1,0,60,0,0
234412,-99.502487562189,4,1,0,60,0,0
234582,-99.009900990099,4,1,0,60,0,0
234753,-98.5221674876847,4,1,0,60,0,0
234923,-97.9431929480901,4,1,0,60,0,0
235093,-97.3709834469328,4,1,0,60,0,0
235264,-96.8054211035818,4,1,0,60,0,0
235434,-96.1538461538461,4,1,0,62,0,0
235605,-95.5109837631328,4,1,0,62,0,0
235775,-94.7867298578199,4,1,0,62,0,0
235946,-94.0733772342427,4,1,0,62,0,0
236116,-93.2835820895522,4,1,0,64,0,0
236287,-92.5069380203515,4,1,0,64,0,0
236457,-91.6590284142988,4,1,0,64,0,0
236628,-90.7441016333938,4,1,0,64,0,0
236798,-90.7441016333938,4,1,0,10,0,0
238162,-96.1538461538461,4,1,0,10,0,0
239525,-103.092783505155,4,1,0,10,0,0
240889,-111.111111111111,4,1,0,10,0,0
242167,-105.263157894737,4,1,0,55,0,0
244639,-103.896103896104,4,1,0,60,0,0
244809,-102.564102564103,4,1,0,60,0,0
244895,-101.26582278481,4,1,0,60,0,0
244980,-100,4,1,0,60,0,0
245321,-99.403578528827,4,1,0,60,0,0
245491,-98.8142292490118,4,1,0,60,0,0
245662,-98.135426889107,4,1,0,60,0,0
245832,-97.4658869395711,4,1,0,60,0,0
246003,-96.7117988394584,4,1,0,60,0,0
246173,-95.9692898272553,4,1,0,60,0,0
246343,-95.1474785918173,4,1,0,60,0,0
246514,-94.3396226415094,4,1,0,60,0,0
246684,-93.4579439252336,4,1,0,60,0,0
246855,-92.5925925925926,4,1,0,60,0,0
246940,-91.743119266055,4,1,0,60,0,0
247025,-91.0746812386157,4,1,0,60,0,0
247196,-90.0900900900901,4,1,0,60,0,0
247707,-93.4579439252336,4,1,0,60,0,1
252309,-93.984962406015,4,1,0,60,0,1
252395,-94.5179584120983,4,1,0,60,0,1
252480,-95.0570342205323,4,1,0,60,0,1
252650,-95.6022944550669,4,1,0,60,0,1
252735,-96.1538461538461,4,1,0,60,0,1
252821,-96.7117988394584,4,1,0,60,0,1
252906,-97.2762645914397,4,1,0,60,0,1
252991,-97.8473581213307,4,1,0,60,0,1
253076,-98.4251968503937,4,1,0,60,0,1
253162,-100,4,1,0,60,0,1
257764,-99.009900990099,4,1,0,60,0,1
257934,-98.0392156862745,4,1,0,60,0,1
258020,-97.4658869395711,4,1,0,60,0,1
258105,-96.8992248062015,4,1,0,60,0,1
258190,-96.3391136801541,4,1,0,60,0,1
258275,-95.7854406130268,4,1,0,60,0,1
258360,-95.2380952380952,4,1,0,60,0,1
258446,-94.6969696969697,4,1,0,60,0,1
258531,-94.1619585687382,4,1,0,60,0,1
258616,-93.6329588014981,4,1,0,60,0,1
270037,-93.4579439252336,4,1,0,60,0,0
270718,-93.4579439252336,4,1,0,60,0,1
272593,-92.5925925925926,4,1,0,60,0,1
272764,-91.6590284142988,4,1,0,60,0,1
272934,-90.7441016333938,4,1,0,60,0,1
273105,-89.7666068222621,4,1,0,60,0,1
273275,-88.809946714032,4,1,0,60,0,1
273446,-87.7963125548727,4,1,0,60,0,0
274980,-92.5925925925926,4,1,0,60,0,0
275065,-92.5925925925926,4,1,0,10,0,0
275321,-92.5925925925926,4,1,0,17,0,0
275491,-92.5925925925926,4,1,0,25,0,0
275662,-92.5925925925926,4,1,0,34,0,0
275832,-92.5925925925926,4,1,0,44,0,0
276003,-92.5925925925926,4,1,0,55,0,0
276258,-97.0873786407767,4,1,0,60,0,0
293048,-95.2380952380952,4,1,0,60,0,0
295775,-93.4579439252336,4,1,0,60,0,0
295946,-93.0232558139535,4,1,0,60,0,0
296116,-92.5069380203515,4,1,0,60,0,0
296287,-91.9963201471941,4,1,0,60,0,0
296457,-91.4076782449726,4,1,0,60,0,0
296628,-90.8265213442325,4,1,0,60,0,0
296798,-90.1713255184851,4,1,0,60,0,0
296968,-89.5255147717099,4,1,0,60,0,0
297054,-89.2060660124888,4,1,0,60,0,0
297139,-88.8888888888889,4,1,0,60,0,0
297309,-88.1834215167548,4,1,0,60,0,0
297395,-87.7963125548727,4,1,0,60,0,0
297480,-87.4125874125874,4,1,0,60,0,0
297650,-86.6551126516464,4,1,0,60,0,0
297821,-85.6898029134533,4,1,0,60,0,0
297991,-84.6740050804403,4,1,0,60,0,0
298162,-83.1946755407654,4,1,0,60,0,0
298533,340.9091,4,1,0,60,1,8
298533,-82.1018062397373,4,1,0,60,0,0
299555,-81.9672131147541,4,1,0,55,0,0
300237,-81.9672131147541,4,1,0,53,0,0
300919,-81.9672131147541,4,1,0,51,0,0
301601,-81.9672131147541,4,1,0,49,0,0
302283,-81.9672131147541,4,1,0,47,0,0
302964,-81.9672131147541,4,1,0,45,0,0
303646,-81.9672131147541,4,1,0,43,0,0
304328,-81.9672131147541,4,1,0,41,0,0
305010,-81.9672131147541,4,1,0,39,0,0
305692,-81.9672131147541,4,1,0,37,0,0
306373,-81.9672131147541,4,1,0,35,0,0
307055,-81.9672131147541,4,1,0,33,0,0
307737,-81.9672131147541,4,1,0,31,0,0
308419,-81.9672131147541,4,1,0,29,0,0
309101,-81.9672131147541,4,1,0,27,0,0
309783,-81.9672131147541,4,1,0,25,0,0

[Colours]
Combo1 : 255,255,255
Combo2 : 255,255,255
SliderBorder : 255,255,255

[HitObjects]
400,173,2253,5,12,0:0:0:0:
400,173,2593,1,8,0:0:0:0:
434,174,2934,1,0,0:0:0:0:
400,173,3105,1,8,0:0:0:0:
400,173,3275,1,0,0:0:0:0:
400,173,3446,1,8,0:0:0:0:
400,173,3957,1,0,0:0:0:0:
346,127,4128,1,8,0:0:0:0:
386,182,4468,1,0,0:0:0:0:
386,182,4639,1,8,0:0:0:0:
400,170,4809,1,0,0:0:0:0:
400,173,4980,1,8,0:0:0:0:
400,173,5321,1,8,0:0:0:0:
450,176,5662,1,0,0:0:0:0:
380,166,5832,1,8,0:0:0:0:
400,173,6003,1,0,0:0:0:0:
331,187,6173,1,8,0:0:0:0:
439,191,6684,1,0,0:0:0:0:
400,173,6855,1,8,0:0:0:0:
439,191,7196,1,0,0:0:0:0:
439,191,7281,1,0,0:0:0:0:
404,187,7366,1,8,0:0:0:0:
404,187,7707,1,0,0:0:0:0:
389,118,8048,1,0,0:0:0:0:
264,181,8389,1,0,0:0:0:0:
211,134,8559,1,8,0:0:0:0:
279,150,8730,1,0,0:0:0:0:
346,165,8900,1,8,0:0:0:0:
411,190,9071,1,0,0:0:0:0:
498,80,9412,1,0,0:0:0:0:
456,136,9582,1,8,0:0:0:0:
394,169,9753,1,0,0:0:0:0:
463,163,9923,1,8,0:0:0:0:
416,192,10093,1,0,0:0:0:0:
394,169,10264,1,8,0:0:0:0:
394,169,10349,1,8,0:0:0:0:
352,160,10434,1,4,0:0:0:0:
448,224,10605,1,0,0:0:0:0:
256,160,10775,1,8,0:0:0:0:
320,160,10946,1,8,0:0:0:0:
384,192,11116,1,8,0:0:0:0:
320,160,11287,1,8,0:0:0:0:
384,192,11457,1,8,0:0:0:0:
352,128,11628,1,4,0:0:0:0:
384,192,11798,1,0,0:0:0:0:
384,192,11883,1,8,0:0:0:0:
416,160,11968,1,0,0:0:0:0:
352,160,12139,1,8,0:0:0:0:
384,192,12224,1,8,0:0:0:0:
352,160,12309,1,0,0:0:0:0:
352,160,12395,1,0,0:0:0:0:
384,192,12480,1,8,0:0:0:0:
384,192,13162,1,4,0:0:0:0:
352,160,13417,1,0,0:0:0:0:
320,192,13503,1,8,0:0:0:0:
320,128,13673,1,8,0:0:0:0:
384,160,13843,1,0,0:0:0:0:
384,160,14014,1,8,0:0:0:0:
384,160,14099,1,8,0:0:0:0:
352,160,14184,1,0,0:0:0:0:
384,160,14355,1,8,0:0:0:0:
352,160,14525,1,0,0:0:0:0:
288,160,14696,1,0,0:0:0:0:
384,160,14781,1,0,0:0:0:0:
352,192,14866,1,8,0:0:0:0:
384,160,15037,1,8,0:0:0:0:
352,192,15122,1,8,0:0:0:0:
384,160,15207,1,0,0:0:0:0:
384,160,15378,1,8,0:0:0:0:
384,160,15548,1,0,0:0:0:0:
384,160,15718,1,0,0:0:0:0:
384,160,15889,1,8,0:0:0:0:
384,160,16230,1,8,0:0:0:0:
448,160,16400,1,8,0:0:0:0:
448,160,16485,1,8,0:0:0:0:
416,160,16571,1,0,0:0:0:0:
416,160,16741,1,0,0:0:0:0:
384,160,16826,1,8,0:0:0:0:
416,160,16912,1,0,0:0:0:0:
416,160,17082,1,8,0:0:0:0:
416,160,17253,1,0,0:0:0:0:
448,160,17423,1,0,0:0:0:0:
384,160,17593,1,8,0:0:0:0:
416,160,17764,1,0,0:0:0:0:
416,160,17849,1,0,0:0:0:0:
416,160,17934,1,8,0:0:0:0:
352,160,18105,1,8,0:0:0:0:
384,160,18190,1,0,0:0:0:0:
416,160,18275,1,8,0:0:0:0:
416,160,18446,1,8,0:0:0:0:
416,160,18531,1,8,0:0:0:0:
384,160,18616,1,4,0:0:0:0:
480,160,18872,1,0,0:0:0:0:
448,160,18957,1,8,0:0:0:0:
448,160,19128,1,8,0:0:0:0:
448,160,19298,1,0,0:0:0:0:
416,160,19383,1,0,0:0:0:0:
416,160,19468,1,8,0:0:0:0:
416,160,19639,1,0,0:0:0:0:
416,160,19809,1,8,0:0:0:0:
416,160,19895,1,8,0:0:0:0:
416,160,19980,1,0,0:0:0:0:
416,160,20150,1,0,0:0:0:0:
384,160,20235,1,0,0:0:0:0:
416,160,20321,1,8,0:0:0:0:
384,160,20406,1,0,0:0:0:0:
352,160,20491,1,8,0:0:0:0:
384,192,20662,1,0,0:0:0:0:
352,160,20832,1,0,0:0:0:0:
384,192,20917,1,0,0:0:0:0:
288,160,21003,1,8,0:0:0:0:
352,192,21173,1,0,0:0:0:0:
288,128,21343,1,8,0:0:0:0:
416,192,21684,1,8,0:0:0:0:
480,128,21855,1,0,0:0:0:0:
448,160,21940,1,0,0:0:0:0:
416,192,22025,1,8,0:0:0:0:
416,192,22110,1,8,0:0:0:0:
416,192,22196,1,8,0:0:0:0:
352,192,22366,1,0,0:0:0:0:
320,96,22537,1,12,0:0:0:0:
448,160,22878,1,0,0:0:0:0:
384,160,23048,1,8,0:0:0:0:
384,160,23218,1,0,0:0:0:0:
384,160,23304,1,0,0:0:0:0:
352,160,23389,1,8,0:0:0:0:
352,96,23559,1,0,0:0:0:0:
384,160,23645,1,0,0:0:0:0:
352,160,23730,1,8,0:0:0:0:
352,160,23815,1,8,0:0:0:0:
352,160,23900,1,8,0:0:0:0:
352,160,23985,1,8,0:0:0:0:
416,224,25434,5,0,0:0:0:0:
384,224,26798,1,8,0:0:0:0:
384,224,28162,1,0,0:0:0:0:
512,0,28843,1,0,0:0:0:0:
352,192,29525,1,8,0:0:0:0:
384,192,30889,1,0,0:0:0:0:
416,224,32253,1,8,0:0:0:0:
448,192,32934,1,0,0:0:0:0:
197,166,33616,1,8,0:0:0:0:
511,175,34468,1,8,0:0:0:0:
447,173,34639,1,8,0:0:0:0:
323,149,34980,1,0,0:0:0:0:
491,251,35491,1,8,0:0:0:0:
336,127,36003,1,8,0:0:0:0:
442,203,36343,1,0,0:0:0:0:
258,129,36855,1,0,0:0:0:0:
384,163,37196,1,8,0:0:0:0:
319,149,37366,5,8,0:0:0:0:
428,222,37707,1,0,0:0:0:0:
440,185,38218,1,0,0:0:0:0:
440,185,38730,1,0,0:0:0:0:
324,247,39071,1,8,0:0:0:0:
463,107,39582,1,8,0:0:0:0:
292,206,40093,1,8,0:0:0:0:
355,188,40264,1,0,0:0:0:0:
418,170,40434,1,0,0:0:0:0:
418,170,40946,1,0,0:0:0:0:
418,170,41457,1,8,0:0:0:0:
287,153,41798,1,8,0:0:0:0:
465,237,42309,1,0,0:0:0:0:
271,195,42821,1,0,0:0:0:0:
335,178,42991,1,0,0:0:0:0:
459,166,43162,1,8,0:0:0:0:
336,320,43673,1,0,0:0:0:0:
422,220,44014,5,8,0:0:0:0:
433,155,44184,1,0,0:0:0:0:
423,220,44355,1,8,0:0:0:0:
256,192,44525,12,0,45548,0:0:0:0:
336,174,45718,5,8,0:0:0:0:
336,174,45804,1,8,0:0:0:0:
368,160,45889,1,0,0:0:0:0:
368,19,46230,1,0,0:0:0:0:
382,87,46400,1,8,0:0:0:0:
368,160,46571,1,0,0:0:0:0:
368,160,46741,1,8,0:0:0:0:
480,256,47082,1,8,0:0:0:0:
448,192,47253,1,0,0:0:0:0:
312,159,47593,1,8,0:0:0:0:
368,160,47934,1,0,0:0:0:0:
368,160,48105,1,0,0:0:0:0:
288,192,48275,1,8,0:0:0:0:
416,192,48616,1,0,0:0:0:0:
288,160,48957,1,8,0:0:0:0:
368,160,49128,1,0,0:0:0:0:
512,160,49468,1,0,0:0:0:0:
448,160,49639,1,8,0:0:0:0:
384,160,49809,1,8,0:0:0:0:
384,160,49980,1,0,0:0:0:0:
512,224,50321,1,0,0:0:0:0:
384,192,50491,1,8,0:0:0:0:
384,192,50662,1,0,0:0:0:0:
384,160,51003,1,0,0:0:0:0:
384,160,51343,1,8,0:0:0:0:
480,160,51684,1,0,0:0:0:0:
416,160,51855,1,8,0:0:0:0:
288,224,52196,1,8,0:0:0:0:
352,192,52366,1,8,0:0:0:0:
416,160,52537,1,0,0:0:0:0:
448,160,52878,1,0,0:0:0:0:
384,160,53048,1,8,0:0:0:0:
384,160,53389,1,0,0:0:0:0:
416,160,53730,1,8,0:0:0:0:
512,256,54071,1,0,0:0:0:0:
384,192,54412,1,8,0:0:0:0:
416,160,54582,1,0,0:0:0:0:
384,160,54753,1,0,0:0:0:0:
384,192,54923,1,8,0:0:0:0:
512,128,55264,1,8,0:0:0:0:
448,160,55434,1,0,0:0:0:0:
448,160,55775,1,0,0:0:0:0:
448,160,56116,1,0,0:0:0:0:
416,96,56287,1,8,0:0:0:0:
416,160,56457,1,0,0:0:0:0:
384,160,56628,1,8,0:0:0:0:
448,192,56798,1,4,0:0:0:0:
480,64,57139,1,0,0:0:0:0:
448,128,57309,1,8,0:0:0:0:
384,256,57650,1,8,0:0:0:0:
416,192,57821,1,0,0:0:0:0:
352,128,57991,1,8,0:0:0:0:
416,160,58162,1,0,0:0:0:0:
416,160,58503,1,0,0:0:0:0:
416,160,58843,1,0,0:0:0:0:
480,192,59014,1,0,0:0:0:0:
416,160,59184,1,8,0:0:0:0:
416,160,59355,1,8,0:0:0:0:
416,160,59525,1,0,0:0:0:0:
448,160,59866,1,8,0:0:0:0:
448,160,60037,1,0,0:0:0:0:
448,160,60378,1,0,0:0:0:0:
384,192,60718,1,8,0:0:0:0:
448,160,60889,1,0,0:0:0:0:
448,160,61230,1,0,0:0:0:0:
448,160,61571,1,0,0:0:0:0:
512,192,61741,1,8,0:0:0:0:
448,192,61912,1,0,0:0:0:0:
448,192,62082,1,8,0:0:0:0:
384,128,62253,1,0,0:0:0:0:
448,160,62593,1,0,0:0:0:0:
448,160,62764,1,0,0:0:0:0:
416,288,63105,1,0,0:0:0:0:
384,160,63275,1,8,0:0:0:0:
432,211,63446,1,8,0:0:0:0:
384,160,63616,1,0,0:0:0:0:
406,226,63787,1,0,0:0:0:0:
409,156,63957,1,8,0:0:0:0:
412,226,64128,1,0,0:0:0:0:
494,113,64468,1,8,0:0:0:0:
444,161,64639,1,0,0:0:0:0:
426,228,64809,1,8,0:0:0:0:
456,164,64980,1,4,0:0:0:0:
390,40,65321,1,0,0:0:0:0:
397,109,65491,1,0,0:0:0:0:
404,178,65662,1,8,0:0:0:0:
404,178,65832,1,8,0:0:0:0:
334,166,66003,1,0,0:0:0:0:
402,177,66173,1,0,0:0:0:0:
404,178,66343,1,12,0:0:0:0:
469,170,66684,1,0,0:0:0:0:
398,166,66855,1,8,0:0:0:0:
467,162,67025,1,8,0:0:0:0:
402,177,67196,1,0,0:0:0:0:
402,177,67281,1,0,0:0:0:0:
352,192,67366,1,8,0:0:0:0:
398,166,67537,1,8,0:0:0:0:
370,229,67707,1,4,0:0:0:0:
384,96,68048,1,0,0:0:0:0:
398,166,68218,1,0,0:0:0:0:
320,160,68389,1,8,0:0:0:0:
448,192,68730,1,8,0:0:0:0:
398,166,68900,1,0,0:0:0:0:
398,166,69241,1,0,0:0:0:0:
416,192,69582,1,0,0:0:0:0:
398,166,69753,1,8,0:0:0:0:
398,166,69923,1,0,0:0:0:0:
398,166,70093,1,8,0:0:0:0:
398,166,70264,1,8,0:0:0:0:
352,160,70349,1,8,0:0:0:0:
416,192,70434,1,0,0:0:0:0:
398,166,70605,1,0,0:0:0:0:
398,166,70946,1,0,0:0:0:0:
398,166,71116,1,8,0:0:0:0:
352,224,71287,1,0,0:0:0:0:
398,166,71457,1,0,0:0:0:0:
398,166,71628,1,8,0:0:0:0:
398,166,71968,1,12,0:0:0:0:
495,266,72309,1,0,0:0:0:0:
450,211,72480,1,8,0:0:0:0:
393,170,72650,1,0,0:0:0:0:
420,190,72735,1,0,0:0:0:0:
393,170,72821,1,8,0:0:0:0:
320,160,72991,1,8,0:0:0:0:
420,190,73162,1,4,0:0:0:0:
320,160,73332,1,0,0:0:0:0:
433,50,73673,1,0,0:0:0:0:
397,110,73843,1,8,0:0:0:0:
441,164,74014,1,8,0:0:0:0:
371,166,74184,1,0,0:0:0:0:
301,169,74355,1,0,0:0:0:0:
371,166,74696,1,8,0:0:0:0:
503,212,75037,1,8,0:0:0:0:
439,183,75207,1,0,0:0:0:0:
439,183,75378,1,0,0:0:0:0:
348,179,75548,1,8,0:0:0:0:
348,179,75633,1,8,0:0:0:0:
371,166,75718,1,8,0:0:0:0:
348,179,75804,1,8,0:0:0:0:
371,166,75889,1,0,0:0:0:0:
440,159,76059,1,0,0:0:0:0:
369,157,76230,1,8,0:0:0:0:
473,162,76485,1,8,0:0:0:0:
438,167,76571,1,0,0:0:0:0:
488,118,76741,1,0,0:0:0:0:
447,175,76912,1,8,0:0:0:0:
307,170,77253,1,0,0:0:0:0:
376,172,77423,1,0,0:0:0:0:
376,172,77593,1,8,0:0:0:0:
446,170,77764,1,0,0:0:0:0:
411,171,77849,1,0,0:0:0:0:
376,172,77934,1,8,0:0:0:0:
376,172,78105,1,0,0:0:0:0:
411,171,78275,1,8,0:0:0:0:
450,229,78446,1,8,0:0:0:0:
450,229,78531,1,8,0:0:0:0:
416,218,78616,1,4,0:0:0:0:
363,170,78787,1,0,0:0:0:0:
319,224,78957,1,8,0:0:0:0:
418,190,79213,1,0,0:0:0:0:
385,201,79298,1,0,0:0:0:0:
442,160,79468,1,0,0:0:0:0:
418,190,79639,1,8,0:0:0:0:
418,190,79895,1,8,0:0:0:0:
418,190,79980,1,0,0:0:0:0:
442,160,80150,1,0,0:0:0:0:
372,171,80321,1,8,0:0:0:0:
440,159,80491,1,0,0:0:0:0:
475,153,80576,1,0,0:0:0:0:
372,171,80662,1,0,0:0:0:0:
372,171,80832,1,0,0:0:0:0:
372,171,81003,1,8,0:0:0:0:
441,176,81173,1,0,0:0:0:0:
373,192,81343,1,12,0:0:0:0:
440,159,81514,1,0,0:0:0:0:
440,159,81684,1,0,0:0:0:0:
372,171,81855,1,12,0:0:0:0:
372,171,82025,1,0,0:0:0:0:
372,171,82196,1,0,0:0:0:0:
422,219,82366,1,12,0:0:0:0:
346,101,82707,1,8,0:0:0:0:
384,159,82878,1,0,0:0:0:0:
372,171,82963,1,8,0:0:0:0:
372,171,83048,1,8,0:0:0:0:
384,159,83218,1,0,0:0:0:0:
384,159,83304,1,8,0:0:0:0:
384,159,83389,1,8,0:0:0:0:
453,161,83474,1,8,0:0:0:0:
453,161,83559,1,0,0:0:0:0:
443,174,83645,1,0,0:0:0:0:
414,141,83730,1,8,0:0:0:0:
414,141,83900,1,8,0:0:0:0:
414,141,83985,1,8,0:0:0:0:
414,141,84071,1,4,0:0:0:0:
431,155,84241,1,0,0:0:0:0:
391,177,84412,1,8,0:0:0:0:
391,177,84667,1,8,0:0:0:0:
384,159,84753,1,0,0:0:0:0:
384,159,84923,1,0,0:0:0:0:
391,177,85093,1,8,0:0:0:0:
434,121,85264,1,8,0:0:0:0:
434,121,85349,1,8,0:0:0:0:
431,155,85434,1,0,0:0:0:0:
431,155,85605,1,0,0:0:0:0:
431,155,85775,1,8,0:0:0:0:
431,155,85946,1,0,0:0:0:0:
431,155,86031,1,0,0:0:0:0:
396,148,86116,1,8,0:0:0:0:
431,155,86287,1,0,0:0:0:0:
365,179,86457,1,8,0:0:0:0:
400,180,86628,1,0,0:0:0:0:
428,160,86713,1,8,0:0:0:0:
440,169,86798,1,0,0:0:0:0:
440,169,87139,1,8,0:0:0:0:
400,180,87309,1,8,0:0:0:0:
371,159,87395,1,8,0:0:0:0:
469,186,87480,1,0,0:0:0:0:
469,186,87650,1,0,0:0:0:0:
400,180,87821,1,8,0:0:0:0:
371,159,87991,1,8,0:0:0:0:
405,169,88076,1,0,0:0:0:0:
370,176,88162,1,8,0:0:0:0:
304,180,88332,1,0,0:0:0:0:
400,180,88417,1,0,0:0:0:0:
371,159,88503,1,8,0:0:0:0:
302,144,88673,1,0,0:0:0:0:
371,159,88843,1,8,0:0:0:0:
304,180,88929,1,8,0:0:0:0:
405,169,89014,1,0,0:0:0:0:
378,192,89184,1,8,0:0:0:0:
378,192,89270,1,8,0:0:0:0:
378,192,89355,1,8,0:0:0:0:
345,180,89440,1,8,0:0:0:0:
371,159,89525,1,4,0:0:0:0:
503,114,89866,1,8,0:0:0:0:
433,126,90037,1,0,0:0:0:0:
328,153,90122,1,8,0:0:0:0:
418,180,90207,1,0,0:0:0:0:
466,129,90378,1,0,0:0:0:0:
363,138,90548,1,8,0:0:0:0:
418,180,90718,1,0,0:0:0:0:
383,189,90804,1,8,0:0:0:0:
362,137,90889,1,8,0:0:0:0:
418,180,91059,1,0,0:0:0:0:
409,145,91230,1,8,0:0:0:0:
438,208,91400,1,0,0:0:0:0:
366,177,91485,1,0,0:0:0:0:
358,142,91571,1,8,0:0:0:0:
391,151,91656,1,8,0:0:0:0:
357,160,91741,1,0,0:0:0:0:
409,145,91912,1,8,0:0:0:0:
472,173,92082,1,8,0:0:0:0:
437,172,92167,1,0,0:0:0:0:
366,177,92253,1,0,0:0:0:0:
366,177,92508,1,0,0:0:0:0:
357,160,92593,1,8,0:0:0:0:
366,177,92764,1,8,0:0:0:0:
400,169,92849,1,8,0:0:0:0:
400,169,92934,1,0,0:0:0:0:
402,184,93105,1,8,0:0:0:0:
357,160,93190,1,0,0:0:0:0:
332,184,93275,1,8,0:0:0:0:
402,184,93446,1,4,0:0:0:0:
419,45,93787,1,0,0:0:0:0:
357,160,93957,1,8,0:0:0:0:
427,163,94128,1,0,0:0:0:0:
427,163,94213,1,0,0:0:0:0:
393,152,94298,1,8,0:0:0:0:
462,159,94468,1,0,0:0:0:0:
448,191,94554,1,0,0:0:0:0:
393,152,94639,1,8,0:0:0:0:
393,152,94724,1,8,0:0:0:0:
393,152,94809,1,8,0:0:0:0:
393,152,94895,1,8,0:0:0:0:
427,146,94980,1,4,0:0:0:0:
427,163,95150,1,0,0:0:0:0:
393,152,95321,1,8,0:0:0:0:
457,234,95576,1,8,0:0:0:0:
427,163,95662,1,0,0:0:0:0:
427,163,95832,1,0,0:0:0:0:
361,187,96003,1,8,0:0:0:0:
428,167,96173,1,0,0:0:0:0:
394,177,96258,1,0,0:0:0:0:
361,187,96343,1,0,0:0:0:0:
288,160,96514,1,0,0:0:0:0:
352,192,96684,1,8,0:0:0:0:
427,163,96855,1,0,0:0:0:0:
448,160,96940,1,0,0:0:0:0:
416,160,97025,1,8,0:0:0:0:
352,160,97196,1,0,0:0:0:0:
416,160,97366,1,8,0:0:0:0:
352,160,97707,1,0,0:0:0:0:
352,160,97878,1,0,0:0:0:0:
416,192,98048,1,8,0:0:0:0:
480,164,98218,1,0,0:0:0:0:
390,167,98304,1,0,0:0:0:0:
390,167,98389,1,8,0:0:0:0:
416,160,98559,1,0,0:0:0:0:
416,192,98730,1,0,0:0:0:0:
438,164,98815,1,8,0:0:0:0:
352,160,98900,1,0,0:0:0:0:
352,160,98985,1,0,0:0:0:0:
359,151,99071,1,8,0:0:0:0:
426,167,99241,1,0,0:0:0:0:
491,142,99412,1,12,0:0:0:0:
416,160,99582,1,8,0:0:0:0:
484,176,99753,1,0,0:0:0:0:
415,186,99923,1,8,0:0:0:0:
416,160,100008,1,8,0:0:0:0:
414,163,100093,1,0,0:0:0:0:
414,163,100179,1,8,0:0:0:0:
414,163,100264,1,8,0:0:0:0:
414,163,100349,1,8,0:0:0:0:
414,163,100434,1,4,0:0:0:0:
416,160,100775,1,8,0:0:0:0:
347,145,101116,1,0,0:0:0:0:
471,209,101457,1,8,0:0:0:0:
405,183,101628,1,0,0:0:0:0:
342,152,101798,1,8,0:0:0:0:
476,189,102139,1,8,0:0:0:0:
408,170,102309,1,8,0:0:0:0:
478,165,102480,1,0,0:0:0:0:
408,170,102650,1,8,0:0:0:0:
408,170,102821,1,0,0:0:0:0:
408,170,102991,1,8,0:0:0:0:
408,170,103076,1,8,0:0:0:0:
387,198,103162,1,4,0:0:0:0:
408,170,103503,1,0,0:0:0:0:
408,170,103673,1,8,0:0:0:0:
408,170,103843,1,0,0:0:0:0:
439,154,104184,1,0,0:0:0:0:
439,154,104440,1,0,0:0:0:0:
410,174,104525,1,8,0:0:0:0:
338,178,104696,1,0,0:0:0:0:
338,178,104866,1,0,0:0:0:0:
408,170,105037,1,8,0:0:0:0:
476,183,105207,1,0,0:0:0:0:
439,154,105378,1,0,0:0:0:0:
404,152,105463,1,0,0:0:0:0:
374,171,105548,1,8,0:0:0:0:
396,176,105633,1,8,0:0:0:0:
396,176,105718,1,8,0:0:0:0:
396,176,105804,1,8,0:0:0:0:
387,209,105889,1,4,0:0:0:0:
374,171,106059,1,8,0:0:0:0:
409,171,106145,1,0,0:0:0:0:
409,171,106230,1,0,0:0:0:0:
461,217,106400,1,4,0:0:0:0:
409,171,106741,1,0,0:0:0:0:
409,171,106826,1,0,0:0:0:0:
374,171,106912,1,8,0:0:0:0:
374,171,107082,1,4,0:0:0:0:
374,171,107423,1,0,0:0:0:0:
374,171,107593,1,8,0:0:0:0:
444,176,107764,1,0,0:0:0:0:
464,198,108105,1,0,0:0:0:0:
464,198,108190,1,0,0:0:0:0:
416,192,108275,1,8,0:0:0:0:
416,128,108446,1,0,0:0:0:0:
384,192,108616,1,12,0:0:0:0:
448,192,108957,1,0,0:0:0:0:
384,160,109128,1,8,0:0:0:0:
448,160,109298,1,8,0:0:0:0:
384,160,109468,1,8,0:0:0:0:
448,160,109639,1,8,0:0:0:0:
384,160,109809,1,8,0:0:0:0:
320,160,111003,1,8,0:0:0:0:
320,160,111088,1,8,0:0:0:0:
320,160,111173,1,8,0:0:0:0:
320,160,111258,1,8,0:0:0:0:
320,160,111343,1,4,0:0:0:0:
352,160,111599,1,0,0:0:0:0:
320,192,111684,1,8,0:0:0:0:
320,128,111855,1,8,0:0:0:0:
384,160,112025,1,0,0:0:0:0:
384,160,112196,1,8,0:0:0:0:
384,160,112281,1,8,0:0:0:0:
352,160,112366,1,0,0:0:0:0:
384,160,112537,1,8,0:0:0:0:
352,160,112707,1,0,0:0:0:0:
384,160,112878,1,0,0:0:0:0:
384,160,112963,1,0,0:0:0:0:
384,160,113048,1,8,0:0:0:0:
384,160,113218,1,8,0:0:0:0:
384,160,113304,1,8,0:0:0:0:
351,148,113389,1,0,0:0:0:0:
412,181,113474,1,0,0:0:0:0:
384,160,113559,1,8,0:0:0:0:
317,138,113730,1,8,0:0:0:0:
384,160,113900,1,0,0:0:0:0:
384,160,114071,1,8,0:0:0:0:
384,160,114412,1,8,0:0:0:0:
448,160,114582,1,8,0:0:0:0:
448,160,114667,1,8,0:0:0:0:
416,160,114753,1,0,0:0:0:0:
416,160,114923,1,0,0:0:0:0:
384,160,115008,1,8,0:0:0:0:
416,160,115093,1,0,0:0:0:0:
416,160,115264,1,8,0:0:0:0:
416,160,115434,1,0,0:0:0:0:
448,160,115605,1,0,0:0:0:0:
384,160,115775,1,8,0:0:0:0:
416,160,115946,1,0,0:0:0:0:
416,160,116031,1,0,0:0:0:0:
416,160,116116,1,8,0:0:0:0:
368,108,116287,1,0,0:0:0:0:
416,160,116457,1,8,0:0:0:0:
416,160,116542,1,0,0:0:0:0:
352,160,116628,1,8,0:0:0:0:
352,160,116713,1,8,0:0:0:0:
317,160,116798,1,4,0:0:0:0:
480,160,117054,1,0,0:0:0:0:
448,160,117139,1,8,0:0:0:0:
448,160,117309,1,8,0:0:0:0:
448,160,117480,1,0,0:0:0:0:
416,160,117565,1,0,0:0:0:0:
416,160,117650,1,8,0:0:0:0:
416,160,117821,1,0,0:0:0:0:
352,160,117991,1,8,0:0:0:0:
346,169,118076,1,0,0:0:0:0:
416,160,118162,1,0,0:0:0:0:
416,160,118332,1,0,0:0:0:0:
384,160,118417,1,0,0:0:0:0:
416,160,118503,1,8,0:0:0:0:
384,160,118588,1,0,0:0:0:0:
352,160,118673,1,8,0:0:0:0:
384,192,118843,1,0,0:0:0:0:
352,160,119014,1,0,0:0:0:0:
384,192,119099,1,0,0:0:0:0:
288,160,119184,1,8,0:0:0:0:
352,192,119355,1,0,0:0:0:0:
288,128,119525,1,8,0:0:0:0:
416,192,119866,1,8,0:0:0:0:
480,128,120037,1,0,0:0:0:0:
448,160,120122,1,0,0:0:0:0:
416,192,120207,1,8,0:0:0:0:
416,192,120292,1,8,0:0:0:0:
416,192,120378,1,8,0:0:0:0:
352,192,120548,1,0,0:0:0:0:
320,96,120718,1,12,0:0:0:0:
416,192,120889,1,0,0:0:0:0:
448,160,121059,1,0,0:0:0:0:
384,160,121230,1,8,0:0:0:0:
384,160,121400,1,0,0:0:0:0:
384,160,121485,1,0,0:0:0:0:
352,160,121571,1,8,0:0:0:0:
352,96,121741,1,0,0:0:0:0:
369,190,121826,1,0,0:0:0:0:
352,160,121912,1,8,0:0:0:0:
352,160,121997,1,8,0:0:0:0:
352,160,122082,1,8,0:0:0:0:
352,160,122167,1,8,0:0:0:0:
369,190,122253,1,0,0:0:0:0:
384,160,122593,1,8,0:0:0:0:
437,186,122764,1,0,0:0:0:0:
436,147,123105,1,0,0:0:0:0:
369,169,123275,1,8,0:0:0:0:
432,199,123446,1,0,0:0:0:0:
437,186,123787,1,0,0:0:0:0:
372,158,123957,1,8,0:0:0:0:
442,154,124128,1,8,0:0:0:0:
369,169,124298,1,0,0:0:0:0:
369,169,124468,1,0,0:0:0:0:
435,191,124639,1,8,0:0:0:0:
442,154,124980,1,0,0:0:0:0:
442,154,125150,1,0,0:0:0:0:
379,186,125321,1,8,0:0:0:0:
447,174,125491,1,0,0:0:0:0:
379,186,125832,1,8,0:0:0:0:
379,186,126003,1,0,0:0:0:0:
429,137,126173,1,8,0:0:0:0:
363,160,126343,1,0,0:0:0:0:
363,160,126514,1,0,0:0:0:0:
379,186,126684,1,8,0:0:0:0:
432,179,127025,1,8,0:0:0:0:
432,179,127196,1,0,0:0:0:0:
365,200,127366,1,8,0:0:0:0:
432,179,127707,1,0,0:0:0:0:
432,179,127878,1,0,0:0:0:0:
432,179,128048,1,8,0:0:0:0:
373,140,128218,1,0,0:0:0:0:
488,218,128559,1,0,0:0:0:0:
422,191,128730,1,8,0:0:0:0:
483,157,128900,1,0,0:0:0:0:
373,140,129241,1,0,0:0:0:0:
362,209,129412,1,8,0:0:0:0:
498,178,129753,1,8,0:0:0:0:
428,168,129923,1,0,0:0:0:0:
428,168,130093,1,8,0:0:0:0:
428,168,130434,1,0,0:0:0:0:
428,168,130605,1,0,0:0:0:0:
358,165,130775,1,8,0:0:0:0:
428,168,130946,1,0,0:0:0:0:
452,171,131287,1,0,0:0:0:0:
383,185,131457,1,8,0:0:0:0:
428,168,131628,1,0,0:0:0:0:
358,165,131798,1,8,0:0:0:0:
428,168,131968,1,8,0:0:0:0:
357,171,132139,1,0,0:0:0:0:
428,168,132480,1,0,0:0:0:0:
358,165,132650,1,0,0:0:0:0:
392,161,132735,1,0,0:0:0:0:
452,142,132821,1,8,0:0:0:0:
452,142,132906,1,8,0:0:0:0:
452,142,132991,1,8,0:0:0:0:
449,176,133076,1,8,0:0:0:0:
428,168,133162,1,4,0:0:0:0:
428,168,133332,1,0,0:0:0:0:
428,168,133503,1,8,0:0:0:0:
384,224,133673,1,0,0:0:0:0:
384,192,133758,1,8,0:0:0:0:
352,160,133843,1,0,0:0:0:0:
385,176,134014,1,0,0:0:0:0:
325,146,134184,1,8,0:0:0:0:
428,168,134440,1,8,0:0:0:0:
323,145,134525,1,0,0:0:0:0:
385,176,134696,1,0,0:0:0:0:
453,188,134866,1,8,0:0:0:0:
384,288,135207,1,8,0:0:0:0:
391,150,135378,1,0,0:0:0:0:
391,150,135548,1,8,0:0:0:0:
391,150,135718,1,8,0:0:0:0:
376,182,135804,1,0,0:0:0:0:
446,192,135889,1,0,0:0:0:0:
385,226,136059,1,0,0:0:0:0:
376,182,136230,1,8,0:0:0:0:
329,234,136400,1,0,0:0:0:0:
374,182,136741,1,0,0:0:0:0:
444,182,136912,1,8,0:0:0:0:
444,182,137082,1,0,0:0:0:0:
448,152,137167,1,0,0:0:0:0:
413,157,137253,1,8,0:0:0:0:
448,152,137423,1,0,0:0:0:0:
444,182,137593,1,0,0:0:0:0:
403,179,137764,1,8,0:0:0:0:
376,182,138105,1,0,0:0:0:0:
403,179,138275,1,8,0:0:0:0:
347,135,138446,1,0,0:0:0:0:
435,190,138531,1,8,0:0:0:0:
374,182,138616,1,0,0:0:0:0:
376,182,138787,1,0,0:0:0:0:
403,179,138957,1,8,0:0:0:0:
449,231,139128,1,0,0:0:0:0:
483,268,139468,1,0,0:0:0:0:
479,197,139639,1,8,0:0:0:0:
494,128,139809,1,8,0:0:0:0:
403,179,139980,1,0,0:0:0:0:
477,127,140150,1,0,0:0:0:0:
393,168,140235,1,0,0:0:0:0:
393,168,140321,1,8,0:0:0:0:
393,168,140491,1,8,0:0:0:0:
393,168,140662,1,0,0:0:0:0:
428,177,140832,1,8,0:0:0:0:
446,206,140917,1,0,0:0:0:0:
446,206,141003,1,0,0:0:0:0:
446,206,141088,1,0,0:0:0:0:
393,168,141173,1,8,0:0:0:0:
393,168,141258,1,8,0:0:0:0:
393,168,141343,1,0,0:0:0:0:
428,177,141514,1,0,0:0:0:0:
461,115,141684,1,8,0:0:0:0:
446,219,141940,1,8,0:0:0:0:
473,196,142025,1,0,0:0:0:0:
446,219,142196,1,0,0:0:0:0:
388,179,142366,1,8,0:0:0:0:
388,179,142537,1,0,0:0:0:0:
388,179,142622,1,0,0:0:0:0:
388,179,142707,1,8,0:0:0:0:
388,179,142878,1,0,0:0:0:0:
323,153,143048,1,8,0:0:0:0:
388,179,143218,1,0,0:0:0:0:
355,190,143389,1,8,0:0:0:0:
381,167,143474,1,0,0:0:0:0:
347,158,143559,1,8,0:0:0:0:
390,193,143645,1,8,0:0:0:0:
375,187,143730,1,8,0:0:0:0:
410,180,143815,1,0,0:0:0:0:
388,179,143900,1,8,0:0:0:0:
352,192,143985,1,8,0:0:0:0:
388,179,144071,1,4,0:0:0:0:
427,171,144412,1,0,0:0:0:0:
427,171,144582,1,0,0:0:0:0:
388,179,144753,1,8,0:0:0:0:
416,32,145093,1,0,0:0:0:0:
388,179,145264,1,8,0:0:0:0:
427,171,145605,1,0,0:0:0:0:
416,160,145946,1,0,0:0:0:0:
352,160,146116,1,8,0:0:0:0:
416,160,146287,1,8,0:0:0:0:
352,160,146457,1,0,0:0:0:0:
416,160,146628,1,8,0:0:0:0:
384,192,146713,1,8,0:0:0:0:
416,160,146798,1,0,0:0:0:0:
480,192,146968,1,0,0:0:0:0:
416,160,147139,1,8,0:0:0:0:
416,160,147480,1,8,0:0:0:0:
384,160,147650,1,0,0:0:0:0:
352,96,147821,1,0,0:0:0:0:
384,160,147991,1,8,0:0:0:0:
384,160,148332,1,12,0:0:0:0:
512,256,148673,1,0,0:0:0:0:
448,224,148843,1,8,0:0:0:0:
384,192,149014,1,0,0:0:0:0:
320,160,149184,1,8,0:0:0:0:
448,160,149525,1,8,0:0:0:0:
448,160,150207,1,0,0:0:0:0:
384,160,150378,1,8,0:0:0:0:
448,160,150548,1,8,0:0:0:0:
384,160,150718,1,0,0:0:0:0:
480,256,151059,1,0,0:0:0:0:
406,169,151400,1,0,0:0:0:0:
467,185,151571,1,8,0:0:0:0:
467,185,151741,1,8,0:0:0:0:
467,185,151912,1,8,0:0:0:0:
416,160,152082,1,8,0:0:0:0:
403,189,152253,1,4,0:0:0:0:
467,185,152593,1,8,0:0:0:0:
436,162,152934,1,0,0:0:0:0:
293,150,153275,1,8,0:0:0:0:
436,162,153446,1,8,0:0:0:0:
504,173,153616,1,0,0:0:0:0:
436,162,153957,1,0,0:0:0:0:
436,162,154298,1,8,0:0:0:0:
292,152,154639,1,8,0:0:0:0:
360,167,154809,1,8,0:0:0:0:
394,175,154895,1,8,0:0:0:0:
360,167,154980,1,4,0:0:0:0:
498,184,155321,1,0,0:0:0:0:
394,175,155491,1,8,0:0:0:0:
463,182,155662,1,0,0:0:0:0:
323,168,156003,1,0,0:0:0:0:
384,192,156173,1,0,0:0:0:0:
455,212,156343,1,8,0:0:0:0:
384,192,156514,1,0,0:0:0:0:
330,147,156684,1,8,0:0:0:0:
392,179,156855,1,8,0:0:0:0:
392,179,157025,1,0,0:0:0:0:
392,179,157366,1,0,0:0:0:0:
461,173,157537,1,0,0:0:0:0:
426,175,157622,1,0,0:0:0:0:
426,175,157707,1,8,0:0:0:0:
426,175,157878,1,0,0:0:0:0:
426,175,158048,1,0,0:0:0:0:
358,156,158218,1,8,0:0:0:0:
426,175,158389,1,0,0:0:0:0:
366,137,158559,1,0,0:0:0:0:
366,207,158730,1,12,0:0:0:0:
416,160,158900,1,0,0:0:0:0:
467,110,159071,1,8,0:0:0:0:
426,175,159156,1,0,0:0:0:0:
426,175,159241,1,0,0:0:0:0:
426,175,159326,1,0,0:0:0:0:
426,175,159412,1,8,0:0:0:0:
460,179,159497,1,0,0:0:0:0:
460,179,159582,1,0,0:0:0:0:
460,179,159667,1,0,0:0:0:0:
366,207,159753,1,8,0:0:0:0:
426,175,159809,1,8,0:0:0:0:
426,175,159866,1,8,0:0:0:0:
426,175,159923,1,0,0:0:0:0:
407,293,160434,1,4,0:0:0:0:
448,224,160605,1,0,0:0:0:0:
416,160,160775,1,8,0:0:0:0:
480,256,161031,1,8,0:0:0:0:
426,175,161116,1,0,0:0:0:0:
480,160,161287,1,0,0:0:0:0:
416,160,161457,1,8,0:0:0:0:
448,128,161628,1,0,0:0:0:0:
448,128,161713,1,0,0:0:0:0:
419,148,161798,1,8,0:0:0:0:
480,192,161968,1,0,0:0:0:0:
416,192,162139,1,8,0:0:0:0:
346,195,162309,1,8,0:0:0:0:
421,150,162395,1,0,0:0:0:0:
392,170,162480,1,8,0:0:0:0:
384,192,162565,1,8,0:0:0:0:
384,160,162650,1,0,0:0:0:0:
384,160,162821,1,8,0:0:0:0:
449,185,162991,1,8,0:0:0:0:
392,170,163076,1,8,0:0:0:0:
356,171,163162,1,0,0:0:0:0:
384,160,163503,1,8,0:0:0:0:
384,224,163673,1,0,0:0:0:0:
384,160,163758,1,8,0:0:0:0:
384,160,163843,1,0,0:0:0:0:
384,160,164014,1,0,0:0:0:0:
320,192,164184,1,8,0:0:0:0:
384,160,164355,1,0,0:0:0:0:
416,160,164440,1,0,0:0:0:0:
416,192,164525,1,8,0:0:0:0:
416,160,164696,1,8,0:0:0:0:
384,160,164781,1,0,0:0:0:0:
416,160,164866,1,8,0:0:0:0:
352,192,165037,1,0,0:0:0:0:
411,180,165207,1,8,0:0:0:0:
411,180,165292,1,8,0:0:0:0:
355,180,165378,1,0,0:0:0:0:
384,160,165548,1,8,0:0:0:0:
384,160,165633,1,8,0:0:0:0:
384,160,165718,1,8,0:0:0:0:
384,160,165804,1,8,0:0:0:0:
355,180,165889,1,4,0:0:0:0:
372,202,166230,1,8,0:0:0:0:
448,192,166400,1,0,0:0:0:0:
381,155,166485,1,8,0:0:0:0:
441,158,166571,1,0,0:0:0:0:
350,169,166741,1,0,0:0:0:0:
415,144,166912,1,8,0:0:0:0:
381,155,167082,1,0,0:0:0:0:
384,192,167167,1,8,0:0:0:0:
320,177,167253,1,8,0:0:0:0:
384,192,167423,1,0,0:0:0:0:
320,177,167593,1,8,0:0:0:0:
384,192,167764,1,8,0:0:0:0:
352,192,167849,1,0,0:0:0:0:
384,192,167934,1,8,0:0:0:0:
320,177,168020,1,8,0:0:0:0:
350,169,168105,1,0,0:0:0:0:
380,141,168275,1,8,0:0:0:0:
384,224,168446,1,0,0:0:0:0:
384,192,168531,1,0,0:0:0:0:
352,192,168616,1,8,0:0:0:0:
448,192,168872,1,8,0:0:0:0:
448,192,168957,1,0,0:0:0:0:
384,192,169128,1,8,0:0:0:0:
384,192,169298,1,0,0:0:0:0:
352,192,169383,1,8,0:0:0:0:
384,192,169468,1,0,0:0:0:0:
384,192,169554,1,0,0:0:0:0:
352,160,169639,1,8,0:0:0:0:
416,192,169809,1,4,0:0:0:0:
448,192,170150,1,0,0:0:0:0:
416,192,170235,1,0,0:0:0:0:
352,192,170321,1,8,0:0:0:0:
384,192,170491,1,0,0:0:0:0:
352,192,170662,1,8,0:0:0:0:
352,192,170747,1,8,0:0:0:0:
384,192,170832,1,0,0:0:0:0:
384,192,170917,1,0,0:0:0:0:
352,192,171003,1,8,0:0:0:0:
352,160,171088,1,0,0:0:0:0:
384,192,171173,1,8,0:0:0:0:
384,192,171258,1,8,0:0:0:0:
384,192,171343,1,4,0:0:0:0:
352,192,171684,1,8,0:0:0:0:
384,192,171855,1,0,0:0:0:0:
352,192,171940,1,8,0:0:0:0:
320,160,172025,1,0,0:0:0:0:
256,160,172196,1,0,0:0:0:0:
320,160,172366,1,8,0:0:0:0:
384,160,172537,1,0,0:0:0:0:
384,160,172622,1,0,0:0:0:0:
384,160,172707,1,8,0:0:0:0:
448,192,172878,1,0,0:0:0:0:
384,160,173048,1,8,0:0:0:0:
416,160,173133,1,8,0:0:0:0:
384,160,173218,1,0,0:0:0:0:
384,160,173304,1,0,0:0:0:0:
384,160,173389,1,8,0:0:0:0:
416,160,173559,1,0,0:0:0:0:
384,160,173730,1,8,0:0:0:0:
395,192,173815,1,0,0:0:0:0:
317,181,173900,1,8,0:0:0:0:
349,162,173985,1,8,0:0:0:0:
352,160,174071,1,0,0:0:0:0:
421,165,174241,1,0,0:0:0:0:
384,160,174412,1,8,0:0:0:0:
384,160,174667,1,8,0:0:0:0:
349,162,174753,1,0,0:0:0:0:
349,162,174923,1,0,0:0:0:0:
352,160,175093,1,8,0:0:0:0:
421,150,175264,1,0,0:0:0:0:
455,145,175349,1,0,0:0:0:0:
384,160,175434,1,8,0:0:0:0:
384,160,175605,1,0,0:0:0:0:
384,160,175775,1,12,0:0:0:0:
347,220,175946,1,8,0:0:0:0:
384,160,176116,1,0,0:0:0:0:
384,160,176201,1,8,0:0:0:0:
384,160,176287,1,8,0:0:0:0:
418,165,176372,1,8,0:0:0:0:
452,163,176457,1,0,0:0:0:0:
452,163,176542,1,0,0:0:0:0:
384,160,176628,1,8,0:0:0:0:
384,160,176713,1,8,0:0:0:0:
418,165,176798,1,4,0:0:0:0:
416,160,177139,1,8,0:0:0:0:
347,145,177480,1,0,0:0:0:0:
471,209,177821,1,8,0:0:0:0:
405,183,177991,1,0,0:0:0:0:
342,152,178162,1,8,0:0:0:0:
476,189,178503,1,8,0:0:0:0:
408,172,178673,1,8,0:0:0:0:
340,188,178843,1,0,0:0:0:0:
408,170,179014,1,8,0:0:0:0:
408,170,179184,1,0,0:0:0:0:
408,170,179355,1,8,0:0:0:0:
408,170,179440,1,8,0:0:0:0:
387,198,179525,1,4,0:0:0:0:
408,170,179866,1,0,0:0:0:0:
408,170,180037,1,8,0:0:0:0:
408,170,180207,1,0,0:0:0:0:
439,154,180548,1,0,0:0:0:0:
439,154,180804,1,0,0:0:0:0:
410,174,180889,1,8,0:0:0:0:
338,178,181059,1,0,0:0:0:0:
396,176,181145,1,0,0:0:0:0:
338,178,181230,1,0,0:0:0:0:
408,170,181400,1,8,0:0:0:0:
476,183,181571,1,0,0:0:0:0:
439,154,181741,1,0,0:0:0:0:
405,160,181826,1,0,0:0:0:0:
374,171,181912,1,8,0:0:0:0:
396,176,181997,1,8,0:0:0:0:
396,176,182082,1,8,0:0:0:0:
396,176,182167,1,8,0:0:0:0:
387,209,182253,1,4,0:0:0:0:
374,171,182423,1,8,0:0:0:0:
409,171,182508,1,0,0:0:0:0:
409,171,182593,1,0,0:0:0:0:
402,240,182764,1,12,0:0:0:0:
480,128,183105,1,0,0:0:0:0:
374,171,183190,1,8,0:0:0:0:
374,171,183275,1,0,0:0:0:0:
374,171,183446,1,12,0:0:0:0:
374,171,183787,1,0,0:0:0:0:
374,171,183957,1,8,0:0:0:0:
444,176,184128,1,0,0:0:0:0:
464,198,184468,1,0,0:0:0:0:
464,198,184554,1,0,0:0:0:0:
416,192,184639,1,8,0:0:0:0:
416,128,184809,1,0,0:0:0:0:
384,192,184980,1,12,0:0:0:0:
448,192,185321,1,0,0:0:0:0:
384,160,185491,1,8,0:0:0:0:
448,160,185662,1,8,0:0:0:0:
384,160,185832,1,8,0:0:0:0:
448,160,186003,1,8,0:0:0:0:
384,160,186173,1,8,0:0:0:0:
332,171,187707,1,4,0:0:0:0:
400,153,187878,1,0,0:0:0:0:
400,153,188218,1,0,0:0:0:0:
346,198,188389,1,8,0:0:0:0:
393,204,188900,1,0,0:0:0:0:
420,218,189241,1,0,0:0:0:0:
413,164,189582,1,0,0:0:0:0:
413,164,189753,1,8,0:0:0:0:
481,178,189923,1,0,0:0:0:0:
411,171,190093,1,8,0:0:0:0:
310,139,190349,1,8,0:0:0:0:
413,164,190434,1,0,0:0:0:0:
342,169,190605,1,0,0:0:0:0:
477,203,190946,1,0,0:0:0:0:
408,190,191116,1,8,0:0:0:0:
202,143,191628,1,0,0:0:0:0:
352,192,191968,1,8,0:0:0:0:
480,160,192309,1,0,0:0:0:0:
448,160,192395,1,0,0:0:0:0:
416,160,192480,1,8,0:0:0:0:
416,160,192650,1,0,0:0:0:0:
416,160,192821,1,8,0:0:0:0:
416,288,193162,1,4,0:0:0:0:
448,96,193673,1,0,0:0:0:0:
416,160,193843,1,8,0:0:0:0:
416,384,194355,1,0,0:0:0:0:
416,160,194696,1,8,0:0:0:0:
384,128,195037,1,0,0:0:0:0:
384,192,195207,1,8,0:0:0:0:
320,160,195378,1,0,0:0:0:0:
384,192,195548,1,8,0:0:0:0:
448,160,195718,1,8,0:0:0:0:
416,160,195804,1,0,0:0:0:0:
384,160,195889,1,0,0:0:0:0:
384,224,196059,1,0,0:0:0:0:
448,96,196400,1,0,0:0:0:0:
384,128,196571,1,8,0:0:0:0:
448,128,196912,1,8,0:0:0:0:
384,160,197082,1,4,0:0:0:0:
512,224,197423,1,0,0:0:0:0:
384,160,197593,1,8,0:0:0:0:
448,160,197764,1,0,0:0:0:0:
416,192,197849,1,0,0:0:0:0:
384,160,197934,1,8,0:0:0:0:
448,192,198105,1,0,0:0:0:0:
352,160,198190,1,0,0:0:0:0:
384,192,198275,1,8,0:0:0:0:
352,160,198360,1,8,0:0:0:0:
384,192,198446,1,8,0:0:0:0:
352,160,198531,1,8,0:0:0:0:
384,160,198616,1,4,0:0:0:0:
448,160,198787,1,0,0:0:0:0:
384,160,198957,1,8,0:0:0:0:
279,165,199213,1,8,0:0:0:0:
352,160,199298,1,0,0:0:0:0:
352,160,199468,1,0,0:0:0:0:
384,160,199639,1,8,0:0:0:0:
384,160,199809,1,8,0:0:0:0:
352,192,199895,1,0,0:0:0:0:
384,160,199980,1,0,0:0:0:0:
384,160,200150,1,0,0:0:0:0:
352,160,200321,1,8,0:0:0:0:
480,192,200491,1,0,0:0:0:0:
480,192,200576,1,0,0:0:0:0:
480,192,200662,1,8,0:0:0:0:
416,192,200832,1,0,0:0:0:0:
384,160,201003,1,8,0:0:0:0:
352,160,201088,1,8,0:0:0:0:
384,160,201173,1,0,0:0:0:0:
384,160,201258,1,0,0:0:0:0:
384,160,201343,1,8,0:0:0:0:
448,192,201514,1,0,0:0:0:0:
384,192,201684,1,8,0:0:0:0:
416,128,201855,1,0,0:0:0:0:
384,192,201940,1,8,0:0:0:0:
384,192,202025,1,0,0:0:0:0:
320,160,202196,1,8,0:0:0:0:
320,160,202281,1,8,0:0:0:0:
352,160,202366,1,0,0:0:0:0:
416,160,202537,1,12,0:0:0:0:
416,288,202878,1,0,0:0:0:0:
416,256,202963,1,0,0:0:0:0:
384,224,203048,1,8,0:0:0:0:
384,160,203218,1,0,0:0:0:0:
405,187,203304,1,0,0:0:0:0:
320,160,203389,1,8,0:0:0:0:
354,154,203474,1,0,0:0:0:0:
383,135,203559,1,8,0:0:0:0:
384,160,203645,1,0,0:0:0:0:
383,135,203730,1,8,0:0:0:0:
383,135,203815,1,8,0:0:0:0:
405,187,203900,1,0,0:0:0:0:
439,181,203985,1,0,0:0:0:0:
405,187,204071,1,8,0:0:0:0:
384,160,204412,1,8,0:0:0:0:
453,156,204582,1,0,0:0:0:0:
320,160,204923,1,0,0:0:0:0:
384,160,205093,1,8,0:0:0:0:
415,222,205264,1,0,0:0:0:0:
390,84,205605,1,0,0:0:0:0:
416,160,205775,1,8,0:0:0:0:
415,222,205946,1,8,0:0:0:0:
398,154,206116,1,0,0:0:0:0:
320,160,206287,1,0,0:0:0:0:
384,192,206457,1,8,0:0:0:0:
384,192,206628,1,8,0:0:0:0:
418,199,206713,1,0,0:0:0:0:
418,199,206798,1,0,0:0:0:0:
418,199,206968,1,0,0:0:0:0:
356,165,207139,1,8,0:0:0:0:
495,159,207480,1,8,0:0:0:0:
356,165,207650,1,0,0:0:0:0:
356,165,207821,1,8,0:0:0:0:
356,165,207991,1,8,0:0:0:0:
356,165,208162,1,0,0:0:0:0:
422,142,208332,1,0,0:0:0:0:
422,142,208503,1,8,0:0:0:0:
484,173,208673,1,0,0:0:0:0:
455,193,208758,1,0,0:0:0:0:
353,139,209014,1,0,0:0:0:0:
353,139,209184,1,12,0:0:0:0:
380,155,209355,1,8,0:0:0:0:
380,155,209525,1,4,0:0:0:0:
241,173,209866,1,0,0:0:0:0:
308,154,210037,1,8,0:0:0:0:
380,155,210207,1,0,0:0:0:0:
416,146,210378,1,0,0:0:0:0:
397,222,210548,1,8,0:0:0:0:
470,102,210889,1,0,0:0:0:0:
416,146,211059,1,8,0:0:0:0:
385,209,211230,1,0,0:0:0:0:
416,146,211400,1,0,0:0:0:0:
422,183,211485,1,0,0:0:0:0:
371,200,211571,1,8,0:0:0:0:
416,160,211741,1,0,0:0:0:0:
416,192,211912,1,8,0:0:0:0:
432,226,211997,1,0,0:0:0:0:
352,192,212082,1,8,0:0:0:0:
384,192,212167,1,8,0:0:0:0:
384,192,212253,1,0,0:0:0:0:
416,160,212508,1,8,0:0:0:0:
416,160,212593,1,8,0:0:0:0:
416,160,212764,1,0,0:0:0:0:
320,192,213020,1,8,0:0:0:0:
352,192,213105,1,8,0:0:0:0:
384,128,213275,1,0,0:0:0:0:
352,192,213531,1,0,0:0:0:0:
352,192,213616,1,12,0:0:0:0:
420,176,213787,1,8,0:0:0:0:
454,169,213872,1,8,0:0:0:0:
488,169,213957,1,0,0:0:0:0:
488,169,214128,1,0,0:0:0:0:
453,163,214213,1,8,0:0:0:0:
418,161,214298,1,0,0:0:0:0:
488,169,214383,1,0,0:0:0:0:
383,157,214468,1,8,0:0:0:0:
418,155,214554,1,0,0:0:0:0:
383,157,214639,1,8,0:0:0:0:
416,166,214724,1,8,0:0:0:0:
418,161,214809,1,0,0:0:0:0:
418,161,214895,1,0,0:0:0:0:
383,157,214980,1,0,0:0:0:0:
452,157,215150,1,0,0:0:0:0:
418,155,215321,1,8,0:0:0:0:
416,166,215576,1,8,0:0:0:0:
452,157,215662,1,0,0:0:0:0:
452,157,215832,1,0,0:0:0:0:
416,166,216003,1,8,0:0:0:0:
416,166,216173,1,8,0:0:0:0:
416,166,216258,1,8,0:0:0:0:
416,166,216343,1,0,0:0:0:0:
348,146,216514,1,0,0:0:0:0:
416,166,216684,1,8,0:0:0:0:
416,166,216855,1,0,0:0:0:0:
416,166,216940,1,0,0:0:0:0:
416,166,217025,1,8,0:0:0:0:
416,166,217196,1,0,0:0:0:0:
483,182,217366,1,8,0:0:0:0:
413,174,217537,1,8,0:0:0:0:
384,193,217622,1,0,0:0:0:0:
416,166,217707,1,0,0:0:0:0:
384,193,217878,1,0,0:0:0:0:
384,193,218048,1,8,0:0:0:0:
416,320,218389,1,0,0:0:0:0:
384,193,218559,1,0,0:0:0:0:
384,193,218730,1,8,0:0:0:0:
384,193,218900,1,8,0:0:0:0:
352,128,219071,1,0,0:0:0:0:
416,160,219241,1,0,0:0:0:0:
384,160,219326,1,0,0:0:0:0:
384,160,219412,1,8,0:0:0:0:
384,160,219582,1,8,0:0:0:0:
352,192,219667,1,0,0:0:0:0:
384,160,219753,1,8,0:0:0:0:
416,160,219923,1,0,0:0:0:0:
352,160,220093,1,8,0:0:0:0:
416,192,220179,1,0,0:0:0:0:
352,192,220264,1,8,0:0:0:0:
352,192,220349,1,8,0:0:0:0:
352,160,220434,1,4,0:0:0:0:
352,160,220605,1,8,0:0:0:0:
352,160,220690,1,8,0:0:0:0:
320,160,220775,1,0,0:0:0:0:
320,160,220860,1,0,0:0:0:0:
416,160,220946,1,8,0:0:0:0:
416,160,221031,1,8,0:0:0:0:
416,192,221116,1,0,0:0:0:0:
320,147,221372,1,0,0:0:0:0:
416,160,221457,1,8,0:0:0:0:
416,160,221628,1,0,0:0:0:0:
448,160,221713,1,0,0:0:0:0:
384,192,221798,1,0,0:0:0:0:
346,184,221883,1,8,0:0:0:0:
352,160,222139,1,0,0:0:0:0:
352,160,222309,1,0,0:0:0:0:
384,192,222395,1,0,0:0:0:0:
352,192,222480,1,8,0:0:0:0:
416,192,222650,1,0,0:0:0:0:
384,192,222735,1,8,0:0:0:0:
320,160,222906,1,0,0:0:0:0:
352,192,222991,1,8,0:0:0:0:
352,192,223076,1,8,0:0:0:0:
384,192,223162,1,0,0:0:0:0:
352,192,223332,1,0,0:0:0:0:
320,128,223503,1,8,0:0:0:0:
352,160,223588,1,0,0:0:0:0:
384,192,223673,1,8,0:0:0:0:
352,160,223758,1,8,0:0:0:0:
320,160,223843,1,0,0:0:0:0:
384,192,224014,1,8,0:0:0:0:
352,192,224099,1,8,0:0:0:0:
384,192,224184,1,0,0:0:0:0:
416,128,224355,1,12,0:0:0:0:
416,192,224525,1,0,0:0:0:0:
452,176,224696,1,0,0:0:0:0:
352,192,224866,1,8,0:0:0:0:
406,148,225037,1,0,0:0:0:0:
434,126,225122,1,0,0:0:0:0:
401,138,225207,1,8,0:0:0:0:
406,148,225378,1,8,0:0:0:0:
373,160,225463,1,0,0:0:0:0:
340,171,225548,1,8,0:0:0:0:
335,136,225633,1,0,0:0:0:0:
340,171,225718,1,8,0:0:0:0:
340,171,225804,1,8,0:0:0:0:
360,199,225889,1,4,0:0:0:0:
345,192,226230,1,8,0:0:0:0:
414,200,226400,1,8,0:0:0:0:
416,224,226571,1,0,0:0:0:0:
384,160,226826,1,8,0:0:0:0:
352,160,226912,1,0,0:0:0:0:
352,160,227082,1,8,0:0:0:0:
352,160,227253,1,8,0:0:0:0:
384,160,227423,1,0,0:0:0:0:
384,160,227593,1,8,0:0:0:0:
417,221,227764,1,8,0:0:0:0:
417,221,227849,1,8,0:0:0:0:
396,183,227934,1,0,0:0:0:0:
330,205,228105,1,8,0:0:0:0:
396,183,228275,1,0,0:0:0:0:
396,183,228446,1,8,0:0:0:0:
396,183,228531,1,8,0:0:0:0:
361,177,228616,1,8,0:0:0:0:
430,188,228787,1,0,0:0:0:0:
361,177,228957,1,8,0:0:0:0:
396,183,229071,1,8,0:0:0:0:
396,183,229184,1,8,0:0:0:0:
396,183,229298,1,8,0:0:0:0:
430,188,229468,1,0,0:0:0:0:
361,177,229554,1,8,0:0:0:0:
396,183,229639,1,0,0:0:0:0:
361,177,229809,1,0,0:0:0:0:
361,177,229980,1,12,0:0:0:0:
292,190,230150,1,0,0:0:0:0:
430,188,230235,1,0,0:0:0:0:
430,188,230321,1,8,0:0:0:0:
371,150,230491,1,8,0:0:0:0:
371,150,230576,1,0,0:0:0:0:
423,180,230662,1,8,0:0:0:0:
430,188,230832,1,0,0:0:0:0:
415,219,230917,1,0,0:0:0:0:
385,199,231003,1,8,0:0:0:0:
395,197,231088,1,8,0:0:0:0:
395,197,231173,1,8,0:0:0:0:
395,197,231258,1,8,0:0:0:0:
406,229,231343,1,4,0:0:0:0:
436,212,231684,1,0,0:0:0:0:
384,160,231855,1,8,0:0:0:0:
384,160,232025,1,8,0:0:0:0:
416,160,232366,1,8,0:0:0:0:
384,160,232537,1,0,0:0:0:0:
384,160,232707,1,0,0:0:0:0:
384,160,233048,1,0,0:0:0:0:
384,160,233218,1,8,0:0:0:0:
416,224,233389,1,0,0:0:0:0:
352,192,233559,1,8,0:0:0:0:
384,192,233645,1,8,0:0:0:0:
480,160,233730,1,0,0:0:0:0:
384,160,233815,1,0,0:0:0:0:
384,192,233900,1,0,0:0:0:0:
384,160,234071,1,4,0:0:0:0:
416,192,234412,1,0,0:0:0:0:
416,192,234582,1,0,0:0:0:0:
416,192,234753,1,8,0:0:0:0:
480,160,234923,1,8,0:0:0:0:
416,192,235093,1,8,0:0:0:0:
480,160,235264,1,8,0:0:0:0:
416,192,235434,1,0,0:0:0:0:
480,160,235605,1,0,0:0:0:0:
416,192,235775,1,0,0:0:0:0:
480,160,235946,1,0,0:0:0:0:
416,192,236116,1,8,0:0:0:0:
352,160,236287,1,8,0:0:0:0:
416,192,236457,1,8,0:0:0:0:
384,128,236628,1,8,0:0:0:0:
384,288,242253,5,0,0:0:0:0:
416,160,242593,1,0,0:0:0:0:
288,224,242934,1,0,0:0:0:0:
416,160,243275,1,0,0:0:0:0:
288,224,243616,1,0,0:0:0:0:
416,224,243957,1,0,0:0:0:0:
416,224,244298,1,0,0:0:0:0:
416,224,244639,1,0,0:0:0:0:
448,192,244809,1,8,0:0:0:0:
448,192,244895,1,8,0:0:0:0:
413,199,244980,1,4,0:0:0:0:
384,64,245321,1,8,0:0:0:0:
448,192,245491,1,8,0:0:0:0:
448,192,245662,1,8,0:0:0:0:
448,192,245832,1,8,0:0:0:0:
448,192,246003,1,8,0:0:0:0:
448,192,246173,1,8,0:0:0:0:
416,256,246343,1,8,0:0:0:0:
384,192,246514,1,8,0:0:0:0:
384,192,246684,1,8,0:0:0:0:
448,160,246855,1,0,0:0:0:0:
416,192,246940,1,0,0:0:0:0:
448,160,247025,1,8,0:0:0:0:
448,160,247196,1,8,0:0:0:0:
224,128,247707,1,4,0:0:0:0:
320,160,247963,1,0,0:0:0:0:
352,192,248048,1,8,0:0:0:0:
416,192,248218,1,8,0:0:0:0:
416,192,248304,1,8,0:0:0:0:
352,192,248389,1,0,0:0:0:0:
416,160,248559,1,0,0:0:0:0:
416,160,248730,1,8,0:0:0:0:
352,192,248900,1,0,0:0:0:0:
352,160,248985,1,8,0:0:0:0:
352,160,249071,1,0,0:0:0:0:
352,160,249241,1,0,0:0:0:0:
352,160,249326,1,0,0:0:0:0:
352,160,249412,1,8,0:0:0:0:
288,160,249582,1,0,0:0:0:0:
352,160,249753,1,8,0:0:0:0:
320,160,249838,1,8,0:0:0:0:
320,160,249923,1,0,0:0:0:0:
320,160,250008,1,0,0:0:0:0:
352,160,250093,1,8,0:0:0:0:
416,192,250264,1,8,0:0:0:0:
416,192,250349,1,8,0:0:0:0:
352,160,250434,1,0,0:0:0:0:
416,192,250605,1,0,0:0:0:0:
480,160,250775,1,8,0:0:0:0:
384,192,251031,1,8,0:0:0:0:
416,192,251116,1,0,0:0:0:0:
416,192,251287,1,0,0:0:0:0:
384,192,251457,1,12,0:0:0:0:
310,178,251628,1,8,0:0:0:0:
372,141,251798,1,4,0:0:0:0:
406,158,251968,1,0,0:0:0:0:
371,167,252054,1,0,0:0:0:0:
384,192,252139,1,8,0:0:0:0:
406,158,252309,1,0,0:0:0:0:
384,192,252395,1,8,0:0:0:0:
371,167,252480,1,0,0:0:0:0:
371,164,252650,1,8,0:0:0:0:
438,185,252735,1,0,0:0:0:0:
371,167,252821,1,0,0:0:0:0:
371,167,252906,1,0,0:0:0:0:
371,167,252991,1,8,0:0:0:0:
371,167,253076,1,8,0:0:0:0:
371,167,253162,1,0,0:0:0:0:
438,185,253332,1,0,0:0:0:0:
438,185,253673,1,0,0:0:0:0:
368,192,253843,1,12,0:0:0:0:
497,139,254184,1,8,0:0:0:0:
432,166,254355,1,8,0:0:0:0:
432,166,254525,1,0,0:0:0:0:
371,129,254696,1,0,0:0:0:0:
499,184,255037,1,0,0:0:0:0:
429,187,255207,1,8,0:0:0:0:
366,155,255378,1,0,0:0:0:0:
505,167,255718,1,8,0:0:0:0:
469,164,255804,1,8,0:0:0:0:
436,176,255889,1,0,0:0:0:0:
428,245,256059,1,0,0:0:0:0:
451,106,256400,1,0,0:0:0:0:
419,168,256571,1,8,0:0:0:0:
419,168,256741,1,0,0:0:0:0:
280,150,257082,1,8,0:0:0:0:
349,158,257253,1,0,0:0:0:0:
418,166,257423,1,0,0:0:0:0:
431,198,257593,1,12,0:0:0:0:
479,199,257764,1,0,0:0:0:0:
400,196,257934,1,8,0:0:0:0:
430,177,258020,1,8,0:0:0:0:
418,166,258105,1,0,0:0:0:0:
418,166,258190,1,0,0:0:0:0:
365,187,258275,1,8,0:0:0:0:
414,200,258360,1,0,0:0:0:0:
418,166,258446,1,8,0:0:0:0:
418,166,258531,1,8,0:0:0:0:
384,160,258616,1,4,0:0:0:0:
418,166,258957,1,0,0:0:0:0:
418,166,259128,1,8,0:0:0:0:
418,166,259298,1,0,0:0:0:0:
348,171,259468,1,8,0:0:0:0:
487,162,259809,1,8,0:0:0:0:
416,162,259980,1,0,0:0:0:0:
366,211,260150,1,0,0:0:0:0:
416,162,260321,1,8,0:0:0:0:
434,234,260491,1,0,0:0:0:0:
384,192,260662,1,8,0:0:0:0:
384,160,260832,1,8,0:0:0:0:
320,192,261003,1,0,0:0:0:0:
480,288,261173,1,8,0:0:0:0:
416,256,261343,1,4,0:0:0:0:
320,160,261684,1,8,0:0:0:0:
384,192,261855,1,8,0:0:0:0:
448,160,262025,1,0,0:0:0:0:
384,160,262196,1,8,0:0:0:0:
384,192,262366,1,0,0:0:0:0:
416,128,262537,1,12,0:0:0:0:
384,160,262707,1,0,0:0:0:0:
320,160,262878,1,8,0:0:0:0:
384,192,263048,1,0,0:0:0:0:
384,160,263389,1,8,0:0:0:0:
384,160,263559,1,0,0:0:0:0:
384,160,263645,1,8,0:0:0:0:
384,160,263730,1,8,0:0:0:0:
448,160,263900,1,8,0:0:0:0:
448,160,263985,1,8,0:0:0:0:
448,192,264071,1,4,0:0:0:0:
448,160,264412,1,8,0:0:0:0:
320,224,264753,1,0,0:0:0:0:
384,192,264923,1,0,0:0:0:0:
319,166,265093,1,8,0:0:0:0:
389,168,265264,1,0,0:0:0:0:
445,171,265605,1,0,0:0:0:0:
375,161,265775,1,8,0:0:0:0:
389,168,265946,1,0,0:0:0:0:
375,161,266287,1,0,0:0:0:0:
381,230,266457,1,8,0:0:0:0:
445,201,266628,1,0,0:0:0:0:
477,187,266713,1,0,0:0:0:0:
442,189,266798,1,8,0:0:0:0:
375,161,267139,1,8,0:0:0:0:
444,170,267309,1,0,0:0:0:0:
474,151,267650,1,0,0:0:0:0:
404,159,267821,1,8,0:0:0:0:
337,180,267991,1,4,0:0:0:0:
475,202,268332,1,0,0:0:0:0:
404,159,268503,1,8,0:0:0:0:
345,120,268673,1,0,0:0:0:0:
404,156,268843,1,8,0:0:0:0:
366,155,268929,1,8,0:0:0:0:
399,178,269014,1,0,0:0:0:0:
434,174,269099,1,0,0:0:0:0:
404,159,269184,1,8,0:0:0:0:
404,156,269355,1,0,0:0:0:0:
404,156,269525,1,8,0:0:0:0:
436,173,269610,1,0,0:0:0:0:
399,178,269696,1,0,0:0:0:0:
399,178,269781,1,0,0:0:0:0:
399,178,269866,1,0,0:0:0:0:
404,156,270037,1,12,0:0:0:0:
480,192,270378,1,0,0:0:0:0:
399,178,270463,1,8,0:0:0:0:
326,141,270548,1,0,0:0:0:0:
413,129,270718,1,12,0:0:0:0:
372,186,271059,1,8,0:0:0:0:
372,186,271230,1,0,0:0:0:0:
372,186,271400,1,8,0:0:0:0:
427,227,271741,1,0,0:0:0:0:
372,186,271912,1,8,0:0:0:0:
438,163,272082,1,8,0:0:0:0:
401,171,272167,1,8,0:0:0:0:
372,186,272253,1,4,0:0:0:0:
160,128,272593,1,0,0:0:0:0:
440,182,272764,1,8,0:0:0:0:
370,186,272934,1,8,0:0:0:0:
440,182,273105,1,8,0:0:0:0:
370,186,273275,1,8,0:0:0:0:
440,182,273446,1,8,0:0:0:0:
256,192,275150,12,0,276003,0:0:0:0:
320,160,276343,5,4,0:0:0:0:
352,160,276599,1,0,0:0:0:0:
320,192,276684,1,8,0:0:0:0:
320,128,276855,1,8,0:0:0:0:
384,160,277025,1,0,0:0:0:0:
384,160,277110,1,0,0:0:0:0:
384,160,277196,1,8,0:0:0:0:
352,160,277366,1,0,0:0:0:0:
384,160,277537,1,8,0:0:0:0:
412,181,277622,1,8,0:0:0:0:
352,160,277707,1,0,0:0:0:0:
384,160,277878,1,0,0:0:0:0:
384,160,278048,1,8,0:0:0:0:
384,160,278218,1,8,0:0:0:0:
384,160,278304,1,8,0:0:0:0:
351,148,278389,1,0,0:0:0:0:
412,181,278474,1,0,0:0:0:0:
384,160,278559,1,8,0:0:0:0:
317,138,278730,1,8,0:0:0:0:
384,160,278900,1,0,0:0:0:0:
412,181,278985,1,8,0:0:0:0:
384,160,279071,1,8,0:0:0:0:
384,160,279412,1,8,0:0:0:0:
448,160,279582,1,8,0:0:0:0:
448,160,279667,1,8,0:0:0:0:
416,160,279753,1,0,0:0:0:0:
416,160,279923,1,0,0:0:0:0:
384,160,280008,1,8,0:0:0:0:
416,160,280093,1,0,0:0:0:0:
416,160,280264,1,8,0:0:0:0:
416,160,280434,1,0,0:0:0:0:
448,160,280605,1,0,0:0:0:0:
384,160,280690,1,0,0:0:0:0:
384,160,280775,1,8,0:0:0:0:
317,160,280946,1,8,0:0:0:0:
416,160,281031,1,0,0:0:0:0:
416,160,281116,1,8,0:0:0:0:
368,108,281287,1,0,0:0:0:0:
389,137,281372,1,0,0:0:0:0:
416,160,281457,1,8,0:0:0:0:
416,160,281542,1,0,0:0:0:0:
352,160,281628,1,8,0:0:0:0:
352,160,281713,1,8,0:0:0:0:
317,160,281798,1,4,0:0:0:0:
480,160,282054,1,0,0:0:0:0:
448,160,282139,1,8,0:0:0:0:
448,160,282309,1,8,0:0:0:0:
448,160,282480,1,0,0:0:0:0:
416,160,282565,1,0,0:0:0:0:
416,160,282650,1,8,0:0:0:0:
416,160,282821,1,0,0:0:0:0:
352,160,282991,1,8,0:0:0:0:
381,206,283076,1,8,0:0:0:0:
416,160,283162,1,0,0:0:0:0:
416,160,283332,1,0,0:0:0:0:
384,160,283417,1,0,0:0:0:0:
416,160,283503,1,8,0:0:0:0:
384,160,283588,1,0,0:0:0:0:
352,160,283673,1,8,0:0:0:0:
384,192,283843,1,0,0:0:0:0:
352,160,284014,1,0,0:0:0:0:
384,192,284099,1,0,0:0:0:0:
288,160,284184,1,8,0:0:0:0:
352,192,284355,1,0,0:0:0:0:
288,128,284525,1,8,0:0:0:0:
416,192,284866,1,8,0:0:0:0:
480,128,285037,1,0,0:0:0:0:
448,160,285122,1,0,0:0:0:0:
416,192,285207,1,8,0:0:0:0:
416,192,285292,1,8,0:0:0:0:
416,192,285378,1,8,0:0:0:0:
352,192,285548,1,0,0:0:0:0:
320,96,285718,1,12,0:0:0:0:
416,192,285889,1,0,0:0:0:0:
448,160,286059,1,0,0:0:0:0:
416,192,286145,1,0,0:0:0:0:
384,160,286230,1,8,0:0:0:0:
448,160,286315,1,0,0:0:0:0:
384,160,286400,1,8,0:0:0:0:
384,160,286485,1,8,0:0:0:0:
384,160,286571,1,0,0:0:0:0:
384,160,286656,1,0,0:0:0:0:
384,160,286741,1,8,0:0:0:0:
369,190,286826,1,0,0:0:0:0:
352,160,286912,1,8,0:0:0:0:
406,154,286997,1,8,0:0:0:0:
384,160,287082,1,0,0:0:0:0:
384,160,287167,1,0,0:0:0:0:
369,190,287253,1,12,0:0:0:0:
434,168,287508,1,0,0:0:0:0:
406,154,287593,1,8,0:0:0:0:
406,154,287764,1,8,0:0:0:0:
434,168,287849,1,8,0:0:0:0:
406,154,287934,1,0,0:0:0:0:
378,161,288105,1,0,0:0:0:0:
378,161,288275,1,8,0:0:0:0:
416,192,288446,1,0,0:0:0:0:
434,168,288531,1,8,0:0:0:0:
406,154,288616,1,0,0:0:0:0:
480,192,288787,1,0,0:0:0:0:
416,192,288957,1,8,0:0:0:0:
416,192,289128,1,8,0:0:0:0:
378,161,289213,1,8,0:0:0:0:
378,161,289298,1,0,0:0:0:0:
416,192,289468,1,0,0:0:0:0:
416,192,289554,1,0,0:0:0:0:
378,161,289639,1,8,0:0:0:0:
416,192,289724,1,0,0:0:0:0:
378,161,289809,1,8,0:0:0:0:
378,161,289980,1,0,0:0:0:0:
416,192,290150,1,8,0:0:0:0:
378,161,290235,1,0,0:0:0:0:
378,161,290321,1,0,0:0:0:0:
378,161,290406,1,0,0:0:0:0:
320,128,290491,1,8,0:0:0:0:
378,161,290832,1,8,0:0:0:0:
378,161,290917,1,8,0:0:0:0:
378,161,291003,1,0,0:0:0:0:
288,192,291173,1,12,0:0:0:0:
480,192,291343,1,0,0:0:0:0:
384,192,291514,1,8,0:0:0:0:
384,192,291684,1,8,0:0:0:0:
384,192,291855,1,8,0:0:0:0:
480,224,292025,1,0,0:0:0:0:
384,160,292196,1,8,0:0:0:0:
416,192,292281,1,0,0:0:0:0:
448,160,292366,1,0,0:0:0:0:
448,160,292451,1,8,0:0:0:0:
448,160,292537,1,8,0:0:0:0:
448,160,292622,1,8,0:0:0:0:
384,160,292707,1,4,0:0:0:0:
448,160,293048,1,8,0:0:0:0:
448,160,293218,1,0,0:0:0:0:
448,160,293389,1,8,0:0:0:0:
384,160,293559,1,8,0:0:0:0:
448,160,293645,1,0,0:0:0:0:
384,160,293730,1,8,0:0:0:0:
384,160,293900,1,0,0:0:0:0:
408,187,293985,1,8,0:0:0:0:
384,160,294071,1,8,0:0:0:0:
384,160,294241,1,0,0:0:0:0:
480,160,294412,1,8,0:0:0:0:
416,256,294582,1,8,0:0:0:0:
384,160,294667,1,0,0:0:0:0:
384,160,294753,1,0,0:0:0:0:
480,192,294923,1,8,0:0:0:0:
384,160,295093,1,0,0:0:0:0:
384,224,295264,1,0,0:0:0:0:
362,193,295349,1,0,0:0:0:0:
384,224,295434,1,12,0:0:0:0:
416,192,295775,1,0,0:0:0:0:
416,192,295946,1,8,0:0:0:0:
416,192,296116,1,8,0:0:0:0:
416,192,296287,1,8,0:0:0:0:
416,192,296457,1,8,0:0:0:0:
287,153,296628,1,8,0:0:0:0:
407,198,296798,1,4,0:0:0:0:
468,184,296968,1,8,0:0:0:0:
468,184,297054,1,8,0:0:0:0:
417,162,297139,1,0,0:0:0:0:
321,216,297309,1,0,0:0:0:0:
417,162,297395,1,0,0:0:0:0:
417,162,297480,1,8,0:0:0:0:
318,209,297650,1,8,0:0:0:0:
417,161,297821,1,8,0:0:0:0:
319,211,297991,1,8,0:0:0:0:
319,211,298533,1,4,0:0:0:0:
256,192,298703,12,0,310464,0:0:0:0:
