osu file format v14

[General]
AudioFilename: audio.mp3
AudioLeadIn: 0
PreviewTime: 81451
Countdown: 0
SampleSet: Soft
StackLeniency: 0.5
Mode: 0
LetterboxInBreaks: 0
WidescreenStoryboard: 0

[Editor]
DistanceSpacing: 1
BeatDivisor: 4
GridSize: 8
TimelineZoom: 1.3

[Metadata]
Title:Nagareboshi
TitleUnicode:流れ星
Artist:Amatsuki
ArtistUnicode:天月
Creator:Kirishima-
Version:Starlight
Source:
Tags:あまつき 堀江晶太 佐香智久 tomohisa sako shota horie 箱庭ドラマチック hakoniwa shooting star japanese dramatic rock utaite male vocal reisevia roda totsuki
BeatmapID:2632230
BeatmapSetID:1266531

[Difficulty]
HPDrainRate:5.5
CircleSize:3.8
OverallDifficulty:9
ApproachRate:9.2
SliderMultiplier:1.8
SliderTickRate:1

[Events]
//Background and Video events
0,0,"background.jpg",0,0
//Break Periods
//Storyboard Layer 0 (Background)
//Storyboard Layer 1 (Fail)
//Storyboard Layer 2 (Pass)
//Storyboard Layer 3 (Foreground)
//Storyboard Layer 4 (Overlay)
//Storyboard Sound Samples

[TimingPoints]
400,340.909090909091,4,2,22,60,1,0
400,-133.333333333333,4,2,22,60,0,0
5769,-133.333333333333,4,2,22,5,0,0
5854,-117.647058823529,4,2,22,70,0,0
8581,-111.111111111111,4,2,22,75,0,0
10627,-111.111111111111,4,2,22,60,0,0
11309,-100,4,2,22,80,0,0
22218,-153.846153846154,4,2,22,50,0,0
33127,-133.333333333333,4,2,22,60,0,0
40201,-133.333333333333,4,2,22,5,0,0
40286,-133.333333333333,4,2,22,60,0,0
43695,-133.333333333333,4,2,22,5,0,0
43865,-133.333333333333,4,2,22,60,0,0
44036,-117.647058823529,4,2,22,70,0,0
63127,-111.111111111111,4,2,22,75,0,0
65854,-117.647058823529,4,2,22,70,0,0
74036,-111.111111111111,4,2,22,75,0,0
76763,-100,4,2,22,75,0,0
79490,-100,4,2,22,80,0,0
82218,-90.9090909090909,4,2,22,85,0,1
97473,-90.9090909090909,4,2,22,5,0,1
97559,-90.9090909090909,4,2,22,85,0,1
98581,-100,4,2,22,80,0,0
107956,-133.333333333333,4,2,22,60,0,0
109490,-100,4,2,22,80,0,0
120400,-117.647058823529,4,2,22,70,0,0
139490,-111.111111111111,4,2,22,75,0,0
142217,-117.647058823529,4,2,22,70,0,0
147502,-200,4,2,22,40,0,0
150400,-133.333333333333,4,2,22,60,0,0
151763,-117.647058823529,4,2,22,70,0,0
153127,-100,4,2,22,75,0,0
155853,-100,4,2,22,80,0,0
157900,-200,4,2,22,80,0,0
158155,-200,4,2,22,5,0,0
158240,-133.333333333333,4,2,22,80,0,0
158496,-133.333333333333,4,2,22,5,0,0
158581,-90.9090909090909,4,2,22,85,0,1
173837,-90.9090909090909,4,2,22,5,0,1
173922,-90.9090909090909,4,2,22,85,0,1
174604,-90.9090909090909,4,2,22,70,0,1
174775,-90.9090909090909,4,2,22,80,0,1
174945,-100,4,2,22,80,0,0
184320,-133.333333333333,4,2,22,60,0,0
185853,-125,4,2,22,70,0,0
195229,-111.111111111111,4,2,22,75,0,0
196763,-100,4,2,22,80,0,0
207672,-90.9090909090909,4,2,22,85,0,0
210400,-111.111111111111,4,2,22,75,0,0
213127,-100,4,2,22,85,0,0
234945,-200,4,2,22,40,0,0
240400,-133.333333333333,4,2,22,60,0,0
243127,-100,4,2,22,80,0,0
245343,-133.333333333333,4,2,22,60,0,0
245854,-90.9090909090909,4,2,22,85,0,1
251309,-100,4,2,22,80,0,0
271763,-200,4,2,22,40,0,0
273127,-133.333333333333,4,2,22,60,0,0
274490,-100,4,2,22,80,0,0
289320,-90.9090909090909,4,2,22,85,0,0
289576,-90.9090909090909,4,2,22,5,0,0
289661,-90.9090909090909,4,2,22,85,0,0
296650,-200,4,2,22,50,0,0
297672,-200,4,2,22,25,0,0
299036,-200,4,2,22,20,0,0
300400,-200,4,2,22,15,0,0
301763,-200,4,2,22,10,0,0
303127,-200,4,2,22,5,0,0

[Colours]
Combo1 : 0,64,128
Combo2 : 191,191,191
Combo3 : 96,196,255
Combo4 : 0,128,255

[HitObjects]
209,223,400,6,0,P|242:217|275:223,1,67.5000025749208,6|0,0:2|0:2,0:2:0:0:
330,293,740,2,0,P|391:316|457:295,1,135.000005149842,2|2,0:2|0:2,0:2:0:0:
388,155,1252,2,0,L|394:223,1,67.5000025749208,2|0,0:2|0:2,0:2:0:0:
234,113,1593,2,0,B|337:143|320:46|425:77,1,202.500007724762,2|0,0:2|0:2,0:2:0:0:
386,271,2275,2,0,B|353:228|353:228|387:155,1,135.000005149842,2|2,0:2|0:2,0:2:0:0:
308,308,2786,2,0,P|275:314|241:308,1,67.5000025749208,2|0,0:2|0:2,0:2:0:0:
122,160,3127,6,0,P|155:154|188:160,1,67.5000025749208,2|0,0:2|0:2,0:2:0:0:
51,221,3468,2,0,P|28:160|53:96,1,135.000005149842,2|2,0:2|0:2,0:2:0:0:
238,20,3979,2,0,L|243:87,1,67.5000025749208,2|0,0:2|0:2,0:2:0:0:
169,248,4320,2,0,P|170:165|238:213,1,202.500007724762,2|0,0:2|0:2,0:2:0:0:
241,308,5002,2,0,P|273:314|307:308,1,67.5000025749208,2|0,0:2|0:2,0:2:0:0:
358,127,5343,1,2,0:2:0:0:
358,127,5428,1,0,0:2:0:0:
358,127,5513,2,0,P|340:173|354:229,1,101.250003862381,2|0,0:2|0:2,0:2:0:0:
373,253,5854,6,0,L|463:260,1,76.5000014591217,6|0,1:2|0:2,0:2:0:0:
512,80,6195,2,0,L|421:87,1,76.5000014591217,2|0,1:2|0:2,0:2:0:0:
241,99,6536,1,2,1:2:0:0:
373,253,6706,2,0,P|382:216|373:175,1,76.5000014591217,2|0,0:2|1:2,0:2:0:0:
193,285,7047,2,0,P|184:322|193:363,1,76.5000014591217,2|0,0:2|1:2,0:2:0:0:
242,133,7388,5,0,0:2:0:0:
279,322,7559,1,0,1:2:0:0:
97,240,7729,2,0,L|52:243,2,38.2500007295609,2|0|0,0:2|0:2|1:2,0:2:0:0:
296,217,8070,1,2,0:2:0:0:
191,359,8240,1,0,1:2:0:0:
136,117,8410,1,0,1:2:0:0:
136,117,8496,1,0,1:2:0:0:
136,117,8581,5,6,1:2:0:0:
59,243,8752,1,2,1:2:0:0:
52,77,8922,1,2,1:2:0:0:
212,229,9093,1,2,1:2:0:0:
212,63,9263,5,10,1:2:0:0:
97,240,9434,1,10,1:2:0:0:
126,23,9604,1,10,1:2:0:0:
288,251,9775,6,0,L|379:258,1,80.9999975280763,6|0,1:2|0:2,0:2:0:0:
511,86,10115,2,0,L|459:91,1,40.4999987640381,0|0,1:2|1:2,0:2:0:0:
278,127,10286,1,8,0:2:0:0:
278,127,10371,1,8,0:2:0:0:
278,127,10456,2,0,L|330:132,1,40.4999987640381,8|8,0:2|0:2,0:2:0:0:
495,268,10627,5,2,0:2:0:0:
427,326,10797,1,2,0:2:0:0:
369,257,10968,1,2,0:2:0:0:
437,200,11138,1,2,0:2:0:0:
196,170,11309,6,0,B|102:142|118:229|24:202,1,180,6|10,1:2|0:2,0:2:0:0:
278,127,11820,2,0,P|291:171|280:216,1,90,2|0,0:2|1:2,0:2:0:0:
129,308,12161,2,0,P|160:274|205:261,1,90,2|8,0:2|0:2,0:2:0:0:
360,346,12502,2,0,P|315:335|281:303,1,90,2|0,0:2|1:2,0:2:0:0:
508,171,12843,1,0,0:2:0:0:
477,359,13013,5,8,0:2:0:0:
322,226,13184,2,0,L|313:132,1,90,2|0,0:2|1:2,0:2:0:0:
488,64,13525,2,0,L|479:157,1,90,2|8,0:2|0:2,0:2:0:0:
227,57,13865,1,0,1:2:0:0:
227,57,13951,1,0,1:2:0:0:
227,57,14036,6,0,B|273:21|273:21|392:63,1,180,2|8,1:2|0:2,0:2:0:0:
294,300,14547,2,0,P|250:311|208:300,1,90,2|0,0:2|1:2,0:2:0:0:
303,140,14888,2,0,P|334:172|346:214,1,90,2|8,0:2|0:2,0:2:0:0:
160,213,15229,2,0,P|172:169|203:138,1,90,2|0,0:2|1:2,0:2:0:0:
195,335,15570,1,0,0:2:0:0:
71,137,15740,1,8,0:2:0:0:
52,330,15911,6,0,L|96:326,1,45,0|0,1:2|1:2,0:2:0:0:
294,300,16081,1,2,1:2:0:0:
64,232,16252,1,2,0:2:0:0:
293,112,16422,1,10,0:2:0:0:
82,41,16593,1,10,0:2:0:0:
82,41,16678,1,8,0:2:0:0:
82,41,16763,6,0,B|128:54|166:21|166:21|200:58|255:48,1,180,6|10,1:2|0:2,0:2:0:0:
423,102,17275,2,0,L|330:111,1,90,2|0,0:2|1:2,0:2:0:0:
162,211,17615,2,0,L|255:220,1,90,2|8,0:2|0:2,0:2:0:0:
440,314,17956,2,0,L|347:323,1,90,2|0,0:2|1:2,0:2:0:0:
161,118,18297,1,0,0:2:0:0:
329,214,18468,6,0,L|285:218,1,45,10|0,0:2|0:2,0:2:0:0:
159,328,18638,2,0,P|148:284|159:242,1,90,2|0,0:2|1:2,0:2:0:0:
422,103,18979,1,2,0:2:0:0:
266,308,19150,1,8,0:2:0:0:
255,57,19320,1,0,1:2:0:0:
255,57,19405,1,0,1:2:0:0:
255,57,19490,6,0,B|314:62|314:62|362:98|362:98|424:103,1,180,2|8,1:2|0:2,0:2:0:0:
350,322,20002,1,2,0:2:0:0:
197,152,20172,1,8,0:2:0:0:
197,152,20257,1,8,0:2:0:0:
197,152,20343,2,0,P|238:142|284:156,1,90,2|8,1:2|0:2,0:2:0:0:
166,327,20684,6,0,P|125:337|79:323,1,90,14|0,0:2|0:2,0:2:0:0:
112,122,21025,1,0,1:2:0:0:
247,282,21195,1,8,1:2:0:0:
291,34,21365,1,8,0:2:0:0:
128,252,21536,6,0,L|133:187,1,45,8|8,0:2|0:2,0:2:0:0:
191,22,21706,2,0,L|196:86,1,45,8|8,0:2|0:2,0:2:0:0:
282,171,21877,1,8,0:2:0:0:
295,189,21962,1,8,0:2:0:0:
308,208,22047,1,8,0:2:0:0:
321,227,22132,1,8,0:2:0:0:
333,245,22218,6,0,L|465:256,1,116.999994644165,2|2,0:2|0:2,0:2:0:0:
459,150,22729,2,0,L|381:156,1,58.4999973220826,2|0,0:2|0:2,0:2:0:0:
367,63,23070,2,0,L|444:69,1,58.4999973220826,2|0,0:2|0:2,0:2:0:0:
307,136,23411,2,0,L|186:146,1,116.999994644165,2|0,0:2|0:2,0:2:0:0:
193,35,23922,2,0,P|209:91|190:146,2,116.999994644165,2|2|2,0:2|0:2|0:2,0:2:0:0:
113,92,24775,1,0,0:2:0:0:
113,92,24945,6,0,P|96:146|118:205,1,116.999994644165,2|2,0:2|0:2,0:2:0:0:
205,242,25456,2,0,L|282:248,1,58.4999973220826,2|0,0:2|0:2,0:2:0:0:
250,141,25797,2,0,L|187:145,1,58.4999973220826,2|0,0:2|0:2,0:2:0:0:
345,182,26138,1,2,0:2:0:0:
345,182,26309,2,0,L|422:188,2,58.4999973220826,0|0|0,0:2|0:2|0:2,0:2:0:0:
335,80,26820,1,0,0:2:0:0:
335,80,26990,2,0,L|393:76,1,58.4999973220826,2|0,0:2|0:2,0:2:0:0:
462,190,27331,2,0,L|403:186,1,58.4999973220826,2|0,0:2|0:2,0:2:0:0:
480,0,27672,6,0,B|501:55|501:55|478:113,1,116.999994644165,2|2,0:2|0:2,0:2:0:0:
404,186,28184,2,0,L|345:181,1,58.4999973220826,2|0,0:2|0:2,0:2:0:0:
276,84,28525,2,0,L|353:78,1,58.4999973220826,2|0,0:2|0:2,0:2:0:0:
240,182,28865,2,0,L|119:192,1,116.999994644165,2|0,0:2|0:2,0:2:0:0:
3,196,29377,2,0,L|9:273,1,58.4999973220826,2|0,0:2|0:2,0:2:0:0:
90,341,29718,2,0,L|84:264,1,58.4999973220826,2|0,0:2|0:2,0:2:0:0:
128,133,30059,2,0,L|122:210,1,58.4999973220826,2|0,0:2|0:2,0:2:0:0:
90,341,30400,6,0,B|146:357|146:357|203:341,1,116.999994644165,2|2,0:2|0:2,0:2:0:0:
298,177,30910,2,0,L|221:183,1,58.4999973220826,2|0,0:2|0:2,0:2:0:0:
271,279,31252,2,0,L|330:283,1,58.4999973220826,2|0,0:2|0:2,0:2:0:0:
447,164,31592,1,2,0:2:0:0:
447,164,31763,2,0,L|370:170,1,58.4999973220826,0|0,0:2|0:2,0:2:0:0:
329,283,32104,2,0,L|450:293,1,116.999994644165,2|2,0:2|0:2,0:2:0:0:
512,230,32615,1,2,0:2:0:0:
512,230,32786,1,2,0:2:0:0:
388,168,32956,1,2,0:2:0:0:
478,149,33127,6,0,B|506:106|506:106|478:26,1,135.000005149842,2|2,0:2|0:2,0:2:0:0:
323,166,33638,2,0,P|355:174|394:165,1,67.5000025749208,2|0,0:2|0:2,0:2:0:0:
358,72,33979,2,0,P|326:64|287:73,1,67.5000025749208,2|0,0:2|0:2,0:2:0:0:
193,233,34320,2,0,P|222:172|200:105,1,135.000005149842,2|0,0:2|0:2,0:2:0:0:
166,17,34830,1,2,0:2:0:0:
71,165,35002,2,0,P|104:171|137:165,1,67.5000025749208,2|0,0:2|0:2,0:2:0:0:
106,90,35343,1,2,0:2:0:0:
106,90,35513,1,2,0:2:0:0:
41,255,35684,1,2,0:2:0:0:
41,255,35854,6,0,B|106:277|106:277|170:252,1,135.000005149842,0|2,0:2|0:2,0:2:0:0:
321,192,36365,2,0,L|328:280,1,67.5000025749208,2|0,0:2|0:2,0:2:0:0:
230,174,36706,2,0,L|237:85,1,67.5000025749208,2|0,0:2|0:2,0:2:0:0:
447,99,37047,2,0,B|400:124|400:124|323:95,1,135.000005149842,2|0,0:2|0:2,0:2:0:0:
390,29,37559,1,0,0:2:0:0:
510,167,37729,2,0,L|502:255,1,67.5000025749208,0|0,0:2|0:2,0:2:0:0:
498,323,38070,1,2,0:2:0:0:
498,323,38240,1,2,0:2:0:0:
401,211,38411,1,2,1:2:0:0:
342,348,38581,6,0,P|374:355|407:347,1,67.5000025749208,0|0,1:2|0:2,0:2:0:0:
310,189,38922,1,2,0:2:0:0:
249,319,39093,2,0,P|242:351|250:384,1,67.5000025749208,2|0,0:2|0:2,0:2:0:0:
311,254,39434,2,0,P|318:222|310:189,1,67.5000025749208,2|0,0:2|0:2,0:2:0:0:
123,106,39775,1,2,0:2:0:0:
123,106,39945,2,0,P|170:119|223:102,1,101.250003862381,0|0,0:2|0:2,0:2:0:0:
251,93,40286,2,0,P|283:86|316:94,1,67.5000025749208,2|0,0:2|0:2,0:2:0:0:
398,151,40627,2,0,L|406:234,1,67.5000025749208,2|0,0:2|0:2,0:2:0:0:
310,189,40968,1,2,0:2:0:0:
323,27,41138,1,0,0:2:0:0:
323,27,41309,6,0,L|315:110,1,67.5000025749208,2|0,0:2|0:2,0:2:0:0:
214,37,41650,1,0,0:2:0:0:
214,37,41820,2,0,L|219:103,1,67.5000025749208,0|0,0:2|0:2,0:2:0:0:
124,58,42161,1,2,0:2:0:0:
124,58,42331,1,2,0:2:0:0:
72,181,42502,1,2,0:2:0:0:
72,181,42672,6,0,B|128:81|368:123|230:304|408:299,1,405.000015449525,0|0,0:2|0:0,0:0:0:0:
400,206,43865,1,8,0:2:0:0:
400,206,43951,1,8,0:2:0:0:
400,206,44036,6,0,P|410:172|401:132,1,76.5000014591217,6|0,1:2|0:2,0:2:0:0:
250,165,44377,1,2,1:2:0:0:
357,290,44547,2,0,P|394:300|431:291,1,76.5000014591217,2|0,0:2|1:2,0:2:0:0:
250,165,44888,2,0,P|216:155|176:164,1,76.5000014591217,2|0,0:2|1:2,0:2:0:0:
253,293,45229,1,2,0:2:0:0:
318,100,45400,5,0,1:2:0:0:
265,260,45570,1,0,0:2:0:0:
170,88,45740,2,0,L|177:165,1,76.5000014591217,2|0,1:2|0:2,0:2:0:0:
324,24,46081,2,0,L|318:101,1,76.5000014591217,2|0,1:2|0:2,0:2:0:0:
130,10,46422,2,0,L|137:87,1,76.5000014591217,2|0,1:2|0:2,0:2:0:0:
32,253,46763,6,0,B|0:225|0:225|52:192|107:218,1,153.000002918243,2|2,1:2|1:2,0:2:0:0:
291,271,47275,2,0,P|301:237|292:197,1,76.5000014591217,2|0,0:2|1:2,0:2:0:0:
137,86,47615,2,0,P|161:111|200:123,1,76.5000014591217,2|0,0:2|1:2,0:2:0:0:
374,45,47956,2,0,P|339:53|309:81,1,76.5000014591217,2|0,0:2|1:2,0:2:0:0:
215,235,48297,5,0,0:2:0:0:
207,40,48468,1,0,1:2:0:0:
361,149,48638,1,0,0:2:0:0:
142,162,48809,2,0,L|136:85,1,76.5000014591217,2|0,1:2|0:2,0:2:0:0:
307,233,49150,2,0,L|301:310,1,76.5000014591217,2|0,1:2|0:2,0:2:0:0:
142,162,49490,6,0,P|203:168|176:234,1,153.000002918243,2|2,1:2|1:2,0:2:0:0:
234,61,50002,2,0,P|271:51|316:64,1,76.5000014591217,2|0,0:2|1:2,0:2:0:0:
380,231,50343,2,0,P|343:241|298:228,1,76.5000014591217,2|0,0:2|1:2,0:2:0:0:
418,74,50684,1,2,0:2:0:0:
483,231,50854,6,0,L|489:308,1,76.5000014591217,0|0,1:2|0:2,0:2:0:0:
307,233,51195,2,0,L|313:156,1,76.5000014591217,2|0,1:2|0:2,0:2:0:0:
418,74,51536,2,0,L|424:151,1,76.5000014591217,2|0,1:2|0:2,0:2:0:0:
226,90,51877,2,0,L|232:13,1,76.5000014591217,2|0,1:2|0:2,0:2:0:0:
307,233,52218,6,0,B|265:268|265:268|161:225,1,153.000002918243,2|2,1:2|1:2,0:2:0:0:
226,90,52729,2,0,P|263:79|303:88,1,76.5000014591217,2|0,0:2|1:2,0:2:0:0:
497,154,53070,2,0,P|459:161|423:150,1,76.5000014591217,2|0,0:2|1:2,0:2:0:0:
300,86,53411,1,2,0:2:0:0:
369,310,53581,6,0,L|446:304,1,76.5000014591217,2|0,1:2|0:2,0:2:0:0:
498,188,53922,2,0,L|421:182,1,76.5000014591217,0|0,1:2|0:2,0:2:0:0:
196,163,54263,1,0,1:2:0:0:
265,347,54434,1,2,0:2:0:0:
314,172,54604,1,2,1:2:0:0:
151,318,54775,1,2,0:2:0:0:
109,57,54945,6,0,B|187:34|174:106|253:83,1,153.000002918243,4|2,1:2|1:2,0:2:0:0:
94,240,55456,2,0,P|57:248|18:237,1,76.5000014591217,2|0,0:2|1:2,0:2:0:0:
151,166,55797,2,0,P|176:194|186:233,1,76.5000014591217,2|0,0:2|1:2,0:2:0:0:
24,128,56138,1,2,0:2:0:0:
174,42,56309,6,0,L|251:48,1,76.5000014591217,0|0,1:2|0:2,0:2:0:0:
262,225,56650,2,0,L|185:231,1,76.5000014591217,0|0,1:2|0:2,0:2:0:0:
378,42,56991,1,0,1:2:0:0:
457,211,57161,1,2,0:2:0:0:
293,120,57331,1,2,1:2:0:0:
478,98,57502,1,2,0:2:0:0:
342,224,57672,6,0,B|289:228|289:228|248:257|248:257|197:261,1,153.000002918243,0|2,1:2|1:2,0:2:0:0:
426,218,58184,2,0,P|434:255|423:294,1,76.5000014591217,2|0,0:2|1:2,0:2:0:0:
205,159,58525,2,0,P|197:122|208:83,1,76.5000014591217,2|0,0:2|1:2,0:2:0:0:
390,137,58865,1,2,0:2:0:0:
286,286,59036,6,0,L|209:292,1,76.5000014591217,0|0,1:2|0:2,0:2:0:0:
207,85,59377,1,0,1:2:0:0:
109,246,59547,2,0,L|32:252,1,76.5000014591217,0|0,0:2|1:2,0:2:0:0:
52,69,59888,1,2,0:2:0:0:
199,198,60059,1,2,1:2:0:0:
240,3,60229,1,2,0:2:0:0:
50,100,60400,6,0,B|204:113,1,153.000002918243,0|2,1:2|1:2,0:2:0:0:
271,255,60911,2,0,P|308:263|347:252,1,76.5000014591217,2|0,0:2|1:2,0:2:0:0:
421,52,61252,1,2,0:2:0:0:
304,180,61422,1,2,1:2:0:0:
496,233,61593,2,0,P|505:196|495:158,1,76.5000014591217,2|0,0:2|1:2,0:2:0:0:
320,74,61934,5,2,0:2:0:0:
380,266,62104,1,2,1:2:0:0:
501,125,62275,2,0,L|507:48,1,76.5000014591217,2|0,0:2|1:2,0:2:0:0:
298,103,62615,2,0,L|304:180,1,76.5000014591217,2|0,0:2|1:2,0:2:0:0:
493,311,62956,1,2,0:2:0:0:
493,311,63042,1,0,1:2:0:0:
493,311,63127,6,0,P|504:273|494:228,1,80.9999975280763,6|0,1:2|0:2,0:2:0:0:
280,253,63468,2,0,P|269:291|279:336,1,80.9999975280763,2|0,1:2|0:2,0:2:0:0:
396,183,63809,1,0,1:2:0:0:
192,260,63979,1,2,0:2:0:0:
376,382,64150,2,0,P|387:344|377:299,1,80.9999975280763,0|0,1:2|0:2,0:2:0:0:
139,163,64490,6,0,L|225:170,1,80.9999975280763,10|0,1:2|0:2,0:2:0:0:
396,183,64831,1,8,1:2:0:0:
187,31,65002,1,8,1:2:0:0:
154,285,65172,1,10,0:2:0:0:
298,20,65343,1,10,0:2:0:0:
379,300,65513,1,10,0:2:0:0:
139,125,65684,1,2,1:2:0:0:
438,51,65854,6,0,P|449:89|440:127,1,76.5000014591217,4|2,1:2|1:2,0:2:0:0:
273,227,66195,1,2,0:2:0:0:
267,30,66365,2,0,P|305:19|343:28,1,76.5000014591217,2|8,1:2|0:2,0:2:0:0:
373,208,66706,1,2,1:2:0:0:
169,102,66877,1,2,0:2:0:0:
217,322,67047,1,2,1:2:0:0:
217,322,67388,5,2,1:2:0:0:
300,136,67559,1,2,0:2:0:0:
106,174,67729,1,2,1:2:0:0:
306,317,67900,2,0,L|313:230,1,76.5000014591217,8|2,0:2|1:2,0:2:0:0:
196,78,68240,1,2,0:2:0:0:
112,265,68411,1,10,0:2:0:0:
112,265,68496,1,8,0:2:0:0:
112,265,68581,6,0,P|75:276|39:269,1,76.5000014591217,2|2,1:2|1:2,0:2:0:0:
92,78,68922,1,2,0:2:0:0:
204,235,69093,1,2,1:2:0:0:
293,57,69263,2,0,P|330:46|366:53,1,76.5000014591217,10|2,0:2|1:2,0:2:0:0:
372,236,69604,1,2,0:2:0:0:
200,82,69775,1,2,1:2:0:0:
200,82,70115,6,0,B|223:162|148:149|172:230,1,153.000002918243,6|0,1:2|1:2,0:2:0:0:
333,141,70627,1,10,0:2:0:0:
342,320,70797,1,2,0:2:0:0:
468,185,70968,1,10,0:2:0:0:
266,201,71138,1,2,0:2:0:0:
436,339,71309,6,0,P|447:302|440:266,1,76.5000014591217,4|2,1:2|1:2,0:2:0:0:
334,107,71650,1,2,0:2:0:0:
270,286,71820,2,0,P|307:297|343:290,1,76.5000014591217,2|8,1:2|0:2,0:2:0:0:
240,113,72161,1,2,1:2:0:0:
170,280,72331,1,2,0:2:0:0:
104,69,72502,1,2,1:2:0:0:
104,69,72843,5,2,1:2:0:0:
221,207,73013,1,2,1:2:0:0:
190,30,73184,1,0,0:0:0:0:
57,192,73354,1,8,0:2:0:0:
266,91,73525,1,2,1:2:0:0:
24,30,73695,1,10,0:0:0:0:
16,47,73780,1,8,0:0:0:0:
14,66,73865,1,10,0:0:0:0:
15,85,73950,1,8,0:0:0:0:
22,103,74036,6,0,P|61:113|104:102,1,80.9999975280763,6|0,1:2|1:2,0:2:0:0:
141,291,74377,2,0,P|102:301|59:290,1,80.9999975280763,10|0,0:2|0:2,0:2:0:0:
32,273,74632,1,0,1:2:0:0:
32,273,74718,2,0,L|23:179,1,80.9999975280763,2|0,1:2|1:2,0:2:0:0:
193,93,75059,2,0,L|184:186,1,80.9999975280763,10|2,0:2|1:2,0:2:0:0:
104,69,75400,5,2,1:2:0:0:
321,70,75570,1,0,1:2:0:0:
221,256,75740,2,0,P|182:266|139:255,1,80.9999975280763,10|0,0:2|1:2,0:2:0:0:
322,155,76081,2,0,P|350:183|362:226,1,80.9999975280763,2|0,1:2|1:2,0:2:0:0:
183,113,76422,2,0,P|193:74|224:42,1,80.9999975280763,10|8,0:2|0:2,0:2:0:0:
261,32,76678,1,8,0:2:0:0:
261,32,76763,6,0,L|355:40,1,90,6|0,1:2|1:2,0:2:0:0:
451,214,77104,2,0,L|360:221,1,90,8|2,0:2|1:2,0:2:0:0:
319,228,77360,1,8,0:2:0:0:
319,228,77445,2,0,P|304:269|315:312,1,90,2|0,1:2|1:2,0:2:0:0:
496,149,77786,2,0,P|511:111|497:64,1,90,10|0,0:2|1:2,0:2:0:0:
469,36,78042,1,8,0:2:0:0:
469,36,78127,6,0,L|375:27,1,90,2|0,1:2|1:2,0:2:0:0:
180,234,78468,2,0,L|270:227,1,90,8|2,0:2|1:2,0:2:0:0:
319,228,78724,1,8,0:2:0:0:
319,228,78809,2,0,P|330:186|317:137,1,90,2|0,1:2|1:2,0:2:0:0:
67,97,79150,2,0,P|55:139|68:185,1,90,8|0,0:2|1:2,0:2:0:0:
327,341,79490,5,14,0:2:0:0:
169,119,79661,1,0,1:2:0:0:
151,373,79831,1,0,1:2:0:0:
334,119,80002,5,10,0:2:0:0:
92,249,80172,1,0,1:2:0:0:
335,308,80343,1,0,1:2:0:0:
171,86,80513,5,14,0:2:0:0:
174,345,80684,1,0,1:2:0:0:
375,126,80854,1,8,0:2:0:0:
375,126,80939,1,0,1:2:0:0:
375,126,81025,2,0,L|370:181,1,45,8|8,0:2|0:2,0:2:0:0:
231,237,81195,1,8,0:2:0:0:
231,237,81280,1,0,1:2:0:0:
231,237,81365,2,0,L|226:183,1,45,8|8,0:2|0:2,0:2:0:0:
113,43,81536,5,10,0:2:0:0:
130,71,81621,1,8,0:2:0:0:
140,103,81706,1,8,0:2:0:0:
135,136,81791,1,8,0:2:0:0:
120,166,81876,1,10,0:2:0:0:
104,196,81962,1,8,0:2:0:0:
100,229,82047,1,8,0:2:0:0:
110,261,82132,1,8,0:2:0:0:
128,290,82218,6,0,B|227:319|211:226|312:255,1,198.000006042481,6|8,1:2|0:2,0:2:0:0:
32,355,82729,1,2,1:2:0:0:
32,355,82814,1,8,0:2:0:0:
32,355,82900,2,0,L|23:253,1,99.0000030212403,2|0,1:2|1:2,0:2:0:0:
319,187,83240,2,0,L|310:288,1,99.0000030212403,8|0,0:2|0:2,0:2:0:0:
138,82,83581,5,0,1:2:0:0:
382,52,83752,1,0,1:2:0:0:
207,217,83922,2,0,P|162:229|113:213,1,99.0000030212403,10|0,0:2|1:2,0:2:0:0:
75,189,84178,1,8,0:2:0:0:
75,189,84263,1,2,1:2:0:0:
212,30,84434,1,0,1:2:0:0:
313,254,84604,2,0,P|358:266|407:250,1,99.0000030212403,10|0,0:2|1:2,0:2:0:0:
475,187,84860,1,8,0:2:0:0:
475,187,84945,6,0,B|433:231|433:231|482:365,1,198.000006042481,2|8,1:2|0:2,0:2:0:0:
357,170,85456,1,2,0:2:0:0:
267,350,85627,2,0,L|168:359,1,99.0000030212403,2|0,1:2|1:2,0:2:0:0:
23,255,85968,1,8,0:2:0:0:
241,147,86138,1,2,1:2:0:0:
241,147,86223,1,0,1:2:0:0:
241,147,86309,6,0,P|256:196|240:242,1,99.0000030212403,2|0,1:2|1:2,0:2:0:0:
31,150,86650,2,0,P|16:101|32:55,1,99.0000030212403,10|0,0:2|1:2,0:2:0:0:
290,66,86990,1,2,1:2:0:0:
124,262,87161,1,0,1:2:0:0:
129,17,87331,1,10,0:2:0:0:
273,262,87502,1,8,0:2:0:0:
273,262,87587,1,8,0:2:0:0:
273,262,87672,6,0,B|313:285|356:263|356:263|376:278|376:278|418:257|459:279,1,198.000006042481,6|8,1:2|0:2,0:2:0:0:
323,81,88184,1,2,1:2:0:0:
323,81,88269,1,8,0:2:0:0:
323,81,88354,2,0,L|314:179,1,99.0000030212403,2|0,1:2|1:2,0:2:0:0:
510,205,88695,2,0,L|501:98,1,99.0000030212403,8|2,0:2|1:2,0:2:0:0:
428,5,88951,1,8,0:2:0:0:
428,5,89036,6,0,B|362:11|362:11|310:51|310:51|242:56,1,198.000006042481,2|10,1:2|0:2,0:2:0:0:
406,198,89547,1,0,1:2:0:0:
406,198,89632,1,8,0:2:0:0:
406,198,89718,2,0,P|422:151|409:102,1,99.0000030212403,2|0,1:2|1:2,0:2:0:0:
215,177,90059,1,10,0:2:0:0:
361,290,90229,1,0,1:2:0:0:
361,290,90314,1,8,0:2:0:0:
361,290,90400,6,0,L|465:280,1,99.0000030212403,2|0,1:2|1:2,0:2:0:0:
167,309,90740,1,10,0:2:0:0:
307,189,90911,2,0,L|410:198,1,99.0000030212403,2|0,1:2|1:2,0:2:0:0:
212,96,91252,1,10,1:2:0:0:
212,96,91337,1,8,0:2:0:0:
212,96,91422,2,0,L|217:148,1,49.5000015106202,10|0,0:2|1:0,0:0:0:0:
264,319,91593,6,0,B|334:354|405:313|405:313|361:290,1,198.000006042481,14|0,0:2|1:2,0:2:0:0:
122,234,92104,2,0,P|108:189|124:141,1,99.0000030212403,8|0,0:2|1:2,0:2:0:0:
372,39,92445,2,0,P|386:84|370:132,1,99.0000030212403,10|8,0:2|0:2,0:2:0:0:
292,191,92701,1,8,0:2:0:0:
292,191,92786,2,0,P|247:205|199:189,1,99.0000030212403,2|8,1:2|0:2,0:2:0:0:
180,25,93041,1,8,0:2:0:0:
180,25,93127,6,0,B|225:5|277:22|277:22|281:76|248:117,1,198.000006042481,6|8,1:2|0:2,0:2:0:0:
126,267,93638,1,2,1:2:0:0:
51,122,93809,2,0,L|160:112,1,99.0000030212403,2|0,1:2|1:2,0:2:0:0:
25,241,94150,1,8,0:2:0:0:
221,300,94320,1,0,1:2:0:0:
221,300,94405,1,0,1:2:0:0:
221,300,94490,6,0,B|213:248|213:248|236:208|236:208|217:158|251:114,1,198.000006042481,0|10,1:2|0:2,0:2:0:0:
420,172,95002,1,0,1:2:0:0:
420,172,95087,1,8,0:2:0:0:
420,172,95172,2,0,P|374:188|327:177,1,99.0000030212403,2|0,1:2|1:2,0:2:0:0:
197,32,95513,2,0,P|244:16|292:28,1,99.0000030212403,10|0,0:2|1:2,0:2:0:0:
200,218,95854,6,0,B|100:247|116:154|15:183,1,198.000006042481,2|8,1:2|0:2,0:2:0:0:
275,342,96365,1,2,1:2:0:0:
275,342,96451,1,0,1:2:0:0:
275,342,96536,2,0,L|283:239,1,99.0000030212403,2|0,1:2|1:2,0:2:0:0:
158,42,96877,2,0,L|166:144,1,99.0000030212403,10|0,0:2|0:2,0:2:0:0:
433,43,97218,6,0,P|370:17|294:42,1,148.50000453186,2|0,1:2|0:2,0:2:0:0:
254,67,97559,1,14,0:2:0:0:
375,215,97729,2,0,P|387:261|367:319,1,99.0000030212403,2|0,0:2|1:0,0:2:0:0:
165,366,98070,1,10,1:2:0:0:
128,367,98155,1,8,0:2:0:0:
94,352,98240,1,8,0:2:0:0:
72,323,98326,1,8,1:2:0:0:
66,286,98410,1,10,1:2:0:0:
78,252,98496,1,8,0:2:0:0:
106,226,98581,6,0,L|201:217,1,90,4|0,1:2|0:2,0:2:0:0:
468,216,98922,2,0,P|477:259|461:310,1,90,0|0,1:2|0:2,0:2:0:0:
302,203,99263,2,0,P|333:173|386:161,1,90,0|0,1:2|0:2,0:2:0:0:
374,354,99604,2,0,P|333:343|296:304,1,90,2|2,1:2|0:2,0:2:0:0:
499,135,99945,6,0,B|526:228|439:212|467:307,1,180,2|2,1:2|1:2,0:2:0:0:
300,72,100456,2,0,L|396:63,1,90,2|0,0:2|1:2,0:2:0:0:
302,203,100797,2,0,L|205:194,1,90,2|0,0:2|1:2,0:2:0:0:
149,46,101138,1,10,0:2:0:0:
149,46,101223,1,8,0:2:0:0:
149,46,101309,6,0,P|208:102|175:187,1,180,4|0,1:2|1:2,0:2:0:0:
12,244,101820,1,8,1:2:0:0:
141,357,101990,2,0,P|185:367|230:355,1,90,0|0,1:2|0:2,0:2:0:0:
337,201,102331,1,0,1:2:0:0:
147,179,102502,1,0,1:2:0:0:
147,179,102587,1,0,1:2:0:0:
147,179,102672,6,0,L|138:276,1,90,14|0,0:2|1:2,0:2:0:0:
358,305,103013,1,0,1:2:0:0:
246,83,103184,1,8,1:2:0:0:
229,276,103354,2,0,L|233:227,1,45,8|8,0:0|0:0,0:0:0:0:
375,99,103525,1,8,0:2:0:0:
375,99,103610,1,8,0:2:0:0:
375,99,103695,1,8,0:2:0:0:
156,36,103865,1,2,1:2:0:0:
156,36,103951,1,0,1:2:0:0:
156,36,104036,6,0,P|142:79|152:125,1,90,6|0,1:2|1:2,0:2:0:0:
178,164,104292,1,0,1:2:0:0:
178,164,104377,1,10,0:2:0:0:
389,15,104547,5,6,1:2:0:0:
389,15,104888,1,2,1:2:0:0:
355,268,105059,1,8,0:2:0:0:
236,39,105229,5,6,1:2:0:0:
236,39,105570,1,0,1:2:0:0:
467,144,105740,1,8,0:2:0:0:
200,205,105911,2,0,L|191:102,1,90,4|0,1:2|0:2,0:2:0:0:
475,54,106252,2,0,L|466:156,1,90,0|8,1:2|0:2,0:2:0:0:
376,337,106593,1,0,1:2:0:0:
376,337,106678,1,0,1:2:0:0:
376,337,106763,5,6,1:2:0:0:
288,172,106934,1,0,1:2:0:0:
195,321,107104,1,2,1:2:0:0:
368,116,107275,1,2,1:2:0:0:
283,357,107445,5,8,1:2:0:0:
235,95,107615,1,10,1:2:0:0:
375,307,107786,1,8,1:2:0:0:
504,11,107956,1,10,0:2:0:0:
489,203,109150,5,8,0:2:0:0:
476,221,109235,1,8,0:2:0:0:
463,240,109320,1,8,0:2:0:0:
450,259,109405,1,8,0:2:0:0:
434,276,109490,6,0,B|340:303|356:216|262:244,1,180,6|10,1:2|0:2,0:2:0:0:
121,336,110002,2,0,P|165:349|210:338,1,90,2|0,0:2|1:2,0:2:0:0:
114,164,110343,2,0,P|80:195|67:240,1,90,2|8,0:2|0:2,0:2:0:0:
266,243,110684,2,0,P|255:198|223:164,1,90,2|0,0:2|1:2,0:2:0:0:
22,123,111025,1,0,0:2:0:0:
170,244,111195,5,8,0:2:0:0:
211,38,111366,2,0,L|117:29,1,90,2|0,0:2|1:2,0:2:0:0:
227,166,111706,2,0,L|321:157,1,90,2|8,0:2|0:2,0:2:0:0:
394,31,112047,1,0,1:2:0:0:
394,31,112133,1,0,1:2:0:0:
394,31,112218,6,0,B|399:90|399:90|435:138|435:138|440:200,1,180,2|8,1:2|0:2,0:2:0:0:
253,192,112729,2,0,P|297:181|339:192,1,90,2|0,0:2|1:2,0:2:0:0:
428,356,113070,2,0,P|396:323|385:281,1,90,2|8,0:2|0:2,0:2:0:0:
484,124,113411,2,0,P|471:167|441:198,1,90,2|0,0:2|1:2,0:2:0:0:
284,79,113752,1,0,0:2:0:0:
385,281,113922,1,8,0:2:0:0:
382,65,114093,6,0,L|378:109,1,45,0|0,1:2|1:2,0:2:0:0:
281,281,114263,1,2,1:2:0:0:
325,3,114434,1,2,0:2:0:0:
440,199,114604,1,10,0:2:0:0:
197,65,114775,1,10,0:2:0:0:
197,65,114860,1,8,0:2:0:0:
197,65,114945,6,0,B|155:53|155:53|113:71|113:71|69:50|24:78,1,180,6|10,1:2|0:2,0:2:0:0:
202,302,115457,2,0,L|211:209,1,90,2|0,0:2|1:2,0:2:0:0:
11,161,115797,2,0,L|20:254,1,90,2|8,0:2|0:2,0:2:0:0:
224,114,116138,2,0,L|233:21,1,90,2|0,0:2|1:2,0:2:0:0:
342,211,116479,1,0,0:2:0:0:
233,24,116650,6,0,L|277:20,1,45,10|0,0:2|0:2,0:2:0:0:
429,19,116820,2,0,P|440:63|429:105,1,90,2|0,0:2|1:2,0:2:0:0:
295,285,117161,1,2,0:2:0:0:
356,64,117332,1,8,0:2:0:0:
494,252,117502,1,0,1:2:0:0:
494,252,117587,1,0,1:2:0:0:
494,252,117672,6,0,B|457:272|418:252|418:252|400:266|400:266|362:247|324:267,1,180,2|8,1:2|0:2,0:2:0:0:
163,62,118184,1,2,0:2:0:0:
108,295,118354,1,8,0:2:0:0:
108,295,118439,1,8,0:2:0:0:
108,295,118525,2,0,P|149:305|195:291,1,90,2|8,1:2|0:2,0:2:0:0:
275,59,118866,6,0,P|265:100|279:146,1,90,14|0,0:2|0:2,0:2:0:0:
413,316,119207,1,0,1:2:0:0:
351,100,119377,1,8,1:2:0:0:
194,292,119547,1,8,0:2:0:0:
432,219,119718,1,8,0:0:0:0:
233,149,119888,5,8,0:0:0:0:
233,149,119973,1,8,0:0:0:0:
233,149,120059,2,0,L|284:144,1,45,8|8,0:2|0:2,0:2:0:0:
440,66,120229,1,8,0:2:0:0:
440,66,120314,1,8,0:2:0:0:
440,66,120400,6,0,L|360:59,1,76.5000014591217,6|0,1:2|1:2,0:2:0:0:
238,44,120740,1,10,0:2:0:0:
319,220,120911,2,0,L|399:213,1,76.5000014591217,2|0,0:2|1:2,0:2:0:0:
164,149,121252,2,0,L|84:142,1,76.5000014591217,2|8,1:2|0:2,0:2:0:0:
225,323,121593,1,2,0:2:0:0:
256,138,121763,5,0,1:2:0:0:
120,275,121934,1,0,1:2:0:0:
316,294,122104,2,0,P|326:257|316:212,1,76.5000014591217,10|0,0:2|0:2,0:2:0:0:
194,98,122445,2,0,P|221:125|265:139,1,76.5000014591217,2|0,1:2|1:2,0:2:0:0:
424,93,122786,2,0,P|386:102|352:134,1,76.5000014591217,10|0,0:2|0:2,0:2:0:0:
390,254,123127,6,0,P|427:265|421:182,1,153.000002918243,2|10,1:2|0:2,0:2:0:0:
240,288,123638,2,0,L|322:295,1,76.5000014591217,2|0,0:2|1:2,0:2:0:0:
194,98,123979,2,0,L|111:105,1,76.5000014591217,2|8,1:2|0:2,0:2:0:0:
42,272,124320,2,0,L|124:279,1,76.5000014591217,2|0,0:2|1:2,0:2:0:0:
214,190,124661,5,0,1:2:0:0:
114,362,124831,1,8,0:2:0:0:
90,192,125002,1,0,0:2:0:0:
244,354,125172,2,0,P|283:363|318:354,1,76.5000014591217,2|0,1:2|1:2,0:2:0:0:
287,190,125513,2,0,P|248:181|213:190,1,76.5000014591217,10|0,0:2|0:2,0:2:0:0:
399,199,125854,6,0,B|394:146|394:146|365:105|365:105|361:54,1,153.000002918243,2|10,1:2|0:2,0:2:0:0:
214,190,126365,2,0,L|135:196,1,76.5000014591217,2|0,0:2|1:2,0:2:0:0:
65,10,126706,2,0,L|143:16,1,76.5000014591217,2|8,1:2|0:2,0:2:0:0:
285,108,127048,1,2,0:2:0:0:
138,196,127218,6,0,P|128:158|138:122,1,76.5000014591217,0|0,1:2|1:2,0:2:0:0:
263,4,127559,2,0,P|273:42|263:78,1,76.5000014591217,10|0,0:2|0:2,0:2:0:0:
99,34,127900,2,0,P|137:24|173:34,1,76.5000014591217,2|0,1:2|1:2,0:2:0:0:
293,163,128241,2,0,P|255:173|219:163,1,76.5000014591217,10|0,0:2|0:2,0:2:0:0:
458,114,128581,6,0,B|490:142|490:142|434:174|378:146,1,153.000002918243,2|10,1:2|0:2,0:2:0:0:
263,77,129093,2,0,L|339:70,1,76.5000014591217,2|0,0:2|1:2,0:2:0:0:
415,254,129434,2,0,L|338:247,1,76.5000014591217,2|8,1:2|0:2,0:2:0:0:
384,149,129775,1,2,0:2:0:0:
497,223,129945,6,0,P|507:261|497:297,1,76.5000014591217,2|0,1:2|1:2,0:2:0:0:
260,287,130286,2,0,P|250:249|260:213,1,76.5000014591217,8|0,0:2|0:2,0:2:0:0:
458,114,130627,1,0,1:2:0:0:
415,254,130798,1,2,1:2:0:0:
294,98,130968,1,10,0:2:0:0:
294,98,131053,1,8,0:2:0:0:
294,98,131138,1,10,0:2:0:0:
294,98,131223,1,8,0:2:0:0:
294,98,131309,6,0,P|224:135|154:117,1,153.000002918243,4|10,1:2|0:2,0:2:0:0:
358,37,131820,1,2,1:2:0:0:
358,37,131905,1,8,0:2:0:0:
358,37,131990,1,0,1:2:0:0:
383,198,132161,2,0,L|292:205,1,76.5000014591217,2|8,1:2|0:2,0:2:0:0:
216,38,132502,1,2,0:2:0:0:
444,64,132672,6,0,P|454:102|444:138,1,76.5000014591217,0|0,1:2|1:2,0:2:0:0:
225,241,133013,2,0,P|215:203|225:167,1,76.5000014591217,8|0,0:2|1:2,0:2:0:0:
412,223,133355,1,0,1:2:0:0:
265,346,133525,1,2,0:2:0:0:
320,172,133695,1,10,0:2:0:0:
366,323,133866,1,2,1:2:0:0:
197,259,134036,6,0,B|162:217|162:217|205:113,1,153.000002918243,0|10,1:2|0:2,0:2:0:0:
265,346,134547,2,0,L|183:353,1,76.5000014591217,2|0,1:2|1:2,0:2:0:0:
86,210,134888,2,0,L|167:217,1,76.5000014591217,2|8,1:2|0:2,0:2:0:0:
10,275,135229,1,2,0:2:0:0:
35,117,135400,6,0,P|73:107|109:117,1,76.5000014591217,0|0,1:2|1:2,0:2:0:0:
162,217,135741,1,8,0:2:0:0:
281,98,135911,2,0,P|291:60|281:24,1,76.5000014591217,0|0,1:2|1:2,0:2:0:0:
193,60,136252,1,2,0:2:0:0:
305,189,136423,1,10,0:2:0:0:
281,98,136593,1,2,0:2:0:0:
162,216,136763,6,0,B|240:238|227:166|306:189,1,153.000002918243,0|10,1:2|0:2,0:2:0:0:
193,60,137275,2,0,L|185:141,1,76.5000014591217,2|0,1:2|1:2,0:2:0:0:
160,297,137616,1,2,1:2:0:0:
305,189,137786,1,10,0:2:0:0:
320,356,137956,2,0,L|239:364,1,76.5000014591217,2|0,0:2|1:2,0:2:0:0:
218,218,138297,5,2,0:2:0:0:
374,263,138468,1,10,0:2:0:0:
340,111,138638,2,0,P|302:101|266:111,1,76.5000014591217,2|0,1:2|1:2,0:2:0:0:
374,263,138979,2,0,P|412:273|448:263,1,76.5000014591217,2|8,0:2|0:2,0:2:0:0:
474,89,139320,1,2,1:2:0:0:
474,89,139405,1,0,1:2:0:0:
474,89,139490,6,0,L|466:170,1,80.9999975280763,6|0,1:2|1:2,0:2:0:0:
440,366,139831,1,10,0:2:0:0:
301,220,140002,1,0,1:2:0:0:
301,220,140087,1,8,0:2:0:0:
301,220,140172,2,0,L|220:212,1,80.9999975280763,0|2,1:2|1:2,0:2:0:0:
316,73,140513,5,8,0:2:0:0:
219,300,140684,1,0,1:2:0:0:
187,34,140854,5,10,0:2:0:0:
310,253,141025,1,0,1:2:0:0:
268,0,141195,5,8,0:2:0:0:
136,250,141365,1,0,1:2:0:0:
401,146,141536,5,10,0:2:0:0:
401,146,141621,1,0,1:2:0:0:
401,146,141706,2,0,L|352:141,1,40.4999987640381,10|8,0:2|0:2,0:2:0:0:
155,125,141877,1,10,0:2:0:0:
296,343,142047,1,2,1:2:0:0:
296,343,142132,1,0,1:2:0:0:
296,343,142218,6,0,P|331:353|375:341,1,76.5000014591217,4|2,1:2|1:2,0:2:0:0:
268,165,142559,1,2,0:2:0:0:
163,319,142729,2,0,P|125:330|87:321,1,76.5000014591217,2|8,1:2|0:2,0:2:0:0:
124,128,143070,1,2,1:2:0:0:
240,262,143241,1,2,0:2:0:0:
6,255,143411,1,2,1:2:0:0:
6,255,143752,6,0,L|-1:168,1,76.5000014591217,2|2,1:2|0:2,0:2:0:0:
155,125,144093,1,2,1:2:0:0:
87,243,144263,1,10,0:2:0:0:
70,42,144434,1,2,1:2:0:0:
227,194,144604,1,2,0:2:0:0:
230,28,144775,1,10,0:2:0:0:
230,28,144860,1,8,0:2:0:0:
230,28,144945,6,0,P|193:17|157:24,1,76.5000014591217,2|2,1:2|1:2,0:2:0:0:
347,184,145286,1,2,0:2:0:0:
320,16,145457,1,2,1:2:0:0:
191,123,145627,2,0,P|180:160|187:196,1,76.5000014591217,10|2,0:2|1:2,0:2:0:0:
374,263,145968,1,2,0:2:0:0:
150,363,146139,1,2,1:2:0:0:
150,363,146479,6,0,B|124:325|124:325|237:315,1,153.000002918243,6|0,1:2|1:2,0:2:0:0:
103,229,146990,1,10,0:2:0:0:
297,364,147161,1,2,0:2:0:0:
205,121,147331,1,10,1:2:0:0:
356,237,147502,6,0,P|401:247|449:229,1,90,2|2,0:2|0:2,0:0:0:0:
400,151,148013,1,2,0:2:0:0:
400,151,148184,2,0,P|355:141|307:159,1,90,2|2,0:2|0:2,0:0:0:0:
263,231,148695,1,2,0:2:0:0:
208,158,148865,1,2,0:2:0:0:
208,158,149206,5,2,0:2:0:0:
172,236,149376,1,2,0:2:0:0:
208,314,149547,2,0,L|256:318,1,45,2|0,0:2|0:2,0:2:0:0:
337,330,149888,2,0,L|334:362,2,22.5,2|0|2,0:2|0:2|0:2,0:2:0:0:
389,263,150229,1,2,0:2:0:0:
389,263,150400,6,0,P|398:229|392:196,1,67.5000025749208,6|0,1:2|0:2,0:2:0:0:
243,133,150740,2,0,P|267:157|299:169,1,67.5000025749208,2|0,1:2|0:2,0:2:0:0:
428,71,151081,2,0,P|394:80|368:101,1,67.5000025749208,2|0,1:2|0:2,0:2:0:0:
301,260,151422,1,2,1:2:0:0:
448,174,151593,1,2,0:2:0:0:
289,55,151763,6,0,L|198:47,1,76.5000014591217,2|0,1:2|0:2,0:2:0:0:
140,236,152104,2,0,L|230:228,1,76.5000014591217,2|0,1:2|0:2,0:2:0:0:
112,69,152445,2,0,L|21:61,1,76.5000014591217,2|0,1:2|0:2,0:2:0:0:
26,258,152786,1,2,1:2:0:0:
174,145,152956,1,8,0:2:0:0:
174,145,153042,1,8,0:2:0:0:
174,145,153127,6,0,P|216:134|261:150,1,90,6|0,1:2|0:2,0:2:0:0:
352,362,153468,1,2,1:2:0:0:
215,228,153638,1,0,0:2:0:0:
430,175,153809,2,0,P|441:217|426:266,1,90,2|0,1:2|0:2,0:2:0:0:
215,314,154150,2,0,P|203:274|215:229,1,90,2|0,1:2|0:2,0:2:0:0:
430,175,154490,6,0,L|340:182,1,90,2|0,1:2|1:2,0:2:0:0:
434,92,154831,1,0,1:2:0:0:
429,261,155002,1,2,1:2:0:0:
258,148,155172,2,0,L|248:55,1,90,2|0,1:2|1:2,0:2:0:0:
152,268,155513,2,0,L|160:174,1,90,0|0,1:2|1:2,0:2:0:0:
167,137,155769,1,0,1:2:0:0:
167,137,155854,5,14,0:2:0:0:
215,355,156025,1,0,1:2:0:0:
29,198,156195,1,0,1:2:0:0:
309,142,156365,5,10,0:2:0:0:
123,289,156536,1,0,1:2:0:0:
171,27,156706,1,0,1:2:0:0:
314,253,156877,5,14,0:2:0:0:
54,177,157047,1,0,1:2:0:0:
263,21,157218,1,8,0:2:0:0:
263,21,157303,1,0,1:2:0:0:
263,21,157388,2,0,L|267:73,1,45,8|8,0:2|0:2,0:2:0:0:
322,260,157559,1,8,0:2:0:0:
322,260,157644,1,8,0:2:0:0:
322,260,157729,2,0,L|326:207,1,45,8|8,0:2|0:2,0:2:0:0:
425,50,157900,6,0,P|459:43|492:50,1,67.5,2|0,1:2|0:2,0:2:0:0:
465,167,158240,6,0,P|436:136|478:138,1,101.250003862381,2|0,0:2|0:2,0:2:0:0:
456,146,158581,6,0,B|484:244|391:229|420:330,1,198.000006042481,6|8,1:2|0:2,0:2:0:0:
295,58,159093,1,2,1:2:0:0:
295,58,159178,1,8,0:2:0:0:
295,58,159264,2,0,L|397:49,1,99.0000030212403,2|0,1:2|1:2,0:2:0:0:
306,277,159604,2,0,L|205:268,1,99.0000030212403,8|0,0:2|0:2,0:2:0:0:
144,81,159945,5,0,1:2:0:0:
322,188,160116,1,0,1:2:0:0:
126,311,160286,2,0,P|114:266|130:217,1,99.0000030212403,10|0,0:2|1:2,0:2:0:0:
165,182,160542,1,8,0:2:0:0:
165,182,160627,1,2,1:2:0:0:
254,361,160798,1,0,1:2:0:0:
350,180,160968,2,0,P|395:168|444:184,1,99.0000030212403,10|0,0:2|1:2,0:2:0:0:
458,371,161224,1,8,0:2:0:0:
458,371,161309,6,0,B|471:324|471:324|451:278|451:278|474:229|442:181,1,198.000006042481,2|8,1:2|0:2,0:2:0:0:
319,54,161820,1,2,0:2:0:0:
240,272,161991,2,0,L|339:280,1,99.0000030212403,2|0,1:2|1:2,0:2:0:0:
187,94,162332,1,8,0:2:0:0:
133,331,162502,1,2,1:2:0:0:
133,331,162587,1,0,1:2:0:0:
133,331,162673,6,0,P|86:345|38:330,1,99.0000030212403,2|0,1:2|1:2,0:2:0:0:
0,164,163013,2,0,P|48:151|95:165,1,99.0000030212403,10|0,0:2|1:2,0:2:0:0:
274,276,163354,1,2,1:2:0:0:
192,63,163525,1,0,1:2:0:0:
92,252,163695,1,10,0:2:0:0:
371,194,163866,1,8,0:2:0:0:
371,194,163951,1,8,0:2:0:0:
371,194,164036,6,0,B|406:122|364:50|364:50|341:95,1,198.000006042481,6|8,1:2|0:2,0:2:0:0:
282,284,164548,1,2,1:2:0:0:
282,284,164633,1,8,0:2:0:0:
282,284,164718,2,0,L|174:275,1,99.0000030212403,2|0,1:2|1:2,0:2:0:0:
142,30,165059,2,0,L|249:21,1,99.0000030212403,8|2,0:2|1:2,0:2:0:0:
311,88,165315,1,8,0:2:0:0:
311,88,165400,6,0,B|342:126|338:180|338:180|286:197|241:177,1,198.000006042481,2|10,1:2|0:2,0:2:0:0:
15,132,165911,1,0,1:2:0:0:
15,132,165996,1,8,0:2:0:0:
15,132,166082,2,0,P|62:116|111:129,1,99.0000030212403,2|0,1:2|1:2,0:2:0:0:
250,276,166423,1,10,0:2:0:0:
55,313,166593,1,0,1:2:0:0:
55,313,166678,1,8,0:2:0:0:
55,313,166764,6,0,L|65:209,1,99.0000030212403,2|0,1:2|1:2,0:2:0:0:
225,53,167104,1,10,0:2:0:0:
250,276,167275,2,0,L|241:173,1,99.0000030212403,2|8,1:2|1:2,0:2:0:0:
101,47,167616,1,2,1:2:0:0:
101,47,167701,1,8,0:2:0:0:
101,47,167786,2,0,L|105:96,1,49.5000015106202,10|0,0:2|1:2,0:2:0:0:
147,260,167956,6,0,B|187:283|230:261|230:261|250:276|250:276|292:255|333:277,1,198.000006042481,6|0,0:2|1:2,0:2:0:0:
432,27,168468,2,0,P|387:14|337:26,1,99.0000030212403,8|0,0:2|1:2,0:2:0:0:
205,176,168809,1,10,1:2:0:0:
449,270,168979,1,8,0:2:0:0:
488,241,169064,1,8,0:2:0:0:
504,195,169149,1,10,1:2:0:0:
493,147,169234,1,8,0:2:0:0:
458,114,169319,1,8,0:2:0:0:
410,105,169405,1,8,0:2:0:0:
365,123,169490,6,0,B|299:117|299:117|247:77|247:77|179:72,1,198.000006042481,6|8,1:2|0:2,0:2:0:0:
180,288,170002,1,2,1:2:0:0:
356,222,170173,2,0,L|366:113,1,99.0000030212403,2|0,1:2|1:2,0:2:0:0:
183,35,170514,1,8,0:2:0:0:
147,209,170684,1,0,1:2:0:0:
147,209,170769,1,0,1:2:0:0:
147,209,170854,6,0,B|246:179|230:272|331:243,1,198.000006042481,0|10,1:2|0:2,0:2:0:0:
366,44,171366,1,0,1:2:0:0:
366,44,171451,1,8,0:2:0:0:
366,44,171536,2,0,P|350:91|362:139,1,99.0000030212403,2|0,1:2|1:2,0:2:0:0:
509,274,171877,2,0,P|476:236|428:223,1,99.0000030212403,10|0,0:2|1:2,0:2:0:0:
168,309,172218,6,0,P|266:310|334:237,1,198.000006042481,2|8,1:2|0:2,0:2:0:0:
65,71,172729,1,2,1:2:0:0:
65,71,172815,1,0,1:2:0:0:
65,71,172900,2,0,L|57:174,1,99.0000030212403,2|0,1:2|1:2,0:2:0:0:
248,102,173241,2,0,L|240:0,1,99.0000030212403,10|0,0:2|0:2,0:2:0:0:
128,231,173582,6,0,B|170:268|170:268|253:228,1,148.50000453186,2|0,1:2|0:2,0:2:0:0:
296,204,173922,1,14,0:2:0:0:
394,291,174093,1,2,0:2:0:0:
475,188,174263,1,0,1:2:0:0:
475,188,174348,1,0,1:2:0:0:
475,188,174434,1,10,1:2:0:0:
498,216,174519,1,8,0:2:0:0:
509,251,174604,1,8,0:2:0:0:
508,288,174689,1,8,1:2:0:0:
495,323,174774,1,10,1:2:0:0:
471,350,174860,1,8,0:2:0:0:
438,368,174945,6,0,P|393:378|349:369,1,90,4|0,1:2|0:2,0:2:0:0:
179,301,175286,2,0,P|223:311|267:302,1,90,0|0,1:2|0:2,0:2:0:0:
436,211,175627,2,0,P|391:221|347:212,1,90,0|0,1:2|0:2,0:2:0:0:
176,143,175968,2,0,P|220:153|264:144,1,90,2|2,1:2|0:2,0:2:0:0:
407,92,176309,6,0,B|315:113|330:30|236:54,1,180,2|2,1:2|1:2,0:2:0:0:
256,234,176820,2,0,L|264:137,1,90,2|0,0:2|1:2,0:2:0:0:
54,80,177161,2,0,L|62:176,1,90,2|0,0:2|1:2,0:2:0:0:
182,308,177502,1,10,0:2:0:0:
182,308,177587,1,8,0:2:0:0:
182,308,177672,6,0,B|136:295|98:328|98:328|64:291|9:301,1,180,4|0,1:2|1:2,0:2:0:0:
149,169,178184,1,8,1:2:0:0:
272,268,178354,2,0,P|282:312|273:356,1,90,0|0,1:2|0:2,0:2:0:0:
61,207,178695,2,0,P|50:162|59:118,1,90,0|0,1:2|1:2,0:2:0:0:
86,81,178951,1,0,1:2:0:0:
86,81,179036,6,0,L|183:72,1,90,14|0,0:2|1:2,0:2:0:0:
340,190,179377,1,0,1:2:0:0:
180,267,179548,1,0,1:2:0:0:
278,69,179718,2,0,L|282:117,1,45,8|8,0:0|0:0,0:0:0:0:
397,276,179889,1,8,0:2:0:0:
397,276,179974,1,8,0:2:0:0:
397,276,180059,1,8,0:2:0:0:
486,88,180229,1,2,1:2:0:0:
486,88,180315,1,0,1:2:0:0:
486,88,180400,6,0,P|444:73|397:84,1,90,6|0,1:2|1:2,0:2:0:0:
363,104,180656,1,0,1:2:0:0:
363,104,180741,1,10,0:2:0:0:
493,324,180911,5,6,1:2:0:0:
493,324,181252,1,2,1:2:0:0:
439,157,181423,1,8,0:2:0:0:
330,358,181593,5,6,1:2:0:0:
330,358,181934,1,0,1:2:0:0:
504,242,182104,1,8,0:2:0:0:
317,145,182275,2,0,L|326:248,1,90,4|0,1:2|0:2,0:2:0:0:
119,323,182616,2,0,L|128:221,1,90,0|8,1:2|0:2,0:2:0:0:
225,31,182957,1,2,1:2:0:0:
225,31,183042,1,0,1:2:0:0:
225,31,183127,5,2,1:2:0:0:
247,271,183298,1,0,1:2:0:0:
38,106,183468,1,2,1:2:0:0:
300,81,183639,1,2,1:2:0:0:
149,338,183809,5,8,1:2:0:0:
120,46,183980,1,10,1:2:0:0:
350,303,184150,1,8,1:2:0:0:
378,11,184321,1,10,0:2:0:0:
323,220,185854,5,4,1:2:0:0:
323,220,186025,2,0,P|355:159|327:91,1,144,0|0,1:2|1:2,0:2:0:0:
141,153,186536,2,0,B|184:182|184:182|271:153,1,144,8|0,0:2|0:2,0:2:0:0:
64,117,187047,2,0,P|54:154|64:192,1,72,0|0,1:2|0:2,0:2:0:0:
199,86,187388,2,0,P|208:50|199:12,1,72,8|0,0:2|0:2,0:2:0:0:
41,34,187729,1,0,1:2:0:0:
143,187,187900,1,8,0:2:0:0:
125,52,188070,1,0,1:2:0:0:
31,190,188240,6,0,L|37:271,1,72,2|8,0:2|0:2,0:2:0:0:
45,302,188496,1,8,0:2:0:0:
45,302,188581,2,0,L|126:308,1,72,2|0,1:2|1:2,0:2:0:0:
272,153,188922,1,0,0:2:0:0:
124,216,189093,1,0,1:2:0:0:
258,309,189263,2,0,L|265:227,1,72,8|0,0:2|0:2,0:2:0:0:
280,69,189604,1,2,0:2:0:0:
423,165,189775,6,0,B|452:199|452:199|350:208,1,144,2|8,1:2|0:2,0:2:0:0:
280,69,190286,1,2,0:2:0:0:
162,150,190456,1,0,1:0:0:0:
162,150,190542,1,0,1:0:0:0:
162,150,190627,2,0,P|196:156|234:146,1,72,10|0,0:2|1:2,1:2:0:0:
349,70,190968,2,0,P|315:61|280:69,1,72,10|0,0:2|0:2,0:2:0:0:
221,235,191309,6,0,B|257:244|289:219|289:219|317:246|355:242,1,144,6|0,1:2|0:2,0:2:0:0:
231,147,191820,1,0,1:2:0:0:
210,317,191990,2,0,L|291:324,1,72,8|0,0:2|0:2,0:2:0:0:
146,182,192331,1,2,0:2:0:0:
106,343,192502,2,0,P|48:346|2:266,1,144,2|8,1:2|0:2,0:2:0:0:
221,235,193013,5,2,0:2:0:0:
52,185,193184,1,0,1:2:0:0:
169,69,193354,2,0,P|202:62|240:72,1,72,10|0,0:2|1:2,0:2:0:0:
344,213,193695,1,2,0:2:0:0:
347,50,193865,1,8,0:2:0:0:
347,50,193951,1,8,0:2:0:0:
347,50,194036,6,0,L|422:43,1,72,2|0,1:2|1:2,0:2:0:0:
441,222,194377,1,0,0:2:0:0:
305,126,194547,1,0,1:2:0:0:
487,85,194718,2,0,L|493:160,1,72,8|0,0:2|0:2,0:2:0:0:
386,300,195059,1,10,0:2:0:0:
278,107,195229,6,0,B|224:111|224:111|179:143|179:143|127:148,1,161.999995056153,6|0,1:2|1:2,0:2:0:0:
123,355,195740,1,8,0:2:0:0:
252,200,195911,1,2,1:2:0:0:
39,181,196081,1,10,0:2:0:0:
220,330,196252,5,10,0:2:0:0:
220,330,196337,1,8,0:2:0:0:
220,330,196422,2,0,L|224:282,1,40.4999987640381,10|8,0:2|0:2,0:2:0:0:
260,90,196593,1,10,1:2:0:0:
260,90,196678,1,8,1:2:0:0:
260,90,196763,6,0,P|302:81|349:93,1,90,4|2,1:2|1:2,0:2:0:0:
435,312,197104,2,0,P|393:321|346:309,1,90,8|2,0:2|1:2,0:2:0:0:
455,71,197445,1,2,1:2:0:0:
505,260,197615,1,2,1:2:0:0:
389,15,197786,1,10,0:2:0:0:
325,228,197956,1,2,0:2:0:0:
491,72,198127,5,0,1:2:0:0:
268,0,198297,2,0,L|259:92,1,90,2|8,1:2|0:2,0:2:0:0:
233,300,198638,1,2,1:2:0:0:
406,151,198809,1,2,1:2:0:0:
339,360,198979,1,2,1:2:0:0:
215,156,199150,1,10,0:2:0:0:
136,360,199320,1,2,1:2:0:0:
136,360,199405,1,8,0:2:0:0:
136,360,199490,6,0,P|94:369|47:357,1,90,2|0,1:2|1:2,0:2:0:0:
51,146,199831,1,10,0:2:0:0:
247,241,200002,2,0,P|256:283|244:330,1,90,2|0,1:2|1:2,0:2:0:0:
22,257,200343,1,2,1:2:0:0:
247,158,200513,1,8,0:2:0:0:
14,55,200684,6,0,B|107:82|91:-4|186:23,1,180,6|0,1:2|1:2,0:2:0:0:
164,191,201195,2,0,L|155:101,1,90,8|0,0:2|1:2,0:2:0:0:
403,120,201536,1,2,1:2:0:0:
262,307,201706,1,0,1:2:0:0:
283,65,201877,1,10,0:2:0:0:
390,295,202047,1,8,0:2:0:0:
390,295,202132,1,8,0:2:0:0:
390,295,202218,6,0,B|454:326|519:288|519:288|479:267,1,180,6|10,0:2|0:2,0:2:0:0:
243,219,202729,2,0,P|234:261|246:308,1,90,2|0,1:2|1:2,0:2:0:0:
483,169,203070,2,0,P|492:127|480:80,1,90,2|8,1:2|0:2,0:2:0:0:
220,117,203411,2,0,B|278:122|278:122|326:159|326:159|386:165,1,180,2|0,1:2|1:2,0:2:0:0:
245,306,203922,2,0,L|153:297,1,90,10|0,0:2|0:2,0:2:0:0:
25,194,204263,2,0,L|117:185,1,90,2|0,1:2|1:2,0:2:0:0:
310,126,204604,2,0,L|218:117,1,90,10|0,0:2|0:2,0:2:0:0:
61,0,204860,1,8,0:2:0:0:
61,0,204945,6,0,B|32:34|36:84|36:84|83:99|125:81,1,180,2|8,1:2|0:2,0:2:0:0:
250,26,205456,1,0,1:2:0:0:
250,26,205542,1,0,1:2:0:0:
250,26,205627,2,0,P|292:17|339:29,1,90,0|0,1:2|1:2,0:2:0:0:
362,261,205968,1,8,0:2:0:0:
221,117,206138,1,0,1:2:0:0:
430,72,206309,6,0,L|439:164,1,90,0|0,0:2|1:2,0:2:0:0:
271,304,206650,2,0,L|280:212,1,90,8|0,0:2|1:2,0:2:0:0:
290,173,206905,1,8,0:2:0:0:
290,173,206990,1,0,1:2:0:0:
94,194,207161,1,2,1:2:0:0:
203,366,207331,1,14,0:2:0:0:
189,120,207502,1,2,0:2:0:0:
8,323,207672,5,14,1:2:0:0:
72,57,207843,1,0,1:2:0:0:
241,276,208013,1,0,1:2:0:0:
0,191,208184,5,10,0:2:0:0:
219,15,208354,1,0,1:2:0:0:
152,287,208525,1,0,1:2:0:0:
41,46,208695,5,10,0:2:0:0:
320,120,208866,1,0,1:2:0:0:
72,243,209036,1,0,1:2:0:0:
252,7,209206,5,10,0:2:0:0:
348,276,209376,1,0,1:2:0:0:
107,146,209547,1,0,1:2:0:0:
444,73,209718,5,10,0:2:0:0:
296,346,209889,1,0,1:2:0:0:
352,11,210059,5,10,0:2:0:0:
505,284,210230,1,0,1:2:0:0:
505,284,210314,1,0,1:2:0:0:
505,284,210400,6,0,P|465:292|421:281,1,80.9999975280763,6|0,1:2|1:2,0:2:0:0:
392,271,210655,1,8,0:2:0:0:
392,271,210740,1,8,0:2:0:0:
309,117,210911,2,0,P|269:109|225:120,1,80.9999975280763,0|0,1:2|0:2,0:2:0:0:
196,130,211166,1,8,0:2:0:0:
196,130,211251,1,8,0:2:0:0:
158,321,211422,2,0,P|198:329|242:318,1,80.9999975280763,8|0,1:2|0:2,0:2:0:0:
271,308,211677,1,8,0:2:0:0:
271,308,211762,1,6,1:2:0:0:
54,185,211934,5,8,0:2:0:0:
54,185,212019,1,8,0:2:0:0:
54,185,212104,2,0,L|45:283,1,80.9999975280763,8|0,0:2|1:2,0:2:0:0:
158,321,212445,5,8,0:2:0:0:
175,293,212530,1,8,0:2:0:0:
185,261,212615,1,8,0:2:0:0:
180,228,212700,1,8,0:2:0:0:
165,198,212785,1,8,0:2:0:0:
149,168,212871,1,8,0:2:0:0:
145,135,212956,1,8,0:2:0:0:
155,103,213041,1,8,0:2:0:0:
173,74,213127,6,0,B|231:79|231:79|279:116|279:116|339:122,1,180,6|10,1:2|0:2,0:2:0:0:
418,300,213638,1,2,1:2:0:0:
418,300,213723,1,8,0:2:0:0:
418,300,213809,2,0,B|375:311|375:311|329:299,1,90,2|2,1:2|1:2,0:2:0:0:
149,168,214150,1,10,0:2:0:0:
378,216,214320,1,2,1:2:0:0:
378,216,214405,1,8,0:2:0:0:
378,216,214490,5,2,1:2:0:0:
228,370,214661,1,2,1:2:0:0:
251,145,214831,1,10,0:2:0:0:
48,241,215002,1,2,1:2:0:0:
48,241,215087,1,8,0:2:0:0:
48,241,215172,2,0,L|38:332,1,90,2|2,1:2|1:2,0:2:0:0:
219,221,215513,1,8,0:2:0:0:
58,122,215684,1,0,1:2:0:0:
58,122,215769,1,8,0:2:0:0:
58,122,215854,6,0,B|101:135|101:135|145:125,1,90,2|0,1:2|1:2,0:2:0:0:
345,37,216195,2,0,B|302:22|302:22|256:33,1,90,8|2,0:2|1:2,0:2:0:0:
220,52,216451,1,2,0:2:0:0:
220,52,216536,1,2,1:2:0:0:
296,286,216706,1,2,1:2:0:0:
453,103,216877,1,10,0:2:0:0:
219,186,217047,1,2,0:2:0:0:
418,367,217218,6,0,B|425:276,1,90,2|0,1:2|1:2,0:2:0:0:
293,118,217559,1,10,0:2:0:0:
172,316,217729,2,0,B|81:323,1,90,2|0,1:2|1:2,0:2:0:0:
139,119,218070,1,2,1:2:0:0:
303,291,218240,2,0,L|307:237,1,45,10|0,0:2|0:2,0:2:0:0:
345,37,218411,1,10,0:2:0:0:
345,37,218496,1,8,0:2:0:0:
345,37,218581,6,0,B|302:22|302:22|256:33,1,90,2|0,1:2|1:2,0:2:0:0:
220,52,218837,1,2,0:2:0:0:
220,52,218922,1,8,0:2:0:0:
314,254,219093,1,2,1:2:0:0:
314,254,219178,1,10,0:2:0:0:
314,254,219263,2,0,B|357:267|357:267|404:256,1,90,2|0,1:2|1:2,0:2:0:0:
448,247,219519,1,2,0:2:0:0:
448,247,219604,1,8,0:2:0:0:
247,160,219775,1,2,1:2:0:0:
247,160,219860,1,8,0:2:0:0:
247,160,219945,6,0,B|206:145|206:145|163:159|163:159|121:136|75:159,1,180,2|8,1:2|0:2,0:2:0:0:
101,370,220456,1,2,1:2:0:0:
101,370,220542,1,8,0:2:0:0:
101,370,220627,2,0,L|111:279,1,90,2|0,1:2|1:2,0:2:0:0:
118,239,220882,1,2,0:2:0:0:
118,239,220968,1,8,0:2:0:0:
228,353,221138,1,2,1:2:0:0:
228,353,221223,1,8,0:2:0:0:
228,353,221309,6,0,B|274:366|312:333|312:333|346:370|401:360,1,180,2|8,1:2|0:2,0:2:0:0:
425,137,221820,1,2,0:2:0:0:
425,137,221905,1,2,0:2:0:0:
425,137,221990,2,0,L|420:193,1,45,10|0,1:2|1:2,0:2:0:0:
274,251,222161,2,0,L|269:194,1,45,8|8,0:2|0:2,0:2:0:0:
308,66,222331,1,8,0:2:0:0:
382,266,222502,5,2,1:2:0:0:
382,266,222587,1,2,0:2:0:0:
382,266,222672,2,0,B|423:277|423:277|469:265,1,90,2|0,0:2|1:2,0:2:0:0:
487,59,223013,1,10,0:2:0:0:
396,176,223184,1,0,1:2:0:0:
396,176,223269,1,2,0:0:0:0:
396,176,223354,2,0,L|391:129,1,45,10|0,1:2|0:0,0:0:0:0:
272,47,223525,5,8,0:2:0:0:
239,39,223610,1,8,0:2:0:0:
206,46,223695,1,8,0:2:0:0:
179,66,223780,1,8,0:2:0:0:
163,96,223865,1,8,0:2:0:0:
160,129,223951,1,8,0:2:0:0:
181,161,224036,6,0,B|87:133|103:220|9:193,1,180,4|8,1:2|0:2,0:2:0:0:
107,351,224547,1,2,0:2:0:0:
107,351,224632,1,8,0:2:0:0:
107,351,224718,2,0,L|197:358,1,90,2|0,1:2|1:2,0:2:0:0:
245,366,224973,1,2,0:2:0:0:
245,366,225059,1,8,0:2:0:0:
245,121,225229,1,2,0:2:0:0:
245,121,225314,1,8,0:0:0:0:
245,121,225400,6,0,B|283:166|283:166|238:281,1,180,2|10,1:2|0:2,0:2:0:0:
120,33,225911,2,0,L|210:26,1,90,2|0,0:2|1:2,0:2:0:0:
421,105,226252,2,0,L|331:98,1,90,2|8,1:2|0:2,0:2:0:0:
480,34,226593,1,2,0:2:0:0:
480,34,226678,1,2,0:2:0:0:
480,34,226763,6,0,P|516:108|465:188,1,180,2|8,1:2|0:2,0:2:0:0:
253,230,227275,1,2,0:2:0:0:
253,230,227360,1,8,0:2:0:0:
253,230,227445,2,0,P|296:217|340:230,1,90,2|0,1:2|1:2,0:2:0:0:
382,253,227701,1,2,0:2:0:0:
382,253,227786,1,8,0:2:0:0:
213,353,227956,1,2,0:2:0:0:
207,138,228127,6,0,B|250:113|292:136|292:136|329:103|379:121,1,180,6|10,1:2|0:2,0:2:0:0:
115,49,228638,2,0,L|108:139,1,90,2|0,0:2|1:2,0:2:0:0:
290,243,228979,1,8,0:2:0:0:
290,243,229064,1,8,0:2:0:0:
290,243,229150,1,8,0:2:0:0:
287,39,229320,1,0,1:2:0:0:
287,39,229405,1,8,0:2:0:0:
287,39,229490,6,0,P|244:26|200:39,1,90,6|0,1:2|0:2,0:2:0:0:
163,249,229831,1,0,1:2:0:0:
44,89,230002,1,2,0:2:0:0:
1,297,230172,2,0,P|44:310|88:297,1,90,2|0,1:2|0:2,0:2:0:0:
233,168,230513,1,0,1:2:0:0:
266,368,230684,1,2,0:2:0:0:
414,183,230854,6,0,L|324:176,1,90,2|0,1:2|0:2,0:2:0:0:
479,311,231195,1,0,1:2:0:0:
432,90,231365,1,0,1:2:0:0:
319,284,231536,1,2,1:2:0:0:
505,161,231706,1,0,1:2:0:0:
505,161,231792,1,0,1:2:0:0:
505,161,231877,1,2,1:2:0:0:
304,63,232047,1,0,1:2:0:0:
304,63,232132,1,0,1:2:0:0:
304,63,232218,5,6,1:2:0:0:
383,182,232388,1,0,0:2:0:0:
384,20,232559,1,0,1:2:0:0:
252,237,232729,1,0,0:2:0:0:
212,19,232900,1,2,1:2:0:0:
342,266,233070,1,0,1:2:0:0:
300,31,233240,1,0,1:2:0:0:
166,302,233411,1,0,1:2:0:0:
394,151,233581,5,10,0:2:0:0:
37,103,233752,1,10,0:2:0:0:
248,365,233922,1,10,0:2:0:0:
300,31,234093,1,10,0:2:0:0:
0,231,234263,1,10,0:2:0:0:
373,283,234434,1,8,0:2:0:0:
113,14,234604,1,10,0:2:0:0:
85,372,234775,1,8,0:2:0:0:
321,188,234945,6,0,P|342:126|317:60,1,135,2|2,0:2|0:2,0:2:0:0:
241,0,235627,2,0,P|220:63|243:126,1,135,2|2,0:2|0:2,0:2:0:0:
321,188,236309,2,0,L|325:143,1,45,0|0,0:2|0:2,0:2:0:0:
277,265,236650,6,0,P|319:278|363:266,2,90,2|2|2,0:2|0:2|0:2,0:2:0:0:
425,205,237672,2,0,P|453:264|430:327,1,135,2|2,0:2|0:2,0:2:0:0:
318,263,238354,2,0,L|363:267,1,45,2|0,0:2|0:2,0:2:0:0:
336,179,238695,2,0,L|291:175,1,45,0|2,0:2|0:2,0:2:0:0:
404,109,239036,6,0,P|448:97|494:112,2,90,2|2|2,0:2|0:2|0:2,0:2:0:0:
255,195,240059,1,2,0:2:0:0:
255,195,240400,6,0,P|323:171|389:200,1,135.000005149842,6|0,1:2|1:2,0:2:0:0:
323,283,240911,1,2,0:2:0:0:
323,283,241081,2,0,L|252:289,1,67.5000025749208,2|0,1:2|0:2,0:2:0:0:
154,296,241422,1,0,1:2:0:0:
95,220,241593,5,2,0:2:0:0:
95,220,241763,2,0,L|88:149,1,67.5000025749208,2|0,1:2|0:2,0:2:0:0:
193,205,242104,2,0,L|199:134,1,67.5000025749208,2|0,1:2|0:2,0:2:0:0:
299,144,242445,2,0,L|292:73,1,67.5000025749208,2|0,1:2|0:2,0:2:0:0:
390,110,242786,2,0,L|396:39,1,67.5000025749208,2|0,1:2|1:2,0:2:0:0:
400,12,243042,1,0,1:2:0:0:
400,12,243127,6,0,P|444:1|492:17,1,90,12|0,0:2|0:2,0:2:0:0:
381,208,243468,1,10,0:2:0:0:
208,47,243638,1,10,0:2:0:0:
492,110,243809,1,8,0:2:0:0:
278,313,243979,1,10,0:2:0:0:
309,31,244150,1,10,0:2:0:0:
421,300,244320,1,10,0:2:0:0:
178,40,244490,5,8,0:2:0:0:
123,374,244661,1,10,0:2:0:0:
380,106,244831,1,8,0:2:0:0:
16,74,245002,5,0,1:2:0:0:
16,74,245087,1,0,1:2:0:0:
16,74,245172,1,10,1:2:0:0:
238,337,245343,1,10,1:2:0:0:
238,337,245854,6,0,B|310:372|382:330|382:330|337:307,1,198.000006042481,6|8,1:2|0:2,0:2:0:0:
141,181,246365,1,2,1:2:0:0:
353,72,246536,2,0,L|362:170,1,99.0000030212403,2|0,1:2|1:2,0:2:0:0:
151,285,246877,1,8,0:2:0:0:
157,31,247047,1,0,1:2:0:0:
157,31,247132,1,0,1:2:0:0:
157,31,247218,6,0,B|202:11|254:28|254:28|258:82|225:123,1,198.000006042481,0|10,1:2|0:2,0:2:0:0:
56,285,247729,1,0,1:2:0:0:
265,359,247899,2,0,P|281:312|269:264,1,99.0000030212403,2|0,1:2|1:2,0:2:0:0:
141,119,248240,2,0,P|125:166|137:214,1,99.0000030212403,10|0,0:2|1:2,0:2:0:0:
161,261,248496,1,8,0:2:0:0:
161,261,248581,6,0,B|227:255|227:255|279:215|279:215|347:210,1,198.000006042481,2|8,1:2|0:2,0:2:0:0:
326,20,249092,1,2,1:2:0:0:
326,20,249178,1,0,1:2:0:0:
326,20,249263,2,0,L|318:123,1,99.0000030212403,2|0,1:2|1:2,0:2:0:0:
444,337,249604,2,0,L|436:235,1,99.0000030212403,14|0,0:2|0:2,0:2:0:0:
133,153,249945,6,0,B|232:182|216:89|317:118,1,198.000006042481,6|10,1:2|0:2,0:2:0:0:
436,238,250456,1,2,0:2:0:0:
484,38,250628,1,8,0:2:0:0:
449,24,250713,1,8,0:2:0:0:
412,24,250798,1,10,0:2:0:0:
378,38,250883,1,8,0:2:0:0:
349,61,250968,1,8,0:2:0:0:
320,85,251054,1,8,0:2:0:0:
286,99,251139,1,10,0:2:0:0:
249,99,251224,1,8,0:2:0:0:
214,87,251309,6,0,L|121:78,1,90,4|0,1:2|1:2,0:2:0:0:
267,224,251650,2,0,L|360:215,1,90,0|0,0:2|1:2,0:2:0:0:
105,172,251990,2,0,L|12:163,1,90,12|0,0:2|1:2,0:2:0:0:
187,323,252331,2,0,L|280:314,1,90,2|2,0:2|1:2,0:2:0:0:
210,125,252672,5,2,1:2:0:0:
87,289,252843,2,0,P|41:301|-2:290,1,90,8|2,0:2|0:2,0:2:0:0:
105,172,253184,1,2,1:2:0:0:
221,319,253354,1,8,0:2:0:0:
290,130,253525,2,0,P|336:118|379:129,1,90,2|0,1:2|0:2,0:2:0:0:
447,314,253865,1,10,0:2:0:0:
447,314,253951,1,8,0:2:0:0:
447,314,254036,6,0,L|439:222,1,90,2|0,1:2|1:2,0:2:0:0:
292,44,254377,2,0,P|280:90|291:133,1,90,0|0,0:2|1:2,0:2:0:0:
443,136,254718,2,0,P|409:102|366:90,1,90,8|0,0:2|1:2,0:2:0:0:
289,220,255059,2,0,P|334:207|366:176,1,90,0|8,0:2|0:2,0:2:0:0:
205,167,255400,6,0,L|197:259,1,90,0|0,1:2|1:2,0:2:0:0:
290,130,255740,1,12,0:2:0:0:
394,290,255911,1,0,0:2:0:0:
432,47,256081,1,8,0:2:0:0:
427,80,256166,1,8,0:2:0:0:
412,109,256251,1,8,0:2:0:0:
387,132,256336,1,8,0:2:0:0:
355,143,256421,1,8,0:2:0:0:
322,143,256507,1,8,0:2:0:0:
290,130,256592,1,10,0:2:0:0:
266,107,256677,1,8,0:2:0:0:
251,77,256763,6,0,B|157:49|173:136|79:109,1,180,6|2,1:2|1:2,0:2:0:0:
220,259,257275,2,0,L|228:170,1,90,2|0,0:2|1:2,0:2:0:0:
46,280,257615,2,0,L|53:369,1,90,2|0,0:2|1:2,0:2:0:0:
228,169,257956,1,2,0:2:0:0:
55,192,258127,1,0,1:2:0:0:
173,341,258297,6,0,P|219:353|262:342,1,90,2|0,0:2|1:2,0:2:0:0:
394,211,258638,1,2,0:2:0:0:
220,259,258809,1,0,1:2:0:0:
277,68,258979,1,2,1:2:0:0:
380,300,259150,1,0,1:2:0:0:
149,206,259320,1,2,1:2:0:0:
149,206,259405,1,0,1:2:0:0:
149,206,259490,6,0,B|136:160|169:122|169:122|133:91|141:40,1,180,6|2,1:2|1:2,0:2:0:0:
366,61,260002,2,0,L|276:68,1,90,2|0,0:2|1:2,0:2:0:0:
231,221,260343,2,0,L|320:228,1,90,2|0,0:2|1:2,0:2:0:0:
461,55,260684,6,0,L|469:144,1,90,14|0,0:2|1:2,0:2:0:0:
487,314,261025,1,8,0:2:0:0:
329,138,261195,2,0,L|321:228,1,90,0|0,1:2|1:2,0:2:0:0:
303,375,261536,1,2,1:2:0:0:
427,187,261706,5,8,0:2:0:0:
435,153,261791,1,8,0:2:0:0:
433,120,261876,1,10,0:2:0:0:
422,89,261961,1,8,0:2:0:0:
400,62,262046,1,10,0:2:0:0:
373,43,262132,1,8,0:2:0:0:
340,34,262218,6,0,P|294:22|251:33,1,90,6|0,1:2|1:2,0:2:0:0:
79,128,262559,1,10,0:2:0:0:
243,195,262729,1,2,1:2:0:0:
243,195,262814,1,8,0:2:0:0:
243,195,262900,1,0,1:2:0:0:
81,42,263070,2,0,P|69:88|80:131,1,90,2|8,1:2|0:2,0:2:0:0:
249,280,263411,6,0,L|159:272,1,90,2|0,1:2|0:2,0:2:0:0:
15,368,263752,2,0,L|105:360,1,90,2|8,1:2|0:2,0:2:0:0:
170,175,264093,1,2,1:2:0:0:
170,175,264178,1,8,0:2:0:0:
170,175,264263,2,0,L|80:167,1,90,0|2,1:2|1:2,0:2:0:0:
200,367,264604,1,8,0:2:0:0:
296,187,264775,1,2,1:2:0:0:
296,187,264860,1,8,0:2:0:0:
296,187,264945,6,0,P|342:175|385:186,1,90,2|0,1:2|1:2,0:2:0:0:
509,314,265286,1,10,0:2:0:0:
338,361,265456,1,2,1:2:0:0:
338,361,265542,1,8,0:2:0:0:
338,361,265627,2,0,P|326:315|337:272,1,90,0|2,1:2|1:2,0:2:0:0:
500,185,265968,1,8,0:2:0:0:
332,76,266138,6,0,L|242:68,1,90,6|0,1:2|0:2,0:2:0:0:
441,21,266479,1,2,1:2:0:0:
296,187,266650,2,0,L|206:195,1,90,8|0,0:2|1:2,0:2:0:0:
135,27,266990,1,8,0:2:0:0:
155,53,267075,1,8,0:2:0:0:
163,86,267160,1,8,0:2:0:0:
158,119,267245,1,8,0:2:0:0:
140,147,267331,2,0,L|50:155,1,90,2|0,1:2|1:2,0:2:0:0:
8,162,267587,1,0,1:2:0:0:
8,162,267672,6,0,P|-4:202|10:251,1,90,6|0,1:2|1:2,0:2:0:0:
40,286,267928,1,0,1:2:0:0:
40,286,268013,1,10,0:2:0:0:
252,106,268184,5,6,1:2:0:0:
252,106,268525,1,2,1:2:0:0:
237,343,268695,1,8,0:2:0:0:
100,148,268865,6,0,L|92:58,1,90,6|0,1:2|0:2,0:2:0:0:
214,240,269206,1,2,1:2:0:0:
272,24,269377,1,8,0:2:0:0:
373,234,269547,6,0,L|463:242,1,90,6|0,1:2|0:2,0:2:0:0:
404,109,269888,1,2,1:2:0:0:
346,325,270059,1,8,0:2:0:0:
195,162,270229,1,0,1:2:0:0:
195,162,270314,1,0,1:2:0:0:
195,162,270400,5,6,1:2:0:0:
332,159,270570,1,2,1:2:0:0:
150,256,270740,1,2,1:2:0:0:
241,35,270911,1,2,1:2:0:0:
326,302,271081,5,10,1:2:0:0:
66,81,271252,1,10,1:2:0:0:
432,70,271422,1,10,1:2:0:0:
97,357,271593,1,10,0:2:0:0:
256,192,273127,12,8,274150,1:2:0:0:
256,192,274490,6,0,B|303:183|337:220|337:220|375:187|421:200,1,180,6|10,1:2|0:2,0:2:0:0:
276,358,275001,2,0,P|263:314|274:269,1,90,2|0,0:2|1:2,0:2:0:0:
492,153,275343,2,0,P|461:187|416:200,1,90,2|8,0:2|0:2,0:2:0:0:
207,69,275684,2,0,P|251:79|285:111,1,90,2|0,0:2|1:2,0:2:0:0:
353,314,276025,1,0,0:2:0:0:
201,165,276194,5,8,0:2:0:0:
411,110,276365,2,0,L|420:204,1,90,2|0,0:2|1:2,0:2:0:0:
177,350,276706,2,0,L|186:257,1,90,2|8,0:2|0:2,0:2:0:0:
225,46,277046,1,0,1:2:0:0:
225,46,277132,1,0,1:2:0:0:
225,46,277218,6,0,B|166:51|166:51|118:87|118:87|56:92,1,180,2|8,1:2|0:2,0:2:0:0:
67,252,277729,2,0,P|111:263|153:252,1,90,2|0,0:2|1:2,0:2:0:0:
58,92,278069,2,0,P|27:124|15:166,1,90,2|8,0:2|0:2,0:2:0:0:
201,165,278410,2,0,P|189:121|158:90,1,90,2|0,0:2|1:2,0:2:0:0:
280,290,278751,1,0,0:2:0:0:
368,120,278921,1,8,0:2:0:0:
383,322,279092,6,0,L|379:278,1,45,0|0,1:2|1:2,0:2:0:0:
365,91,279262,1,2,1:2:0:0:
502,253,279434,1,2,0:2:0:0:
484,13,279604,1,10,0:2:0:0:
321,197,279774,1,10,0:2:0:0:
321,197,279859,1,8,0:2:0:0:
321,197,279945,6,0,B|229:223|243:139|149:164,1,180,6|10,1:2|0:2,0:2:0:0:
172,337,280456,2,0,L|181:244,1,90,2|0,0:2|1:2,0:2:0:0:
289,21,280797,2,0,L|298:114,1,90,2|8,0:2|0:2,0:2:0:0:
422,336,281138,2,0,L|431:243,1,90,2|0,0:2|1:2,0:2:0:0:
457,60,281478,1,0,0:2:0:0:
325,241,281650,6,0,L|321:197,1,45,10|0,0:2|0:2,0:2:0:0:
203,21,281819,2,0,P|247:10|289:21,1,90,2|0,0:2|1:2,0:2:0:0:
73,271,282160,1,2,0:2:0:0:
71,55,282331,1,8,0:2:0:0:
234,276,282501,1,0,1:2:0:0:
234,276,282586,1,0,1:2:0:0:
234,276,282672,6,0,B|188:312|188:312|73:271,1,180,2|8,1:2|0:2,0:2:0:0:
247,123,283183,1,2,0:2:0:0:
300,358,283353,1,8,0:2:0:0:
300,358,283438,1,8,0:2:0:0:
300,358,283524,2,0,P|341:368|387:354,1,90,2|8,0:2|0:2,0:2:0:0:
457,143,283865,6,0,P|416:133|370:147,1,90,14|0,0:2|0:2,0:2:0:0:
234,276,284206,1,0,1:2:0:0:
201,267,284291,1,0,1:2:0:0:
175,246,284376,1,8,0:2:0:0:
159,217,284461,1,0,1:2:0:0:
155,183,284546,1,0,1:2:0:0:
166,151,284632,1,0,1:2:0:0:
185,125,284718,5,8,0:2:0:0:
222,150,284803,1,0,1:2:0:0:
244,189,284888,1,8,0:2:0:0:
248,233,284973,1,0,1:2:0:0:
234,276,285058,1,8,0:2:0:0:
202,307,285144,1,0,1:2:0:0:
161,323,285229,1,8,0:2:0:0:
116,320,285314,1,8,0:2:0:0:
77,299,285400,6,0,B|58:260|58:260|68:215|68:215|41:175|60:127,1,180,6|8,1:2|0:2,0:2:0:0:
215,17,285911,1,0,0:2:0:0:
248,233,286081,1,2,1:2:0:0:
391,59,286252,1,2,0:2:0:0:
175,92,286422,1,10,0:2:0:0:
324,285,286593,6,0,B|360:305|399:285|399:285|417:299|417:299|456:280|493:300,1,180,2|0,0:2|0:2,0:2:0:0:
281,110,287104,1,8,0:2:0:0:
246,329,287275,1,2,1:2:0:0:
246,329,287360,1,0,1:2:0:0:
246,329,287445,2,0,L|152:337,1,90,0|2,1:2|0:2,0:2:0:0:
23,165,287786,5,8,0:2:0:0:
51,146,287871,1,2,1:2:0:0:
84,140,287956,1,2,1:2:0:0:
117,146,288041,1,0,1:2:0:0:
145,163,288127,2,0,L|238:171,1,90,0|2,1:2|0:2,0:2:0:0:
354,43,288468,1,8,0:2:0:0:
167,45,288638,2,0,B|129:64|129:64|194:102|260:70,1,180,2|2,0:2|0:2,0:2:0:0:
441,7,289150,1,8,0:2:0:0:
348,278,289320,6,0,B|316:239|316:239|358:151,1,148.50000453186,14|0,1:2|0:2,0:2:0:0:
385,108,289661,1,0,1:2:0:0:
418,377,289831,1,2,1:2:0:0:
242,178,290002,1,2,1:2:0:0:
242,178,290087,1,0,1:2:0:0:
242,178,290172,1,8,1:2:0:0:
503,208,290343,5,10,1:2:0:0:
503,208,290428,1,0,1:0:0:0:
503,208,290513,2,0,L|449:212,1,49.5000015106202,10|0,0:2|1:2,0:2:0:0:
336,104,290684,2,0,L|389:108,1,49.5000015106202,10|8,0:2|0:2,0:2:0:0:
348,278,290854,6,0,L|247:287,1,99.0000030212403,4|0,1:2|1:2,0:2:0:0:
157,142,291195,1,0,1:2:0:0:
99,286,291365,1,0,1:2:0:0:
243,91,291536,1,0,1:2:0:0:
75,187,291706,1,0,1:2:0:0:
336,104,291877,1,0,1:2:0:0:
83,81,292047,1,0,1:2:0:0:
348,278,292218,5,10,0:2:0:0:
48,177,292388,1,8,0:2:0:0:
371,95,292559,1,8,0:2:0:0:
64,292,292729,1,8,0:2:0:0:
418,225,292900,1,10,0:2:0:0:
55,59,293070,1,10,0:2:0:0:
447,143,293240,1,8,0:2:0:0:
153,373,293410,1,0,1:2:0:0:
153,373,293496,1,0,1:2:0:0:
153,373,293581,5,6,0:2:0:0:
244,192,293752,1,0,1:2:0:0:
255,373,293922,1,0,1:2:0:0:
144,155,294093,1,10,0:2:0:0:
341,341,294263,1,10,0:2:0:0:
217,88,294434,1,8,0:2:0:0:
164,340,294604,1,8,0:2:0:0:
288,29,294775,1,8,0:2:0:0:
475,375,294945,5,6,1:2:0:0:
80,226,295116,1,8,0:2:0:0:
80,226,295201,1,8,0:2:0:0:
80,226,295286,1,8,0:2:0:0:
380,56,295456,1,8,0:2:0:0:
380,56,295542,1,8,0:2:0:0:
380,56,295627,5,10,0:2:0:0:
74,364,295797,1,10,1:2:0:0:
39,7,295968,1,10,0:2:0:0:
333,320,296138,1,10,0:2:0:0:
333,320,296650,22,0,B|352:356|407:366|452:310|429:252|356:204|282:195|234:209|234:209|279:263|217:330|217:330|146:271|182:212|182:212|146:271|57:239|57:239|92:149|165:164|165:164|93:149|105:52|105:52|197:62|204:134|204:134|197:62|294:44|294:44|310:137|246:161|246:161|335:128|425:130|493:181,1,1710,6|0,1:2|0:2,0:2:0:0:
