osu file format v14

[General]
AudioFilename: audio.mp3
AudioLeadIn: 0
PreviewTime: 37810
Countdown: 1
SampleSet: Normal
StackLeniency: 0.7
Mode: 0
LetterboxInBreaks: 0
WidescreenStoryboard: 1

[Editor]
DistanceSpacing: 1
BeatDivisor: 4
GridSize: 8
TimelineZoom: 1.9

[Metadata]
Title:Mr Fake
TitleUnicode:Mr Fake
Artist:Amatsuki
ArtistUnicode:Amatsuki
Creator:Spark-desu
Version:Real Reformed
Source:
Tags:
BeatmapID:1852179
BeatmapSetID:837416

[Difficulty]
HPDrainRate:6
CircleSize:4
OverallDifficulty:9.3
ApproachRate:9.8
SliderMultiplier:1.8
SliderTickRate:1

[Events]
//Background and Video events
0,0,"BBossBG.png",0,0
//Break Periods
//Storyboard Layer 0 (Background)
//Storyboard Layer 1 (Fail)
//Storyboard Layer 2 (Pass)
//Storyboard Layer 3 (Foreground)
//Storyboard Sound Samples

[TimingPoints]
1304,240.963855421687,4,1,0,50,1,0
12870,-133.333333333333,4,1,0,50,0,0
16725,-333.333333333333,4,1,0,50,0,0
20581,-100,4,1,0,50,0,0
28291,-133.333333333333,4,1,0,50,0,0
29737,-100,4,1,0,50,0,0
32147,-133.333333333333,4,1,0,50,0,0
33111,-100,4,1,0,50,0,0
37930,-66.6666666666667,4,1,0,50,0,1
52990,-100,4,1,0,50,0,1
53352,-142.857142857143,4,1,0,50,0,0
76484,-100,4,1,0,50,0,0
84195,-125,4,1,0,50,0,0
91906,-100,4,1,0,50,0,0
97689,-125,4,1,0,50,0,0
99617,-66.6666666666667,4,1,0,50,0,1
115038,-125,4,1,0,50,0,1
116725,-125,4,1,0,50,0,0
118894,-66.6666666666667,4,1,0,50,0,1
133713,-125,4,1,0,50,0,1
134316,-66.6666666666667,4,1,0,50,0,0

[HitObjects]
32,160,1304,5,0,0:0:0:0:
80,72,1424,1,0,0:0:0:0:
120,168,1544,2,0,B|212:201|212:201|288:136,1,180
408,48,2026,1,0,0:0:0:0:
408,48,2147,2,0,B|416:136|416:136|352:232,1,180
112,288,2629,1,0,0:0:0:0:
200,328,2749,1,0,0:0:0:0:
200,232,2870,1,0,0:0:0:0:
280,288,2990,2,0,B|328:320|328:320|360:320,1,90
464,216,3231,5,0,0:0:0:0:
464,216,3352,1,0,0:0:0:0:
384,80,3472,2,0,B|296:40|296:40|208:80,1,180
56,152,3954,1,0,0:0:0:0:
160,216,4075,1,0,0:0:0:0:
56,152,4195,2,0,B|144:128|144:128|232:136,1,180
48,296,4677,2,0,B|78:331|78:331|87:289|87:289|119:332|119:332|136:288|136:288|160:333|160:333|176:289|176:289,1,270
240,176,5159,5,0,0:0:0:0:
352,72,5279,1,0,0:0:0:0:
344,224,5400,2,0,B|320:264|320:264|264:264,1,90
152,216,5641,1,0,0:0:0:0:
152,216,5882,1,0,0:0:0:0:
152,216,6123,5,0,0:0:0:0:
224,72,6243,1,0,0:0:0:0:
256,216,6364,1,0,0:0:0:0:
336,352,6484,1,0,0:0:0:0:
432,224,6605,2,0,B|416:176|416:176|384:128,1,90
312,32,6846,2,0,B|303:81|303:81|287:117,1,90
208,272,7087,5,0,0:0:0:0:
168,120,7207,1,0,0:0:0:0:
64,16,7328,1,0,0:0:0:0:
56,184,7448,1,0,0:0:0:0:
160,24,7569,1,0,0:0:0:0:
128,288,7810,1,0,0:0:0:0:
296,104,8050,5,0,0:0:0:0:
248,232,8171,1,0,0:0:0:0:
296,104,8291,1,0,0:0:0:0:
248,232,8412,1,0,0:0:0:0:
208,80,8532,5,0,0:0:0:0:
352,224,8653,1,0,0:0:0:0:
208,80,8773,1,0,0:0:0:0:
352,224,8894,1,0,0:0:0:0:
104,136,9014,5,0,0:0:0:0:
128,248,9135,1,0,0:0:0:0:
232,304,9255,1,0,0:0:0:0:
352,304,9376,1,0,0:0:0:0:
264,224,9496,1,0,0:0:0:0:
264,224,9737,1,0,0:0:0:0:
480,224,9978,5,0,0:0:0:0:
456,112,10099,1,0,0:0:0:0:
352,56,10219,1,0,0:0:0:0:
232,56,10340,1,0,0:0:0:0:
296,152,10460,2,0,B|248:168|248:168|288:192,1,90
424,288,10701,2,0,B|472:304|472:304|432:328,1,90
216,320,10942,5,0,0:0:0:0:
80,192,11063,1,0,0:0:0:0:
296,264,11183,1,0,0:0:0:0:
72,328,11304,1,0,0:0:0:0:
256,144,11424,1,0,0:0:0:0:
448,32,11665,1,0,0:0:0:0:
256,40,11906,5,0,0:0:0:0:
256,40,12026,1,0,0:0:0:0:
168,208,12267,5,0,0:0:0:0:
240,128,12870,6,0,B|256:264,1,135.000005149842
368,272,13352,2,0,B|352:135,1,135.000005149842
216,120,13834,2,0,B|232:256,1,135.000005149842
384,288,14316,2,0,B|368:151,1,135.000005149842
200,104,14797,2,0,B|216:240,1,135.000005149842
400,304,15279,2,0,B|384:167,1,135.000005149842
184,88,15761,2,0,B|200:224,1,135.000005149842
416,320,16243,2,0,B|400:183,1,135.000005149842
280,48,16725,5,0,0:0:0:0:
240,152,16966,1,0,0:0:0:0:
280,48,17207,1,0,0:0:0:0:
320,152,17448,1,0,0:0:0:0:
112,192,17689,5,0,0:0:0:0:
208,240,17930,1,0,0:0:0:0:
112,192,18171,1,0,0:0:0:0:
208,152,18412,1,0,0:0:0:0:
400,192,18653,5,0,0:0:0:0:
392,296,18894,1,0,0:0:0:0:
400,192,19135,1,0,0:0:0:0:
320,264,19376,1,0,0:0:0:0:
256,144,19617,6,0,L|280:184,1,40.4999987640381,0|0,0:0|2:2,0:0:0:0:
232,168,19858,2,0,L|280:176,1,40.4999987640381,0|0,0:0|2:2,0:0:0:0:
232,192,20099,2,0,L|280:176,1,40.4999987640381,0|0,0:0|2:2,0:0:0:0:
248,216,20340,2,0,L|280:176,1,40.4999987640381,0|0,0:0|2:2,0:0:0:0:
304,64,20581,6,0,B|256:72|256:72|200:88,1,90
112,208,20822,1,0,0:0:0:0:
128,72,20942,1,0,0:0:0:0:
232,184,21063,2,0,B|302:149|302:149|328:181,2,90
128,264,21424,1,0,0:0:0:0:
128,264,21544,2,0,B|144:216|144:216|176:160,1,90
240,48,21785,1,0,0:0:0:0:
68,167,21906,2,0,L|196:199,1,90
240,48,22147,1,0,0:0:0:0:
120,272,22267,2,0,B|165:273|165:273|248:216|248:216|288:208,1,180
64,48,22749,6,0,B|88:88|88:88|160:96,1,90
248,104,22990,1,0,0:0:0:0:
152,168,23111,1,0,0:0:0:0:
264,184,23231,1,0,0:0:0:0:
352,104,23352,1,0,0:0:0:0:
376,216,23472,2,0,B|406:248|406:248|352:272,1,90
192,312,23713,1,0,0:0:0:0:
384,352,23834,1,0,0:0:0:0:
168,224,23954,2,0,L|320:264,1,135,0|0,0:0|2:2,0:0:0:0:
320,264,24195,1,0,0:0:0:0:
440,48,24436,6,0,L|336:48,1,90
200,48,24677,2,0,L|272:104,1,90
424,168,24918,2,0,L|344:248,1,90
240,344,25159,2,0,L|240:224,1,90
240,80,25400,1,0,0:0:0:0:
160,304,25641,1,0,0:0:0:0:
160,304,25761,1,0,0:0:0:0:
392,312,26123,6,0,B|472:312|472:312|488:352,2,90
216,176,26605,1,0,0:0:0:0:
216,176,26725,1,0,0:0:0:0:
296,344,26966,1,0,0:0:0:0:
464,208,27207,1,0,0:0:0:0:
464,304,27328,2,0,B|416:296|416:296|376:248,1,90
320,152,27569,5,0,0:0:0:0:
256,48,27689,1,0,0:0:0:0:
320,152,27810,1,0,0:0:0:0:
256,48,27930,1,0,0:0:0:0:
320,152,28050,1,0,0:0:0:0:
256,48,28171,1,0,0:0:0:0:
320,152,28291,6,0,B|360:288|360:288|272:248|272:248|216:264,1,270.000010299683
40,160,29255,2,0,B|112:80|112:80|208:40|208:40|168:112,1,270.000010299683
88,240,29978,1,0,0:0:0:0:
8,360,30099,1,0,0:0:0:0:
168,208,30219,1,0,0:0:0:0:
440,176,30460,1,0,0:0:0:0:
440,176,30581,1,0,0:0:0:0:
256,320,30822,1,0,0:0:0:0:
160,96,31063,5,0,0:0:0:0:
352,96,31304,1,0,0:0:0:0:
256,320,31544,1,0,0:0:0:0:
352,96,32147,2,0,B|216:96|216:96|288:144|288:144|248:184,1,270.000010299683
104,296,32870,2,0,B|72:288|72:288|30:242,2,67.5000025749208
352,328,33593,5,0,0:0:0:0:
352,144,33834,1,0,0:0:0:0:
352,328,34075,1,0,0:0:0:0:
352,128,34436,1,0,0:0:0:0:
432,304,34677,5,0,0:0:0:0:
432,288,34797,1,0,0:0:0:0:
432,272,34918,1,0,0:0:0:0:
432,256,35038,1,0,0:0:0:0:
432,240,35159,1,0,0:0:0:0:
432,224,35279,5,0,0:0:0:0:
400,256,35400,1,0,0:0:0:0:
344,288,35520,1,0,0:0:0:0:
264,304,35641,1,0,0:0:0:0:
168,280,35761,1,0,0:0:0:0:
96,184,35882,1,0,0:0:0:0:
96,48,36002,1,0,0:0:0:0:
256,192,36243,12,0,37448,0:0:0:0:
144,240,37930,6,0,B|192:288|192:288|280:280,1,135.000005149842
480,256,38171,1,0,0:0:0:0:
224,208,38291,1,0,0:0:0:0:
480,168,38412,2,0,B|344:208|344:208|352:136,1,202.500007724762,0|0,0:0|2:2,0:0:0:0:
448,80,38653,2,0,L|296:88,1,135.000005149842
80,104,38894,1,0,0:0:0:0:
224,280,39014,1,0,0:0:0:0:
232,32,39135,1,0,0:0:0:0:
80,240,39255,1,0,0:0:0:0:
144,32,39376,6,0,B|168:96|168:96|304:136,1,202.500007724762,0|0,0:0|2:2,0:0:0:0:
128,168,39617,2,0,B|184:192|184:192|272:280|272:280|344:312,1,202.500007724762,0|0,0:0|2:2,0:0:0:0:
152,312,39858,2,0,B|208:352|208:352|312:360|312:360|368:320,1,202.500007724762,0|0,0:0|2:2,0:0:0:0:
456,128,40099,1,0,0:0:0:0:
456,352,40219,1,0,0:0:0:0:
392,64,40340,1,0,0:0:0:0:
488,280,40460,1,0,0:0:0:0:
312,32,40581,1,0,0:0:0:0:
496,200,40701,1,0,0:0:0:0:
224,24,40822,2,0,B|208:40|208:40|216:136|216:136|176:184,1,135.000005149842
112,352,41063,2,0,B|112:328|112:328|216:240,1,135.000005149842
360,128,41304,5,0,0:0:0:0:
272,288,41424,1,0,0:0:0:0:
432,128,41544,1,0,0:0:0:0:
200,272,41665,1,0,0:0:0:0:
496,168,41785,2,0,B|464:200|464:200|352:216,1,135.000005149842
112,216,42026,2,0,B|157:216|157:216|248:152,1,135.000005149842
416,40,42267,5,0,0:0:0:0:
160,96,42388,1,0,0:0:0:0:
488,112,42508,1,0,0:0:0:0:
112,24,42629,1,0,0:0:0:0:
480,216,42749,2,0,B|384:168|384:168|296:184,1,135.000005149842
112,248,42990,1,0,0:0:0:0:
356,172,43111,1,0,0:0:0:0:
112,248,43231,6,0,B|135:254|135:254|264:240,1,135.000005149842
480,216,43472,1,0,0:0:0:0:
245,242,43593,1,0,0:0:0:0:
480,216,43713,6,0,B|448:216|448:216|328:160,1,135.000005149842
176,56,43954,1,0,0:0:0:0:
432,112,44075,1,0,0:0:0:0:
120,128,44195,2,0,B|168:193|168:193|232:224,1,135.000005149842
416,312,44436,1,0,0:0:0:0:
112,256,44557,1,0,0:0:0:0:
272,64,44677,5,0,0:0:0:0:
272,64,44797,1,0,0:0:0:0:
272,336,45038,1,0,0:0:0:0:
272,64,45279,1,0,0:0:0:0:
184,288,45400,1,0,0:0:0:0:
272,64,45520,1,0,0:0:0:0:
344,256,45641,6,0,B|312:256|312:256|232:192,1,135.000005149842
152,24,45882,1,0,0:0:0:0:
104,272,46002,1,0,0:0:0:0:
72,24,46123,2,0,B|80:72|80:72|200:128,1,135.000005149842
376,64,46364,2,0,B|384:80|384:80|304:184,1,135.000005149842
192,352,46605,1,0,0:0:0:0:
416,160,46725,1,0,0:0:0:0:
320,360,46846,1,0,0:0:0:0:
128,200,46966,1,0,0:0:0:0:
392,248,47087,6,0,L|248:208,1,135.000005149842
96,64,47328,1,0,0:0:0:0:
352,168,47448,1,0,0:0:0:0:
48,144,47569,2,0,L|192:120,1,135.000005149842
432,72,47810,1,0,0:0:0:0:
192,32,47930,1,0,0:0:0:0:
224,272,48050,2,0,B|224:240|224:240|288:128|288:128|256:72,1,202.500007724762,0|0,0:0|2:2,0:0:0:0:
152,104,48291,1,0,0:0:0:0:
88,256,48412,1,0,0:0:0:0:
240,368,48532,2,0,B|312:368|312:368|392:336|392:336|352:288,1,202.500007724762,0|0,0:0|2:2,0:0:0:0:
456,272,48773,2,0,L|328:184,1,135.000005149842
168,48,49014,5,0,0:0:0:0:
376,112,49135,1,0,0:0:0:0:
168,48,49255,1,0,0:0:0:0:
272,232,49376,1,0,0:0:0:0:
64,48,49496,2,0,B|64:80|64:80|136:176,1,135.000005149842
248,320,49737,1,0,0:0:0:0:
424,200,49858,2,0,B|400:208|400:208|272:144,1,135.000005149842
144,48,50099,1,0,0:0:0:0:
128,256,50219,2,0,B|200:192|200:192|240:136,1,135.000005149842
312,32,50460,2,0,B|184:104|184:104|272:120,1,202.500007724762,0|0,0:0|2:2,0:0:0:0:
352,128,50701,2,0,L|224:224,1,135.000005149842
64,336,50942,5,0,0:0:0:0:
144,128,51063,1,0,0:0:0:0:
136,376,51183,1,0,0:0:0:0:
24,24,51424,1,0,0:0:0:0:
272,352,51665,1,0,0:0:0:0:
176,16,51906,1,0,0:0:0:0:
496,336,52147,1,0,0:0:0:0:
256,192,52388,1,0,0:0:0:0:
256,48,52749,5,0,0:0:0:0:
160,192,52870,1,0,0:0:0:0:
256,48,52990,2,0,L|200:128,1,90
400,128,53352,5,0,0:0:0:0:
400,312,53593,1,0,0:0:0:0:
288,152,53834,2,0,B|312:248|312:248|280:288,1,125.999996154785
128,352,54316,2,0,B|72:269|72:269|73:226,1,125.999996154785
88,56,54797,1,0,0:0:0:0:
208,176,55038,1,0,0:0:0:0:
320,32,55279,2,0,B|304:56|304:56|280:152,1,125.999996154785
280,320,55761,2,0,B|302:301|302:301|353:216,1,125.999996154785
392,32,56243,1,0,0:0:0:0:
224,88,56484,1,0,0:0:0:0:
392,160,56725,1,0,0:0:0:0:
248,32,57207,6,0,B|248:96|248:96|304:152,1,125.999996154785
456,240,57689,1,0,0:0:0:0:
336,80,57930,1,0,0:0:0:0:
336,280,58171,1,0,0:0:0:0:
240,104,58412,1,0,0:0:0:0:
424,224,58653,1,0,0:0:0:0:
200,176,58894,1,0,0:0:0:0:
456,120,59135,1,0,0:0:0:0:
240,104,59376,1,0,0:0:0:0:
464,40,59617,1,0,0:0:0:0:
360,208,59858,1,0,0:0:0:0:
312,32,60099,1,0,0:0:0:0:
200,200,60340,1,0,0:0:0:0:
224,8,60581,2,0,B|240:64|240:64|288:144,1,125.999996154785
432,320,61063,6,0,B|336:280|336:280|304:256,1,125.999996154785
192,136,61544,1,0,0:0:0:0:
224,336,61785,2,0,B|224:240|224:240|240:208,1,125.999996154785
328,64,62267,1,0,0:0:0:0:
384,240,62508,2,0,B|320:160|320:160|280:128,1,125.999996154785
144,40,62990,2,0,B|144:136|144:136|176:176,1,125.999996154785
320,296,63472,1,0,0:0:0:0:
112,248,63713,1,0,0:0:0:0:
336,216,63954,1,0,0:0:0:0:
112,248,64195,1,0,0:0:0:0:
272,360,64436,1,0,0:0:0:0:
136,120,64918,6,0,B|96:136|96:136|192:192,1,125.999996154785
264,216,65279,1,0,0:0:0:0:
248,72,65400,2,0,B|296:112|296:112|328:184,1,125.999996154785
352,296,65761,1,0,0:0:0:0:
464,160,65882,2,0,B|432:216|432:216|344:232,1,125.999996154785
160,288,66364,6,0,L|112:208,1,62.9999980773926,0|0,0:0|2:2,0:0:0:0:
48,112,66605,1,0,0:0:0:0:
208,192,66846,1,0,0:0:0:0:
320,312,67087,2,0,B|296:272|296:272|296:176,1,125.999996154785
352,32,67569,1,0,0:0:0:0:
224,232,67810,1,0,0:0:0:0:
160,24,68050,1,0,0:0:0:0:
48,280,68291,1,0,0:0:0:0:
256,192,68773,5,0,0:0:0:0:
104,32,69014,1,0,0:0:0:0:
280,192,69255,1,0,0:0:0:0:
128,32,69496,1,0,0:0:0:0:
304,192,69737,1,0,0:0:0:0:
152,32,69978,1,0,0:0:0:0:
328,192,70219,1,0,0:0:0:0:
176,32,70460,1,0,0:0:0:0:
256,192,70701,5,0,0:0:0:0:
168,352,70942,1,0,0:0:0:0:
232,192,71183,1,0,0:0:0:0:
144,352,71424,1,0,0:0:0:0:
208,192,71665,1,0,0:0:0:0:
120,56,71906,5,0,0:0:0:0:
120,72,72026,1,0,0:0:0:0:
120,88,72147,1,0,0:0:0:0:
120,104,72267,1,0,0:0:0:0:
120,120,72388,1,0,0:0:0:0:
120,136,72508,1,0,0:0:0:0:
32,152,72629,2,0,B|56:216|56:216|88:232,1,94.499997116089,0|0,0:0|2:2,0:0:0:0:
79,227,72870,1,0,0:0:0:0:
79,227,72990,1,0,0:0:0:0:
79,227,73111,1,0,0:0:0:0:
232,144,73352,1,0,0:0:0:0:
400,288,73593,6,0,B|304:184,1,125.999996154785
208,72,74075,1,0,0:0:0:0:
456,72,74316,1,0,0:0:0:0:
208,160,74557,1,0,0:0:0:0:
456,160,74797,1,0,0:0:0:0:
272,344,75038,1,0,0:0:0:0:
384,160,75279,6,0,B|320:160|320:160|248:104,1,125.999996154785
128,16,75761,1,0,0:0:0:0:
160,192,76002,1,0,0:0:0:0:
200,16,76243,1,0,0:0:0:0:
256,192,76484,5,0,0:0:0:0:
256,102,76966,1,0,0:0:0:0:
256,192,77448,1,0,0:0:0:0:
256,192,77810,1,0,0:0:0:0:
256,192,78171,1,0,0:0:0:0:
256,192,78412,2,0,L|256:88,1,90,0|0,0:0|2:2,0:0:0:0:
256,102,78653,1,0,0:0:0:0:
256,102,78894,1,0,0:0:0:0:
256,102,79376,1,0,0:0:0:0:
96,104,79737,1,0,0:0:0:0:
96,256,80099,1,0,0:0:0:0:
256,102,80340,6,0,B|313:94|313:94|213:206,1,180,0|0,3:0|3:0,3:0:0:0:
400,80,80822,1,0,0:0:0:0:
400,152,81063,1,0,0:0:0:0:
352,232,81304,1,0,0:0:0:0:
256,280,81544,1,0,0:0:0:0:
136,248,81785,1,0,0:0:0:0:
48,136,82026,1,0,0:0:0:0:
96,16,82267,5,0,0:0:0:0:
128,88,82388,1,0,0:0:0:0:
192,152,82508,1,0,0:0:0:0:
288,184,82629,1,0,0:0:0:0:
392,176,82749,1,0,0:0:0:0:
392,176,82810,1,0,0:0:0:0:
392,176,82870,1,0,0:0:0:0:
392,16,82990,6,0,L|392:112,1,90
392,248,83231,1,0,0:0:0:0:
392,264,83291,1,0,0:0:0:0:
392,280,83352,1,0,0:0:0:0:
392,296,83412,1,0,0:0:0:0:
392,312,83472,1,0,0:0:0:0:
334,287,83532,1,0,0:0:0:0:
276,262,83592,1,0,0:0:0:0:
218,238,83652,1,0,0:0:0:0:
218,238,84195,5,0,0:0:0:0:
328,72,84677,2,0,L|328:232,1,144
328,216,85641,1,0,0:0:0:0:
328,216,86123,1,0,0:0:0:0:
328,216,86605,2,0,B|256:128|256:128|344:32,1,216
325,52,87328,1,0,0:0:0:0:
325,52,87569,1,0,0:0:0:0:
328,56,88050,1,0,0:0:0:0:
328,56,88532,1,0,0:0:0:0:
328,56,89014,1,0,0:0:0:0:
328,56,89496,2,0,L|328:208,1,144
328,200,89978,1,0,0:0:0:0:
328,200,90460,2,0,L|328:48,1,144
218,166,90942,5,0,0:0:0:0:
224,72,91304,1,0,0:0:0:0:
64,152,91424,1,0,0:0:0:0:
152,48,91544,1,0,0:0:0:0:
136,208,91665,1,0,0:0:0:0:
304,296,91906,6,0,B|352:240|352:240|360:208,1,90
352,80,92147,1,0,0:0:0:0:
264,224,92267,1,0,0:0:0:0:
264,48,92388,2,0,B|232:112|232:112|192:120,1,90
192,304,92629,2,0,B|152:280|152:280|144:232,1,90
136,80,92870,1,0,0:0:0:0:
56,232,92990,1,0,0:0:0:0:
136,80,93111,1,0,0:0:0:0:
56,232,93231,1,0,0:0:0:0:
40,80,93352,6,0,B|72:144|72:144|120:160,1,90
232,40,93593,2,0,B|240:104|240:104|264:120,1,90
416,192,93834,1,0,0:0:0:0:
312,64,93954,1,0,0:0:0:0:
416,192,94075,2,0,B|344:200|344:200|296:192,1,90
136,192,94316,2,0,B|112:224|112:224|160:264,1,90
288,344,94557,2,0,L|312:240,1,90
384,80,94797,5,0,0:0:0:0:
384,216,94918,1,0,0:0:0:0:
384,80,95038,1,0,0:0:0:0:
384,216,95159,1,0,0:0:0:0:
384,8,95279,1,0,0:0:0:0:
384,288,95400,1,0,0:0:0:0:
384,8,95520,1,0,0:0:0:0:
384,288,95641,1,0,0:0:0:0:
384,8,95761,6,0,B|384:64|384:64|336:88,1,90
144,112,96002,1,0,0:0:0:0:
368,168,96123,1,0,0:0:0:0:
80,168,96243,1,0,0:0:0:0:
416,112,96364,1,0,0:0:0:0:
120,232,96484,1,0,0:0:0:0:
424,216,96605,1,0,0:0:0:0:
144,112,96725,5,0,0:0:0:0:
480,160,96846,1,0,0:0:0:0:
80,168,96966,1,0,0:0:0:0:
416,112,97087,1,0,0:0:0:0:
120,232,97207,1,0,0:0:0:0:
464,280,97328,1,0,0:0:0:0:
144,112,97448,1,0,0:0:0:0:
480,160,97569,1,0,0:0:0:0:
80,168,97689,1,0,0:0:0:0:
80,168,98653,5,0,0:0:0:0:
80,168,98894,2,0,B|80:193|80:193|64:224,3,36
80,80,99135,1,0,0:0:0:0:
352,80,99617,6,0,B|368:152|368:152|320:216,1,135.000005149842
176,344,99858,1,0,0:0:0:0:
272,136,99978,1,0,0:0:0:0:
488,56,100099,2,0,B|352:96|352:96|424:184,1,202.500007724762,0|0,0:0|2:2,0:0:0:0:
472,200,100340,2,0,B|392:216|392:216|320:208,1,135.000005149842
112,112,100581,1,0,0:0:0:0:
280,264,100701,1,0,0:0:0:0:
224,32,100822,1,0,0:0:0:0:
144,272,100942,1,0,0:0:0:0:
40,32,101063,6,0,B|136:48|136:48|224:112,1,202.500007724762
112,144,101304,2,0,B|176:200|176:200|328:176,1,202.500007724762
288,64,101544,2,0,B|368:128|368:128|368:192|368:192|328:248,1,202.500007724762
328,240,101785,5,0,0:0:0:0:
480,88,101906,1,0,0:0:0:0:
352,264,102027,1,0,0:0:0:0:
456,72,102147,1,0,0:0:0:0:
376,288,102268,1,0,0:0:0:0:
432,56,102388,1,0,0:0:0:0:
272,320,102508,2,0,L|312:168,1,135.000005149842
248,8,102749,2,0,L|200:144,1,135.000005149842
80,320,102991,5,0,0:0:0:0:
144,64,103111,1,0,0:0:0:0:
8,288,103231,1,0,0:0:0:0:
264,152,103352,1,0,0:0:0:0:
496,208,103472,2,0,B|456:232|456:232|352:256,1,135.000005149842
72,248,103713,2,0,B|117:248|117:248|216:200,1,135.000005149842
416,80,103954,5,0,0:0:0:0:
120,160,104075,1,0,0:0:0:0:
480,136,104195,1,0,0:0:0:0:
120,80,104316,1,0,0:0:0:0:
480,216,104436,2,0,B|376:184|376:184|296:192,1,135.000005149842
120,272,104677,1,0,0:0:0:0:
352,96,104798,1,0,0:0:0:0:
64,152,104918,6,0,B|128:160|128:160|216:128,1,135.000005149842
448,32,105159,1,0,0:0:0:0:
176,224,105280,1,0,0:0:0:0:
496,104,105400,6,0,B|384:120|384:120|304:112,1,135.000005149842
96,104,105641,1,0,0:0:0:0:
440,184,105762,1,0,0:0:0:0:
144,32,105882,2,0,B|176:48|176:48|256:128,1,135.000005149842
432,328,106123,1,0,0:0:0:0:
128,192,106244,1,0,0:0:0:0:
480,256,106364,6,0,L|336:256,1,135.000005149842
120,256,106605,1,0,0:0:0:0:
344,216,106725,1,0,0:0:0:0:
120,288,106846,1,0,0:0:0:0:
344,176,106966,1,0,0:0:0:0:
120,328,107087,1,0,0:0:0:0:
344,136,107207,1,0,0:0:0:0:
120,368,107328,6,0,B|192:360|192:360|272:336,1,135.000005149842
8,248,107569,1,0,0:0:0:0:
264,168,107689,1,0,0:0:0:0:
32,104,107810,2,0,B|56:136|56:136|160:208,1,135.000005149842
384,336,108051,2,0,B|320:296|320:296|272:224,1,135.000005149842
512,344,108292,1,0,0:0:0:0:
392,160,108412,1,0,0:0:0:0:
192,152,108533,1,0,0:0:0:0:
88,312,108653,1,0,0:0:0:0:
313,208,108774,6,0,B|281:200|281:200|177:144,1,135.000005149842
40,16,109015,1,0,0:0:0:0:
120,168,109135,1,0,0:0:0:0:
256,264,109256,2,0,B|288:288|288:288|344:280|344:280|384:232,1,135.000005149842
432,96,109497,5,0,0:0:0:0:
313,208,109617,1,0,0:0:0:0:
432,96,109737,2,0,B|328:80|328:80|224:104,1,202.500007724762,0|0,0:0|2:2,0:0:0:0:
208,112,109978,1,0,0:0:0:0:
40,176,110099,1,0,0:0:0:0:
144,8,110219,2,0,B|128:96|128:96|152:160|152:160|216:192,1,202.500007724762
233,101,110460,2,0,B|304:160|304:160|264:184,1,135.000005149842
368,48,110701,5,0,0:0:0:0:
267,181,110822,1,0,0:0:0:0:
368,48,110942,1,0,0:0:0:0:
272,256,111063,1,0,0:0:0:0:
440,48,111183,2,0,B|440:80|440:80|392:176,1,135.000005149842
264,336,111424,1,0,0:0:0:0:
352,80,111545,2,0,B|328:88|328:88|216:184,1,135.000005149842
88,312,111786,1,0,0:0:0:0:
344,216,111906,2,0,B|320:240|320:240|184:224,1,135.000005149842
40,152,112147,2,0,B|13:210|13:210|164:160,1,202.500007724762,0|0,0:0|2:2,0:0:0:0:
104,80,112388,2,0,B|168:104|168:104|248:112,1,135.000005149842
472,120,112629,5,0,0:0:0:0:
176,176,112750,1,0,0:0:0:0:
496,208,112870,2,0,B|400:192|400:192|344:160,1,135.000005149842
208,8,113111,1,0,0:0:0:0:
304,232,113231,1,0,0:0:0:0:
208,8,113352,1,0,0:0:0:0:
304,232,113472,1,0,0:0:0:0:
112,32,113593,5,0,0:0:0:0:
304,232,113713,1,0,0:0:0:0:
112,32,113834,1,0,0:0:0:0:
304,232,113954,1,0,0:0:0:0:
112,32,114075,5,0,0:0:0:0:
240,320,114195,1,0,0:0:0:0:
192,16,114316,1,0,0:0:0:0:
160,344,114436,1,0,0:0:0:0:
112,32,114557,1,0,0:0:0:0:
80,344,114677,1,0,0:0:0:0:
192,16,114797,1,0,0:0:0:0:
152,320,114918,1,0,0:0:0:0:
32,48,115038,5,0,0:0:0:0:
32,48,115099,1,0,0:0:0:0:
32,48,115159,1,0,0:0:0:0:
24,184,115279,2,0,L|0:248,2,36
128,112,115520,5,0,0:0:0:0:
128,112,115581,1,0,0:0:0:0:
128,112,115641,1,0,0:0:0:0:
248,88,115761,2,0,L|264:40,2,36
248,208,116002,5,0,0:0:0:0:
256,224,116063,1,0,0:0:0:0:
264,240,116123,1,0,0:0:0:0:
272,256,116183,1,0,0:0:0:0:
280,272,116243,1,0,0:0:0:0:
309,240,116303,1,0,0:0:0:0:
339,209,116363,1,0,0:0:0:0:
368,177,116423,1,0,0:0:0:0:
398,146,116483,1,0,0:0:0:0:
398,146,116725,5,0,0:0:0:0:
208,32,116966,2,0,B|240:64|240:64|224:168,1,144
184,352,117448,1,0,0:0:0:0:
144,104,117689,1,0,0:0:0:0:
352,336,117930,2,0,L|216:240,1,144
56,120,118412,5,0,0:0:0:0:
56,192,118573,1,0,0:0:0:0:
56,264,118733,1,0,0:0:0:0:
56,48,118894,5,0,0:0:0:0:
248,208,119014,1,0,0:0:0:0:
136,24,119135,1,0,0:0:0:0:
176,280,119255,1,0,0:0:0:0:
304,32,119376,2,0,B|208:88|208:88|192:112,1,135.000005149842
88,296,119617,2,0,B|104:336|104:336|216:352,1,135.000005149842
464,336,119858,5,0,0:0:0:0:
384,144,119978,1,0,0:0:0:0:
400,336,120099,1,0,0:0:0:0:
224,240,120219,1,0,0:0:0:0:
448,192,120340,2,0,B|432:216|432:216|312:224,1,135.000005149842
80,240,120581,2,0,L|192:152,1,135.000005149842
376,24,120822,5,0,0:0:0:0:
216,240,120942,1,0,0:0:0:0:
296,24,121063,1,0,0:0:0:0:
272,296,121183,1,0,0:0:0:0:
440,72,121304,2,0,B|360:112|360:112|312:112,1,135.000005149842
96,40,121544,2,0,L|208:144,1,135.000005149842
400,272,121785,6,0,B|400:320|400:320|304:240,1,135.000005149842
256,56,122026,1,0,0:0:0:0:
72,112,122147,1,0,0:0:0:0:
333,264,122267,2,0,L|173:216,1,135.000005149842
0,128,122508,1,0,0:0:0:0:
176,16,122629,1,0,0:0:0:0:
408,184,122749,6,0,L|176:128,1,202.500007724762,0|0,0:0|2:2,0:0:0:0:
184,128,122990,1,0,0:0:0:0:
352,312,123111,1,0,0:0:0:0:
112,328,123231,2,0,B|96:256|96:256|112:184,1,135.000005149842
248,24,123472,2,0,B|280:80|280:80|264:176,1,135.000005149842
200,368,123713,5,0,0:0:0:0:
192,96,123834,1,0,0:0:0:0:
288,360,123954,1,0,0:0:0:0:
96,56,124075,1,0,0:0:0:0:
16,360,124195,2,0,B|32:328|32:328|144:296,1,135.000005149842
384,248,124436,2,0,L|232:216,1,135.000005149842
16,136,124677,5,0,0:0:0:0:
224,48,124797,1,0,0:0:0:0:
16,136,124918,1,0,0:0:0:0:
224,48,125038,1,0,0:0:0:0:
56,248,125159,5,0,0:0:0:0:
136,40,125279,1,0,0:0:0:0:
56,248,125400,1,0,0:0:0:0:
136,40,125520,1,0,0:0:0:0:
160,280,125641,5,0,0:0:0:0:
136,40,125761,1,0,0:0:0:0:
240,336,125882,1,0,0:0:0:0:
296,40,126002,1,0,0:0:0:0:
168,352,126123,1,0,0:0:0:0:
216,16,126243,1,0,0:0:0:0:
240,336,126364,1,0,0:0:0:0:
296,40,126484,1,0,0:0:0:0:
312,344,126605,6,0,B|344:272|344:272|304:192,1,135.000005149842
120,16,126846,1,0,0:0:0:0:
224,184,126966,1,0,0:0:0:0:
40,24,127087,2,0,L|144:208,1,202.500007724762,0|0,0:0|2:2,0:0:0:0:
152,224,127328,1,0,0:0:0:0:
320,360,127448,2,0,B|264:296|264:296|288:136,1,202.500007724762,0|0,0:0|2:2,0:0:0:0:
352,224,127689,2,0,B|392:144|392:144|296:112,1,135.000005149842
144,56,127930,1,0,0:0:0:0:
400,72,128050,1,0,0:0:0:0:
112,128,128171,1,0,0:0:0:0:
328,32,128291,1,0,0:0:0:0:
216,240,128412,1,0,0:0:0:0:
256,0,128532,6,0,B|256:96|256:96|216:144,1,135.000005149842
72,256,128773,1,0,0:0:0:0:
152,56,128894,1,0,0:0:0:0:
208,312,129014,2,0,B|144:184|144:184|184:136,1,202.500007724762,0|0,0:0|2:2,0:0:0:0:
208,120,129255,1,0,0:0:0:0:
360,56,129376,2,0,B|312:88|312:88|272:184|272:184|216:208,1,202.500007724762,0|0,0:0|2:2,0:0:0:0:
296,264,129617,2,0,B|352:224|352:224|376:144,1,135.000005149842
472,16,129858,1,0,0:0:0:0:
440,232,129978,1,0,0:0:0:0:
288,56,130099,1,0,0:0:0:0:
296,344,130219,1,0,0:0:0:0:
144,136,130340,1,0,0:0:0:0:
160,352,130460,6,0,B|112:296|112:296|88:216,1,135.000005149842
80,24,130701,1,0,0:0:0:0:
176,224,130822,1,0,0:0:0:0:
192,24,130942,2,0,B|232:120|232:120|328:176,1,202.500007724762,0|0,0:0|2:2,0:0:0:0:
344,184,131183,1,0,0:0:0:0:
432,48,131304,2,0,B|464:104|464:104|472:208|472:208|408:256,1,202.500007724762,0|0,0:0|2:2,0:0:0:0:
504,280,131544,2,0,B|368:344|368:344|296:288,1,202.500007724762,0|0,0:0|2:2,0:0:0:0:
304,296,131785,1,0,0:0:0:0:
304,96,131906,1,0,0:0:0:0:
304,296,132026,1,0,0:0:0:0:
304,96,132147,1,0,0:0:0:0:
304,296,132267,1,0,0:0:0:0:
224,56,132388,6,0,B|192:112|192:112|184:192,1,135.000005149842
184,360,132629,2,0,B|160:344|160:344|112:232,1,135.000005149842
48,48,132870,1,0,0:0:0:0:
48,48,132990,1,0,0:0:0:0:
256,192,133231,1,0,0:0:0:0:
128,16,133472,1,0,0:0:0:0:
256,192,133713,1,0,0:0:0:0:
256,192,134316,1,0,0:0:0:0:
