osu file format v14

[General]
AudioFilename: audio.mp3
AudioLeadIn: 0
PreviewTime: 37930
Countdown: 1
SampleSet: None
StackLeniency: 0.7
Mode: 0
LetterboxInBreaks: 0
WidescreenStoryboard: 0

[Editor]
Bookmarks: 11906,20581,34075,37930,53352,55761,68773,76484,84195,91906,99617,115038,118894,126243
DistanceSpacing: 1.5
BeatDivisor: 4
GridSize: 32
TimelineZoom: 2.2

[Metadata]
Title:Mr Fake
TitleUnicode:Mr Fake
Artist:Amatsuki
ArtistUnicode:Amatsuki
Creator:P3RS3X
Version:Imposter
Source:
Tags:amatsuki mr fake p3rs3x
BeatmapID:2134361
BeatmapSetID:1020016

[Difficulty]
HPDrainRate:6
CircleSize:4
OverallDifficulty:10
ApproachRate:9.8
SliderMultiplier:1.4
SliderTickRate:1

[Events]
//Background and Video events
0,0,"fake.jpg",0,0
//Break Periods
//Storyboard Layer 0 (Background)
//Storyboard Layer 1 (Fail)
//Storyboard Layer 2 (Pass)
//Storyboard Layer 3 (Foreground)
//Storyboard Layer 4 (Overlay)
//Storyboard Sound Samples

[TimingPoints]
1304,240.963855421687,4,1,0,50,1,0
12870,-133.333333333333,4,1,0,50,0,0
16725,-333.333333333333,4,1,0,50,0,0
18653,-100,4,1,0,50,0,0
28291,-333.333333333333,4,1,0,50,0,0
32147,-83.3333333333333,4,1,0,50,0,0
37930,-66.6666666666667,4,1,0,50,0,1
41304,-50,4,1,0,50,0,1
52388,-100,4,1,0,50,0,1
53352,-142.857142857143,4,1,0,50,0,0
68773,-66.6666666666667,4,1,0,50,0,0
84195,-333.333333333333,4,1,0,50,0,0
97689,-500,4,1,0,50,0,0
99135,-100,4,1,0,50,0,0
99617,-66.6666666666667,4,1,0,50,0,1
116725,-125,4,1,0,50,0,0
118894,-66.6666666666667,4,1,0,50,0,1
134316,-66.6666666666667,4,1,0,50,0,0

[HitObjects]
127,124,1304,5,0,0:0:0:0:
201,50,1424,1,0,0:0:0:0:
305,51,1544,1,0,0:0:0:0:
365,137,1665,1,0,0:0:0:0:
315,229,1785,2,0,P|249:233|173:212,1,140
178,214,2147,2,0,P|245:232|315:229,1,140
403,172,2508,5,0,0:0:0:0:
360,75,2629,1,0,0:0:0:0:
490,25,2749,1,0,0:0:0:0:
361,323,2990,5,0,0:0:0:0:
287,234,3111,1,0,0:0:0:0:
403,172,3231,2,0,L|381:207,1,35
178,214,3352,2,0,L|196:184,1,35
287,234,3472,2,0,P|289:283|377:320,1,140
479,151,3834,5,0,0:0:0:0:
287,234,3955,2,0,P|314:169|373:132,1,140
480,286,4316,1,0,0:0:0:0:
327,363,4436,1,0,0:0:0:0:
204,283,4557,1,0,0:0:0:0:
185,170,4677,2,0,B|176:152|176:152|181:136|181:136|163:121|163:121|182:105|182:105|154:98|154:98|178:79|178:79|145:73|145:73|180:45|180:45,1,210
318,94,5159,5,0,0:0:0:0:
364,260,5279,1,0,0:0:0:0:
158,234,5400,2,0,P|170:194|188:165,1,70
262,67,5641,1,0,0:0:0:0:
262,67,5882,1,0,0:0:0:0:
377,192,6123,5,0,0:0:0:0:
270,297,6243,1,0,0:0:0:0:
239,165,6364,1,0,0:0:0:0:
364,276,6484,1,0,0:0:0:0:
203,239,6605,1,0,0:0:0:0:
203,239,6846,1,0,0:0:0:0:
339,89,7087,5,0,0:0:0:0:
296,249,7207,1,0,0:0:0:0:
133,244,7328,2,0,P|185:242|211:236,1,70
196,101,7569,2,0,P|248:86|266:90,1,70
419,192,7810,1,0,0:0:0:0:
213,323,8050,5,0,0:0:0:0:
283,134,8291,2,0,P|316:87|352:73,1,70
429,253,8653,1,0,0:0:0:0:
429,253,8773,1,0,0:0:0:0:
269,295,9014,5,0,0:0:0:0:
103,196,9135,1,0,0:0:0:0:
244,151,9255,1,0,0:0:0:0:
96,273,9376,1,0,0:0:0:0:
244,151,9496,1,0,0:0:0:0:
269,295,9617,1,0,0:0:0:0:
103,196,9737,1,0,0:0:0:0:
384,183,9978,5,0,0:0:0:0:
169,293,10099,1,0,0:0:0:0:
244,151,10219,1,0,0:0:0:0:
269,295,10340,1,0,0:0:0:0:
323,134,10460,1,0,0:0:0:0:
251,316,10942,5,0,0:0:0:0:
353,80,11063,1,0,0:0:0:0:
85,213,11183,1,0,0:0:0:0:
325,277,11304,1,0,0:0:0:0:
241,107,11424,1,0,0:0:0:0:
139,315,11544,1,0,0:0:0:0:
469,241,11665,1,0,0:0:0:0:
269,356,11785,1,0,0:0:0:0:
149,175,11906,5,0,0:0:0:0:
149,175,12026,1,0,0:0:0:0:
357,258,12267,1,0,0:0:0:0:
324,78,12870,6,0,P|296:98|309:171,1,105.000004005432
232,287,13352,2,0,P|180:268|158:214,1,105.000004005432
252,138,13834,2,0,P|306:159|362:152,1,105.000004005432
437,64,14195,1,0,0:0:0:0:
352,155,14316,1,0,0:0:0:0:
281,61,14436,1,0,0:0:0:0:
397,111,14557,1,0,0:0:0:0:
424,283,14797,6,0,B|353:303|353:303|315:290,1,105.000004005432
126,130,15279,1,0,0:0:0:0:
236,121,15400,1,0,0:0:0:0:
307,183,15520,2,0,L|311:214,1,26.2500010013581
147,322,15761,2,0,B|76:342|76:342|46:331,1,105.000004005432
38,232,16123,1,0,0:0:0:0:
119,167,16243,1,0,0:0:0:0:
215,172,16364,1,2,0:0:0:0:
302,251,16484,6,0,B|368:296|368:296|408:278,1,105.000004005432,8|4,0:0|0:0,0:0:0:0:
418,104,16966,5,0,0:0:0:0:
256,281,17207,1,0,0:0:0:0:
186,173,17328,1,0,0:0:0:0:
311,174,17448,1,0,0:0:0:0:
86,324,17689,1,0,0:0:0:0:
116,65,17930,1,0,0:0:0:0:
241,66,18050,1,0,0:0:0:0:
186,173,18171,1,0,0:0:0:0:
311,174,18291,1,0,0:0:0:0:
256,281,18412,1,0,0:0:0:0:
442,145,18653,6,0,P|436:79|368:62,1,140
228,170,19135,1,0,0:0:0:0:
379,213,19255,1,0,0:0:0:0:
310,92,19376,1,0,0:0:0:0:
115,379,19617,1,4,0:0:0:0:
115,379,19858,1,0,0:0:0:0:
115,379,20099,1,0,0:0:0:0:
115,379,20340,1,0,0:0:0:0:
273,292,20581,6,0,B|277:182|277:182|246:147,1,140
121,85,21063,1,0,0:0:0:0:
209,232,21183,1,0,0:0:0:0:
321,71,21304,1,0,0:0:0:0:
161,159,21544,2,0,B|99:197|99:197|80:280,1,140
351,159,21906,2,0,B|413:197|413:197|428:262,1,140
161,225,22267,2,0,B|99:187|99:187|83:121,1,140
428,121,22749,2,0,B|413:187|413:187|351:225,1,140
209,162,23111,5,0,0:0:0:0:
284,263,23231,2,0,B|319:268|319:268|320:227,1,70
276,115,23472,5,0,0:0:0:0:
214,307,23593,1,0,0:0:0:0:
349,222,23713,2,0,P|322:186|274:175,1,70
71,150,23954,6,0,L|140:163,1,70
458,273,24195,1,0,0:0:0:0:
366,89,24436,6,0,B|360:130|360:130|336:161,1,70
143,349,24677,2,0,P|91:322|72:284,1,70
31,78,24918,2,0,B|75:81|75:81|108:109,1,70
427,327,25159,2,0,P|379:329|331:313,1,70
58,275,25400,2,0,B|52:243|52:243|88:212,1,70
219,73,25641,1,0,0:0:0:0:
271,225,25761,1,0,0:0:0:0:
365,54,26002,5,0,0:0:0:0:
329,290,26123,2,0,P|298:323|266:328,1,70
79,243,26364,2,0,P|100:215|132:204,1,70
271,225,26605,1,0,0:0:0:0:
79,364,26725,1,0,0:0:0:0:
329,290,26846,1,0,0:0:0:0:
255,65,26966,1,0,0:0:0:0:
196,276,27087,1,0,0:0:0:0:
376,170,27328,5,0,0:0:0:0:
376,170,27388,1,0,0:0:0:0:
376,170,27448,1,0,0:0:0:0:
320,280,27569,1,0,0:0:0:0:
320,280,27629,1,0,0:0:0:0:
320,280,27689,1,0,0:0:0:0:
266,156,27810,2,0,L|286:127,2,35
145,186,28050,2,0,L|125:215,2,35
187,95,28291,6,0,L|227:75,1,41.9999987182618
428,86,28773,1,0,0:0:0:0:
267,320,29135,2,0,L|221:328,1,41.9999987182618
105,152,29737,1,0,0:0:0:0:
362,215,29978,1,0,0:0:0:0:
239,69,30219,6,0,L|204:41,1,41.9999987182618
72,140,30701,1,0,0:0:0:0:
260,287,30942,1,0,0:0:0:0:
252,160,31063,2,0,L|254:134,1,20.9999993591309
270,152,31304,2,0,L|249:135,1,20.9999993591309
273,133,31544,2,0,L|247:139,1,20.9999993591309
446,325,32147,6,0,L|419:231,1,83.9999974365235
281,62,32629,2,0,L|190:107,1,83.9999974365235
140,315,32990,2,0,L|194:299,1,41.9999987182618
140,315,33111,2,0,B|261:276|261:276|270:232,1,167.999994873047
281,62,33593,1,0,0:0:0:0:
38,167,33834,1,0,0:0:0:0:
260,273,34075,6,0,P|313:271|359:163,1,167.999994873047
275,185,34436,2,0,P|216:185|174:280,1,167.999994873047
260,273,34797,2,0,P|313:271|359:163,1,167.999994873047
275,185,35159,2,0,P|216:185|174:280,1,167.999994873047
260,273,35520,2,0,P|313:271|359:163,1,167.999994873047
328,101,35882,1,0,0:0:0:0:
172,273,36002,1,0,0:0:0:0:
134,94,36364,5,0,0:0:0:0:
134,94,36484,1,0,0:0:0:0:
360,95,36725,1,0,0:0:0:0:
187,245,36966,1,0,0:0:0:0:
187,245,37026,1,0,0:0:0:0:
187,245,37087,1,0,0:0:0:0:
187,245,37207,2,0,P|234:243|286:187,1,125.999996154785
176,43,37448,1,0,0:0:0:0:
110,335,37930,6,0,B|129:263|129:263|177:223,1,105.000004005432
439,147,38171,1,0,0:0:0:0:
101,180,38291,1,0,0:0:0:0:
317,300,38412,2,0,P|329:206|313:145,1,157.500006008148
439,147,38653,2,0,P|388:98|217:86,1,210.000008010865
129,209,39014,1,0,0:0:0:0:
278,302,39135,6,0,P|354:286|392:211,1,157.500006008148
276,224,39376,2,0,P|341:182|352:99,1,157.500006008148
246,152,39617,2,0,P|293:90|274:9,1,157.500006008148
115,38,39858,2,0,P|132:104|108:166,1,105.000004005432
41,267,40099,2,0,P|119:247|162:207,1,105.000004005432
202,79,40340,2,0,P|272:124|286:196,1,157.500006008148
202,160,40581,2,0,P|208:233|179:328,1,157.500006008148
45,369,40822,1,0,0:0:0:0:
45,369,41063,6,0,P|33:315|94:271,1,105.000004005432
332,148,41304,1,0,0:0:0:0:
165,305,41424,1,0,0:0:0:0:
299,71,41544,1,0,0:0:0:0:
227,353,41665,1,0,0:0:0:0:
216,57,41785,2,0,B|112:31|112:31|106:73,1,140
208,256,42026,2,0,P|247:183|206:139,1,140
90,159,42267,6,0,B|156:307|156:307|168:248,1,210
208,256,42508,2,0,P|198:174|252:156,1,140
406,199,42749,2,0,P|378:298|303:333,1,140
148,327,42990,1,0,0:0:0:0:
266,183,43111,1,0,0:0:0:0:
111,188,43231,2,0,B|144:239|144:239|177:243,1,70
148,278,43352,2,0,L|224:277,1,70
241,318,43472,2,0,L|326:207,1,140
234,78,43713,6,0,P|358:60|401:177,1,210
452,35,43954,2,0,P|483:117|422:236,1,210
489,277,44195,2,0,P|387:306|295:284,1,140
207,194,44436,1,0,0:0:0:0:
292,47,44557,1,0,0:0:0:0:
284,259,44677,5,0,0:0:0:0:
202,26,44797,1,0,0:0:0:0:
381,342,45038,2,0,L|465:355,1,70
143,185,45279,5,0,0:0:0:0:
108,191,45339,1,0,0:0:0:0:
81,213,45399,1,0,0:0:0:0:
71,247,45460,1,0,0:0:0:0:
78,281,45520,1,0,0:0:0:0:
107,301,45581,1,0,0:0:0:0:
139,312,45641,6,0,P|227:310|293:207,1,210
201,234,45882,2,0,P|234:156|177:60,1,140
90,146,46123,2,0,P|125:52|231:33,1,210
186,126,46364,2,0,P|291:137|356:218,1,210
278,219,46605,2,0,P|341:297|414:276,1,140
464,150,46846,2,0,P|416:91|325:68,1,140
117,120,47087,1,0,0:0:0:0:
215,279,47207,1,0,0:0:0:0:
235,94,47328,6,0,P|296:45|392:64,1,140
381,288,47569,2,0,P|284:271|237:232,1,140
167,37,47810,2,0,P|258:48|276:113,1,140
248,334,48050,2,0,P|155:324|99:281,1,140
88,71,48291,2,0,P|157:72|218:105,1,140
342,322,48532,2,0,P|409:336|477:318,1,140
371,179,48773,6,0,P|291:118|230:104,1,140
69,171,49014,1,0,0:0:0:0:
237,275,49135,1,0,0:0:0:0:
152,95,49255,2,0,P|209:50|296:50,1,140
370,255,49496,1,0,0:0:0:0:
60,240,49617,1,0,0:0:0:0:
251,168,49737,6,0,P|307:123|322:54,1,140
71,117,49978,1,0,0:0:0:0:
211,45,50099,1,0,0:0:0:0:
217,285,50219,2,0,P|126:293|74:259,1,140
322,59,50460,2,0,P|401:49|451:97,1,140
389,273,50701,1,0,0:0:0:0:
206,140,50822,1,0,0:0:0:0:
355,152,50942,6,0,P|428:203|436:240,1,70
462,268,51063,1,0,0:0:0:0:
217,285,51183,1,0,0:0:0:0:
451,28,51424,5,0,0:0:0:0:
70,181,51665,1,0,0:0:0:0:
406,331,51906,1,0,0:0:0:0:
229,37,52147,1,0,0:0:0:0:
126,336,52388,2,0,P|199:288|225:237,1,140
152,118,52749,1,0,0:0:0:0:
291,242,52870,1,0,0:0:0:0:
320,73,52990,2,0,P|361:33|434:83,1,140
320,73,53352,5,0,0:0:0:0:
242,258,53593,1,0,0:0:0:0:
321,348,53834,2,0,P|358:315|368:263,1,97.9999970092774
320,78,54316,1,0,0:0:0:0:
242,258,54557,1,0,0:0:0:0:
102,121,54797,2,0,P|113:74|149:42,1,97.9999970092774
320,78,55279,1,0,0:0:0:0:
242,258,55520,1,0,0:0:0:0:
462,149,55761,5,0,0:0:0:0:
255,167,56002,1,0,0:0:0:0:
415,328,56243,1,0,0:0:0:0:
427,43,56484,5,0,0:0:0:0:
364,182,56605,1,0,0:0:0:0:
253,46,56725,1,0,0:0:0:0:
447,157,56846,1,0,0:0:0:0:
286,208,56966,1,0,0:0:0:0:
318,57,57087,1,0,0:0:0:0:
364,182,57207,1,0,0:0:0:0:
376,309,57448,5,0,0:0:0:0:
134,273,57689,1,0,0:0:0:0:
369,126,57930,1,0,0:0:0:0:
231,343,58171,1,0,0:0:0:0:
175,118,58412,1,0,0:0:0:0:
410,311,58653,1,0,0:0:0:0:
156,193,58894,5,0,0:0:0:0:
345,156,59014,1,0,0:0:0:0:
227,347,59135,1,0,0:0:0:0:
219,95,59376,5,0,0:0:0:0:
336,311,59617,1,0,0:0:0:0:
90,252,59858,1,0,0:0:0:0:
376,187,60099,5,0,0:0:0:0:
205,236,60219,1,0,0:0:0:0:
273,72,60340,1,0,0:0:0:0:
299,267,60460,1,0,0:0:0:0:
167,127,60581,1,0,0:0:0:0:
376,187,60701,1,0,0:0:0:0:
268,68,60822,1,0,0:0:0:0:
205,236,60942,1,0,0:0:0:0:
408,98,61063,6,0,P|380:54|324:42,1,97.9999970092774
86,118,61544,2,0,P|82:176|103:210,1,97.9999970092774
279,312,62026,1,0,0:0:0:0:
386,131,62267,2,0,P|355:98|310:83,1,73.4999977569581
300,153,62508,2,0,P|265:109|266:65,1,97.9999970092774
463,44,62990,2,0,L|456:133,1,73.4999977569581
434,214,63231,2,0,L|394:155,1,48.9999985046387
311,47,63472,1,0,0:0:0:0:
230,300,63713,6,0,P|175:323|169:343,1,73.4999977569581
161,251,63954,2,0,P|106:228|88:238,1,73.4999977569581
147,166,64195,2,0,P|124:111|104:105,1,73.4999977569581
197,97,64436,2,0,P|220:42|210:24,1,73.4999977569581
209,197,64677,1,0,0:0:0:0:
209,197,64797,1,0,0:0:0:0:
332,82,64918,6,0,B|417:153|417:153|403:190,1,146.999995513916
286,219,65400,2,0,B|303:276|303:276|336:302|336:302|351:356,1,146.999995513916
425,223,65882,2,0,P|384:156|323:115,1,146.999995513916
127,111,66364,1,0,0:0:0:0:
296,318,66605,1,0,0:0:0:0:
18,343,66846,1,0,0:0:0:0:
190,207,67087,2,0,L|296:203,1,97.9999970092774
465,109,67569,2,0,L|367:105,1,97.9999970092774
143,83,68050,5,0,0:0:0:0:
330,325,68291,1,0,0:0:0:0:
277,111,68773,6,0,L|179:306,1,210.000008010865
330,325,69255,2,0,B|415:242|415:242|387:135,1,210.000008010865
161,59,69737,2,0,B|104:122|104:122|89:173|89:173|37:234,1,210.000008010865
185,333,70219,2,0,P|298:285|314:194,1,210.000008010865
62,263,70701,2,0,L|99:53,1,210.000008010865
303,117,71183,2,0,B|375:208|375:208|280:212,1,210.000008010865
172,84,71665,5,0,0:0:0:0:
172,84,71785,1,0,0:0:0:0:
172,84,71906,1,0,0:0:0:0:
184,100,72026,1,0,0:0:0:0:
195,117,72147,1,0,0:0:0:0:
215,153,72267,1,0,0:0:0:0:
232,191,72388,1,0,0:0:0:0:
245,241,72508,1,0,0:0:0:0:
257,292,72629,6,0,P|314:350|431:313,1,210.000008010865
161,225,73111,2,0,P|61:215|22:123,1,210.000008010865
231,47,73593,1,0,0:0:0:0:
403,172,73834,1,0,0:0:0:0:
236,308,74075,1,0,0:0:0:0:
318,58,74316,2,0,P|401:59|388:115,1,157.500006008148
318,58,74557,2,0,B|251:154|251:154|263:203,1,157.500006008148
310,323,74797,1,0,0:0:0:0:
104,160,75038,5,0,0:0:0:0:
417,231,75279,2,0,B|350:186|350:186|333:123|333:123|279:80,1,210.000008010865
104,160,75761,1,0,0:0:0:0:
281,329,76002,1,0,0:0:0:0:
204,118,76243,2,0,P|249:66|322:114,1,157.500006008148
355,238,76484,5,0,0:0:0:0:
355,238,76966,2,0,L|147:212,1,210.000008010865
146,211,77448,1,0,0:0:0:0:
146,211,77810,1,0,0:0:0:0:
146,211,78171,1,0,0:0:0:0:
146,211,78653,2,0,L|253:96,1,157.500006008148
253,95,78894,1,0,0:0:0:0:
253,95,79376,1,0,0:0:0:0:
253,95,79737,6,0,L|252:248,1,105.000004005432
252,200,80099,1,0,0:0:0:0:
252,200,80340,2,0,P|331:242|275:181,1,210.000008010865
307,181,80822,1,0,0:0:0:0:
321,197,81063,1,0,0:0:0:0:
321,197,81304,1,0,0:0:0:0:
321,197,81544,1,0,0:0:0:0:
321,197,81785,1,0,0:0:0:0:
321,197,82026,5,0,0:0:0:0:
330,208,82267,1,0,0:0:0:0:
343,224,82388,1,0,0:0:0:0:
355,240,82508,1,0,0:0:0:0:
383,258,82629,1,0,0:0:0:0:
412,274,82749,1,0,0:0:0:0:
444,280,82870,1,0,0:0:0:0:
477,260,82990,1,0,0:0:0:0:
484,220,83110,1,0,0:0:0:0:
447,190,83231,5,0,0:0:0:0:
395,183,83291,5,0,0:0:0:0:
345,198,83351,5,0,0:0:0:0:
303,229,83411,5,0,0:0:0:0:
288,279,83471,5,0,0:0:0:0:
304,329,83532,5,0,0:0:0:0:
352,351,83593,5,0,0:0:0:0:
403,342,83653,5,0,0:0:0:0:
449,305,83713,6,0,L|488:240,1,52.5000020027161
256,150,84195,6,0,L|256:194,1,41.9999987182618
256,192,84677,1,0,0:0:0:0:
256,192,85641,1,0,0:0:0:0:
256,192,86605,1,0,0:0:0:0:
256,192,87569,1,0,0:0:0:0:
256,192,88532,1,0,0:0:0:0:
256,192,89496,1,0,0:0:0:0:
256,192,89978,5,0,0:0:0:0:
256,192,90038,1,0,0:0:0:0:
256,192,90099,1,0,0:0:0:0:
256,192,90159,1,0,0:0:0:0:
256,192,90219,1,0,0:0:0:0:
256,269,90340,1,0,0:0:0:0:
256,92,90460,5,0,0:0:0:0:
256,92,90581,1,0,0:0:0:0:
256,92,90701,1,0,0:0:0:0:
256,92,90822,1,0,0:0:0:0:
256,92,90942,2,0,L|277:112,1,20.9999993591309
359,195,91304,5,0,0:0:0:0:
359,195,91544,1,0,0:0:0:0:
359,195,91665,1,0,0:0:0:0:
152,111,91906,5,0,0:0:0:0:
359,195,92026,1,0,0:0:0:0:
140,197,92147,1,0,0:0:0:0:
338,117,92267,1,0,0:0:0:0:
156,293,92388,1,0,0:0:0:0:
260,113,92508,1,0,0:0:0:0:
352,293,92629,1,0,0:0:0:0:
101,146,92749,1,0,0:0:0:0:
256,334,92870,5,0,0:0:0:0:
398,85,92990,1,0,0:0:0:0:
105,307,93111,1,0,0:0:0:0:
234,64,93231,1,0,0:0:0:0:
321,335,93352,1,0,0:0:0:0:
55,174,93472,1,0,0:0:0:0:
465,173,93593,1,0,0:0:0:0:
81,99,93713,1,0,0:0:0:0:
227,318,93834,5,0,0:0:0:0:
364,78,93954,1,0,0:0:0:0:
88,307,94075,1,0,0:0:0:0:
201,62,94195,1,0,0:0:0:0:
357,301,94316,1,0,0:0:0:0:
82,209,94436,1,0,0:0:0:0:
307,82,94557,1,0,0:0:0:0:
53,66,94677,1,0,0:0:0:0:
218,336,94797,5,0,0:0:0:0:
383,103,94918,1,0,0:0:0:0:
102,346,95038,1,0,0:0:0:0:
189,87,95159,1,0,0:0:0:0:
310,330,95279,1,0,0:0:0:0:
476,196,95400,1,0,0:0:0:0:
70,194,95520,1,0,0:0:0:0:
415,338,95641,1,0,0:0:0:0:
57,283,95761,5,0,0:0:0:0:
375,88,95882,1,0,0:0:0:0:
176,350,96002,1,0,0:0:0:0:
153,28,96123,1,0,0:0:0:0:
365,363,96243,1,0,0:0:0:0:
8,83,96364,1,0,0:0:0:0:
491,134,96484,1,0,0:0:0:0:
40,368,96605,1,0,0:0:0:0:
277,26,96725,5,0,0:0:0:0:
438,359,96846,1,0,0:0:0:0:
18,173,96966,1,0,0:0:0:0:
498,223,97087,1,0,0:0:0:0:
144,355,97207,1,0,0:0:0:0:
160,32,97328,1,0,0:0:0:0:
292,361,97448,1,0,0:0:0:0:
24,70,97569,1,0,0:0:0:0:
258,208,97689,6,0,L|306:239,1,56
154,42,98653,1,0,0:0:0:0:
154,42,98894,5,0,0:0:0:0:
154,42,98954,1,0,0:0:0:0:
154,42,99014,1,0,0:0:0:0:
154,42,99075,1,0,0:0:0:0:
154,42,99135,2,0,B|157:68|157:68|174:59|174:59|163:74|163:74|180:64|180:64|168:80|168:80|184:70|184:70|171:85|171:85|190:76|190:76|177:91|177:91|193:84|193:84|183:97|183:97|198:90|198:90|188:103|188:103|202:94|202:94,1,245
268,274,99617,5,0,0:0:0:0:
248,56,99737,1,0,0:0:0:0:
364,258,99858,1,0,0:0:0:0:
153,80,99978,1,0,0:0:0:0:
268,274,100099,2,0,P|385:312|443:298,1,157.500006008148
315,195,100340,2,0,B|401:215|401:215|487:199,1,157.500006008148
500,103,100581,1,0,0:0:0:0:
268,274,100701,1,0,0:0:0:0:
293,65,100822,6,2,P|362:70|404:96,1,105.000004005432
420,248,101063,2,0,P|334:237|296:206,1,105.000004005432
184,113,101304,1,0,0:0:0:0:
509,239,101424,1,0,0:0:0:0:
121,190,101544,1,0,0:0:0:0:
505,153,101665,1,0,0:0:0:0:
244,309,101785,5,0,0:0:0:0:
333,91,101906,1,0,0:0:0:0:
310,336,102026,1,0,0:0:0:0:
267,64,102147,1,0,0:0:0:0:
377,358,102267,5,0,0:0:0:0:
202,36,102388,1,0,0:0:0:0:
484,295,102508,1,0,0:0:0:0:
139,241,102629,1,0,0:0:0:0:
433,160,102749,1,0,0:0:0:0:
251,288,102870,1,0,0:0:0:0:
303,56,102990,2,0,P|358:65|399:112,1,105.000004005432
306,331,103231,1,0,0:0:0:0:
223,37,103352,2,0,P|269:18|392:99,1,210.000008010865
299,300,103713,5,0,0:0:0:0:
95,72,103834,1,0,0:0:0:0:
219,140,103954,2,0,P|297:161|373:138,1,157.500006008148
412,230,104195,2,0,P|455:158|450:87,1,157.500006008148
370,158,104436,2,0,P|299:132|210:143,1,157.500006008148
52,273,104677,1,0,0:0:0:0:
253,230,104797,1,0,0:0:0:0:
94,141,104918,6,0,P|95:72|199:61,1,157.500006008148
251,93,105159,1,0,0:0:0:0:
298,345,105400,2,0,P|381:289|395:189,1,157.500006008148
370,118,105641,1,0,0:0:0:0:
59,169,105882,2,0,B|122:144|122:144|138:81|213:81,1,157.500006008148
225,64,106123,5,0,0:0:0:0:
284,49,106183,1,0,0:0:0:0:
339,77,106243,1,0,0:0:0:0:
355,132,106304,1,0,0:0:0:0:
331,185,106364,2,0,P|266:232|179:240,1,157.500006008148
96,199,106605,2,0,B|196:165|228:90,1,157.500006008148
107,97,106846,2,0,P|23:176|27:252,1,157.500006008148
143,311,107087,2,0,B|195:273|195:273|245:265|245:265|295:227,1,157.500006008148
295,119,107328,6,0,P|402:133|422:213,1,157.500006008148
442,296,107569,1,0,0:0:0:0:
195,327,107810,2,0,B|87:298|87:298|81:210,1,157.500006008148
105,107,108050,1,0,0:0:0:0:
355,34,108291,2,0,P|402:129|336:214,1,210.000008010865
101,297,108653,1,0,0:0:0:0:
308,119,108773,1,0,0:0:0:0:
201,355,108894,1,0,0:0:0:0:
213,68,109014,6,0,P|133:39|40:117,1,210.000008010865
207,314,109496,2,0,B|329:318|329:318|358:266,1,157.500006008148
274,218,109737,2,0,P|215:194|115:214,1,157.500006008148
162,355,109978,2,0,P|276:346|331:307,1,157.500006008148
363,211,110219,2,0,B|353:152|353:152|363:113|363:113|349:55,1,157.500006008148
185,37,110460,1,0,0:0:0:0:
269,125,110581,1,0,0:0:0:0:
410,58,110701,6,0,P|448:140|426:242,1,157.500006008148
235,320,110942,1,0,0:0:0:0:
384,143,111063,1,0,0:0:0:0:
151,303,111183,1,0,0:0:0:0:
482,184,111304,1,0,0:0:0:0:
57,247,111424,1,0,0:0:0:0:
504,268,111544,1,0,0:0:0:0:
49,105,111665,1,0,0:0:0:0:
307,330,111785,1,0,0:0:0:0:
201,85,111906,6,0,P|293:86|325:144,1,157.500006008148
233,190,112147,2,0,P|288:249|375:229,1,157.500006008148
371,71,112388,1,0,0:0:0:0:
57,206,112508,1,0,0:0:0:0:
263,303,112629,2,0,P|307:266|310:248,1,52.5000020027161
298,150,112749,1,0,0:0:0:0:
124,308,112870,1,0,0:0:0:0:
398,288,113111,6,0,P|453:234|455:157,1,157.500006008148
298,150,113352,2,0,P|301:232|263:303,1,157.500006008148
115,356,113593,1,0,0:0:0:0:
227,75,113713,1,0,0:0:0:0:
226,299,113834,2,0,P|287:353|366:351,1,157.500006008148
455,222,114075,1,0,0:0:0:0:
168,202,114195,2,0,P|182:105|254:70,1,157.500006008148
341,78,114436,1,0,0:0:0:0:
88,306,114557,5,0,0:0:0:0:
312,265,114677,1,0,0:0:0:0:
80,157,114797,1,0,0:0:0:0:
234,328,114918,1,0,0:0:0:0:
371,74,115038,5,0,0:0:0:0:
371,74,115099,1,0,0:0:0:0:
371,74,115159,2,0,L|481:45,1,105.000004005432
248,207,115520,1,0,0:0:0:0:
248,207,115581,1,0,0:0:0:0:
248,207,115641,2,0,L|306:305,1,105.000004005432
88,122,116002,5,0,0:0:0:0:
116,109,116062,1,0,0:0:0:0:
146,99,116122,1,0,0:0:0:0:
177,93,116182,1,0,0:0:0:0:
208,90,116242,1,0,0:0:0:0:
240,91,116303,1,0,0:0:0:0:
271,96,116363,1,0,0:0:0:0:
301,108,116424,1,0,0:0:0:0:
327,125,116484,1,0,0:0:0:0:
351,144,116544,1,0,0:0:0:0:
370,169,116605,1,0,0:0:0:0:
380,198,116665,1,0,0:0:0:0:
378,239,116725,6,0,P|345:291|309:314,1,84
279,234,116966,2,0,P|211:242|186:259,1,84
224,158,117207,2,0,P|156:166|131:183,1,84
167,82,117448,2,0,P|99:90|74:107,1,84
37,172,117689,2,0,L|65:258,1,84
139,331,117930,2,0,L|197:234,1,112
276,119,118412,5,0,0:0:0:0:
276,119,118532,1,0,0:0:0:0:
276,119,118653,2,0,L|352:71,1,84
421,111,118894,6,0,B|388:163|388:163|383:205|383:205|348:264,1,157.500006008148
265,277,119135,2,0,B|265:210|265:210|285:177|285:177|291:104,1,157.500006008148
191,94,119376,2,0,P|119:204|113:237,1,157.500006008148
158,318,119617,2,0,L|324:268,1,157.500006008148
361,162,119858,5,0,0:0:0:0:
166,208,119978,1,0,0:0:0:0:
306,52,120099,1,0,0:0:0:0:
278,263,120219,1,0,0:0:0:0:
155,85,120340,2,0,P|118:138|179:209,1,157.500006008148
361,162,120581,1,0,0:0:0:0:
154,314,120822,6,0,P|61:260|68:197,1,157.500006008148
138,234,121063,2,0,P|210:239|259:167,1,157.500006008148
199,112,121304,2,0,P|306:90|350:125,1,157.500006008148
295,184,121544,2,0,B|346:212|346:212|370:254|370:254|419:282,1,157.500006008148
491,354,121785,5,0,0:0:0:0:
350,71,122026,2,0,B|315:95|315:95|304:124|304:124|269:147,1,105.000004005432
152,309,122267,2,0,P|105:281|101:230,1,105.000004005432
444,217,122508,2,0,B|472:184|472:184|389:168,1,105.000004005432
196,187,122749,2,0,P|136:139|102:43,1,157.500006008148
204,61,122990,2,0,P|254:127|346:143,1,157.500006008148
336,40,123231,2,0,B|392:79|392:79|400:118|400:118|460:162,1,157.500006008148
488,221,123472,1,0,0:0:0:0:
123,254,123713,6,0,P|116:177|154:207,1,157.500006008148
123,254,123954,2,0,L|220:277,1,52.5000020027161
123,254,124075,2,0,L|138:313,1,52.5000020027161
289,313,124316,2,0,L|230:307,1,52.5000020027161
289,313,124436,2,0,P|311:226|377:243,1,157.500006008148
439,314,124677,1,0,0:0:0:0:
330,61,124918,6,0,P|242:76|222:92,1,105.000004005432
147,283,125159,2,0,P|126:222|145:170,1,105.000004005432
462,223,125400,2,0,P|396:196|366:164,1,105.000004005432
56,185,125641,2,0,P|127:192|152:219,1,105.000004005432
431,340,125882,1,0,0:0:0:0:
431,340,126002,1,0,0:0:0:0:
287,159,126243,5,0,0:0:0:0:
289,313,126364,1,0,0:0:0:0:
287,159,126484,1,0,0:0:0:0:
289,313,126605,2,0,P|329:350|370:316,1,105.000004005432
261,65,126846,5,0,0:0:0:0:
439,221,126966,1,0,0:0:0:0:
204,219,127087,2,0,B|102:164|102:164|104:117,1,157.500006008148
169,21,127328,2,0,L|251:165,1,157.500006008148
339,331,127569,1,0,0:0:0:0:
340,125,127689,1,0,0:0:0:0:
206,306,127810,1,0,0:0:0:0:
474,238,127930,2,0,P|461:192|404:178,1,105.000004005432
108,231,128171,5,0,0:0:0:0:
256,83,128291,2,0,P|317:47|400:95,1,157.500006008148
412,206,128532,2,0,P|358:263|303:271,1,105.000004005432
44,220,128773,1,0,0:0:0:0:
107,135,128894,1,0,0:0:0:0:
210,290,129014,2,0,B|224:337|224:337|143:333,1,105.000004005432
44,220,129255,1,0,0:0:0:0:
297,146,129376,1,0,0:0:0:0:
210,290,129496,2,0,P|159:324|170:229,1,210.000008010865
304,222,129858,6,0,L|268:122,1,105.000004005432
140,58,130099,1,0,0:0:0:0:
162,228,130219,2,0,P|126:305|210:290,1,210.000008010865
287,66,130701,2,0,P|238:123|249:148,1,105.000004005432
283,289,130942,1,0,0:0:0:0:
162,228,131063,1,0,0:0:0:0:
289,178,131183,1,0,0:0:0:0:
432,307,131424,6,0,L|455:201,1,105.000004005432
414,88,131665,2,0,L|310:134,1,105.000004005432
294,301,131906,2,0,L|398:262,1,105.000004005432
451,177,132147,2,0,P|413:86|319:71,1,157.500006008148
267,109,132388,1,0,0:0:0:0:
149,333,132629,1,0,0:0:0:0:
98,91,132870,1,0,0:0:0:0:
98,91,132990,1,0,0:0:0:0:
183,217,133231,5,0,0:0:0:0:
302,195,133472,5,0,0:0:0:0:
387,118,133713,5,0,0:0:0:0:
391,306,134316,6,0,P|284:295|202:209,1,210.000008010865
