osu file format v14

[General]
AudioFilename: audio.mp3
AudioLeadIn: 0
PreviewTime: 181801
Countdown: 0
SampleSet: Soft
StackLeniency: 0.5
Mode: 0
LetterboxInBreaks: 0
WidescreenStoryboard: 1

[Editor]
DistanceSpacing: 0.9
BeatDivisor: 4
GridSize: 8
TimelineZoom: 1.6

[Metadata]
Title:Letters to me
TitleUnicode:Letters to me
Artist:Amatsuki
ArtistUnicode:天月
Creator:Kirishima-
Version:Maaadbot's Extra
Source:
Tags:あまつき japanese rock jrock j-rock utaite male vocal maaadbot asukow xahlt kuon- my angel ram my_angel_ram searasp toofu
BeatmapID:2838621
BeatmapSetID:1367704

[Difficulty]
HPDrainRate:5.2
CircleSize:4
OverallDifficulty:8.8
ApproachRate:9.2
SliderMultiplier:1.8
SliderTickRate:1

[Events]
//Background and Video events
0,0,"background.jpg",0,0
Video,0,"video.mp4"
//Break Periods
//Storyboard Layer 0 (Background)
//Storyboard Layer 1 (Fail)
//Storyboard Layer 2 (Pass)
//Storyboard Layer 3 (Foreground)
//Storyboard Layer 4 (Overlay)
//Storyboard Sound Samples

[TimingPoints]
1328,315.789473684211,4,2,22,50,1,0
1328,-133.333333333333,4,2,22,50,0,0
8591,-181.818181818181,4,2,22,50,0,0
8827,-181.818181818181,4,2,22,5,0,0
8906,-111.111111111111,4,2,22,60,0,0
9458,-111.111111111111,4,2,22,5,0,0
9538,-111.111111111111,4,2,22,60,0,0
10090,-111.111111111111,4,2,22,5,0,0
10170,-111.111111111111,4,2,22,60,0,0
11433,-111.111111111111,4,2,22,70,0,0
11906,-100,4,2,22,70,0,0
13564,-100,4,2,22,5,0,0
13643,-100,4,2,22,70,0,0
15932,-100,4,2,22,5,0,0
16012,-100,4,2,22,70,0,0
16721,-100,4,2,22,5,0,0
16801,-100,4,2,22,70,0,0
17985,-100,4,2,22,5,0,0
18064,-100,4,2,22,70,0,0
18932,-100,4,2,22,5,0,0
19012,-100,4,2,22,70,0,0
20511,-100,4,2,22,5,0,0
20591,-100,4,2,22,70,0,0
21538,-117.647058823529,4,2,22,60,0,0
23037,-117.647058823529,4,2,22,5,0,0
23117,-117.647058823529,4,2,22,60,0,0
31328,-153.846153846153,4,2,22,60,0,0
31564,-153.846153846153,4,2,22,5,0,0
31643,-111.111111111111,4,2,22,60,0,0
33142,-111.111111111111,4,2,22,5,0,0
33222,-111.111111111111,4,2,22,60,0,0
34406,-111.111111111111,4,2,22,5,0,0
34485,-111.111111111111,4,2,22,60,0,0
35669,-111.111111111111,4,2,22,5,0,0
35749,-111.111111111111,4,2,22,60,0,0
36932,-111.111111111111,4,2,22,5,0,0
37012,-111.111111111111,4,2,22,60,0,0
38195,-111.111111111111,4,2,22,5,0,0
38275,-111.111111111111,4,2,22,60,0,0
39458,-111.111111111111,4,2,22,5,0,0
39538,-111.111111111111,4,2,22,60,0,0
40564,-111.111111111111,4,2,22,5,0,0
40643,-111.111111111111,4,2,22,60,0,0
41749,-111.111111111111,4,2,22,50,0,0
46170,-133.333333333333,4,2,22,50,0,0
46327,-133.333333333333,4,2,22,5,0,0
46406,-133.333333333333,4,2,22,50,0,0
46563,-133.333333333333,4,2,22,5,0,0
46643,-133.333333333333,4,2,22,50,0,0
46801,-111.111111111111,4,2,22,60,0,0
49328,-83.3333333333333,4,2,22,80,0,1
49564,-83.3333333333333,4,2,22,5,0,1
49643,-83.3333333333333,4,2,22,80,0,1
50827,-83.3333333333333,4,2,22,5,0,1
50906,-83.3333333333333,4,2,22,80,0,1
54222,-83.3333333333333,4,2,22,40,0,0
55485,-83.3333333333333,4,2,22,5,0,0
56749,-83.3333333333333,4,2,22,60,0,0
56906,-100,4,2,22,70,0,1
59037,-100,4,2,22,5,0,1
59117,-100,4,2,22,70,0,1
62195,-100,4,2,22,5,0,1
62275,-100,4,2,22,70,0,1
63458,-100,4,2,22,5,0,1
63538,-100,4,2,22,70,0,1
64406,-100,4,2,22,5,0,1
64485,-100,4,2,22,70,0,1
65669,-100,4,2,22,5,0,1
65749,-100,4,2,22,70,0,1
67012,-90.9090909090909,4,2,22,75,0,1
67248,-90.9090909090909,4,2,22,5,0,1
67328,-90.9090909090909,4,2,22,75,0,1
68195,-90.9090909090909,4,2,22,5,0,1
68275,-90.9090909090909,4,2,22,75,0,1
69458,-90.9090909090909,4,2,22,5,0,1
69538,-90.9090909090909,4,2,22,75,0,1
69774,-90.9090909090909,4,2,22,5,0,1
69854,-90.9090909090909,4,2,22,75,0,1
71353,-90.9090909090909,4,2,22,5,0,1
71433,-90.9090909090909,4,2,22,75,0,1
72300,-90.9090909090909,4,2,22,5,0,1
72380,-90.9090909090909,4,2,22,75,0,1
73564,-90.9090909090909,4,2,22,5,0,1
73643,-90.9090909090909,4,2,22,75,0,1
74827,-90.9090909090909,4,2,22,5,0,1
74906,-90.9090909090909,4,2,22,75,0,1
77117,-90.9090909090909,4,2,22,70,0,0
77591,-100,4,2,22,70,0,0
82406,-100,4,2,22,5,0,0
82485,-100,4,2,22,70,0,0
83669,-100,4,2,22,5,0,0
83749,-100,4,2,22,70,0,0
84616,-100,4,2,22,5,0,0
84696,-100,4,2,22,70,0,0
87222,-117.647058823529,4,2,22,60,0,0
87458,-117.647058823529,4,2,22,5,0,0
87538,-117.647058823529,4,2,22,60,0,0
89985,-117.647058823529,4,2,22,5,0,0
90064,-117.647058823529,4,2,22,60,0,0
91090,-117.647058823529,4,2,22,5,0,0
91170,-117.647058823529,4,2,22,60,0,0
95037,-117.647058823529,4,2,22,5,0,0
95117,-117.647058823529,4,2,22,60,0,0
95669,-117.647058823529,4,2,22,5,0,0
95749,-117.647058823529,4,2,22,60,0,0
97328,-111.111111111111,4,2,22,60,0,0
97564,-111.111111111111,4,2,22,5,0,0
97643,-111.111111111111,4,2,22,60,0,0
98827,-111.111111111111,4,2,22,5,0,0
98906,-111.111111111111,4,2,22,60,0,0
100091,-111.111111111111,4,2,22,5,0,0
100169,-111.111111111111,4,2,22,60,0,0
101353,-111.111111111111,4,2,22,5,0,0
101433,-111.111111111111,4,2,22,60,0,0
102616,-111.111111111111,4,2,22,5,0,0
102696,-111.111111111111,4,2,22,60,0,0
103879,-111.111111111111,4,2,22,5,0,0
103959,-111.111111111111,4,2,22,60,0,0
107433,-117.647058823529,4,2,22,60,0,0
107669,-117.647058823529,4,2,22,5,0,0
107749,-117.647058823529,4,2,22,60,0,0
110195,-117.647058823529,4,2,22,5,0,0
110275,-117.647058823529,4,2,22,60,0,0
112011,-117.647058823529,4,2,22,5,0,0
112091,-117.647058823529,4,2,22,60,0,0
112248,-117.647058823529,4,2,22,5,0,0
112328,-117.647058823529,4,2,22,60,0,0
112485,-111.111111111111,4,2,22,60,0,0
115012,-100,4,2,22,65,0,0
115248,-100,4,2,22,5,0,0
115328,-100,4,2,22,65,0,0
117538,-100,4,2,22,70,0,1
122827,-100,4,2,22,5,0,1
122906,-100,4,2,22,70,0,1
123458,-100,4,2,22,5,0,1
123538,-100,4,2,22,70,0,1
126932,-100,4,2,22,5,0,1
127012,-100,4,2,22,70,0,1
127643,-90.9090909090909,4,2,22,75,0,1
127879,-90.9090909090909,4,2,22,5,0,1
127959,-90.9090909090909,4,2,22,75,0,1
129142,-90.9090909090909,4,2,22,5,0,1
129222,-90.9090909090909,4,2,22,75,0,1
131511,-90.9090909090909,4,2,22,5,0,1
131591,-90.9090909090909,4,2,22,75,0,1
131985,-90.9090909090909,4,2,22,5,0,1
132064,-90.9090909090909,4,2,22,75,0,1
132932,-90.9090909090909,4,2,22,5,0,1
133012,-90.9090909090909,4,2,22,75,0,1
134195,-90.9090909090909,4,2,22,5,0,1
134275,-90.9090909090909,4,2,22,75,0,1
135458,-90.9090909090909,4,2,22,5,0,1
135538,-90.9090909090909,4,2,22,75,0,1
136564,-90.9090909090909,4,2,22,5,0,1
136643,-90.9090909090909,4,2,22,75,0,1
137749,-90.9090909090909,4,2,22,70,0,0
137906,-100,4,2,22,70,0,0
140195,-100,4,2,22,5,0,0
140275,-100,4,2,22,70,0,0
141616,-100,4,2,22,5,0,0
141696,-100,4,2,22,70,0,0
142721,-100,4,2,22,5,0,0
142801,-100,4,2,22,70,0,0
146669,-100,4,2,22,5,0,0
146749,-100,4,2,22,70,0,0
147774,-100,4,2,22,5,0,0
147854,-90.9090909090909,4,2,22,75,0,0
148090,-90.9090909090909,4,2,22,5,0,0
148170,-90.9090909090909,4,2,22,75,0,0
149195,-90.9090909090909,4,2,22,5,0,0
149275,-90.9090909090909,4,2,22,75,0,0
151721,-90.9090909090909,4,2,22,5,0,0
151801,-90.9090909090909,4,2,22,75,0,0
153142,-90.9090909090909,4,2,22,5,0,0
153222,-90.9090909090909,4,2,22,75,0,0
154248,-90.9090909090909,4,2,22,5,0,0
154328,-90.9090909090909,4,2,22,75,0,0
155433,-83.3333333333333,4,2,22,80,0,1
155669,-83.3333333333333,4,2,22,5,0,1
155749,-83.3333333333333,4,2,22,80,0,1
156932,-83.3333333333333,4,2,22,5,0,1
157012,-83.3333333333333,4,2,22,80,0,1
158195,-83.3333333333333,4,2,22,5,0,1
158275,-83.3333333333333,4,2,22,80,0,1
160485,-83.3333333333333,4,2,22,50,0,0
162933,-83.3333333333333,4,2,22,5,0,0
163012,-83.3333333333333,4,2,22,40,0,0
171538,-200,4,2,22,50,0,0
173117,-117.647058823529,4,2,22,60,0,0
173353,-117.647058823529,4,2,22,5,0,0
173433,-117.647058823529,4,2,22,60,0,0
174616,-117.647058823529,4,2,22,5,0,0
174696,-117.647058823529,4,2,22,60,0,0
175879,-117.647058823529,4,2,22,5,0,0
175959,-117.647058823529,4,2,22,60,0,0
177932,-117.647058823529,4,2,22,5,0,0
178012,-117.647058823529,4,2,22,60,0,0
178090,-117.647058823529,4,2,22,5,0,0
178170,-117.647058823529,4,2,22,60,0,0
178406,-117.647058823529,4,2,22,5,0,0
178485,-117.647058823529,4,2,22,60,0,0
180458,-117.647058823529,4,2,22,5,0,0
180538,-117.647058823529,4,2,22,60,0,0
180616,-117.647058823529,4,2,22,5,0,0
180696,-100,4,2,22,70,0,0
180932,-100,4,2,22,5,0,0
181012,-100,4,2,22,70,0,0
181959,-100,4,2,22,40,0,0
183222,-100,4,2,22,70,0,1
188512,-100,4,2,22,5,0,1
188590,-100,4,2,22,70,0,1
189143,-100,4,2,22,5,0,1
189221,-100,4,2,22,70,0,1
193328,-90.9090909090909,4,2,22,75,0,1
193564,-90.9090909090909,4,2,22,5,0,1
193643,-90.9090909090909,4,2,22,75,0,1
194827,-90.9090909090909,4,2,22,5,0,1
194906,-90.9090909090909,4,2,22,75,0,1
197195,-90.9090909090909,4,2,22,5,0,1
197275,-90.9090909090909,4,2,22,75,0,1
197669,-90.9090909090909,4,2,22,5,0,1
197749,-90.9090909090909,4,2,22,75,0,1
198380,-83.3333333333333,4,2,22,80,0,1
198616,-83.3333333333333,4,2,22,5,0,1
198696,-83.3333333333333,4,2,22,80,0,1
203433,-83.3333333333333,4,2,22,70,0,0
203906,-100,4,2,22,70,0,0
209985,-100,4,2,22,5,0,0
210064,-100,4,2,22,70,0,0
212511,-100,4,2,22,5,0,0
212591,-100,4,2,22,70,0,0
220090,-100,4,2,22,5,0,0
220170,-100,4,2,22,70,0,0
221433,-100,4,2,22,5,0,0

[Colours]
Combo1 : 191,72,0
Combo2 : 255,136,64
Combo3 : 255,203,117
Combo4 : 191,191,191
Combo5 : 128,128,128
Combo6 : 85,138,170
Combo7 : 64,104,128
Combo8 : 128,48,0

[HitObjects]
108,75,1328,6,0,L|32:58,2,67.5000000000002,2|2|2,2:0|2:0|2:0,2:0:0:0:
180,134,1801,1,2,2:0:0:0:
26,225,2117,1,2,2:0:0:0:
182,312,2433,1,2,2:0:0:0:
404,75,3854,6,0,L|479:58,2,67.5000000000002,2|2|2,2:0|2:0|2:0,2:0:0:0:
332,134,4328,1,2,2:0:0:0:
486,225,4643,1,2,2:0:0:0:
330,312,4959,1,2,2:0:0:0:
379,226,5117,1,2,2:0:0:0:
379,226,5591,6,0,P|308:214|247:258,1,135,2|2,2:0|2:0,2:0:0:0:
233,339,6064,1,2,2:0:0:0:
233,339,6222,1,2,2:0:0:0:
82,255,6380,5,2,2:0:0:0:
138,327,6696,1,2,2:0:0:0:
82,255,6854,1,2,2:0:0:0:
242,144,7170,1,2,2:0:0:0:
66,61,7485,1,2,2:0:0:0:
127,153,7643,6,0,P|131:117|154:82,1,67.5000000000002,2|2,2:0|2:0,2:0:0:0:
266,41,8117,1,2,1:2:0:0:
266,41,8196,1,0,1:2:0:0:
266,41,8275,1,10,2:0:0:0:
345,185,8433,1,2,1:2:0:0:
345,185,8591,2,0,P|382:173|419:169,1,74.2500000000003,8|0,1:3|2:0,2:0:0:0:
443,191,8906,6,0,B|406:227|348:326|442:417|560:332|486:253,1,283.5,6|0,1:2|2:0,2:0:0:0:
477,272,9538,6,0,B|351:239|387:349|291:350|291:350|332:342|343:284,1,283.5,6|0,1:2|2:0,2:0:0:0:
261,272,10170,6,0,B|216:230|151:248|151:248|143:232|143:232|84:260|23:212,1,243,6|8,1:2|2:3,2:0:0:0:
41,224,10722,1,8,2:3:0:0:
41,224,10801,1,2,1:2:0:0:
85,42,10959,1,8,2:0:0:0:
98,56,11038,1,8,2:0:0:0:
107,75,11117,1,8,2:0:0:0:
109,95,11196,1,8,2:0:0:0:
104,114,11275,2,0,L|48:125,1,40.5,8|8,2:0|2:0,2:0:0:0:
261,272,11433,5,6,1:2:0:0:
246,77,11591,1,2,2:0:0:0:
360,246,11749,1,8,2:0:0:0:
423,179,11906,2,0,P|445:132|436:87,1,90,2|0,2:0|1:2,2:0:0:0:
261,272,12222,2,0,P|239:225|248:180,1,90,2|8,1:2|2:0,2:0:0:0:
512,358,12538,1,2,2:0:0:0:
512,358,12696,6,0,B|506:316|460:306|460:306|362:358,1,180,2|8,1:2|2:0,2:0:0:0:
186,267,13170,1,2,2:0:0:0:
186,267,13328,2,0,P|219:321|180:385,1,135,2|0,1:2|2:0,2:0:0:0:
155,382,13643,2,0,P|112:361|103:304,1,90,10|0,2:0|2:0,2:0:0:0:
190,154,13959,5,6,1:2:0:0:
94,240,14117,1,2,2:0:0:0:
133,39,14275,1,10,2:0:0:0:
37,64,14433,2,0,L|14:167,1,90,2|0,2:0|1:2,2:0:0:0:
208,242,14749,2,0,L|189:153,1,90,2|8,1:2|2:0,2:0:0:0:
220,369,15064,1,2,2:0:0:0:
220,369,15222,6,0,B|270:333|326:342|326:342|346:382|406:388,1,180,2|8,1:2|2:0,2:0:0:0:
512,213,15696,2,0,P|455:209|423:283,1,135,2|0,2:0|2:0,2:0:0:0:
420,270,16012,1,2,2:0:0:0:
285,152,16170,1,10,2:0:0:0:
226,231,16328,1,2,2:0:0:0:
344,65,16485,6,0,B|406:68|406:68|422:79|422:79|489:86,1,135,6|0,1:2|2:0,2:0:0:0:
494,60,16801,1,10,2:0:0:0:
361,193,16959,2,0,P|311:156|259:154,1,90,2|0,2:0|1:2,2:0:0:0:
158,57,17275,2,0,P|208:20|260:18,1,90,2|8,1:2|2:0,2:0:0:0:
344,65,17591,1,2,2:0:0:0:
168,181,17749,6,0,P|95:169|18:165,1,135,0|0,1:0|2:0,2:0:0:0:
12,140,18064,1,10,2:0:0:0:
150,297,18222,1,2,2:0:0:0:
150,297,18380,2,0,P|137:343|127:404,1,90,0|2,1:2|1:2,2:0:0:0:
346,326,18696,2,0,P|339:259|315:182,1,135,10|0,2:0|2:0,2:0:0:0:
252,245,19012,6,0,B|369:276|309:182|460:233,2,180,6|8|0,1:2|2:0|1:2,2:0:0:0:
240,152,19801,1,2,1:2:0:0:
346,326,19959,1,10,2:0:0:0:
441,314,20117,1,2,2:0:0:0:
250,383,20275,6,0,B|172:341|172:341|151:365|122:363,1,135,2|0,1:2|2:0,2:0:0:0:
100,361,20591,2,0,P|71:320|109:258,1,90,8|8,2:0|2:0,2:0:0:0:
99,255,20828,1,8,2:0:0:0:
99,255,20906,1,8,2:0:0:0:
142,148,21064,1,0,1:2:0:0:
92,72,21222,1,8,1:3:0:0:
92,72,21380,2,0,P|110:72|148:60,1,45,6|0,1:3|2:0,2:0:0:0:
330,18,21538,6,0,P|372:34|386:76,1,76.5000000000003,6|0,1:2|2:0,2:0:0:0:
452,20,21854,2,0,P|470:61|450:100,1,76.5000000000003,2|0,1:2|2:0,2:0:0:0:
396,141,22170,2,0,P|377:182|397:221,1,76.5000000000003,2|0,1:2|2:0,2:0:0:0:
312,228,22485,2,0,P|328:270|370:284,1,76.5000000000003,2|0,1:2|2:0,2:0:0:0:
463,307,22801,6,0,B|491:335|466:374|400:373|380:341,1,114.75,2|0,1:2|2:0,2:0:0:0:
401,358,23117,1,2,1:2:0:0:
287,340,23275,2,0,P|242:332|209:362,1,76.5000000000003,2|0,2:0|1:2,2:0:0:0:
125,383,23591,1,2,2:0:0:0:
125,383,23749,2,0,B|118:353|118:353|121:334|121:334|111:293,1,76.5000000000003,2|2,1:2|2:0,2:0:0:0:
0,202,24064,6,0,P|41:233|139:181,1,153.000000000001,0|0,1:2|1:2,2:0:0:0:
133,115,24538,1,2,2:0:0:0:
133,115,24696,2,0,P|85:123|60:153,1,76.5000000000003,2|0,1:2|2:0,2:0:0:0:
132,34,25012,2,0,P|180:42|205:72,1,76.5000000000003,0|0,1:2|2:0,2:0:0:0:
221,147,25328,6,0,B|268:173|309:156|289:140|337:120|379:144,1,153.000000000001,0|0,1:2|1:2,2:0:0:0:
347,244,25801,1,2,2:0:0:0:
347,244,25959,2,0,P|342:206|331:169,1,76.5000000000003,2|0,1:2|2:0,2:0:0:0:
458,247,26275,1,2,1:2:0:0:
347,244,26433,1,2,2:0:0:0:
236,247,26591,6,0,P|210:275|210:328,1,76.5000000000003,2|0,1:2|2:0,2:0:0:0:
272,384,26906,2,0,P|260:347|214:320,1,76.5000000000003,2|0,1:2|2:0,2:0:0:0:
107,371,27222,2,0,B|93:298|93:298|97:285|97:285|84:208,1,153.000000000001,2|2,1:2|1:2,2:0:0:0:
178,155,27696,1,0,2:0:0:0:
178,155,27854,6,0,P|184:115|197:64,1,76.5000000000003,2|0,1:2|2:0,2:0:0:0:
284,89,28170,2,0,P|278:48|264:-1,1,76.5000000000003,2|0,1:2|2:0,2:0:0:0:
111,52,28485,2,0,P|154:38|199:53,1,76.5000000000003,2|0,1:2|2:0,2:0:0:0:
284,89,28801,2,0,P|327:103|372:88,1,76.5000000000003,2|0,1:2|2:0,2:0:0:0:
418,6,29117,6,0,B|396:29|372:45|372:45|393:84|416:141,1,153.000000000001,2|0,1:2|1:2,2:0:0:0:
500,181,29591,1,2,2:0:0:0:
500,181,29749,2,0,B|512:140|512:140|497:90,1,76.5000000000003,2|0,1:2|2:0,2:0:0:0:
421,215,30064,2,0,B|437:245|437:245|475:266,1,76.5000000000003,0|0,1:2|2:0,2:0:0:0:
284,89,30380,6,0,B|272:148|272:148|283:184|283:184|268:248,1,153.000000000001,6|0,1:2|1:2,2:0:0:0:
363,339,30854,2,0,L|349:274,1,38.2500000000001,8|8,2:0|2:0,2:0:0:0:
176,258,31012,1,8,2:3:0:0:
172,276,31091,1,8,2:3:0:0:
168,295,31170,1,8,2:3:0:0:
164,314,31249,1,8,2:3:0:0:
160,332,31328,2,0,P|113:324|68:358,1,87.7500000000005,8|0,2:0|2:0,2:0:0:0:
47,362,31643,6,0,P|57:322|67:266,1,81.0000000000001,6|2,1:2|2:0,2:0:0:0:
157,179,31959,2,0,P|167:218|177:274,1,81.0000000000001,10|0,2:0|2:0,2:0:0:0:
260,364,32275,1,2,1:2:0:0:
260,364,32433,1,0,1:2:0:0:
315,172,32591,2,0,P|325:132|335:76,1,81.0000000000001,10|0,2:0|2:0,2:0:0:0:
429,242,32906,6,0,P|391:202|311:221,1,121.5,2|0,1:2|2:0,2:0:0:0:
317,276,33222,1,10,2:0:0:0:
174,258,33380,2,0,P|131:249|75:247,1,81.0000000000001,2|0,2:0|1:2,2:0:0:0:
32,184,33696,1,2,1:2:0:0:
174,37,33854,1,10,2:0:0:0:
228,108,34012,1,2,2:0:0:0:
228,108,34170,6,0,P|170:122|96:78,1,121.5,4|0,1:2|2:0,2:0:0:0:
174,37,34485,2,0,L|255:19,1,81.0000000000001,10|2,2:0|2:0,2:0:0:0:
343,4,34801,1,2,1:2:0:0:
343,4,34959,1,0,2:0:0:0:
451,160,35117,2,0,L|369:142,1,81.0000000000001,10|0,2:0|2:0,2:0:0:0:
268,298,35433,6,0,B|260:247|260:247|266:228|266:228|254:162,1,121.5,0|0,1:2|2:0,2:0:0:0:
228,108,35749,1,8,2:0:0:0:
178,215,35906,1,2,2:0:0:0:
32,172,36064,1,2,1:2:0:0:
82,279,36222,1,2,1:2:0:0:
228,108,36380,2,0,L|138:127,1,81.0000000000001,10|2,2:0|2:0,2:0:0:0:
283,268,36696,6,0,B|349:250|349:250|406:271,1,121.5,6|0,1:2|2:0,2:0:0:0:
466,303,37012,5,10,2:0:0:0:
332,375,37170,2,0,P|337:333|351:283,1,81.0000000000001,2|0,2:0|1:2,2:0:0:0:
467,215,37485,1,2,1:2:0:0:
313,54,37643,1,8,2:0:0:0:
325,150,37801,1,2,2:0:0:0:
325,150,37959,6,0,P|381:125|449:145,1,121.5,0|0,1:0|2:0,2:0:0:0:
467,215,38275,1,10,2:0:0:0:
287,232,38433,2,0,L|200:213,1,81.0000000000001,2|0,2:0|1:2,2:0:0:0:
133,158,38749,1,2,1:2:0:0:
37,319,38906,1,8,2:0:0:0:
126,296,39064,1,2,2:0:0:0:
62,103,39222,6,0,P|44:160|77:225,1,121.5,4|0,1:2|2:0,2:0:0:0:
133,158,39538,2,0,P|153:119|146:62,1,81.0000000000001,8|0,2:0|2:0,2:0:0:0:
18,11,39854,1,0,1:2:0:0:
62,103,40012,1,0,1:2:0:0:
279,11,40170,1,8,2:0:0:0:
235,103,40328,6,0,B|291:97|291:97|310:103|310:103|367:99,1,121.5,0|0,1:0|2:0,2:0:0:0:
435,96,40643,6,0,B|427:142|427:142|376:185,1,81.0000000000001,8|0,2:0|1:2,2:0:0:0:
257,180,40959,1,0,1:2:0:0:
439,292,41117,1,10,2:0:0:0:
193,240,41275,1,0,1:2:0:0:
435,96,41433,1,10,1:3:0:0:
209,324,41591,1,4,1:3:0:0:
257,180,41749,5,6,1:2:0:0:
257,154,43012,5,2,2:0:0:0:
256,126,44275,5,2,2:0:0:0:
256,96,45538,5,2,2:0:0:0:
263,103,46012,5,0,1:2:0:0:
263,103,46091,1,0,1:2:0:0:
263,103,46170,2,0,P|226:84|185:86,1,67.5000000000002,10|0,2:0|2:0,2:0:0:0:
193,0,46406,2,0,P|153:12|125:43,1,67.5000000000002,10|0,2:3|2:0,2:0:0:0:
87,111,46643,2,0,P|105:118|123:117,1,33.7500000000001,6|0,1:3|2:0,2:0:0:0:
263,103,46801,6,0,P|336:81|426:68,1,162,6|0,1:2|1:0,2:0:0:0:
372,230,47275,1,2,2:0:0:0:
372,230,47433,2,0,P|352:192|362:152,1,81.0000000000001,2|0,1:2|2:0,2:0:0:0:
504,52,47749,2,0,P|510:91|491:125,1,81.0000000000001,0|2,1:2|2:0,2:0:0:0:
293,249,48064,6,0,P|332:236|385:229,1,81.0000000000001,2|0,1:2|2:0,2:0:0:0:
178,346,48380,2,0,P|217:358|270:365,1,81.0000000000001,2|0,1:2|2:0,2:0:0:0:
62,223,48696,2,0,P|101:210|154:203,1,81.0000000000001,2|0,1:2|2:0,2:0:0:0:
33,357,49012,1,0,1:2:0:0:
257,246,49170,1,4,1:3:0:0:
257,246,49249,1,4,1:3:0:0:
257,246,49328,6,0,B|316:211|301:154|301:154|316:123|354:122,1,162,12|0,2:0|2:0,2:0:0:0:
417,199,49643,1,8,2:0:0:0:
375,6,49801,1,2,1:2:0:0:
119,118,49959,1,10,2:0:0:0:
309,166,50117,1,0,1:2:0:0:
108,2,50275,1,8,2:0:0:0:
66,253,50433,1,2,1:2:0:0:
288,32,50591,6,0,B|344:20|384:53|384:53|376:94|420:120,1,162,10|0,2:0|2:0,2:0:0:0:
480,113,50906,1,8,2:0:0:0:
231,314,51064,1,2,1:2:0:0:
231,314,51143,1,0,1:2:0:0:
231,314,51222,2,0,P|223:263|207:201,1,108,10|0,2:0|1:2,2:0:0:0:
347,308,51538,1,8,2:0:0:0:
138,105,51696,1,2,2:0:0:0:
138,105,51775,1,0,1:2:0:0:
138,105,51854,6,0,P|130:155|114:217,1,108,14|0,1:2|2:0,2:0:0:0:
286,370,52170,1,8,2:0:0:0:
69,277,52328,1,2,1:2:0:0:
371,190,52485,1,10,2:0:0:0:
154,283,52643,1,0,1:2:0:0:
449,262,52801,1,8,2:0:0:0:
217,73,52959,1,0,1:2:0:0:
286,370,53117,6,0,P|295:309|311:251,1,108,12|0,2:0|2:0,2:0:0:0:
454,41,53433,1,8,2:0:0:0:
378,298,53591,1,8,2:0:0:0:
273,12,53749,1,8,2:0:0:0:
501,250,53906,2,0,L|435:263,1,54,8|8,2:0|2:0,2:0:0:0:
151,309,54064,5,8,2:0:0:0:
469,145,54222,1,14,2:0:0:0:
256,192,54301,12,0,55485,2:0:0:0:
105,126,56749,5,8,2:3:0:0:
105,126,56828,1,8,2:3:0:0:
105,126,56906,6,0,P|147:114|212:103,1,90,6|2,1:2|2:0,2:0:0:0:
293,226,57222,2,0,B|193:197|193:197|141:202|131:252,2,180,0|0|0,1:2|1:2|1:2,2:0:0:0:
160,362,58012,1,2,2:0:0:0:
323,304,58170,6,0,L|422:325,1,90,2|0,1:2|2:0,2:0:0:0:
353,159,58485,2,0,L|284:234,1,90,2|0,1:2|2:0,2:0:0:0:
463,257,58801,2,0,B|445:202|445:202|450:177|450:177|430:117,1,135,2|0,1:2|2:0,2:0:0:0:
433,128,59117,1,2,1:2:0:0:
270,38,59275,1,10,2:0:0:0:
274,60,59354,1,8,2:0:0:0:
279,82,59433,6,0,P|325:68|388:58,1,90,4|2,1:2|2:0,2:0:0:0:
192,198,59749,2,0,B|80:174|80:174|72:218|17:228,2,180,0|0|0,1:2|1:2|1:2,2:0:0:0:
114,99,60538,1,2,2:0:0:0:
144,270,60696,6,0,P|187:288|240:270,1,90,2|8,1:2|2:0,2:0:0:0:
277,206,61012,1,10,1:3:0:0:
463,341,61170,1,4,1:2:0:0:
378,384,61328,2,0,P|359:341|377:288,1,90,2|0,1:2|2:0,2:0:0:0:
446,244,61643,1,2,1:2:0:0:
343,99,61801,1,10,2:3:0:0:
343,99,61880,1,8,2:3:0:0:
343,99,61959,6,0,B|316:108|317:133|317:133|358:171|415:136,1,135,4|0,1:2|2:0,2:0:0:0:
424,130,62275,1,2,1:2:0:0:
357,14,62433,1,2,2:0:0:0:
357,14,62591,2,0,P|308:11|271:44,1,90,0|0,1:2|2:0,2:0:0:0:
217,123,62906,1,2,3:2:0:0:
110,17,63064,1,10,2:3:0:0:
110,17,63143,1,8,2:3:0:0:
110,17,63222,6,0,P|65:12|25:103,1,135,4|0,1:2|2:0,2:0:0:0:
31,104,63538,1,2,1:2:0:0:
100,245,63696,1,2,2:0:0:0:
100,245,63854,2,0,P|112:204|119:152,1,90,0|0,1:2|3:2,2:0:0:0:
29,300,64170,2,0,P|77:275|164:327,1,135,2|0,1:2|2:0,2:0:0:0:
197,363,64485,6,0,P|246:373|296:344,1,90,6|0,1:2|2:0,2:0:0:0:
365,354,64801,2,0,P|349:306|299:277,1,90,0|0,1:2|2:0,2:0:0:0:
273,213,65117,2,0,P|239:250|239:308,1,90,0|0,1:2|2:0,2:0:0:0:
365,354,65433,2,0,P|423:320|519:352,1,135,2|0,1:2|2:0,2:0:0:0:
511,353,65749,5,4,1:2:0:0:
397,248,65906,1,8,2:0:0:0:
512,58,66064,1,10,2:0:0:0:
398,163,66222,2,0,P|348:155|292:140,1,90,10|8,2:0|2:0,2:0:0:0:
377,27,66538,2,0,P|372:54|363:92,1,45,8|8,2:0|2:0,2:0:0:0:
221,149,66696,1,10,2:0:0:0:
217,131,66775,1,8,2:0:0:0:
213,112,66854,1,10,2:0:0:0:
209,93,66933,1,8,2:0:0:0:
205,75,67012,6,0,P|122:81|91:3,1,148.5,4|0,1:2|2:0,2:0:0:0:
110,10,67328,2,0,B|140:54|140:54|119:105,1,99,8|0,2:0|2:0,2:0:0:0:
31,256,67643,1,0,1:2:0:0:
138,201,67801,1,0,1:2:0:0:
290,346,67959,2,0,B|222:338|222:338|203:348|203:348|139:342,1,148.5,10|0,2:0|2:0,2:0:0:0:
127,317,68275,6,0,B|199:324|199:324|232:307,1,99,2|0,1:2|2:0,2:0:0:0:
330,183,68591,2,0,B|287:241|287:241|286:278,1,99,8|0,2:0|2:0,2:0:0:0:
439,370,68906,1,0,1:2:0:0:
366,267,69064,1,0,1:2:0:0:
493,121,69222,2,0,P|522:196|485:258,1,148.5,10|0,2:0|2:0,2:0:0:0:
436,184,69538,6,0,P|405:118|435:52,1,148.5,6|0,1:2|2:0,2:0:0:0:
501,19,69854,1,10,2:0:0:0:
330,183,70012,2,0,P|323:134|307:76,1,99,2|0,1:2|2:0,2:0:0:0:
141,111,70328,2,0,P|147:62|163:4,1,99,2|8,1:2|2:0,2:0:0:0:
45,246,70643,6,0,B|54:192|104:188|104:188|227:246,1,198,6|0,1:2|1:2,2:0:0:0:
104,375,71117,2,0,P|85:327|173:343,1,148.5,12|0,2:0|2:0,2:0:0:0:
182,330,71433,1,2,1:2:0:0:
207,356,71512,1,0,2:0:0:0:
242,366,71591,1,8,2:0:0:0:
278,358,71670,1,10,2:0:0:0:
304,332,71749,1,8,2:0:0:0:
337,296,71828,1,8,2:0:0:0:
384,283,71906,1,10,2:0:0:0:
431,297,71985,1,8,2:0:0:0:
463,334,72064,6,0,B|440:368|440:368|425:222,1,148.5,6|0,1:2|2:0,2:0:0:0:
487,206,72380,2,0,L|511:91,1,99,10|2,2:0|2:0,2:0:0:0:
339,18,72696,1,0,1:2:0:0:
453,22,72854,1,0,1:2:0:0:
310,152,73012,2,0,L|201:128,1,99,10|2,2:0|2:0,2:0:0:0:
379,97,73328,6,0,P|397:158|339:238,1,148.5,0|0,1:2|2:0,2:0:0:0:
327,245,73643,2,0,P|297:295|308:345,1,99,8|0,2:0|2:0,2:0:0:0:
457,373,73959,1,2,1:2:0:0:
375,304,74117,1,0,1:2:0:0:
231,372,74275,2,0,P|216:315|223:262,1,99,8|2,2:0|2:0,2:0:0:0:
61,149,74591,6,0,B|71:208|71:208|58:236|58:236|65:293,1,148.5,6|0,1:2|2:0,2:0:0:0:
119,353,74906,2,0,B|143:309|143:309|136:250,1,99,10|2,2:0|2:0,2:0:0:0:
128,112,75222,1,0,1:2:0:0:
217,131,75380,1,2,1:2:0:0:
306,150,75538,1,8,2:0:0:0:
401,365,75696,6,0,B|335:344|282:322|282:322|228:374,1,198,6|8,1:2|2:0,2:0:0:0:
230,371,76091,1,8,2:0:0:0:
230,371,76170,1,10,2:0:0:0:
411,276,76328,1,8,2:0:0:0:
435,270,76406,1,10,2:0:0:0:
459,265,76485,1,8,2:0:0:0:
244,221,76643,1,10,2:0:0:0:
218,179,76722,1,8,2:0:0:0:
217,131,76801,1,10,2:0:0:0:
239,87,76880,1,8,2:0:0:0:
281,61,76959,2,0,P|310:54|344:63,1,49.5,8|8,2:0|2:0,2:0:0:0:
351,264,77117,5,6,1:2:0:0:
244,221,77275,1,2,2:0:0:0:
127,384,77433,1,10,2:0:0:0:
89,267,77591,2,0,L|179:286,1,90,2|0,2:0|1:2,2:0:0:0:
304,111,77906,2,0,L|214:131,1,90,2|8,1:2|2:0,2:0:0:0:
314,352,78222,1,2,2:0:0:0:
314,352,78380,6,0,B|305:297|355:267|355:267|376:316|437:326,1,180,2|8,1:2|2:0,2:0:0:0:
439,143,78854,1,2,2:0:0:0:
439,143,79012,2,0,P|452:189|462:251,1,90,2|2,1:2|1:2,2:0:0:0:
368,40,79328,2,0,P|354:86|344:148,1,90,10|0,2:0|2:0,2:0:0:0:
200,0,79643,5,6,1:2:0:0:
269,83,79801,1,2,2:0:0:0:
116,182,79959,1,10,2:0:0:0:
194,120,80117,2,0,P|215:171|201:219,1,90,2|0,2:0|1:2,2:0:0:0:
143,347,80433,2,0,P|176:303|225:291,1,90,2|8,1:2|2:0,2:0:0:0:
379,220,80749,1,2,2:0:0:0:
379,220,80906,6,0,B|380:182|338:171|338:171|215:212,1,180,0|8,1:2|2:0,2:0:0:0:
221,377,81380,2,0,B|313:394|301:344|405:363,1,180,2|2,2:0|1:2,2:0:0:0:
455,188,81854,1,10,2:0:0:0:
505,289,82012,1,2,2:0:0:0:
509,82,82170,6,0,B|474:56|428:58|428:58|415:91|384:93,1,135,6|0,1:2|2:0,2:0:0:0:
363,28,82485,1,10,2:0:0:0:
291,186,82643,2,0,P|333:173|395:163,1,90,2|0,2:0|1:2,2:0:0:0:
288,30,82959,2,0,P|245:17|183:7,1,90,2|8,1:2|2:0,2:0:0:0:
44,58,83275,1,2,2:0:0:0:
44,58,83433,6,0,P|75:94|46:179,1,135,0|0,1:2|2:0,2:0:0:0:
0,120,83749,1,10,2:0:0:0:
136,201,83906,1,0,2:0:0:0:
136,201,84064,2,0,P|139:249|159:309,1,90,2|0,1:2|1:2,2:0:0:0:
317,249,84380,2,0,P|316:316|280:392,1,135,10|0,2:0|2:0,2:0:0:0:
234,327,84696,6,0,B|321:290|337:382|418:334,2,180,6|8|0,1:2|2:0|1:2,2:0:0:0:
150,289,85485,1,2,1:2:0:0:
335,160,85643,1,10,2:0:0:0:
317,249,85801,2,0,P|294:234|274:212,1,45,10|8,2:0|2:0,2:0:0:0:
213,101,85959,5,6,1:2:0:0:
335,160,86117,1,0,1:2:0:0:
168,256,86275,2,0,P|114:267|69:242,1,90,8|8,2:0|2:0,2:0:0:0:
64,229,86512,1,8,2:0:0:0:
64,229,86591,1,8,2:3:0:0:
135,171,86749,1,8,1:3:0:0:
226,180,86906,1,4,1:3:0:0:
291,320,87064,1,2,1:2:0:0:
291,320,87143,1,0,1:2:0:0:
291,320,87222,6,0,B|299:231|299:231|306:247|328:253,1,114.75,6|0,1:2|2:0,2:0:0:0:
374,309,87538,1,10,2:0:0:0:
374,309,87696,1,2,2:0:0:0:
367,176,87854,2,0,P|419:162|465:172,1,76.5000000000003,2|0,1:2|1:2,2:0:0:0:
504,109,88170,1,2,1:2:0:0:
362,14,88328,1,10,2:0:0:0:
312,78,88485,6,0,P|268:65|214:57,1,76.5000000000003,2|0,1:2|2:0,2:0:0:0:
283,152,88801,1,10,2:0:0:0:
142,78,88959,2,0,B|181:121|181:121|126:234,1,153.000000000001,2|2,2:0|1:2,2:0:0:0:
42,346,89433,1,8,2:0:0:0:
47,247,89591,1,10,2:0:0:0:
140,380,89749,6,0,P|188:352|250:343,1,114.75,6|0,1:2|2:0,2:0:0:0:
300,288,90064,2,0,P|253:270|204:274,1,76.5000000000003,8|0,2:0|2:0,2:0:0:0:
331,364,90380,1,2,1:2:0:0:
331,364,90538,2,0,P|378:346|427:350,1,76.5000000000003,0|0,2:0|2:0,2:0:0:0:
483,183,90854,6,0,B|474:239|474:239|479:247|479:247|468:308,1,114.75,8|0,2:0|2:0,2:0:0:0:
470,294,91170,1,0,1:2:0:0:
338,210,91328,2,0,B|331:168|331:168|359:116,1,76.5000000000003,8|2,2:0|2:0,2:0:0:0:
440,95,91643,1,2,1:2:0:0:
440,95,91801,1,2,1:2:0:0:
293,15,91959,1,10,2:0:0:0:
248,83,92117,1,2,2:0:0:0:
211,10,92275,6,0,P|173:38|162:80,1,76.5000000000003,6|0,1:2|2:0,2:0:0:0:
87,37,92591,2,0,P|79:83|101:121,1,76.5000000000003,10|0,2:0|2:0,2:0:0:0:
174,149,92906,1,2,1:2:0:0:
174,149,93064,1,0,1:2:0:0:
278,182,93222,1,2,2:0:0:0:
91,203,93380,1,8,2:0:0:0:
91,203,93538,6,0,L|-7:182,1,76.5000000000003,2|0,2:0|1:2,2:0:0:0:
241,304,93854,2,0,L|339:283,1,76.5000000000003,10|0,2:0|2:0,2:0:0:0:
278,182,94170,1,2,1:2:0:0:
278,182,94328,1,0,1:2:0:0:
396,384,94485,2,0,L|297:363,1,76.5000000000003,10|0,2:0|2:0,2:0:0:0:
241,304,94801,6,0,L|102:333,1,114.75,6|0,1:2|2:0,2:0:0:0:
60,343,95117,1,8,2:0:0:0:
16,187,95275,1,10,2:0:0:0:
16,187,95354,1,8,2:0:0:0:
16,187,95433,2,0,B|87:214|87:214|140:178,1,114.75,6|0,1:2|2:0,2:0:0:0:
145,171,95749,2,0,B|183:154|183:154|236:178,1,76.5000000000003,8|0,2:0|1:2,2:0:0:0:
240,181,95985,1,0,1:2:0:0:
240,181,96064,5,4,2:0:0:0:
398,104,96222,1,8,2:0:0:0:
197,42,96380,1,8,2:0:0:0:
289,97,96538,1,8,2:0:0:0:
428,11,96696,1,0,1:2:0:0:
474,179,96854,2,0,L|485:123,1,38.2500000000001,8|8,2:0|2:0,2:0:0:0:
326,232,97012,1,8,2:0:0:0:
329,250,97091,1,8,2:0:0:0:
333,269,97170,1,10,2:0:0:0:
337,288,97249,1,8,2:0:0:0:
341,306,97328,6,0,P|402:282|462:308,1,121.5,6|0,1:2|2:0,2:0:0:0:
390,372,97643,2,0,P|337:386|300:360,1,81.0000000000001,10|0,2:0|2:0,2:0:0:0:
246,293,97959,1,2,1:2:0:0:
171,329,98117,1,0,1:2:0:0:
55,196,98275,2,0,L|148:215,1,81.0000000000001,10|0,2:0|2:0,2:0:0:0:
268,96,98591,6,0,P|226:92|131:110,1,121.5,2|0,1:2|2:0,2:0:0:0:
77,124,98906,1,10,2:0:0:0:
211,170,99064,2,0,P|258:179|302:177,1,81.0000000000001,2|0,2:0|1:2,2:0:0:0:
350,115,99380,1,2,1:2:0:0:
393,278,99538,2,0,L|373:184,1,81.0000000000001,10|2,2:0|2:0,2:0:0:0:
233,359,99854,6,0,B|229:319|268:304|268:304|346:350,1,162,4|8,1:2|2:0,2:0:0:0:
496,300,100328,1,2,2:0:0:0:
376,199,100485,1,2,1:2:0:0:
429,357,100643,1,2,1:2:0:0:
286,225,100801,2,0,P|233:222|198:245,1,81.0000000000001,8|0,2:0|2:0,2:0:0:0:
121,384,101117,6,0,P|150:339|132:260,1,121.5,0|0,1:2|2:0,2:0:0:0:
90,213,101433,2,0,P|63:270|68:300,1,81.0000000000001,8|2,2:0|2:0,2:0:0:0:
209,234,101749,1,2,1:2:0:0:
160,162,101906,1,2,1:2:0:0:
331,33,102064,1,10,2:0:0:0:
282,105,102222,1,2,2:0:0:0:
362,264,102380,6,0,P|400:232|479:239,1,121.5,6|0,2:0|2:0,2:0:0:0:
432,302,102696,1,10,2:0:0:0:
329,187,102854,2,0,P|368:161|416:151,1,81.0000000000001,2|0,2:0|1:2,2:0:0:0:
402,67,103170,2,0,P|363:41|315:31,1,81.0000000000001,2|8,1:2|2:0,2:0:0:0:
282,105,103485,1,2,2:0:0:0:
129,22,103643,6,0,B|144:60|127:84|127:84|117:124|158:151,1,121.5,4|0,1:2|2:0,2:0:0:0:
206,174,103959,1,10,2:0:0:0:
97,266,104117,2,0,L|12:248,1,81.0000000000001,2|0,2:0|1:2,2:0:0:0:
184,362,104433,2,0,L|268:344,1,81.0000000000001,2|8,1:2|2:0,2:0:0:0:
334,374,104749,1,2,1:2:0:0:
306,210,104906,6,0,L|325:302,1,81.0000000000001,4|2,1:2|1:2,2:0:0:0:
449,297,105222,2,0,L|429:389,1,81.0000000000001,10|0,2:0|2:0,2:0:0:0:
322,289,105538,1,0,1:2:0:0:
389,220,105696,1,0,1:2:0:0:
277,88,105854,1,8,2:0:0:0:
493,30,106012,6,0,B|502:93|502:93|482:130|482:130|492:199,1,162,4|0,1:2|3:2,2:0:0:0:
383,79,106485,2,0,L|401:-10,1,81.0000000000001,8|10,2:0|2:0,2:0:0:0:
399,0,106722,1,8,2:0:0:0:
399,0,106801,1,14,2:0:0:0:
305,9,106959,1,0,1:2:0:0:
277,88,107117,1,10,1:3:0:0:
201,124,107275,1,4,1:3:0:0:
48,30,107433,6,0,P|87:33|118:104,1,114.75,6|0,1:2|2:0,2:0:0:0:
120,94,107749,1,0,1:2:0:0:
76,162,107906,1,0,1:2:0:0:
148,282,108064,1,8,2:0:0:0:
148,282,108380,1,2,2:0:0:0:
5,204,108538,6,0,L|26:304,1,76.5000000000003,10|0,2:0|1:2,2:0:0:0:
132,356,108854,2,0,L|153:255,1,76.5000000000003,8|0,2:0|2:0,2:0:0:0:
217,228,109170,1,2,1:2:0:0:
322,352,109328,1,10,2:0:0:0:
322,352,109643,1,2,1:2:0:0:
462,255,109801,1,8,2:0:0:0:
402,194,109959,6,0,P|378:248|396:308,1,114.75,6|0,1:2|2:0,2:0:0:0:
390,300,110275,1,0,1:2:0:0:
462,255,110433,1,0,1:2:0:0:
431,111,110591,2,0,P|373:108|305:190,1,153.000000000001,8|2,2:0|1:2,2:0:0:0:
167,93,111064,6,0,L|261:113,1,76.5000000000003,10|0,2:0|1:2,2:0:0:0:
271,245,111380,2,0,L|176:265,1,76.5000000000003,8|0,2:0|2:0,2:0:0:0:
93,139,111696,1,0,1:2:0:0:
93,139,111854,2,0,P|48:164|33:202,1,76.5000000000003,10|0,2:0|2:0,2:0:0:0:
108,216,112091,2,0,P|153:241|168:279,1,76.5000000000003,10|0,1:3|2:0,2:0:0:0:
90,295,112328,2,0,P|73:312|66:337,1,38.2500000000001,6|0,1:3|2:0,2:0:0:0:
229,320,112485,6,0,B|327:328|327:328|360:349|357:385,1,162,6|0,1:2|1:0,2:0:0:0:
439,212,112959,1,2,2:0:0:0:
439,212,113117,2,0,P|381:240|455:259,1,162,2|0,1:2|1:2,2:0:0:0:
502,164,113591,2,0,P|500:139|490:110,1,40.5,2|0,2:0|2:0,2:0:0:0:
369,17,113749,6,0,P|379:63|372:99,1,81.0000000000001,6|0,1:2|2:0,2:0:0:0:
231,107,114064,1,2,1:2:0:0:
231,107,114222,2,0,P|265:75|300:63,1,81.0000000000001,2|0,2:0|1:2,2:0:0:0:
244,187,114538,2,0,P|251:210|256:246,2,40.5,2|0|4,1:2|1:2|1:2,2:0:0:0:
136,130,114854,2,0,P|143:106|148:70,1,40.5,2|0,1:2|1:2,2:0:0:0:
18,242,115012,6,0,P|64:221|136:273,1,135,6|0,1:2|2:0,2:0:0:0:
153,332,115328,1,8,2:0:0:0:
244,187,115485,1,10,2:0:0:0:
350,363,115643,1,10,2:0:0:0:
131,261,115801,1,8,2:0:0:0:
380,121,115959,1,8,2:0:0:0:
219,378,116117,1,10,2:0:0:0:
63,97,116275,6,0,L|84:-5,1,90,14|0,2:0|1:0,2:0:0:0:
398,209,116591,2,0,L|376:106,1,90,10|0,2:0|1:2,2:0:0:0:
365,59,116828,1,0,1:2:0:0:
365,59,116906,1,10,2:0:0:0:
219,378,117064,1,8,2:0:0:0:
350,363,117222,1,10,2:0:0:0:
481,348,117380,1,10,2:0:0:0:
271,101,117538,6,0,B|227:194|315:184|263:287,1,180,4|0,1:2|1:2,2:0:0:0:
219,378,118012,1,0,1:2:0:0:
25,231,118170,2,0,B|108:227|108:227|117:234|117:234|203:231,1,180,8|0,2:0|3:2,2:0:0:0:
342,152,118643,1,10,2:0:0:0:
164,67,118801,6,0,P|176:112|185:167,1,90,2|0,1:2|1:2,2:0:0:0:
290,13,119117,2,0,P|278:58|268:113,1,90,2|0,1:2|1:2,2:0:0:0:
339,300,119433,1,10,2:0:0:0:
416,138,119591,1,0,1:2:0:0:
337,194,119749,1,2,2:0:0:0:
409,379,119906,1,10,2:0:0:0:
493,203,120064,6,0,B|511:139|511:139|496:89|496:89|513:30,1,180,4|0,1:2|1:2,2:0:0:0:
416,138,120538,1,0,1:2:0:0:
290,13,120696,2,0,B|237:5|207:50|207:50|236:96|200:148,1,180,8|0,2:0|3:2,2:0:0:0:
9,51,121170,1,10,2:0:0:0:
101,7,121328,6,0,P|114:57|121:103,1,90,2|0,1:2|2:0,2:0:0:0:
191,217,121643,2,0,P|204:166|211:120,1,90,2|0,1:2|1:2,2:0:0:0:
31,257,121959,1,10,2:0:0:0:
143,316,122117,1,0,2:0:0:0:
278,241,122275,1,2,3:2:0:0:
355,195,122433,1,10,2:0:0:0:
508,360,122591,6,0,B|427:322|427:322|376:358,1,135,4|0,1:2|2:0,2:0:0:0:
390,349,122906,1,2,2:0:0:0:
504,258,123064,1,2,1:2:0:0:
303,315,123222,2,0,P|233:306|202:232,1,135,8|0,2:0|2:0,2:0:0:0:
202,255,123538,1,2,3:2:0:0:
317,73,123696,1,10,2:0:0:0:
317,73,123854,6,0,L|339:179,1,90,0|8,3:2|2:0,2:0:0:0:
278,241,124170,1,2,2:0:0:0:
115,151,124328,1,2,1:2:0:0:
36,332,124485,2,0,B|135:309|135:309|145:364|197:373,1,180,8|2,2:0|2:0,2:0:0:0:
278,241,124959,1,10,2:0:0:0:
58,217,125117,6,0,P|127:230|208:150,1,180,6|0,1:2|3:2,2:0:0:0:
115,151,125591,1,0,1:2:0:0:
383,24,125749,2,0,B|395:99|395:99|380:137|380:137|389:203,1,180,8|2,2:0|2:0,2:0:0:0:
432,349,126222,1,0,1:2:0:0:
432,349,126301,1,0,1:2:0:0:
432,349,126380,5,8,2:3:0:0:
467,167,126538,1,4,1:3:0:0:
316,326,126696,2,0,B|270:350|234:325|249:308|212:290|171:323,1,135,14|0,2:0|2:0,2:0:0:0:
136,361,127012,1,0,1:2:0:0:
303,213,127170,2,0,P|295:239|290:269,1,45,8|8,2:0|2:0,2:0:0:0:
128,262,127328,1,8,2:0:0:0:
123,239,127406,1,8,2:0:0:0:
118,217,127485,1,10,2:0:0:0:
113,195,127564,1,8,2:0:0:0:
109,173,127643,6,0,P|97:117|21:57,1,148.5,4|0,1:2|2:0,2:0:0:0:
3,159,127959,2,0,P|63:132|82:88,1,99,8|0,2:0|2:0,2:0:0:0:
263,10,128275,1,0,1:2:0:0:
181,108,128433,1,0,1:2:0:0:
268,207,128591,2,0,L|369:185,1,99,10|2,2:0|2:0,2:0:0:0:
498,28,128906,6,0,P|444:12|347:51,1,148.5,2|0,1:2|2:0,2:0:0:0:
418,115,129222,2,0,P|478:136|527:129,1,99,8|0,2:0|2:0,2:0:0:0:
431,225,129538,1,0,1:2:0:0:
327,177,129696,1,0,1:2:0:0:
349,356,129854,2,0,L|454:333,1,99,10|2,2:0|2:0,2:0:0:0:
327,177,130170,5,6,1:2:0:0:
192,329,130328,1,0,1:2:0:0:
349,356,130485,1,10,2:0:0:0:
208,204,130643,1,2,1:2:0:0:
208,204,130959,1,0,1:2:0:0:
349,356,131117,1,10,2:0:0:0:
114,355,131275,6,0,P|84:294|-8:270,1,148.5,6|0,1:2|2:0,2:0:0:0:
12,268,131591,1,0,1:2:0:0:
197,78,131749,2,0,B|212:141|212:141|202:168|202:168|213:221,1,148.5,8|0,2:0|2:0,2:0:0:0:
213,221,132064,1,2,1:2:0:0:
126,123,132222,1,0,1:2:0:0:
291,278,132380,2,0,L|396:254,1,99,8|2,2:0|2:0,2:0:0:0:
438,53,132696,6,0,P|392:91|421:180,1,148.5,6|0,1:2|2:0,2:0:0:0:
470,123,133012,1,10,2:0:0:0:
346,19,133170,2,0,P|293:8|243:19,1,99,2|0,2:0|1:2,2:0:0:0:
202,93,133485,1,2,1:2:0:0:
330,193,133643,2,0,P|275:192|229:171,1,99,8|2,2:0|2:0,2:0:0:0:
158,17,133959,6,0,P|95:25|92:128,1,148.5,0|0,1:2|2:0,2:0:0:0:
107,169,134275,2,0,P|125:222|104:270,1,99,8|0,2:0|2:0,2:0:0:0:
28,350,134591,1,2,1:2:0:0:
154,361,134749,1,0,1:2:0:0:
228,243,134906,2,0,L|336:219,1,99,8|2,2:0|2:0,2:0:0:0:
471,359,135222,6,0,B|436:327|436:327|337:349,1,148.5,6|0,1:2|2:0,2:0:0:0:
267,363,135538,1,10,2:0:0:0:
395,263,135696,2,0,P|409:206|381:163,1,99,2|0,2:0|1:2,2:0:0:0:
301,96,136012,1,2,1:2:0:0:
483,168,136170,1,8,2:0:0:0:
313,16,136328,6,0,P|248:31|227:124,1,148.5,6|0,1:2|2:0,2:0:0:0:
262,165,136643,1,8,2:0:0:0:
99,275,136801,2,0,L|-17:250,1,99,10|2,2:0|1:2,2:0:0:0:
176,169,137117,1,10,2:0:0:0:
224,247,137275,1,0,1:0:0:0:
425,160,137433,1,10,2:0:0:0:
379,247,137591,1,8,2:0:0:0:
379,247,137670,1,8,2:0:0:0:
379,247,137749,5,6,1:2:0:0:
281,77,137906,2,0,L|258:181,1,90,2|8,2:0|2:0,2:0:0:0:
437,0,138222,2,0,L|459:104,1,90,2|0,2:0|1:2,2:0:0:0:
264,77,138538,2,0,L|241:181,1,90,2|8,1:2|2:0,2:0:0:0:
463,0,138854,6,0,L|485:104,1,90,2|0,1:2|3:2,2:0:0:0:
314,289,139170,2,0,P|260:289|224:255,1,90,2|8,1:2|2:0,2:0:0:0:
137,94,139485,2,0,P|164:140|152:188,1,90,2|0,2:0|1:2,2:0:0:0:
57,345,139801,1,2,1:2:0:0:
57,345,139959,2,0,P|84:298|169:311,1,135,10|0,2:0|2:0,2:0:0:0:
206,357,140275,5,6,1:2:0:0:
291,217,140433,2,0,L|267:104,1,90,0|8,2:0|2:0,2:0:0:0:
376,361,140749,2,0,B|417:342|417:342|441:280,1,90,2|0,2:0|1:2,2:0:0:0:
217,235,141064,2,0,B|176:216|176:216|152:154,1,90,2|8,1:2|2:0,2:0:0:0:
325,33,141380,6,0,B|358:33|368:57|368:57|353:149,1,135,2|0,1:2|2:0,2:0:0:0:
354,138,141696,1,0,1:2:0:0:
501,258,141854,2,0,L|477:148,1,90,12|2,2:0|2:0,2:0:0:0:
388,243,142170,1,2,1:2:0:0:
282,183,142328,1,2,1:2:0:0:
200,361,142485,2,0,P|187:315|223:359,1,135,10|0,2:0|2:0,2:0:0:0:
118,379,142801,6,0,P|107:316|123:272,1,90,6|2,1:2|2:0,2:0:0:0:
282,183,143117,1,8,2:0:0:0:
282,183,143275,2,0,P|232:224|186:232,1,90,2|0,2:0|1:2,2:0:0:0:
316,71,143591,2,0,P|357:87|389:118,1,90,2|8,1:2|2:0,2:0:0:0:
487,277,143906,6,0,L|369:252,1,90,2|0,1:2|3:2,2:0:0:0:
252,384,144222,2,0,L|369:359,1,90,2|8,1:2|2:0,2:0:0:0:
193,276,144538,2,0,L|105:258,1,90,2|0,2:0|1:2,2:0:0:0:
19,90,144854,2,0,B|73:59|127:95|91:114|154:147|214:99,1,180,2|2,1:2|1:2,2:0:0:0:
184,115,145249,1,0,1:2:0:0:
184,115,145328,5,6,1:2:0:0:
299,71,145485,1,2,2:0:0:0:
412,238,145643,1,10,2:0:0:0:
297,193,145801,1,2,2:0:0:0:
184,360,145959,1,2,1:2:0:0:
299,315,146117,1,2,1:2:0:0:
184,115,146275,1,10,2:0:0:0:
412,238,146433,6,0,B|420:175|420:175|412:161|412:161|422:91,1,135,6|0,1:2|2:0,2:0:0:0:
419,106,146749,1,2,1:2:0:0:
439,365,146906,1,10,2:0:0:0:
297,193,147064,1,2,1:2:0:0:
67,361,147222,1,10,2:0:0:0:
209,189,147380,1,2,1:2:0:0:
67,17,147538,2,0,P|45:61|127:86,1,135,10|0,2:3|2:0,2:0:0:0:
144,33,147854,6,0,P|189:11|295:49,1,148.5,6|0,1:2|2:0,2:0:0:0:
323,95,148170,1,10,2:0:0:0:
188,285,148328,2,0,L|211:173,1,99,2|0,1:2|2:0,2:0:0:0:
273,351,148643,1,2,2:0:0:0:
85,308,148801,1,10,2:0:0:0:
273,351,148959,6,0,B|365:315|365:315|421:350,1,148.5,6|0,1:2|2:0,2:0:0:0:
407,341,149275,1,2,1:2:0:0:
302,191,149433,2,0,L|323:90,1,99,10|10,2:0|2:3,2:0:0:0:
322,94,149670,1,8,2:3:0:0:
322,94,149749,1,8,2:3:0:0:
413,160,149906,1,2,1:2:0:0:
229,285,150064,2,0,L|207:184,1,99,12|2,2:0|2:0,2:0:0:0:
52,41,150380,5,2,1:2:0:0:
77,140,150538,1,2,1:2:0:0:
102,239,150696,1,10,2:0:0:0:
234,19,150854,1,6,1:2:0:0:
234,19,151170,1,2,1:2:0:0:
160,124,151328,1,10,2:0:0:0:
322,94,151485,6,0,B|379:83|379:83|418:93|418:93|472:81,1,148.5,6|0,1:2|2:0,2:0:0:0:
419,17,151801,1,10,2:0:0:0:
234,19,151959,1,10,2:0:0:0:
316,180,152117,1,2,1:2:0:0:
364,169,152196,1,0,1:2:0:0:
412,159,152275,1,0,1:2:0:0:
199,260,152433,1,2,1:2:0:0:
150,249,152512,1,0,1:2:0:0:
102,239,152591,1,2,1:2:0:0:
316,340,152749,1,2,1:2:0:0:
365,329,152828,1,0,1:2:0:0:
413,319,152906,6,0,B|430:286|430:286|307:311,1,148.5,6|0,1:2|2:0,2:0:0:0:
228,342,153222,2,0,L|103:315,1,99,8|2,2:0|2:0,2:0:0:0:
16,214,153538,1,2,1:2:0:0:
16,214,153696,1,2,1:2:0:0:
64,366,153854,1,10,2:0:0:0:
82,145,154012,6,0,B|78:91|78:91|91:63|91:63|87:-7,1,148.5,14|0,2:0|2:0,2:0:0:0:
87,0,154328,1,2,1:2:0:0:
16,214,154485,2,0,P|63:246|123:236,1,99,10|10,2:0|2:3,2:0:0:0:
215,127,154801,1,10,2:0:0:0:
304,281,154959,1,2,1:2:0:0:
152,183,155117,1,10,2:3:0:0:
337,81,155275,1,6,1:3:0:0:
337,81,155354,1,4,1:3:0:0:
337,81,155433,6,0,P|405:91|440:186,1,162,14|0,2:0|2:0,2:0:0:0:
428,241,155749,5,8,2:0:0:0:
277,155,155906,1,2,2:0:0:0:
388,313,156064,1,10,2:0:0:0:
215,210,156222,1,0,1:2:0:0:
344,380,156380,1,8,2:0:0:0:
153,267,156538,1,2,1:2:0:0:
428,241,156696,6,0,B|473:229|490:193|490:193|450:162|462:93,1,162,14|0,2:0|2:0,2:0:0:0:
495,60,157012,1,8,2:0:0:0:
246,10,157170,1,2,1:2:0:0:
251,36,157249,1,0,1:2:0:0:
257,62,157328,1,10,2:0:0:0:
360,292,157485,1,0,1:2:0:0:
342,53,157643,1,8,2:0:0:0:
223,249,157801,1,2,1:2:0:0:
70,10,157959,6,0,B|57:74|57:74|71:106|71:106|59:175,1,162,14|0,2:0|2:0,2:0:0:0:
44,241,158275,1,8,2:0:0:0:
257,62,158433,1,2,2:0:0:0:
305,335,158591,1,10,2:0:0:0:
159,98,158749,1,0,1:2:0:0:
164,71,158828,1,0,1:2:0:0:
170,45,158906,1,8,2:0:0:0:
393,225,159064,1,0,1:2:0:0:
387,198,159143,1,0,1:2:0:0:
381,172,159222,5,12,2:0:0:0:
198,366,159380,1,8,2:0:0:0:
477,267,159538,1,8,2:0:0:0:
257,62,159696,1,8,2:0:0:0:
318,362,159854,1,8,2:0:0:0:
443,68,160012,1,8,2:0:0:0:
154,197,160170,1,8,2:0:0:0:
502,273,160328,1,8,2:0:0:0:
170,45,160485,5,14,2:0:0:0:
256,192,160564,12,0,162933,2:0:0:0:
256,192,163012,5,2,2:0:0:0:
256,192,165538,5,2,2:0:0:0:
256,192,168064,5,2,2:0:0:0:
257,268,169328,5,2,2:0:0:0:
255,112,170591,5,2,2:0:0:0:
258,346,171538,6,0,P|299:323|345:327,2,90,2|2|2,2:0|2:0|2:0,2:0:0:0:
200,278,172328,1,0,1:2:0:0:
200,278,172485,2,0,P|169:264|141:267,1,45,10|4,2:3|2:3,2:0:0:0:
265,220,172801,1,6,2:3:0:0:
265,220,173117,6,0,P|272:155|306:114,1,114.75,4|0,1:2|2:0,2:0:0:0:
329,102,173433,2,0,P|373:100|418:121,1,76.5000000000003,8|0,2:1|2:0,2:0:0:0:
453,12,173749,2,0,P|409:10|363:31,1,76.5000000000003,8|2,2:1|2:0,2:0:0:0:
292,26,174064,1,10,2:1:0:0:
292,26,174222,1,2,1:2:0:0:
160,25,174380,6,0,B|168:73|168:73|181:86|181:86|192:140,1,114.75,0|0,1:2|2:0,2:0:0:0:
177,160,174696,2,0,L|92:142,1,76.5000000000003,8|2,2:1|2:0,2:0:0:0:
32,240,175012,2,0,L|116:222,1,76.5000000000003,8|2,2:1|2:0,2:0:0:0:
150,294,175328,1,10,2:1:0:0:
150,294,175485,1,2,1:2:0:0:
261,186,175643,6,0,P|274:237|264:316,1,114.75,2|0,1:2|2:0,2:0:0:0:
269,298,175959,1,10,2:1:0:0:
400,372,176117,2,0,L|378:271,2,76.5000000000003,2|8|0,2:0|2:1|1:2,2:0:0:0:
478,316,176591,1,10,2:1:0:0:
356,222,176749,1,2,1:2:0:0:
498,114,176906,6,0,L|477:208,1,76.5000000000003,8|0,2:1|2:0,2:0:0:0:
380,40,177222,2,0,L|400:134,1,76.5000000000003,8|0,2:1|2:0,2:0:0:0:
308,142,177538,2,0,P|256:133|211:156,1,76.5000000000003,10|0,2:1|1:2,2:0:0:0:
211,61,177775,2,0,P|167:91|152:139,1,76.5000000000003,2|0,1:2|2:0,2:0:0:0:
79,84,178012,2,0,P|74:112|86:137,1,38.2500000000001,2|0,2:0|2:0,2:0:0:0:
207,220,178170,6,0,P|163:209|97:261,1,114.75,6|0,1:2|2:0,2:0:0:0:
105,242,178485,1,10,2:1:0:0:
202,346,178643,1,2,2:0:0:0:
202,346,178801,2,0,L|285:328,1,76.5000000000003,8|0,2:1|2:0,2:0:0:0:
364,237,179117,1,10,2:1:0:0:
283,253,179275,1,2,1:2:0:0:
411,371,179433,6,0,L|428:287,1,76.5000000000003,0|0,1:2|2:0,2:0:0:0:
505,264,179749,2,0,L|487:180,1,76.5000000000003,8|0,2:1|2:0,2:0:0:0:
391,125,180064,2,0,P|430:111|483:105,1,76.5000000000003,10|0,2:1|0:2,2:0:0:0:
309,114,180301,2,0,P|326:76|360:34,1,76.5000000000003,2|0,1:2|2:0,2:0:0:0:
243,164,180538,2,0,P|233:136|229:98,1,38.2500000000001,2|0,2:0|2:0,2:0:0:0:
117,15,180696,6,0,B|107:73|107:73|112:93|112:93|100:153,1,135,6|0,1:2|2:0,2:0:0:0:
83,223,181012,1,0,1:2:0:0:
259,22,181170,1,0,1:2:0:0:
354,274,181328,1,0,1:2:0:0:
189,63,181485,1,0,1:2:0:0:
71,306,181643,1,0,1:2:0:0:
332,186,181801,1,2,1:2:0:0:
166,190,181959,5,2,2:0:0:0:
239,64,183222,6,0,B|284:152|196:152|253:258,1,180,6|0,1:2|1:2,2:0:0:0:
297,335,183696,1,0,1:2:0:0:
495,192,183854,2,0,B|408:188|408:188|394:196|394:196|296:192,1,180,8|0,2:0|3:2,2:0:0:0:
193,328,184328,1,10,2:0:0:0:
104,279,184485,5,2,1:2:0:0:
239,64,184643,1,0,1:2:0:0:
190,153,184801,1,2,1:2:0:0:
190,153,185117,2,0,B|96:125|96:125|79:177|17:185,1,180,10|2,2:0|2:0,2:0:0:0:
144,17,185591,1,10,2:0:0:0:
303,152,185749,6,0,B|350:120|413:155|385:181|438:198|483:170,1,180,4|0,1:2|1:2,2:0:0:0:
331,248,186222,1,0,1:2:0:0:
487,350,186380,2,0,B|469:283|469:283|484:242|484:242|465:161,1,180,8|0,2:0|3:2,2:0:0:0:
274,355,186854,1,10,2:0:0:0:
331,248,187012,5,2,1:2:0:0:
88,172,187170,1,8,2:3:0:0:
145,279,187328,1,2,1:2:0:0:
145,279,187643,2,0,B|188:271|194:226|194:226|171:100,1,180,10|2,2:0|3:2,2:0:0:0:
88,172,188117,1,10,2:0:0:0:
323,20,188275,6,0,P|372:19|369:129,1,180,4|2,1:2|2:0,2:0:0:0:
284,107,188749,1,2,1:2:0:0:
409,325,188906,2,0,B|446:356|446:356|444:200,1,180,8|2,2:0|3:2,2:0:0:0:
326,359,189380,6,0,P|281:344|236:339,1,90,10|0,2:0|3:2,2:0:0:0:
175,152,189696,2,0,P|130:166|85:171,1,90,8|2,2:0|2:0,2:0:0:0:
33,243,190012,1,2,1:2:0:0:
197,0,190170,2,0,B|257:-10|289:34|289:34|260:80|299:134,1,180,8|2,2:0|2:0,2:0:0:0:
384,295,190643,1,10,2:0:0:0:
372,71,190801,6,0,P|427:57|436:163,1,180,4|0,1:2|3:2,2:0:0:0:
475,247,191275,1,0,1:2:0:0:
267,191,191433,2,0,L|245:290,1,90,8|0,2:0|2:0,2:0:0:0:
303,359,191749,1,2,2:0:0:0:
358,166,191906,1,8,2:0:0:0:
151,252,192064,6,0,L|172:351,1,90,4|4,1:2|1:3,2:0:0:0:
169,340,192301,1,8,2:0:0:0:
169,340,192380,1,10,2:0:0:0:
39,140,192538,2,0,L|17:239,1,90,6|0,1:2|1:2,2:0:0:0:
20,228,192775,1,8,2:0:0:0:
20,228,192854,1,8,2:0:0:0:
122,114,193012,1,14,2:0:0:0:
248,279,193170,1,10,2:0:0:0:
248,279,193249,1,8,2:0:0:0:
248,279,193328,6,0,P|318:306|386:252,1,148.5,0|0,1:2|2:0,2:0:0:0:
422,206,193643,2,0,P|471:181|525:197,1,99,8|0,2:0|2:0,2:0:0:0:
425,341,193959,1,0,1:2:0:0:
310,226,194117,1,0,1:2:0:0:
491,92,194275,2,0,L|515:206,1,99,10|2,2:0|2:0,2:0:0:0:
324,53,194591,6,0,B|289:33|244:51|244:51|231:91|181:99,1,148.5,2|0,1:2|2:0,2:0:0:0:
121,57,194906,2,0,P|110:94|150:159,1,99,8|0,2:0|2:0,2:0:0:0:
257,234,195222,1,0,1:2:0:0:
198,94,195380,1,0,1:2:0:0:
65,253,195538,2,0,L|176:229,1,99,10|2,2:0|2:0,2:0:0:0:
354,137,195854,5,2,1:2:0:0:
479,275,196012,1,0,1:2:0:0:
315,361,196170,1,10,2:0:0:0:
507,270,196328,2,0,L|484:162,1,99,6|0,1:2|2:0,2:0:0:0:
236,330,196643,2,0,L|258:222,1,99,2|8,1:2|2:0,2:0:0:0:
314,25,196959,6,0,P|359:49|343:145,1,148.5,2|0,1:2|2:0,2:0:0:0:
282,100,197275,1,0,1:2:0:0:
163,243,197433,2,0,L|126:70,1,148.5,12|0,2:0|2:0,2:0:0:0:
125,66,197749,1,2,1:2:0:0:
24,213,197906,1,0,1:2:0:0:
24,213,197985,1,2,1:2:0:0:
24,213,198064,1,8,2:0:0:0:
231,300,198222,1,10,2:0:0:0:
231,300,198301,1,8,2:0:0:0:
231,300,198380,6,0,B|147:337|160:245|40:308,1,162,14|0,2:0|2:0,2:0:0:0:
13,365,198696,2,0,P|75:384|114:365,1,108,10|2,2:0|1:2,2:0:0:0:
179,162,199012,1,8,2:0:0:0:
308,359,199170,1,0,1:2:0:0:
360,104,199328,1,10,2:0:0:0:
231,300,199485,1,2,1:2:0:0:
132,69,199643,6,0,P|75:76|19:92,1,108,8|0,2:0|1:2,2:0:0:0:
111,366,199959,1,8,2:0:0:0:
179,162,200117,1,0,1:2:0:0:
409,317,200275,1,10,2:0:0:0:
231,300,200433,1,0,1:2:0:0:
462,193,200591,1,8,2:0:0:0:
308,359,200749,1,2,1:2:0:0:
259,105,200906,6,0,L|234:-8,1,108,14|0,2:0|1:2,2:0:0:0:
134,256,201222,1,14,2:0:0:0:
392,108,201380,1,2,1:2:0:0:
96,66,201538,1,12,2:0:0:0:
354,214,201696,1,2,1:2:0:0:
1,253,201854,1,12,2:0:0:0:
259,105,202012,1,2,1:2:0:0:
259,105,202091,1,0,1:0:0:0:
259,105,202170,5,12,2:0:0:0:
168,366,202328,1,8,2:0:0:0:
164,339,202406,1,8,2:0:0:0:
160,312,202485,1,10,2:0:0:0:
156,285,202564,1,8,2:0:0:0:
152,259,202643,1,8,2:0:0:0:
148,232,202722,1,10,2:0:0:0:
144,205,202801,5,8,2:0:0:0:
180,244,202880,1,8,2:0:0:0:
230,260,202959,1,10,2:0:0:0:
282,248,203038,1,8,2:0:0:0:
321,211,203117,1,10,2:0:0:0:
357,171,203196,1,8,2:0:0:0:
407,155,203275,1,8,2:0:0:0:
459,167,203354,1,8,2:0:0:0:
498,204,203433,5,6,1:2:0:0:
408,303,203591,1,2,2:0:0:0:
267,72,203749,1,10,2:0:0:0:
357,171,203906,2,0,L|381:55,1,90,2|0,2:0|1:2,2:0:0:0:
248,348,204222,2,0,L|223:232,1,90,2|8,2:0|2:0,2:0:0:0:
491,374,204538,1,2,2:0:0:0:
491,374,204696,6,0,B|508:302|508:302|486:266|486:266|499:193,1,180,2|8,1:2|2:0,2:0:0:0:
357,171,205170,2,0,P|306:184|258:161,1,90,2|2,2:0|1:2,2:0:0:0:
157,14,205485,1,2,2:0:0:0:
157,14,205643,2,0,P|193:51|197:104,1,90,8|0,2:0|2:0,2:0:0:0:
27,254,205959,5,6,1:2:0:0:
161,310,206117,1,2,2:0:0:0:
300,111,206275,1,10,2:0:0:0:
166,167,206433,2,0,L|68:146,1,90,2|0,2:0|1:2,2:0:0:0:
285,242,206749,2,0,L|382:221,1,90,2|8,2:0|2:0,2:0:0:0:
403,24,207064,1,2,2:0:0:0:
403,24,207222,6,0,P|350:14|302:116,1,180,2|8,1:2|2:0,2:0:0:0:
373,223,207696,1,2,2:0:0:0:
314,352,207854,1,2,1:2:0:0:
314,352,208012,1,2,2:0:0:0:
462,241,208170,1,10,2:0:0:0:
285,242,208328,1,2,2:0:0:0:
108,243,208485,6,0,B|46:244|46:244|71:176|181:195,1,180,2|8,1:2|2:0,2:0:0:0:
68,328,208959,1,2,2:0:0:0:
18,146,209117,2,0,P|81:117|207:123,1,180,2|8,1:2|2:0,2:0:0:0:
285,242,209591,1,2,2:0:0:0:
348,47,209749,6,0,B|364:128|364:128|358:143|358:143|374:229,1,180,6|8,1:2|2:0,2:0:0:0:
462,241,210222,1,2,2:0:0:0:
299,374,210380,2,0,B|256:324|256:324|215:344|180:354|130:369,1,180,2|8,1:2|2:0,2:0:0:0:
285,242,210854,1,2,2:0:0:0:
137,119,211012,6,0,P|66:137|83:244,1,180,2|8,1:2|2:0,2:0:0:0:
254,124,211485,1,10,2:3:0:0:
254,124,211564,1,8,2:3:0:0:
254,124,211643,2,0,B|220:40|220:40|105:10,1,180,6|8,1:2|2:0,2:0:0:0:
157,257,212117,1,10,2:0:0:0:
157,257,212196,1,8,2:0:0:0:
157,257,212275,6,0,B|202:273|234:253|218:244|257:220|296:248,1,135,2|0,1:2|2:0,2:0:0:0:
351,282,212591,1,12,1:2:0:0:
450,343,212749,1,2,2:0:0:0:
350,160,212906,1,10,2:0:0:0:
250,354,213064,1,8,2:0:0:0:
443,211,213222,1,8,2:0:0:0:
166,135,213380,1,8,2:0:0:0:
362,363,213538,6,0,P|403:348|459:342,1,90,2|2,1:2|2:0,2:0:0:0:
284,241,213854,1,14,2:0:0:0:
461,122,214012,2,0,L|435:242,1,90,2|0,2:0|1:2,2:0:0:0:
254,8,214328,2,0,L|279:128,1,90,2|8,2:0|2:0,2:0:0:0:
183,276,214643,1,2,2:0:0:0:
183,276,214801,6,0,P|149:243|3:268,1,180,2|8,1:2|2:0,2:0:0:0:
176,379,215275,2,0,P|226:375|268:329,1,90,2|2,2:0|1:2,2:0:0:0:
300,157,215591,1,2,2:0:0:0:
300,157,215749,2,0,P|278:202|297:261,1,90,8|0,2:0|2:0,2:0:0:0:
458,366,216064,5,6,1:2:0:0:
355,307,216222,1,2,2:0:0:0:
509,137,216380,1,10,2:0:0:0:
385,38,216538,2,0,L|408:146,1,90,2|0,2:0|1:2,2:0:0:0:
195,259,216854,2,0,P|240:246|303:235,1,90,2|8,2:0|2:0,2:0:0:0:
98,44,217170,1,2,2:0:0:0:
98,44,217328,6,0,P|27:59|20:166,1,180,2|8,1:2|2:0,2:0:0:0:
82,250,217801,1,2,2:0:0:0:
10,353,217959,1,2,1:2:0:0:
10,353,218117,1,2,2:0:0:0:
161,308,218275,1,10,2:0:0:0:
0,235,218433,1,2,2:0:0:0:
210,134,218591,6,0,B|263:115|318:146|288:161|345:182|385:160,1,180,6|8,1:2|2:0,2:0:0:0:
355,71,219064,1,0,2:0:0:0:
256,283,219222,2,0,P|343:314|443:289,1,180,2|8,1:2|2:0,2:0:0:0:
469,209,219696,1,2,2:0:0:0:
355,71,219854,6,0,P|284:49|202:38,1,135,14|0,2:0|2:0,2:0:0:0:
223,40,220170,1,10,2:0:0:0:
116,170,220328,1,10,2:3:0:0:
116,170,220406,1,8,2:3:0:0:
116,170,220485,2,0,L|15:148,1,90,4|2,2:3|1:2,2:0:0:0:
25,308,220801,1,0,1:2:0:0:
117,259,220959,1,2,2:0:0:0:
291,383,221117,5,4,1:2:0:0:
256,192,221196,12,0,226091,2:0:0:0:
