osu file format v14

[General]
AudioFilename: audio.mp3
AudioLeadIn: 0
PreviewTime: 181801
Countdown: 0
SampleSet: Soft
StackLeniency: 0.5
Mode: 0
LetterboxInBreaks: 0
WidescreenStoryboard: 1

[Editor]
Bookmarks: 1328,11433,21538,41749,49328,56906,77117,87222,107433,117538,137749,155433,163012,173117,183222,203433,221117
DistanceSpacing: 1
BeatDivisor: 4
GridSize: 32
TimelineZoom: 1.6

[Metadata]
Title:Letters to me
TitleUnicode:Letters to me
Artist:Amatsuki
ArtistUnicode:天月
Creator:Kirishima-
Version:Endless Journey
Source:
Tags:あまつき japanese rock jrock j-rock utaite male vocal maaadbot asukow xahlt kuon- my angel ram my_angel_ram searasp toofu
BeatmapID:2828520
BeatmapSetID:1367704

[Difficulty]
HPDrainRate:5.5
CircleSize:4
OverallDifficulty:9.2
ApproachRate:9.3
SliderMultiplier:1.8
SliderTickRate:1

[Events]
//Background and Video events
0,0,"background.jpg",0,0
Video,0,"video.mp4"
//Break Periods
//Storyboard Layer 0 (Background)
//Storyboard Layer 1 (Fail)
//Storyboard Layer 2 (Pass)
//Storyboard Layer 3 (Foreground)
//Storyboard Layer 4 (Overlay)
//Storyboard Sound Samples

[TimingPoints]
1328,315.789473684211,4,2,22,50,1,0
1328,-133.333333333333,4,2,22,50,0,0
8906,-111.111111111111,4,2,22,60,0,0
9458,-111.111111111111,4,2,22,5,0,0
9538,-111.111111111111,4,2,22,60,0,0
10090,-111.111111111111,4,2,22,5,0,0
10170,-111.111111111111,4,2,22,60,0,0
11433,-100,4,2,22,70,0,0
16721,-100,4,2,22,5,0,0
16801,-100,4,2,22,70,0,0
17985,-100,4,2,22,5,0,0
18064,-100,4,2,22,70,0,0
18932,-100,4,2,22,5,0,0
19012,-100,4,2,22,70,0,0
21538,-117.647058823529,4,2,22,60,0,0
31959,-111.111111111111,4,2,22,60,0,0
33142,-111.111111111111,4,2,22,5,0,0
33222,-111.111111111111,4,2,22,60,0,0
34406,-111.111111111111,4,2,22,5,0,0
34485,-111.111111111111,4,2,22,60,0,0
35037,-111.111111111111,4,2,22,5,0,0
35117,-111.111111111111,4,2,22,60,0,0
36932,-111.111111111111,4,2,22,5,0,0
37012,-111.111111111111,4,2,22,60,0,0
38195,-111.111111111111,4,2,22,5,0,0
38275,-111.111111111111,4,2,22,60,0,0
41749,-111.111111111111,4,2,22,50,0,0
46170,-133.333333333333,4,2,22,50,0,0
46327,-133.333333333333,4,2,22,5,0,0
46406,-133.333333333333,4,2,22,50,0,0
46563,-133.333333333333,4,2,22,5,0,0
46643,-133.333333333333,4,2,22,50,0,0
46801,-111.111111111111,4,2,22,60,0,0
49328,-83.3333333333333,4,2,22,80,0,1
54222,-83.3333333333333,4,2,22,40,0,0
55406,-200,4,2,22,40,0,0
55563,-200,4,2,22,5,0,0
55643,-200,4,2,22,40,0,0
55879,-200,4,2,22,5,0,0
55959,-133.333333333333,4,2,22,50,0,0
56195,-133.333333333333,4,2,22,5,0,0
56275,-111.111111111111,4,2,22,60,0,0
56511,-111.111111111111,4,2,22,5,0,0
56591,-111.111111111111,4,2,22,60,0,0
56906,-100,4,2,22,70,0,1
59037,-100,4,2,22,5,0,1
59117,-100,4,2,22,70,0,1
63458,-100,4,2,22,5,0,1
63538,-100,4,2,22,70,0,1
64406,-100,4,2,22,5,0,1
64485,-100,4,2,22,70,0,1
65669,-100,4,2,22,5,0,1
65749,-100,4,2,22,70,0,1
66933,-100,4,2,22,70,0,0
67012,-90.9090909090909,4,2,22,75,0,1
68195,-90.9090909090909,4,2,22,5,0,1
68275,-90.9090909090909,4,2,22,75,0,1
69774,-90.9090909090909,4,2,22,5,0,1
69854,-90.9090909090909,4,2,22,75,0,1
71353,-90.9090909090909,4,2,22,5,0,1
71433,-90.9090909090909,4,2,22,75,0,1
72300,-90.9090909090909,4,2,22,5,0,1
72380,-90.9090909090909,4,2,22,75,0,1
73564,-90.9090909090909,4,2,22,5,0,1
73643,-90.9090909090909,4,2,22,75,0,1
74827,-90.9090909090909,4,2,22,5,0,1
74906,-90.9090909090909,4,2,22,75,0,1
77117,-100,4,2,22,70,0,0
82406,-100,4,2,22,5,0,0
82485,-100,4,2,22,70,0,0
83669,-100,4,2,22,5,0,0
83749,-100,4,2,22,70,0,0
84616,-100,4,2,22,5,0,0
84696,-100,4,2,22,70,0,0
87222,-117.647058823529,4,2,22,60,0,0
89985,-117.647058823529,4,2,22,5,0,0
90064,-117.647058823529,4,2,22,60,0,0
95037,-117.647058823529,4,2,22,5,0,0
95117,-117.647058823529,4,2,22,60,0,0
95669,-117.647058823529,4,2,22,5,0,0
95749,-117.647058823529,4,2,22,60,0,0
97328,-111.111111111111,4,2,22,60,0,0
97564,-111.111111111111,4,2,22,5,0,0
97643,-111.111111111111,4,2,22,60,0,0
98827,-111.111111111111,4,2,22,5,0,0
98906,-111.111111111111,4,2,22,60,0,0
100090,-111.111111111111,4,2,22,5,0,0
100170,-111.111111111111,4,2,22,60,0,0
102616,-111.111111111111,4,2,22,5,0,0
102696,-111.111111111111,4,2,22,60,0,0
103879,-111.111111111111,4,2,22,5,0,0
103959,-111.111111111111,4,2,22,60,0,0
107433,-117.647058823529,4,2,22,60,0,0
107669,-117.647058823529,4,2,22,5,0,0
107749,-117.647058823529,4,2,22,60,0,0
110195,-117.647058823529,4,2,22,5,0,0
110275,-117.647058823529,4,2,22,60,0,0
112011,-117.647058823529,4,2,22,5,0,0
112091,-117.647058823529,4,2,22,60,0,0
112248,-117.647058823529,4,2,22,5,0,0
112328,-117.647058823529,4,2,22,60,0,0
112485,-111.111111111111,4,2,22,60,0,0
115012,-100,4,2,22,65,0,0
117538,-100,4,2,22,70,0,1
122827,-100,4,2,22,5,0,1
122906,-100,4,2,22,70,0,1
123458,-100,4,2,22,5,0,1
123538,-100,4,2,22,70,0,1
127643,-90.9090909090909,4,2,22,75,0,1
131985,-90.9090909090909,4,2,22,5,0,1
132064,-90.9090909090909,4,2,22,75,0,1
132932,-90.9090909090909,4,2,22,5,0,1
133012,-90.9090909090909,4,2,22,75,0,1
134195,-90.9090909090909,4,2,22,5,0,1
134275,-90.9090909090909,4,2,22,75,0,1
135458,-90.9090909090909,4,2,22,5,0,1
135538,-90.9090909090909,4,2,22,75,0,1
137749,-100,4,2,22,70,0,0
140195,-100,4,2,22,5,0,0
140275,-100,4,2,22,70,0,0
141616,-100,4,2,22,5,0,0
141696,-100,4,2,22,70,0,0
142721,-100,4,2,22,5,0,0
142801,-100,4,2,22,70,0,0
147774,-100,4,2,22,5,0,0
147854,-100,4,2,22,75,0,0
148959,-90.9090909090909,4,2,22,75,0,0
151721,-90.9090909090909,4,2,22,5,0,0
151801,-90.9090909090909,4,2,22,75,0,0
153142,-90.9090909090909,4,2,22,5,0,0
153222,-90.9090909090909,4,2,22,75,0,0
154248,-90.9090909090909,4,2,22,5,0,0
154328,-90.9090909090909,4,2,22,75,0,0
155433,-83.3333333333333,4,2,22,80,0,1
160485,-83.3333333333333,4,2,22,50,0,0
162854,-83.3333333333333,4,2,22,5,0,0
163012,-83.3333333333333,4,2,22,40,0,0
171538,-133.333333333333,4,2,22,50,0,0
171774,-133.333333333333,4,2,22,5,0,0
171854,-133.333333333333,4,2,22,50,0,0
172090,-133.333333333333,4,2,22,5,0,0
172170,-133.333333333333,4,2,22,50,0,0
173117,-117.647058823529,4,2,22,60,0,0
173353,-117.647058823529,4,2,22,5,0,0
173433,-117.647058823529,4,2,22,60,0,0
174616,-117.647058823529,4,2,22,5,0,0
174696,-117.647058823529,4,2,22,60,0,0
175879,-117.647058823529,4,2,22,5,0,0
175959,-117.647058823529,4,2,22,60,0,0
178406,-117.647058823529,4,2,22,5,0,0
178485,-117.647058823529,4,2,22,60,0,0
180696,-100,4,2,22,70,0,0
180932,-100,4,2,22,5,0,0
181012,-100,4,2,22,70,0,0
181959,-200,4,2,22,40,0,0
182195,-200,4,2,22,5,0,0
182275,-133.333333333333,4,2,22,50,0,0
182511,-133.333333333333,4,2,22,5,0,0
182591,-83.3333333333333,4,2,22,80,0,0
182827,-83.3333333333333,4,2,22,5,0,0
182906,-83.3333333333333,4,2,22,60,0,0
183222,-100,4,2,22,70,0,1
188511,-100,4,2,22,5,0,1
188591,-100,4,2,22,70,0,1
189142,-100,4,2,22,5,0,1
189222,-100,4,2,22,70,0,1
193328,-90.9090909090909,4,2,22,75,0,1
197669,-90.9090909090909,4,2,22,5,0,1
197749,-90.9090909090909,4,2,22,75,0,1
198380,-83.3333333333333,4,2,22,80,0,1
203433,-100,4,2,22,70,0,0
209985,-100,4,2,22,5,0,0
210064,-100,4,2,22,70,0,0
212511,-100,4,2,22,5,0,0
212591,-100,4,2,22,70,0,0
221117,-500,4,2,22,70,0,0
221433,-500,4,2,22,5,0,0

[Colours]
Combo1 : 191,72,0
Combo2 : 255,136,64
Combo3 : 255,203,117
Combo4 : 191,191,191
Combo5 : 128,128,128
Combo6 : 114,157,184
Combo7 : 64,104,128
Combo8 : 128,48,0

[HitObjects]
434,304,1328,6,0,P|442:336|433:368,2,67.5000000000002,2|2|2,2:0|2:0|2:0,2:0:0:0:
249,287,1801,2,0,P|293:335|359:335,2,135,2|2|2,2:0|2:0|2:0,2:0:0:0:
418,61,3854,6,0,L|485:55,2,67.5000000000002,2|2|2,2:0|2:0|2:0,2:0:0:0:
341,117,4328,2,0,B|309:85|309:85|341:1,2,135,2|2|2,2:0|2:0|2:0,2:0:0:0:
235,11,5117,5,2,2:0:0:0:
235,11,5591,2,0,P|202:3|170:11,1,67.5000000000002,2|0,2:0|2:0,2:0:0:0:
109,91,5906,1,2,2:0:0:0:
211,107,6064,1,2,2:0:0:0:
211,107,6222,1,2,2:0:0:0:
70,21,6380,6,0,L|76:88,1,67.5000000000002,2|0,2:0|2:0,2:0:0:0:
85,186,6696,1,2,2:0:0:0:
211,107,6854,2,0,L|199:242,2,135,2|2|2,2:0|2:0|2:0,2:0:0:0:
63,206,7643,1,2,2:0:0:0:
63,206,7801,2,0,L|69:273,1,67.5000000000002,2|0,2:0|2:0,2:0:0:0:
133,384,8117,5,2,1:2:0:0:
133,384,8196,1,0,1:2:0:0:
133,384,8275,1,10,2:0:0:0:
168,236,8433,1,2,1:2:0:0:
253,372,8591,1,8,1:3:0:0:
253,372,8906,6,0,B|315:416|402:360|347:317|434:262|497:306,1,283.5,6|0,1:2|2:0,2:0:0:0:
297,305,9538,6,0,P|291:193|428:206,1,283.5,6|0,1:2|2:0,2:0:0:0:
355,246,10170,6,0,L|193:260,1,162,6|0,1:2|2:0,2:0:0:0:
135,119,10643,5,8,2:3:0:0:
135,119,10722,1,8,2:3:0:0:
135,119,10801,1,2,1:2:0:0:
18,237,10959,1,8,2:0:0:0:
4,274,11038,1,8,2:0:0:0:
8,314,11117,1,8,2:0:0:0:
29,349,11196,1,8,2:0:0:0:
62,370,11275,1,8,2:0:0:0:
102,375,11354,1,8,2:0:0:0:
140,361,11433,6,0,P|182:348|224:361,1,90,6|2,1:2|2:0,2:0:0:0:
109,233,11749,1,8,2:0:0:0:
276,175,11906,2,0,P|289:217|276:259,1,90,2|0,2:0|1:2,2:0:0:0:
166,109,12222,2,0,P|152:68|167:26,1,90,2|8,1:2|2:0,2:0:0:0:
340,88,12538,1,2,2:0:0:0:
180,208,12696,6,0,B|120:202|120:202|83:156|83:156|22:151,1,180,2|8,1:2|2:0,2:0:0:0:
139,300,13170,1,2,2:0:0:0:
166,109,13328,1,2,1:2:0:0:
28,250,13485,1,2,1:2:0:0:
244,288,13643,2,0,L|334:280,1,90,10|0,2:0|2:0,2:0:0:0:
485,88,13959,5,6,1:2:0:0:
268,189,14117,1,2,2:0:0:0:
477,237,14275,1,10,2:0:0:0:
338,2,14433,2,0,P|325:44|338:86,1,90,2|0,2:0|1:2,2:0:0:0:
485,88,14749,2,0,P|456:55|413:45,1,90,2|8,1:2|2:0,2:0:0:0:
209,74,15064,1,2,2:0:0:0:
332,255,15222,6,0,B|303:217|254:217|254:217|226:258|177:253,1,180,2|8,1:2|2:0,2:0:0:0:
179,77,15696,2,0,L|187:167,1,90,2|0,2:0|1:0,2:0:0:0:
240,335,16012,1,2,2:0:0:0:
66,180,16170,1,10,2:0:0:0:
255,217,16328,1,2,2:0:0:0:
142,354,16485,6,0,P|78:370|23:333,1,135,6|0,1:2|2:0,2:0:0:0:
0,295,16801,1,10,2:0:0:0:
158,182,16959,2,0,P|171:225|159:268,1,90,2|0,2:0|1:2,2:0:0:0:
54,78,17275,2,0,P|82:45|125:34,1,90,2|8,1:2|2:0,2:0:0:0:
340,34,17591,1,2,2:0:0:0:
158,182,17749,6,0,L|295:195,1,135,0|0,1:0|2:0,2:0:0:0:
336,201,18064,1,10,2:0:0:0:
250,42,18222,2,0,L|340:34,1,90,2|0,2:0|1:2,2:0:0:0:
496,20,18538,1,2,1:2:0:0:
483,239,18696,2,0,P|433:222|482:207,1,135,10|0,2:0|2:0,2:0:0:0:
460,224,19012,6,0,B|367:255|383:163|293:195,2,180,6|8|0,1:2|2:0|2:0,2:0:0:0:
324,270,19801,1,2,1:2:0:0:
428,149,19959,1,10,2:0:0:0:
408,326,20117,1,2,2:0:0:0:
293,195,20275,6,0,P|250:181|208:194,1,90,2|0,1:2|2:0,2:0:0:0:
19,293,20591,1,8,2:0:0:0:
24,70,20749,1,8,2:0:0:0:
24,70,20828,1,8,2:0:0:0:
24,70,20906,1,8,2:0:0:0:
110,238,21064,1,0,1:2:0:0:
116,126,21222,1,8,1:3:0:0:
18,179,21380,1,6,1:3:0:0:
218,82,21538,6,0,L|293:75,1,76.5000000000003,6|0,1:2|2:0,2:0:0:0:
416,169,21854,2,0,L|340:162,1,76.5000000000003,2|0,1:2|2:0,2:0:0:0:
475,93,22170,2,0,P|502:120|512:157,1,76.5000000000003,2|0,1:2|2:0,2:0:0:0:
378,77,22485,2,0,P|388:41|414:14,1,76.5000000000003,2|0,1:2|2:0,2:0:0:0:
512,156,22801,6,0,L|505:231,1,76.5000000000003,2|0,1:2|2:0,2:0:0:0:
415,277,23117,1,2,1:2:0:0:
415,277,23275,2,0,L|407:200,1,76.5000000000003,2|0,2:0|1:2,2:0:0:0:
500,324,23591,1,2,2:0:0:0:
500,324,23749,1,2,1:2:0:0:
423,370,23906,1,2,2:0:0:0:
423,370,24064,6,0,P|351:350|321:283,1,153.000000000001,0|0,1:2|1:2,2:0:0:0:
420,173,24538,1,2,2:0:0:0:
420,173,24696,2,0,B|381:206|381:206|280:171,1,153.000000000001,2|0,1:2|1:2,2:0:0:0:
186,283,25328,6,0,B|225:250|225:250|321:283,1,153.000000000001,0|0,1:2|1:2,2:0:0:0:
103,318,25801,1,2,2:0:0:0:
103,318,25959,2,0,P|93:282|103:245,1,76.5000000000003,2|0,1:2|2:0,2:0:0:0:
164,110,26275,1,2,1:2:0:0:
24,205,26433,1,2,2:0:0:0:
186,283,26591,6,0,L|261:290,1,76.5000000000003,2|0,1:2|2:0,2:0:0:0:
285,173,26906,2,0,L|209:180,1,76.5000000000003,2|0,1:2|2:0,2:0:0:0:
345,249,27222,2,0,P|371:222|381:186,1,76.5000000000003,2|0,1:2|2:0,2:0:0:0:
301,31,27538,2,0,P|309:68|336:95,1,76.5000000000003,2|0,1:2|2:0,2:0:0:0:
471,22,27854,6,0,L|395:15,1,76.5000000000003,2|0,1:2|2:0,2:0:0:0:
381,185,28170,2,0,L|457:178,1,76.5000000000003,2|0,1:2|2:0,2:0:0:0:
301,31,28485,2,0,P|265:21|229:30,1,76.5000000000003,2|0,1:2|2:0,2:0:0:0:
226,180,28801,2,0,P|253:155|265:119,1,76.5000000000003,2|0,1:2|2:0,2:0:0:0:
102,77,29117,6,0,B|69:116|69:116|171:108,1,153.000000000001,2|0,1:2|1:2,2:0:0:0:
393,86,29591,1,2,2:0:0:0:
393,86,29749,2,0,P|320:70|265:119,1,153.000000000001,2|0,1:2|1:2,2:0:0:0:
306,279,30380,6,0,P|355:224|341:152,1,153.000000000001,6|0,1:2|1:2,2:0:0:0:
189,302,30854,1,8,2:0:0:0:
189,302,30933,1,8,2:0:0:0:
189,302,31012,2,8,L|231:298,1,38.2500000000001,8|8,2:3|2:3,2:3:0:0:
265,118,31170,2,8,L|222:121,1,38.2500000000001,8|8,2:3|2:3,2:3:0:0:
91,208,31328,2,0,L|167:201,1,76.5000000000003,8|2,2:0|2:0,2:0:0:0:
65,76,31643,5,6,1:2:0:0:
3,215,31801,1,2,2:0:0:0:
77,49,31959,2,0,P|116:39|155:50,1,81.0000000000001,10|0,2:0|2:0,2:0:0:0:
206,266,32275,2,0,P|176:239|167:201,1,81.0000000000001,2|0,1:2|1:2,2:0:0:0:
333,49,32591,2,0,P|324:87|294:115,1,81.0000000000001,10|0,2:0|2:0,2:0:0:0:
46,212,32906,6,0,L|166:201,1,121.5,2|0,1:2|2:0,2:0:0:0:
207,198,33222,1,10,2:0:0:0:
249,365,33380,2,0,L|330:372,1,81.0000000000001,2|0,2:0|1:2,2:0:0:0:
475,195,33696,1,2,1:2:0:0:
311,281,33854,1,10,2:0:0:0:
472,373,34012,1,2,2:0:0:0:
402,152,34170,6,0,P|390:210|421:261,1,121.5,4|0,1:2|2:0,2:0:0:0:
449,290,34485,1,10,2:0:0:0:
469,98,34643,1,2,2:0:0:0:
292,252,34801,2,0,L|172:241,1,121.5,2|0,1:2|2:0,2:0:0:0:
129,235,35117,2,0,P|119:197|130:159,1,81.0000000000001,10|0,2:0|2:0,2:0:0:0:
264,114,35433,6,0,B|210:109|210:109|177:67|177:67|123:62,1,162,0|8,1:2|2:0,2:0:0:0:
0,194,35906,1,2,2:0:0:0:
171,241,36064,1,2,1:2:0:0:
26,100,36222,1,2,1:2:0:0:
17,292,36380,1,10,2:0:0:0:
123,62,36538,1,2,2:0:0:0:
220,333,36696,6,0,P|278:345|328:314,1,121.5,6|0,1:2|2:0,2:0:0:0:
353,281,37012,1,10,2:0:0:0:
307,87,37170,2,0,L|226:80,1,81.0000000000001,2|0,2:0|1:2,2:0:0:0:
430,167,37485,2,0,L|511:160,1,81.0000000000001,2|8,1:2|2:0,2:0:0:0:
433,26,37801,1,2,2:0:0:0:
328,191,37959,6,0,L|208:180,1,121.5,0|0,1:0|2:0,2:0:0:0:
167,177,38275,1,10,2:0:0:0:
307,10,38433,2,0,P|318:48|307:87,1,81.0000000000001,2|0,2:0|1:2,2:0:0:0:
92,126,38749,2,0,P|118:96|157:87,1,81.0000000000001,2|8,1:2|2:0,2:0:0:0:
328,191,39064,1,2,2:0:0:0:
163,273,39222,6,0,B|119:279|94:241|94:241|48:241|22:273,2,162,4|8|0,1:2|2:0|1:2,2:0:0:0:
7,163,40012,1,0,1:2:0:0:
72,345,40170,1,8,2:0:0:0:
167,177,40328,2,0,B|248:146|233:233|316:204,1,162,0|8,1:0|2:0,2:0:0:0:
453,136,40801,2,0,L|372:143,1,81.0000000000001,0|0,1:2|1:2,2:0:0:0:
262,303,41117,5,10,2:0:0:0:
292,126,41275,1,0,1:2:0:0:
397,272,41433,1,10,1:3:0:0:
167,177,41591,1,4,1:3:0:0:
259,36,41749,5,6,1:2:0:0:
419,332,43012,5,2,2:0:0:0:
119,194,44275,5,2,2:0:0:0:
469,95,45538,5,2,2:0:0:0:
143,352,46012,5,0,1:2:0:0:
143,352,46091,1,0,1:2:0:0:
143,352,46170,6,0,P|111:361|79:353,1,67.5000000000002,10|0,2:0|2:0,2:0:0:0:
76,222,46406,6,0,P|100:244|109:277,1,67.5000000000002,10|0,2:3|2:0,2:0:0:0:
28,289,46643,5,6,1:3:0:0:
53,147,46801,6,0,B|134:117|119:200|203:173,1,162,6|0,1:2|1:0,2:0:0:0:
181,23,47275,1,2,2:0:0:0:
181,23,47433,2,0,P|169:61|180:99,1,81.0000000000001,2|0,1:2|2:0,2:0:0:0:
227,252,47749,1,0,1:2:0:0:
83,141,47906,1,2,2:0:0:0:
257,59,48064,6,0,L|338:66,1,81.0000000000001,2|0,1:2|2:0,2:0:0:0:
227,252,48380,2,0,L|146:259,1,81.0000000000001,2|0,1:2|2:0,2:0:0:0:
109,266,48617,1,0,3:2:0:0:
109,266,48696,2,0,L|102:347,1,81.0000000000001,2|0,1:2|2:0,2:0:0:0:
120,158,49012,1,0,1:2:0:0:
232,363,49170,1,4,1:3:0:0:
232,363,49249,1,4,1:3:0:0:
232,363,49328,6,0,P|281:380|331:363,1,108,12|0,2:0|2:0,2:0:0:0:
211,127,49643,5,8,2:0:0:0:
102,347,49801,1,2,1:2:0:0:
138,64,49959,5,10,2:0:0:0:
251,269,50117,1,0,1:2:0:0:
229,33,50275,5,8,2:0:0:0:
128,246,50433,1,2,1:2:0:0:
468,228,50591,5,10,2:0:0:0:
211,127,50749,1,0,1:2:0:0:
412,340,50906,5,8,2:0:0:0:
328,82,51064,2,0,L|323:134,1,54,2|0,1:2|1:2,2:0:0:0:
292,376,51222,1,10,2:0:0:0:
427,139,51380,1,0,1:2:0:0:
182,323,51538,5,8,2:0:0:0:
436,224,51696,2,0,L|383:219,1,54,2|0,2:0|1:2,2:0:0:0:
111,130,51854,5,14,1:2:0:0:
265,374,52012,1,0,2:0:0:0:
298,79,52170,5,8,2:0:0:0:
148,321,52328,1,2,1:2:0:0:
132,34,52485,5,10,2:0:0:0:
277,280,52643,1,0,1:2:0:0:
232,11,52801,5,8,2:0:0:0:
58,255,52959,1,0,1:2:0:0:
325,104,53117,6,0,P|341:54|325:4,1,108,12|0,2:0|2:0,2:0:0:0:
79,130,53433,1,8,2:0:0:0:
351,216,53591,1,8,2:0:0:0:
106,15,53749,1,8,2:0:0:0:
435,146,53906,1,8,2:0:0:0:
435,146,53985,1,8,2:0:0:0:
435,146,54064,1,8,2:0:0:0:
59,255,54222,1,14,2:0:0:0:
368,0,55406,6,0,L|363:46,1,45,2|0,2:0|2:0,2:0:0:0:
351,137,55643,6,0,P|319:146|287:137,1,67.5,2|0,2:0|2:0,2:0:0:0:
150,52,55959,6,0,P|187:84|198:133,1,101.25,2|0,2:0|2:0,2:0:0:0:
184,311,56275,6,0,P|190:253|235:214,1,121.5,2|0,2:0|2:0,2:0:0:0:
351,137,56591,5,2,2:0:0:0:
376,295,56749,1,8,2:3:0:0:
376,295,56828,1,8,2:3:0:0:
376,295,56906,6,0,L|286:302,1,90,6|2,1:2|2:0,2:0:0:0:
402,205,57222,2,0,L|492:212,1,90,0|0,1:2|2:0,2:0:0:0:
375,379,57538,2,0,P|362:337|376:295,1,90,0|0,1:2|2:0,2:0:0:0:
492,212,57854,1,0,1:2:0:0:
451,335,58012,1,2,2:0:0:0:
312,212,58170,6,0,L|402:205,1,90,2|0,1:2|2:0,2:0:0:0:
286,382,58485,2,0,L|196:375,1,90,2|0,1:2|2:0,2:0:0:0:
22,235,58801,2,0,B|156:224,1,135,2|0,1:2|2:0,2:0:0:0:
202,221,59117,1,2,1:2:0:0:
235,30,59275,1,10,2:0:0:0:
235,30,59354,1,8,2:0:0:0:
235,30,59433,6,0,P|221:72|233:114,1,90,4|2,1:2|2:0,2:0:0:0:
386,120,59749,2,0,P|357:86|314:74,1,90,0|0,1:2|2:0,2:0:0:0:
301,260,60064,2,0,L|308:170,1,90,0|0,1:2|2:0,2:0:0:0:
132,106,60380,2,0,L|139:196,1,90,0|2,1:2|2:0,2:0:0:0:
152,383,60696,5,2,1:2:0:0:
43,221,60854,1,8,2:0:0:0:
36,363,61012,1,10,1:3:0:0:
139,196,61170,1,4,1:2:0:0:
255,354,61328,2,0,P|297:368|339:355,1,90,2|0,1:2|2:0,2:0:0:0:
503,224,61643,1,2,1:2:0:0:
317,165,61801,1,10,2:3:0:0:
317,165,61880,1,8,2:3:0:0:
317,165,61959,6,0,L|310:255,1,90,4|0,1:2|2:0,2:0:0:0:
490,124,62275,1,2,1:2:0:0:
323,74,62433,1,2,2:0:0:0:
413,275,62591,2,0,L|406:185,1,90,0|0,1:2|2:0,2:0:0:0:
393,14,62906,1,2,3:2:0:0:
236,109,63064,1,10,2:3:0:0:
236,109,63143,1,8,2:3:0:0:
236,109,63222,6,0,P|172:124|117:88,1,135,4|0,1:2|2:0,2:0:0:0:
92,50,63538,1,2,1:2:0:0:
15,183,63696,2,0,P|2:225|14:267,1,90,2|0,2:0|1:2,2:0:0:0:
127,375,64012,1,0,3:2:0:0:
127,375,64091,1,0,3:2:0:0:
127,375,64170,2,0,P|153:314|128:253,1,135,2|0,1:2|2:0,2:0:0:0:
94,224,64485,6,0,L|184:217,1,90,6|0,1:2|2:0,2:0:0:0:
326,116,64801,2,0,L|236:109,1,90,0|0,1:2|2:0,2:0:0:0:
315,283,65117,2,0,L|405:276,1,90,0|0,1:2|2:0,2:0:0:0:
492,80,65433,2,0,B|466:142|466:142|489:205,1,135,2|0,1:2|2:0,2:0:0:0:
504,248,65749,5,4,1:2:0:0:
405,41,65906,1,8,2:0:0:0:
316,250,66064,1,10,2:0:0:0:
492,80,66222,1,10,2:0:0:0:
419,307,66380,1,8,2:0:0:0:
310,69,66538,1,8,2:0:0:0:
310,69,66617,1,8,2:0:0:0:
310,69,66696,2,8,L|305:117,1,45,10|8,2:0|2:0,2:0:0:0:
188,262,66854,2,8,L|184:217,1,45,10|8,2:0|2:0,2:0:0:0:
18,75,67012,6,0,B|66:49|125:74|90:110|150:133|197:108,2,198,4|8|0,1:2|2:0|1:2,2:0:0:0:
164,36,67801,1,0,1:2:0:0:
248,212,67959,2,0,L|100:224,1,148.5,10|0,2:0|2:0,2:0:0:0:
65,228,68275,6,0,P|50:273|65:320,1,99,2|0,1:2|2:0,2:0:0:0:
250,305,68591,2,0,P|264:259|249:213,1,99,8|0,2:0|2:0,2:0:0:0:
93,81,68906,1,0,1:2:0:0:
180,260,69064,1,0,1:2:0:0:
314,82,69222,1,10,2:0:0:0:
130,159,69380,1,2,2:0:0:0:
340,358,69538,6,0,B|352:210,1,148.5,6|0,1:2|2:0,2:0:0:0:
356,159,69854,1,10,2:0:0:0:
172,345,70012,1,2,1:2:0:0:
172,345,70328,1,2,1:2:0:0:
378,282,70485,1,8,2:0:0:0:
205,89,70643,6,0,P|265:167|358:158,1,198,6|0,1:2|1:2,2:0:0:0:
470,23,71117,2,0,P|412:66|344:45,1,148.50000453186,12|0,2:0|2:0,2:0:0:0:
319,27,71433,1,2,1:2:0:0:
480,243,71591,1,8,2:0:0:0:
480,243,71670,1,10,2:0:0:0:
480,243,71749,2,8,L|474:193,1,49.5,8|8,2:0|2:0,2:0:0:0:
356,159,71906,2,8,L|350:209,1,49.5,10|8,2:0|2:0,2:0:0:0:
271,360,72064,6,0,P|201:378|143:336,1,148.5,6|0,1:2|2:0,2:0:0:0:
119,293,72380,1,10,2:0:0:0:
254,165,72538,2,0,P|269:211|254:257,1,99,2|0,2:0|1:2,2:0:0:0:
20,209,72854,1,0,1:2:0:0:
188,81,73012,1,10,2:0:0:0:
119,293,73170,1,2,2:0:0:0:
18,68,73328,6,0,B|88:41|88:41|157:68,1,148.5,0|0,1:2|2:0,2:0:0:0:
188,81,73643,2,0,L|287:72,1,99,8|0,2:0|2:0,2:0:0:0:
497,56,73959,1,2,1:2:0:0:
349,207,74117,1,0,1:2:0:0:
343,0,74275,1,8,2:0:0:0:
498,159,74433,1,2,2:0:0:0:
221,183,74591,6,0,P|290:165|349:207,1,148.5,6|0,1:2|2:0,2:0:0:0:
372,251,74906,1,10,2:0:0:0:
145,330,75064,2,0,P|132:284|145:237,1,99,2|0,2:0|1:2,2:0:0:0:
287,72,75380,1,2,1:2:0:0:
372,251,75538,1,8,2:0:0:0:
459,8,75696,6,0,B|393:14|393:14|353:66|353:66|287:72,1,198,6|8,1:2|2:0,2:0:0:0:
241,81,76091,1,8,2:0:0:0:
241,81,76170,2,0,L|232:180,1,99,10|8,2:0|2:0,2:0:0:0:
232,232,76406,1,10,2:0:0:0:
232,232,76485,1,8,2:0:0:0:
442,306,76643,1,10,2:0:0:0:
456,269,76722,1,8,2:0:0:0:
452,229,76801,1,10,2:0:0:0:
431,194,76880,1,8,2:0:0:0:
398,173,76959,1,8,2:0:0:0:
358,168,77038,1,8,2:0:0:0:
317,179,77117,6,0,P|274:192|232:180,1,90,6|2,1:2|2:0,2:0:0:0:
76,92,77433,1,10,2:0:0:0:
227,22,77591,2,0,P|260:50|271:93,1,90,2|0,2:0|1:2,2:0:0:0:
138,175,77906,2,0,P|146:132|178:101,1,90,2|8,1:2|2:0,2:0:0:0:
317,179,78222,1,2,2:0:0:0:
169,276,78380,6,0,B|76:307|92:215|2:247,1,180,2|8,1:2|2:0,2:0:0:0:
138,175,78854,1,2,2:0:0:0:
33,321,79012,1,2,1:2:0:0:
42,134,79170,1,2,1:2:0:0:
178,309,79328,2,0,L|268:301,1,90,10|0,2:0|2:0,2:0:0:0:
452,292,79643,5,6,1:2:0:0:
312,211,79801,1,2,2:0:0:0:
409,381,79959,1,10,2:0:0:0:
494,208,80117,2,0,P|452:193|409:206,1,90,2|0,2:0|1:2,2:0:0:0:
268,301,80433,2,0,P|310:314|352:301,1,90,2|8,1:2|2:0,2:0:0:0:
362,123,80749,1,2,2:0:0:0:
232,175,80906,6,0,B|192:220|192:220|312:211,1,180,0|8,1:2|2:0,2:0:0:0:
252,35,81380,2,0,L|162:27,1,90,2|0,2:0|1:2,2:0:0:0:
36,166,81696,1,2,1:2:0:0:
232,175,81854,1,10,2:0:0:0:
101,91,82012,1,2,2:0:0:0:
134,345,82170,6,0,P|170:290|154:226,1,135,6|0,1:2|2:0,2:0:0:0:
135,186,82485,1,10,2:0:0:0:
228,368,82643,2,0,P|270:379|312:366,1,90,2|0,2:0|1:2,2:0:0:0:
395,210,82959,2,0,P|353:196|311:211,1,90,2|8,1:2|2:0,2:0:0:0:
434,363,83275,1,2,2:0:0:0:
504,205,83433,6,0,L|491:68,1,135,0|0,1:2|2:0,2:0:0:0:
486,26,83749,2,0,L|396:18,1,90,10|0,2:0|2:0,2:0:0:0:
223,112,84064,2,0,L|313:104,1,90,2|0,1:2|1:2,2:0:0:0:
139,51,84380,2,0,B|117:116|117:116|141:179,1,135,10|0,2:0|2:0,2:0:0:0:
158,215,84696,6,0,B|218:221|218:221|255:267|255:267|316:272,2,180,6|8|0,1:2|2:0|1:2,2:0:0:0:
7,339,85485,1,2,1:2:0:0:
178,309,85643,1,10,2:0:0:0:
61,175,85801,1,10,2:0:0:0:
61,175,85880,1,8,2:0:0:0:
61,175,85959,6,0,P|47:217|60:259,1,90,6|0,1:2|1:2,2:0:0:0:
223,112,86275,1,8,2:0:0:0:
30,57,86433,1,8,2:0:0:0:
30,57,86512,1,8,2:0:0:0:
30,57,86591,1,8,2:3:0:0:
158,215,86749,1,8,1:3:0:0:
216,0,86906,1,4,1:3:0:0:
339,129,87064,1,2,1:2:0:0:
339,129,87143,1,0,1:2:0:0:
339,129,87222,6,0,L|415:136,1,76.5000000000003,6|0,1:2|2:0,2:0:0:0:
280,203,87538,2,0,P|253:178|245:141,1,76.5000000000003,10|2,2:0|2:0,2:0:0:0:
373,217,87854,2,0,P|362:254|334:280,1,76.5000000000003,2|0,1:2|1:2,2:0:0:0:
284,207,88170,1,2,1:2:0:0:
284,207,88328,1,10,2:0:0:0:
249,373,88485,6,0,L|174:380,1,76.5000000000003,2|0,1:2|2:0,2:0:0:0:
138,274,88801,1,10,2:0:0:0:
138,274,88959,2,0,L|215:282,1,76.5000000000003,2|0,2:0|1:2,2:0:0:0:
78,360,89275,1,2,1:2:0:0:
78,360,89433,1,8,2:0:0:0:
59,243,89591,1,10,2:0:0:0:
59,243,89670,1,8,2:0:0:0:
59,243,89749,6,0,P|95:200|150:190,1,114.75,6|0,1:2|2:0,2:0:0:0:
188,194,90064,1,8,2:0:0:0:
52,70,90222,1,0,2:0:0:0:
52,70,90380,2,0,B|91:103|91:103|187:69,1,153.000000000001,2|0,1:2|2:0,2:0:0:0:
317,24,90854,1,8,2:0:0:0:
317,24,91012,2,0,P|326:60|316:96,1,76.5000000000003,0|0,1:2|1:2,2:0:0:0:
271,209,91328,5,8,2:0:0:0:
426,161,91485,1,2,2:0:0:0:
426,161,91643,1,2,1:2:0:0:
315,97,91801,1,2,1:2:0:0:
416,268,91959,1,10,2:0:0:0:
507,105,92117,1,2,2:0:0:0:
400,295,92275,6,0,L|325:302,1,76.5000000000003,6|0,1:2|2:0,2:0:0:0:
195,201,92591,2,0,L|271:208,1,76.5000000000003,10|0,2:0|2:0,2:0:0:0:
139,269,92906,2,0,P|112:242|104:206,1,76.5000000000003,2|0,1:2|1:2,2:0:0:0:
226,283,93222,2,0,P|217:319|190:345,1,76.5000000000003,2|8,2:0|2:0,2:0:0:0:
28,213,93538,6,0,L|104:206,1,76.5000000000003,2|0,2:0|1:2,2:0:0:0:
100,351,93854,2,0,L|24:344,1,76.5000000000003,10|0,2:0|2:0,2:0:0:0:
226,209,94170,2,0,P|235:246|226:283,1,76.5000000000003,2|0,1:2|1:2,2:0:0:0:
104,206,94485,2,0,P|94:170|104:134,1,76.5000000000003,10|0,2:0|2:0,2:0:0:0:
323,57,94801,6,0,B|267:74|267:74|212:56,1,114.75,6|0,1:2|2:0,2:0:0:0:
176,46,95117,1,8,2:0:0:0:
234,217,95275,1,10,2:0:0:0:
234,217,95354,1,8,2:0:0:0:
234,217,95433,2,0,P|281:246|336:235,1,114.750002188683,6|0,1:2|2:0,2:0:0:0:
373,222,95749,2,0,L|380:146,1,76.5000000000003,8|0,2:0|1:2,2:0:0:0:
388,111,95985,1,0,1:2:0:0:
388,111,96064,5,4,2:0:0:0:
275,281,96222,1,8,2:0:0:0:
184,96,96380,2,0,L|191:172,1,76.5000000000003,8|8,2:0|2:0,2:0:0:0:
199,214,96617,1,8,2:0:0:0:
199,214,96696,1,0,1:2:0:0:
80,297,96854,5,8,2:0:0:0:
80,297,96933,1,8,2:0:0:0:
80,297,97012,2,8,L|83:255,1,38.2500000000001,8|8,2:0|2:0,2:0:0:0:
242,312,97170,2,8,L|245:353,1,38.2500000000001,10|8,2:0|2:0,2:0:0:0:
106,374,97328,6,0,L|116:253,1,121.5,6|0,1:2|2:0,2:0:0:0:
122,213,97643,2,0,P|160:203|199:214,1,81.0000000000001,10|0,2:0|2:0,2:0:0:0:
283,376,97959,2,0,P|252:350|242:312,1,81.0000000000001,2|0,1:2|1:2,2:0:0:0:
345,159,98275,2,0,P|335:197|305:224,1,81.0000000000001,10|0,2:0|2:0,2:0:0:0:
334,62,98591,6,0,P|392:72|431:118,1,121.5,2|0,1:2|2:0,2:0:0:0:
447,155,98906,1,10,2:0:0:0:
252,143,99064,2,0,L|245:62,1,81.0000000000001,2|0,2:0|1:2,2:0:0:0:
121,213,99380,1,2,1:2:0:0:
346,159,99538,1,10,2:0:0:0:
153,113,99696,1,2,2:0:0:0:
237,305,99854,6,0,L|248:185,1,121.5,4|0,1:2|2:0,2:0:0:0:
252,143,100170,1,8,2:0:0:0:
134,324,100328,1,2,2:0:0:0:
323,302,100485,1,2,1:2:0:0:
151,224,100643,1,2,1:2:0:0:
285,375,100801,2,0,P|324:385|363:374,1,81.0000000000001,8|0,2:0|2:0,2:0:0:0:
493,174,101117,6,0,B|412:143|427:230|344:201,1,162,0|8,1:2|2:0,2:0:0:0:
470,249,101591,1,2,2:0:0:0:
362,117,101749,1,2,1:2:0:0:
485,285,101906,1,2,1:2:0:0:
504,89,102064,1,10,2:0:0:0:
353,289,102222,1,2,2:0:0:0:
277,75,102380,6,0,P|319:31|378:26,1,121.5,6|0,2:0|2:0,2:0:0:0:
417,32,102696,1,10,2:0:0:0:
344,201,102854,2,0,L|263:208,1,81.0000000000001,2|0,2:0|1:2,2:0:0:0:
86,120,103170,2,0,L|167:127,1,81.0000000000001,2|8,1:2|2:0,2:0:0:0:
43,255,103485,1,2,2:0:0:0:
14,38,103643,6,0,L|134:27,1,121.5,4|0,1:2|2:0,2:0:0:0:
175,24,103959,1,10,2:0:0:0:
265,131,104117,2,0,P|275:169|264:208,1,81.0000000000001,2|0,2:0|1:2,2:0:0:0:
113,309,104433,2,0,P|140:281|179:271,1,81.0000000000001,2|8,1:2|2:0,2:0:0:0:
335,295,104749,1,2,1:2:0:0:
166,162,104906,5,4,1:2:0:0:
244,358,105064,1,2,1:2:0:0:
376,178,105222,2,0,L|457:171,1,81.0000000000001,10|0,2:0|2:0,2:0:0:0:
495,349,105538,1,0,1:2:0:0:
308,285,105696,1,0,1:2:0:0:
512,248,105854,1,8,2:0:0:0:
316,383,106012,6,0,B|261:378|261:378|226:338|226:338|172:333,1,162,4|0,1:2|3:2,2:0:0:0:
6,318,106485,1,8,2:0:0:0:
187,245,106643,1,10,2:0:0:0:
187,245,106722,1,8,2:0:0:0:
187,245,106801,1,14,2:0:0:0:
93,384,106959,1,0,1:2:0:0:
13,213,107117,1,10,1:3:0:0:
173,333,107275,1,4,1:3:0:0:
199,140,107433,6,0,P|247:112|303:121,1,114.75,6|0,1:2|2:0,2:0:0:0:
339,136,107749,1,0,1:2:0:0:
262,194,107906,1,0,1:2:0:0:
315,21,108064,1,8,2:0:0:0:
315,21,108380,1,2,2:0:0:0:
431,167,108538,6,0,P|467:177|504:167,1,76.5000000000003,10|0,2:0|1:2,2:0:0:0:
505,22,108854,2,0,P|477:46|468:83,1,76.5000000000003,8|0,2:0|2:0,2:0:0:0:
463,261,109170,1,2,1:2:0:0:
339,136,109328,2,0,P|303:126|267:136,1,76.5000000000003,10|0,2:0|2:0,2:0:0:0:
128,260,109643,1,2,1:2:0:0:
305,211,109801,1,8,2:0:0:0:
128,151,109959,6,0,B|110:206|110:206|128:261,1,114.75,6|0,1:2|2:0,2:0:0:0:
142,297,110275,1,0,1:2:0:0:
216,210,110433,1,0,1:2:0:0:
280,379,110591,1,8,2:0:0:0:
280,379,110906,1,2,1:2:0:0:
396,242,111064,6,0,L|473:235,1,76.5000000000003,10|0,2:0|1:2,2:0:0:0:
508,372,111380,2,0,L|430:365,1,76.5000000000003,8|0,2:0|2:0,2:0:0:0:
281,343,111696,1,0,1:2:0:0:
396,169,111854,6,0,P|406:206|396:242,1,76.5000000000003,10|0,2:0|2:0,2:0:0:0:
233,149,112091,6,0,P|260:122|297:111,1,76.5000000000003,10|0,1:3|2:0,2:0:0:0:
310,205,112328,5,6,1:3:0:0:
176,249,112485,6,0,B|230:253|230:253|266:294|266:294|319:298,1,162,6|0,1:2|1:0,2:0:0:0:
192,352,112959,1,2,2:0:0:0:
192,352,113117,2,0,L|110:344,1,81.0000000000001,2|0,1:2|2:0,2:0:0:0:
0,198,113433,1,0,1:2:0:0:
176,249,113591,1,2,2:0:0:0:
24,379,113749,6,0,P|13:341|24:303,1,81.0000000000001,6|0,1:2|2:0,2:0:0:0:
100,122,114064,1,2,1:2:0:0:
176,249,114222,2,0,P|189:210|177:172,1,81.0000000000001,2|0,2:0|1:2,2:0:0:0:
101,34,114538,1,2,1:2:0:0:
101,34,114617,1,0,1:2:0:0:
101,34,114696,1,4,1:2:0:0:
8,206,114854,1,2,1:2:0:0:
8,206,114933,1,0,1:2:0:0:
8,206,115012,6,0,L|98:213,1,90,6|0,1:2|2:0,2:0:0:0:
282,237,115328,1,8,2:0:0:0:
100,122,115485,1,10,2:0:0:0:
242,330,115643,1,10,2:0:0:0:
181,81,115801,1,8,2:0:0:0:
138,352,115959,1,8,2:0:0:0:
273,76,116117,1,10,2:0:0:0:
340,370,116275,5,14,2:0:0:0:
178,173,116433,1,0,1:0:0:0:
434,140,116591,1,10,2:0:0:0:
249,337,116749,1,0,1:2:0:0:
249,337,116828,1,0,1:2:0:0:
249,337,116906,1,10,2:0:0:0:
359,94,117064,1,8,2:0:0:0:
426,341,117222,1,10,2:0:0:0:
285,44,117380,1,10,2:0:0:0:
98,337,117538,6,0,B|147:340|173:297|173:297|222:297|249:337,1,180,4|0,1:2|1:2,2:0:0:0:
103,256,118012,1,0,1:2:0:0:
255,155,118170,2,0,B|296:131|350:154|322:186|375:207|418:184,1,180,8|0,2:0|3:2,2:0:0:0:
276,257,118643,1,10,2:0:0:0:
346,68,118801,5,2,1:2:0:0:
412,285,118959,1,0,1:2:0:0:
255,155,119117,1,2,1:2:0:0:
468,112,119275,1,0,1:2:0:0:
318,331,119433,2,0,P|276:344|234:331,1,90,10|0,2:0|1:2,2:0:0:0:
117,101,119749,1,2,2:0:0:0:
276,257,119906,1,10,2:0:0:0:
109,291,120064,6,0,B|70:245|70:245|190:254,1,180,4|0,1:2|1:2,2:0:0:0:
1,322,120538,1,0,1:2:0:0:
23,104,120696,2,0,B|82:109|82:109|121:154|121:154|181:160,1,180,8|0,2:0|3:2,2:0:0:0:
322,71,121170,1,10,2:0:0:0:
184,0,121328,5,2,1:2:0:0:
270,205,121485,1,0,2:0:0:0:
331,42,121643,1,2,1:2:0:0:
182,160,121801,1,0,1:2:0:0:
361,253,121959,2,0,L|354:163,1,90,10|0,2:0|2:0,2:0:0:0:
270,307,122275,1,2,3:2:0:0:
167,134,122433,1,10,2:0:0:0:
78,330,122591,6,0,P|113:274|97:210,1,135,4|0,1:2|2:0,2:0:0:0:
76,171,122906,1,2,2:0:0:0:
183,369,123064,1,2,1:2:0:0:
270,205,123222,2,0,L|406:216,1,135,8|0,2:0|2:0,2:0:0:0:
449,222,123538,1,2,3:2:0:0:
280,316,123696,1,10,2:0:0:0:
283,111,123854,5,0,3:2:0:0:
383,304,124012,1,8,2:0:0:0:
398,98,124170,1,2,2:0:0:0:
243,217,124328,1,2,1:2:0:0:
483,137,124485,2,0,P|497:95|485:53,1,90,8|0,2:0|2:0,2:0:0:0:
358,207,124801,1,2,2:0:0:0:
327,13,124959,1,10,2:0:0:0:
179,223,125117,6,0,L|360:207,1,180,6|0,1:2|3:2,2:0:0:0:
253,120,125591,1,0,1:2:0:0:
204,320,125749,2,0,L|114:313,1,90,8|0,2:0|2:0,2:0:0:0:
16,122,126064,2,0,L|106:115,1,90,2|0,2:0|1:2,2:0:0:0:
154,115,126301,1,0,1:2:0:0:
154,115,126380,5,8,2:3:0:0:
307,217,126538,1,4,1:3:0:0:
268,14,126696,2,0,P|226:1|184:14,1,90,14|2,2:0|2:0,2:0:0:0:
16,122,127012,1,0,1:2:0:0:
175,268,127170,1,8,2:0:0:0:
175,268,127249,1,8,2:0:0:0:
175,268,127328,2,8,L|180:220,1,45,8|8,2:0|2:0,2:0:0:0:
337,89,127485,2,8,L|341:137,1,45,10|8,2:0|2:0,2:0:0:0:
293,383,127643,6,0,P|255:295|307:217,2,198,4|8|0,1:2|2:0|1:2,2:0:0:0:
398,207,128433,1,0,1:2:0:0:
175,268,128591,1,10,2:0:0:0:
349,305,128749,1,2,2:0:0:0:
246,86,128906,6,0,P|200:72|154:87,1,99,2|0,1:2|2:0,2:0:0:0:
61,261,129222,2,0,P|97:229|107:182,1,99,8|0,2:0|2:0,2:0:0:0:
57,7,129538,1,0,1:2:0:0:
18,182,129696,1,0,1:2:0:0:
220,74,129854,1,10,2:0:0:0:
48,95,130012,1,2,2:0:0:0:
308,217,130170,5,6,1:2:0:0:
130,56,130328,1,0,1:2:0:0:
175,268,130485,1,10,2:0:0:0:
290,15,130643,1,2,1:2:0:0:
290,15,130959,1,0,1:2:0:0:
107,180,131117,1,10,2:0:0:0:
360,269,131275,6,0,B|311:243|252:268|287:304|227:327|180:302,1,198,6|0,1:2|1:0,2:0:0:0:
396,191,131749,2,0,P|442:246|429:316,1,148.5,8|0,2:0|2:0,2:0:0:0:
409,362,132064,1,2,1:2:0:0:
308,174,132222,1,0,1:2:0:0:
328,341,132380,1,8,2:0:0:0:
350,98,132538,1,2,2:0:0:0:
162,284,132696,6,0,B|310:272,1,148.5,6|0,1:2|2:0,2:0:0:0:
360,269,133012,1,10,2:0:0:0:
261,96,133170,2,0,P|214:80|168:96,1,99,2|0,2:0|1:2,2:0:0:0:
34,236,133485,1,2,1:2:0:0:
216,170,133643,1,8,2:0:0:0:
21,133,133801,1,2,2:0:0:0:
76,336,133959,6,0,P|144:356|202:314,1,148.50000453186,0|0,1:2|2:0,2:0:0:0:
225,269,134275,2,0,L|216:170,1,99,8|0,2:0|2:0,2:0:0:0:
302,16,134591,1,2,1:2:0:0:
129,173,134749,1,0,1:2:0:0:
356,88,134906,1,8,2:0:0:0:
142,6,135064,1,2,2:0:0:0:
385,99,135222,6,0,B|410:170|410:170|383:239,1,148.5,6|0,1:2|2:0,2:0:0:0:
362,283,135538,1,10,2:0:0:0:
216,170,135696,2,0,P|262:154|308:168,1,99,2|0,2:0|1:2,2:0:0:0:
389,13,136012,1,2,1:2:0:0:
264,236,136170,1,8,2:0:0:0:
142,6,136328,6,0,B|206:11|206:11|249:64|249:64|315:70,1,198,6|8,1:2|2:0,2:0:0:0:
333,284,136801,1,10,2:0:0:0:
163,101,136959,2,0,L|158:150,1,49.5,2|2,1:2|2:0,2:0:0:0:
140,315,137117,2,0,L|40:324,1,99,10|0,2:0|1:0,2:0:0:0:
0,332,137354,1,0,1:0:0:0:
0,332,137433,1,10,2:0:0:0:
28,131,137591,1,8,2:0:0:0:
28,131,137670,1,8,2:0:0:0:
28,131,137749,5,6,1:2:0:0:
224,243,137906,1,2,2:0:0:0:
10,231,138064,1,8,2:0:0:0:
179,73,138222,2,0,B|223:62|223:62|267:74,1,90,2|0,2:0|1:2,2:0:0:0:
346,253,138538,2,0,B|302:264|302:264|258:252,1,90,2|8,1:2|2:0,2:0:0:0:
416,24,138854,2,0,L|424:115,1,90,2|0,1:2|3:2,2:0:0:0:
258,163,139170,2,0,L|266:74,1,90,2|8,1:2|2:0,2:0:0:0:
511,114,139485,2,0,B|467:125|467:125|423:113,1,90,2|0,2:0|1:2,2:0:0:0:
266,73,139801,1,2,1:2:0:0:
377,237,139959,2,0,P|421:211|371:204,1,135,10|0,2:0|2:0,2:0:0:0:
395,217,140275,6,0,B|371:258|394:312|426:284|447:337|424:380,1,180,6|8,1:2|2:0,2:0:0:0:
505,237,140749,2,0,L|513:146,1,90,2|0,2:0|1:2,2:0:0:0:
258,164,141064,2,0,L|266:255,1,90,2|8,1:2|2:0,2:0:0:0:
437,56,141380,2,0,B|372:35|372:35|307:57,1,135,2|0,1:2|2:0,2:0:0:0:
266,73,141696,1,0,1:2:0:0:
395,217,141854,1,12,2:0:0:0:
181,278,142012,1,2,2:0:0:0:
344,137,142170,1,2,1:2:0:0:
249,345,142328,1,2,1:2:0:0:
98,146,142485,2,0,P|149:186|214:176,1,135,10|0,2:0|2:0,2:0:0:0:
258,164,142801,5,6,1:2:0:0:
82,260,142959,1,2,2:0:0:0:
172,103,143117,1,8,2:0:0:0:
250,312,143275,2,0,B|206:323|206:323|162:311,1,90,2|0,2:0|1:2,2:0:0:0:
11,145,143591,2,0,B|55:134|55:134|99:146,1,90,2|8,1:2|2:0,2:0:0:0:
74,350,143906,2,0,L|82:259,1,90,2|0,1:2|3:2,2:0:0:0:
172,103,144222,2,0,L|180:195,1,90,2|8,1:2|2:0,2:0:0:0:
250,312,144538,2,0,B|294:323|294:323|338:311,1,90,2|0,2:0|1:2,2:0:0:0:
502,269,144854,1,2,1:2:0:0:
291,238,145012,1,8,2:0:0:0:
417,383,145170,2,0,L|421:337,1,45,2|0,1:2|1:2,2:0:0:0:
449,151,145328,5,6,1:2:0:0:
337,311,145485,1,2,2:0:0:0:
364,123,145643,1,10,2:0:0:0:
470,266,145801,1,2,2:0:0:0:
427,65,145959,1,2,1:2:0:0:
291,238,146117,1,2,1:2:0:0:
509,88,146275,1,10,2:0:0:0:
269,2,146433,6,0,B|230:48|230:48|350:39,1,180,6|2,1:2|1:2,2:0:0:0:
101,62,146906,5,10,2:0:0:0:
250,312,147064,1,2,1:2:0:0:
269,2,147222,5,10,2:0:0:0:
152,274,147380,1,2,1:2:0:0:
180,5,147538,6,0,B|191:141,1,135,10|0,2:3|2:0,2:0:0:0:
195,184,147854,5,6,1:2:0:0:
340,68,148012,1,2,2:0:0:0:
101,62,148170,1,10,2:0:0:0:
375,204,148328,1,2,1:2:0:0:
375,204,148643,1,2,2:0:0:0:
269,2,148801,1,10,2:0:0:0:
228,296,148959,6,0,B|268:272|311:295|311:295|331:280|331:280|372:305|412:280,1,198,6|2,1:2|1:2,2:0:0:0:
282,181,149433,1,10,2:0:0:0:
276,375,149591,1,10,2:3:0:0:
276,375,149670,1,8,2:3:0:0:
276,375,149749,1,8,2:3:0:0:
375,204,149906,1,2,1:2:0:0:
455,370,150064,5,12,2:0:0:0:
263,284,150222,1,2,2:0:0:0:
464,204,150380,1,2,1:2:0:0:
347,321,150538,1,2,1:2:0:0:
349,111,150696,1,10,2:0:0:0:
507,290,150854,1,6,1:2:0:0:
507,290,151170,1,2,1:2:0:0:
488,57,151328,1,10,2:0:0:0:
354,287,151485,6,0,B|283:309|283:309|212:285,1,148.5,6|0,1:2|2:0,2:0:0:0:
167,263,151801,1,10,2:0:0:0:
22,156,151959,1,10,2:0:0:0:
81,358,152117,1,2,1:2:0:0:
81,358,152196,1,0,1:2:0:0:
81,358,152275,2,0,L|89:259,1,99,0|2,1:2|1:2,2:0:0:0:
98,213,152512,1,0,1:2:0:0:
98,213,152591,1,2,1:2:0:0:
250,74,152749,1,2,1:2:0:0:
250,74,152828,1,0,1:2:0:0:
250,74,152906,6,0,P|191:117|119:108,1,148.5,6|0,1:2|2:0,2:0:0:0:
72,91,153222,1,8,2:0:0:0:
203,253,153380,1,2,2:0:0:0:
165,21,153538,1,2,1:2:0:0:
98,213,153696,1,2,1:2:0:0:
250,74,153854,1,10,2:0:0:0:
359,335,154012,6,0,B|346:185,1,148.5,14|0,2:0|2:0,2:0:0:0:
342,137,154328,1,2,1:2:0:0:
178,285,154485,1,10,2:0:0:0:
250,74,154643,1,10,2:3:0:0:
263,335,154801,1,10,2:0:0:0:
99,181,154959,1,2,1:2:0:0:
264,236,155117,1,10,2:3:0:0:
18,324,155275,1,6,1:3:0:0:
18,324,155354,1,4,1:3:0:0:
18,324,155433,6,0,P|0:273|19:223,1,108,14|0,2:0|2:0,2:0:0:0:
250,74,155749,5,8,2:0:0:0:
159,309,155906,1,2,2:0:0:0:
129,35,156064,5,10,2:0:0:0:
263,269,156222,1,0,1:2:0:0:
374,2,156380,5,8,2:0:0:0:
264,236,156538,1,2,1:2:0:0:
512,109,156696,5,14,2:0:0:0:
251,38,156854,1,0,1:2:0:0:
509,267,157012,5,8,2:0:0:0:
376,33,157170,2,0,L|381:86,1,54,2|0,1:2|1:2,2:0:0:0:
408,351,157328,5,10,2:0:0:0:
480,108,157485,1,0,1:2:0:0:
268,378,157643,5,8,2:0:0:0:
507,235,157801,1,2,1:2:0:0:
224,67,157959,5,14,2:0:0:0:
408,351,158117,1,0,1:2:0:0:
376,33,158275,5,8,2:0:0:0:
245,351,158433,1,2,2:0:0:0:
292,5,158591,5,10,2:0:0:0:
482,232,158749,1,0,1:2:0:0:
482,232,158828,1,0,1:2:0:0:
482,232,158906,1,8,2:0:0:0:
136,169,159064,1,0,1:2:0:0:
136,169,159143,1,0,1:2:0:0:
136,169,159222,5,12,2:0:0:0:
421,119,159380,1,8,2:0:0:0:
181,268,159538,1,8,2:0:0:0:
292,5,159696,1,8,2:0:0:0:
398,316,159854,1,8,2:0:0:0:
206,44,160012,1,8,2:0:0:0:
282,332,160170,1,8,2:0:0:0:
376,33,160328,1,8,2:0:0:0:
177,384,160485,5,14,2:0:0:0:
256,192,160643,12,0,162854,2:0:0:0:
256,192,163012,5,2,2:0:0:0:
415,87,165538,5,2,2:0:0:0:
39,44,168064,5,2,2:0:0:0:
370,188,169328,5,2,2:0:0:0:
57,326,170591,5,2,2:0:0:0:
201,49,171538,6,0,P|176:91|185:140,1,101.25,2|0,2:0|2:0,2:0:0:0:
201,171,171854,2,0,L|304:180,1,101.25,2|0,2:0|2:0,2:0:0:0:
336,183,172170,1,2,2:0:0:0:
207,273,172328,1,0,1:2:0:0:
273,91,172485,1,10,2:3:0:0:
382,266,172643,1,4,2:3:0:0:
205,175,172801,1,6,2:3:0:0:
205,175,172959,1,2,1:2:0:0:
378,70,173117,6,0,P|329:98|274:91,1,114.75,4|0,1:2|2:0,2:0:0:0:
243,66,173433,2,0,P|207:56|171:67,1,76.5000000000003,8|0,2:1|2:0,2:0:0:0:
121,0,173749,2,0,P|94:26|85:62,1,76.5000000000003,8|2,2:1|2:0,2:0:0:0:
16,108,174064,1,10,2:1:0:0:
16,108,174222,1,2,1:2:0:0:
91,149,174380,6,0,L|100:263,1,114.75,0|0,1:2|2:0,2:0:0:0:
106,301,174696,2,0,L|182:307,1,76.5000000000003,8|2,2:1|2:0,2:0:0:0:
227,378,175012,2,0,L|303:371,1,76.5000000000003,8|2,2:1|2:0,2:0:0:0:
399,366,175328,1,10,2:1:0:0:
399,366,175485,1,2,1:2:0:0:
280,239,175643,6,0,P|328:266|383:256,1,114.75,2|0,1:2|2:0,2:0:0:0:
420,242,175959,1,10,2:1:0:0:
349,111,176117,1,2,2:0:0:0:
349,111,176275,2,0,P|335:145|343:182,1,76.5000000000003,8|0,2:1|1:2,2:0:0:0:
421,151,176591,1,10,2:1:0:0:
497,59,176749,1,2,1:2:0:0:
497,59,176906,6,0,L|421:66,1,76.5000000000003,8|0,2:1|2:0,2:0:0:0:
421,151,177222,2,0,L|497:158,1,76.5000000000003,8|0,2:1|2:0,2:0:0:0:
349,111,177538,2,0,L|273:118,1,76.5000000000003,10|0,2:1|1:2,2:0:0:0:
238,126,177775,1,2,1:2:0:0:
238,126,177854,1,8,2:1:0:0:
171,310,178012,1,2,2:0:0:0:
32,163,178170,6,0,P|87:154|136:182,1,114.75,6|0,1:2|2:0,2:0:0:0:
161,211,178485,1,10,2:1:0:0:
74,309,178643,1,2,2:0:0:0:
74,309,178801,2,0,P|62:273|72:236,1,76.5000000000003,8|0,2:1|2:0,2:0:0:0:
143,79,179117,1,10,2:1:0:0:
244,158,179275,1,2,1:2:0:0:
244,158,179433,6,0,L|320:165,1,76.5000000000003,0|0,1:2|2:0,2:0:0:0:
300,266,179749,2,0,L|224:273,1,76.5000000000003,8|0,2:1|2:0,2:0:0:0:
407,130,180064,2,0,P|417:166|406:202,1,76.5000000000003,10|0,2:1|1:2,2:0:0:0:
396,242,180301,1,2,1:2:0:0:
396,242,180380,1,8,2:1:0:0:
335,70,180538,1,2,2:0:0:0:
224,273,180696,6,0,B|159:294|159:294|94:272,1,135,6|0,1:2|2:0,2:0:0:0:
53,254,181012,1,0,1:2:0:0:
245,128,181170,1,0,1:2:0:0:
87,376,181328,1,0,1:2:0:0:
89,86,181485,1,0,1:2:0:0:
232,378,181643,1,0,1:2:0:0:
369,56,181801,5,2,1:2:0:0:
369,56,181959,6,0,P|401:49|433:57,1,67.5,2|0,2:0|2:0,2:0:0:0:
415,170,182275,6,0,P|375:161|408:138,1,101.25,2|0,2:0|2:0,2:0:0:0:
396,157,182591,6,0,B|424:239|339:224|369:307,1,162,2|0,2:0|2:0,2:0:0:0:
380,349,182906,5,2,2:0:0:0:
380,349,183222,6,0,B|320:343|320:343|282:296|282:296|223:291,1,180,6|0,1:2|1:2,2:0:0:0:
36,272,183696,1,0,1:2:0:0:
225,171,183854,2,0,B|264:217|264:217|144:208,1,180,8|0,2:0|3:2,2:0:0:0:
11,76,184328,1,10,2:0:0:0:
182,26,184485,5,2,1:2:0:0:
56,185,184643,1,0,1:2:0:0:
57,11,184801,1,2,1:2:0:0:
145,208,184959,1,0,1:2:0:0:
273,48,185117,2,0,L|363:41,1,90,10|0,2:0|1:2,2:0:0:0:
358,236,185433,1,2,2:0:0:0:
446,42,185591,1,10,2:0:0:0:
492,194,185749,6,0,B|451:218|397:195|425:163|372:142|329:165,1,180,4|0,1:2|1:2,2:0:0:0:
464,121,186222,1,0,1:2:0:0:
504,317,186380,2,0,B|477:279|426:279|426:279|402:320|351:316,1,180,8|0,2:0|3:2,2:0:0:0:
165,264,186854,1,10,2:0:0:0:
358,236,187012,5,2,1:2:0:0:
290,369,187170,1,8,2:3:0:0:
329,165,187328,1,2,1:2:0:0:
350,316,187485,1,0,1:2:0:0:
262,121,187643,2,0,P|220:108|178:121,1,90,10|0,2:0|2:0,2:0:0:0:
28,284,187959,1,2,3:2:0:0:
221,189,188117,1,10,2:0:0:0:
68,40,188275,6,0,L|79:175,1,135,4|0,1:2|2:0,2:0:0:0:
84,219,188591,1,2,2:0:0:0:
162,25,188749,1,2,1:2:0:0:
314,236,188906,2,0,P|298:172|335:117,1,135,8|0,2:0|2:0,2:0:0:0:
371,89,189222,1,2,3:2:0:0:
221,242,189380,1,10,2:0:0:0:
256,65,189538,5,0,3:2:0:0:
362,316,189696,1,8,2:0:0:0:
182,111,189854,1,2,2:0:0:0:
268,317,190012,1,2,1:2:0:0:
334,118,190170,2,0,L|424:111,1,90,8|0,2:0|2:0,2:0:0:0:
440,375,190485,1,2,2:0:0:0:
268,317,190643,1,10,2:0:0:0:
505,210,190801,6,0,B|463:252|463:252|350:210,1,180,4|0,1:2|3:2,2:0:0:0:
231,59,191275,1,0,1:2:0:0:
424,26,191433,2,0,P|437:68|424:111,1,90,8|0,2:0|2:0,2:0:0:0:
292,292,191749,1,2,2:0:0:0:
244,90,191906,1,8,2:0:0:0:
56,310,192064,6,0,L|146:317,1,90,4|4,1:2|1:3,2:0:0:0:
194,324,192301,1,8,2:0:0:0:
194,324,192380,1,10,2:0:0:0:
143,102,192538,2,0,L|53:109,1,90,6|0,1:2|1:2,2:0:0:0:
11,115,192775,1,8,2:0:0:0:
11,115,192854,1,8,2:0:0:0:
105,223,193012,1,14,2:0:0:0:
180,22,193170,1,10,2:0:0:0:
180,22,193249,1,8,2:0:0:0:
180,22,193328,6,0,B|220:-1|263:21|263:21|283:6|283:6|325:27|366:5,2,198,0|8|0,1:2|2:0|1:2,2:0:0:0:
81,197,194117,1,0,1:2:0:0:
322,115,194275,1,10,2:0:0:0:
143,102,194433,1,2,2:0:0:0:
221,273,194591,6,0,P|268:287|314:271,1,99,2|0,1:2|2:0,2:0:0:0:
414,114,194906,2,0,P|368:99|322:115,1,99,8|0,2:0|2:0,2:0:0:0:
415,305,195222,1,0,1:2:0:0:
510,117,195380,1,0,1:2:0:0:
314,271,195538,1,10,2:0:0:0:
415,80,195696,1,2,2:0:0:0:
512,303,195854,5,2,1:2:0:0:
322,115,196012,1,0,1:2:0:0:
415,305,196170,1,10,2:0:0:0:
492,22,196328,1,6,1:2:0:0:
492,22,196643,1,2,1:2:0:0:
393,214,196801,1,8,2:0:0:0:
230,32,196959,6,0,B|164:37|164:37|121:88|121:88|56:94,1,198,2|0,1:2|1:2,2:0:0:0:
285,303,197433,2,0,B|310:232|310:232|283:163,1,148.5,12|0,2:0|2:0,2:0:0:0:
262,118,197749,2,0,L|213:122,1,49.5,2|0,1:2|1:2,2:0:0:0:
157,229,197906,1,0,1:2:0:0:
157,229,197985,1,2,1:2:0:0:
157,229,198064,2,0,L|205:233,1,49.5,8|8,2:0|2:0,2:0:0:0:
437,378,198222,1,10,2:0:0:0:
437,378,198301,1,8,2:0:0:0:
437,378,198380,6,0,L|428:270,1,108,14|0,2:0|2:0,2:0:0:0:
417,86,198696,5,10,2:0:0:0:
295,331,198854,1,2,1:2:0:0:
308,54,199012,5,8,2:0:0:0:
431,302,199170,1,0,1:2:0:0:
307,20,199328,5,10,2:0:0:0:
184,268,199485,1,2,1:2:0:0:
149,0,199643,5,8,2:0:0:0:
269,246,199801,1,0,1:2:0:0:
16,68,199959,5,8,2:0:0:0:
278,156,200117,1,0,1:2:0:0:
18,332,200275,5,10,2:0:0:0:
106,70,200433,1,0,1:2:0:0:
198,367,200591,5,8,2:0:0:0:
109,106,200749,1,2,1:2:0:0:
406,183,200906,5,14,2:0:0:0:
107,351,201064,1,0,1:2:0:0:
376,73,201222,5,14,2:0:0:0:
287,377,201380,1,2,1:2:0:0:
284,14,201538,5,12,2:0:0:0:
430,301,201696,1,2,1:2:0:0:
175,26,201854,5,12,2:0:0:0:
490,118,202012,1,2,1:2:0:0:
490,118,202091,1,0,1:0:0:0:
490,118,202170,6,0,P|507:168|490:218,1,108,12|8,2:0|2:0,2:0:0:0:
464,267,202406,1,8,2:0:0:0:
464,267,202485,2,0,L|411:271,1,54,10|8,2:0|2:0,2:0:0:0:
256,135,202643,1,8,2:0:0:0:
256,135,202722,1,10,2:0:0:0:
256,135,202801,2,0,L|308:139,1,54,8|8,2:0|2:0,2:0:0:0:
262,308,202959,1,10,2:0:0:0:
229,331,203038,1,8,2:0:0:0:
190,337,203117,1,10,2:0:0:0:
150,326,203196,1,8,2:0:0:0:
122,299,203275,1,8,2:0:0:0:
106,262,203354,1,8,2:0:0:0:
108,222,203433,6,0,L|116:132,1,90,6|2,1:2|2:0,2:0:0:0:
271,33,203749,1,10,2:0:0:0:
294,226,203906,2,0,L|204:234,1,90,2|0,2:0|1:2,2:0:0:0:
355,57,204222,2,0,L|445:65,1,90,2|8,2:0|2:0,2:0:0:0:
460,221,204538,1,2,2:0:0:0:
310,139,204696,6,0,B|279:103|231:103|231:103|201:144|152:137,1,180,2|8,1:2|2:0,2:0:0:0:
43,31,205170,1,2,2:0:0:0:
8,214,205328,1,2,1:2:0:0:
162,56,205485,1,2,2:0:0:0:
205,233,205643,2,0,P|162:246|119:234,1,90,8|0,2:0|2:0,2:0:0:0:
310,139,205959,5,6,1:2:0:0:
270,336,206117,1,2,2:0:0:0:
160,162,206275,1,10,2:0:0:0:
364,313,206433,2,0,L|356:223,1,90,2|0,2:0|1:2,2:0:0:0:
283,46,206749,2,0,L|275:136,1,90,2|8,2:0|2:0,2:0:0:0:
251,308,207064,1,2,2:0:0:0:
452,236,207222,6,0,B|446:175|446:175|401:137|401:137|395:77,1,180,2|8,1:2|2:0,2:0:0:0:
266,229,207696,1,2,2:0:0:0:
485,90,207854,1,2,1:2:0:0:
192,173,208012,1,2,2:0:0:0:
452,236,208170,1,10,2:0:0:0:
283,46,208328,1,2,2:0:0:0:
217,332,208485,6,0,B|258:356|312:333|284:301|337:280|380:303,1,180,2|8,1:2|2:0,2:0:0:0:
275,136,208959,1,2,2:0:0:0:
87,298,209117,2,0,B|48:252|48:252|168:261,1,180,2|8,1:2|2:0,2:0:0:0:
361,274,209591,1,2,2:0:0:0:
199,86,209749,6,0,P|135:73|80:110,1,135,6|0,1:2|2:0,2:0:0:0:
55,148,210064,1,8,2:0:0:0:
206,1,210222,1,2,2:0:0:0:
248,195,210380,2,0,P|290:208|332:195,1,90,2|0,1:2|2:0,2:0:0:0:
508,101,210696,1,8,2:0:0:0:
294,108,210854,1,2,2:0:0:0:
419,313,211012,6,0,B|459:268|459:268|418:155,1,180,2|8,1:2|2:0,2:0:0:0:
306,316,211485,1,10,2:3:0:0:
306,316,211564,1,8,2:3:0:0:
306,316,211643,2,0,B|269:336|230:316|230:316|212:330|212:330|173:311|136:331,1,180,6|8,1:2|2:0,2:0:0:0:
69,178,212117,1,10,2:0:0:0:
69,178,212196,1,8,2:0:0:0:
69,178,212275,6,0,L|203:189,1,135,2|0,1:2|2:0,2:0:0:0:
248,195,212591,1,12,1:2:0:0:
69,277,212749,1,2,2:0:0:0:
199,86,212906,1,10,2:0:0:0:
231,316,213064,1,8,2:0:0:0:
72,146,213222,1,8,2:0:0:0:
139,369,213380,1,8,2:0:0:0:
281,195,213538,6,0,L|371:187,1,90,2|2,1:2|2:0,2:0:0:0:
231,316,213854,1,14,2:0:0:0:
162,154,214012,2,0,L|72:146,1,90,2|0,2:0|1:2,2:0:0:0:
0,307,214328,2,0,L|90:299,1,90,2|8,2:0|2:0,2:0:0:0:
178,123,214643,1,2,2:0:0:0:
260,329,214801,6,0,B|301:353|355:330|327:298|380:277|423:300,1,180,2|8,1:2|2:0,2:0:0:0:
285,254,215275,1,2,2:0:0:0:
454,223,215433,1,2,1:2:0:0:
396,373,215591,1,2,2:0:0:0:
326,181,215749,2,0,P|283:168|241:180,1,90,8|0,2:0|2:0,2:0:0:0:
423,300,216064,5,6,1:2:0:0:
353,89,216222,1,2,2:0:0:0:
285,254,216380,1,10,2:0:0:0:
509,134,216538,2,0,L|419:142,1,90,2|0,2:0|1:2,2:0:0:0:
423,300,216854,2,0,L|513:308,1,90,2|8,2:0|2:0,2:0:0:0:
326,181,217170,1,2,2:0:0:0:
292,337,217328,6,0,B|241:345|215:303|215:303|164:303|137:341,1,180,2|8,1:2|2:0,2:0:0:0:
102,138,217801,1,2,2:0:0:0:
287,255,217959,1,2,1:2:0:0:
61,269,218117,1,2,2:0:0:0:
244,142,218275,1,10,2:0:0:0:
137,341,218433,1,2,2:0:0:0:
7,127,218591,6,0,P|53:55|146:51,1,180,6|8,1:2|2:0,2:0:0:0:
205,228,219064,1,0,2:0:0:0:
297,68,219222,2,0,P|338:55|381:67,1,90,2|0,1:2|2:0,2:0:0:0:
498,261,219538,1,8,2:0:0:0:
335,152,219696,1,2,2:0:0:0:
511,65,219854,5,14,2:0:0:0:
382,268,220012,1,8,2:0:0:0:
382,68,220170,1,10,2:0:0:0:
504,296,220328,1,10,2:3:0:0:
504,296,220406,1,8,2:3:0:0:
504,296,220485,1,4,2:3:0:0:
262,245,220643,1,2,1:2:0:0:
457,176,220801,1,0,1:2:0:0:
299,365,220959,1,2,2:0:0:0:
58,138,221117,6,0,B|134:-1|461:60|277:303|508:296,1,567,4|0,1:2|2:0,2:0:0:0:
