osu file format v14

[General]
AudioFilename: audio.mp3
AudioLeadIn: 0
PreviewTime: 181801
Countdown: 0
SampleSet: Soft
StackLeniency: 0.4
Mode: 0
LetterboxInBreaks: 0
WidescreenStoryboard: 1

[Editor]
Bookmarks: 21538,41749,56906,77117,87222,97328,107433,117538,137749,160485,183222,193328,203433,213538,221117,226091
DistanceSpacing: 1.4
BeatDivisor: 4
GridSize: 32
TimelineZoom: 3.299999

[Metadata]
Title:Letters to me
TitleUnicode:Letters to me
Artist:Amatsuki
ArtistUnicode:天月
Creator:Kirishima-
Version:AsuKo & Xahlt's Hard
Source:
Tags:あまつき japanese rock jrock j-rock utaite male vocal maaadbot asukow xahlt kuon- my angel ram my_angel_ram searasp toofu
BeatmapID:3210999
BeatmapSetID:1367704

[Difficulty]
HPDrainRate:4.5
CircleSize:3.5
OverallDifficulty:6
ApproachRate:8
SliderMultiplier:1.4
SliderTickRate:1

[Events]
//Background and Video events
0,0,"background.jpg",0,0
Video,0,"video.mp4"
//Break Periods
2,163212,171578
//Storyboard Layer 0 (Background)
//Storyboard Layer 1 (Fail)
//Storyboard Layer 2 (Pass)
//Storyboard Layer 3 (Foreground)
//Storyboard Layer 4 (Overlay)
//Storyboard Sound Samples

[TimingPoints]
1328,315.789473684211,4,2,22,50,1,0
1328,-125,4,2,22,50,0,0
8906,-125,4,2,22,60,0,0
9459,-125,4,2,22,5,0,0
9537,-125,4,2,22,60,0,0
10091,-125,4,2,22,5,0,0
10169,-125,4,2,22,60,0,0
11433,-100,4,2,22,70,0,0
16722,-100,4,2,22,5,0,0
16800,-100,4,2,22,70,0,0
17985,-100,4,2,22,5,0,0
18064,-100,4,2,22,70,0,0
21538,-111.111111111111,4,2,22,60,0,0
31564,-111.111111111111,4,2,22,5,0,0
31643,-111.111111111111,4,2,22,60,0,0
31959,-100,4,2,22,60,0,0
33143,-100,4,2,22,5,0,0
33221,-100,4,2,22,60,0,0
34406,-100,4,2,22,5,0,0
34485,-100,4,2,22,60,0,0
36933,-100,4,2,22,5,0,0
37011,-100,4,2,22,60,0,0
38196,-100,4,2,22,5,0,0
38274,-100,4,2,22,60,0,0
41749,-100,4,2,22,50,0,0
46170,-125,4,2,22,50,0,0
46328,-125,4,2,22,5,0,0
46406,-125,4,2,22,50,0,0
46564,-125,4,2,22,5,0,0
46643,-125,4,2,22,50,0,0
46801,-125,4,2,22,60,0,0
49328,-100,4,2,22,80,0,0
54222,-100,4,2,22,40,0,0
55643,-125,4,2,22,40,0,0
55879,-125,4,2,22,5,0,0
55959,-125,4,2,22,50,0,0
56195,-125,4,2,22,5,0,0
56275,-125,4,2,22,60,0,0
56511,-125,4,2,22,5,0,0
56591,-125,4,2,22,60,0,0
56906,-90.9090909090909,4,2,22,70,0,0
63459,-90.9090909090909,4,2,22,5,0,0
63537,-90.9090909090909,4,2,22,70,0,0
67012,-90.9090909090909,4,2,22,75,0,0
69775,-90.9090909090909,4,2,22,5,0,0
69853,-90.9090909090909,4,2,22,75,0,0
72301,-90.9090909090909,4,2,22,5,0,0
72379,-90.9090909090909,4,2,22,75,0,0
73564,-90.9090909090909,4,2,22,5,0,0
73643,-90.9090909090909,4,2,22,75,0,0
74828,-90.9090909090909,4,2,22,5,0,0
74906,-90.9090909090909,4,2,22,75,0,0
77117,-100,4,2,22,70,0,0
82406,-100,4,2,22,5,0,0
82485,-100,4,2,22,70,0,0
83670,-100,4,2,22,5,0,0
83748,-100,4,2,22,70,0,0
87222,-111.111111111111,4,2,22,60,0,0
89985,-111.111111111111,4,2,22,5,0,0
90064,-111.111111111111,4,2,22,60,0,0
95038,-111.111111111111,4,2,22,5,0,0
95116,-111.111111111111,4,2,22,60,0,0
95670,-111.111111111111,4,2,22,5,0,0
95748,-111.111111111111,4,2,22,60,0,0
97564,-111.111111111111,4,2,22,5,0,0
97643,-111.111111111111,4,2,22,60,0,0
98828,-111.111111111111,4,2,22,5,0,0
98906,-111.111111111111,4,2,22,60,0,0
100091,-111.111111111111,4,2,22,5,0,0
100169,-111.111111111111,4,2,22,60,0,0
107670,-111.111111111111,4,2,22,5,0,0
107748,-111.111111111111,4,2,22,60,0,0
110196,-111.111111111111,4,2,22,5,0,0
110274,-111.111111111111,4,2,22,60,0,0
112012,-111.111111111111,4,2,22,5,0,0
112090,-111.111111111111,4,2,22,60,0,0
112249,-111.111111111111,4,2,22,5,0,0
112327,-111.111111111111,4,2,22,60,0,0
115012,-111.111111111111,4,2,22,65,0,0
117538,-90.9090909090908,4,2,22,70,0,0
122828,-90.9090909090908,4,2,22,5,0,0
122906,-90.9090909090908,4,2,22,70,0,0
127643,-90.9090909090908,4,2,22,75,0,0
132933,-90.9090909090908,4,2,22,5,0,0
133011,-90.9090909090908,4,2,22,75,0,0
134196,-90.9090909090908,4,2,22,5,0,0
134274,-90.9090909090908,4,2,22,75,0,0
135459,-90.9090909090908,4,2,22,5,0,0
135537,-90.9090909090908,4,2,22,75,0,0
137749,-100,4,2,22,70,0,0
141617,-100,4,2,22,5,0,0
141695,-100,4,2,22,70,0,0
147854,-100,4,2,22,75,0,0
151722,-100,4,2,22,5,0,0
151800,-100,4,2,22,75,0,0
153143,-100,4,2,22,5,0,0
153221,-100,4,2,22,75,0,0
154249,-100,4,2,22,5,0,0
154327,-100,4,2,22,75,0,0
155433,-100,4,2,22,80,0,0
160485,-100,4,2,22,50,0,0
163012,-100,4,2,22,40,0,0
172328,-100,4,2,22,50,0,0
173117,-125,4,2,22,60,0,0
173354,-125,4,2,22,5,0,0
173432,-125,4,2,22,60,0,0
174617,-125,4,2,22,5,0,0
174695,-125,4,2,22,60,0,0
175880,-125,4,2,22,5,0,0
175958,-125,4,2,22,60,0,0
178406,-125,4,2,22,5,0,0
178485,-125,4,2,22,60,0,0
180696,-125,4,2,22,70,0,0
180933,-125,4,2,22,5,0,0
181011,-125,4,2,22,70,0,0
181959,-125,4,2,22,40,0,0
182195,-125,4,2,22,5,0,0
182275,-125,4,2,22,50,0,0
182511,-125,4,2,22,5,0,0
182591,-125,4,2,22,80,0,0
182827,-125,4,2,22,5,0,0
182906,-125,4,2,22,60,0,0
183142,-125,4,2,22,5,0,0
183222,-90.9090909090909,4,2,22,70,0,0
188512,-90.9090909090909,4,2,22,5,0,0
188590,-90.9090909090909,4,2,22,70,0,0
189143,-90.9090909090909,4,2,22,5,0,0
189221,-90.9090909090909,4,2,22,70,0,0
193328,-90.9090909090909,4,2,22,75,0,0
198380,-90.9090909090909,4,2,22,80,0,0
203433,-100,4,2,22,70,0,0
209985,-100,4,2,22,5,0,0
210064,-100,4,2,22,70,0,0
212512,-100,4,2,22,5,0,0
212590,-100,4,2,22,70,0,0
221433,-100,4,2,22,5,0,0

[Colours]
Combo1 : 191,72,0
Combo2 : 255,136,64
Combo3 : 255,203,117
Combo4 : 191,191,191
Combo5 : 128,128,128
Combo6 : 114,157,184
Combo7 : 64,104,128
Combo8 : 128,48,0

[HitObjects]
39,45,1328,6,0,P|42:72|45:100,1,56,2|2,2:0|2:0,2:0:0:0:
95,167,1643,1,2,2:0:0:0:
95,167,1801,2,0,P|90:194|87:222,1,56,2|0,2:0|2:0,2:0:0:0:
36,279,2117,2,0,P|87:259|138:280,1,112,2|2,2:0|2:0,2:0:0:0:
464,343,3854,6,0,P|461:316|458:288,1,56,2|2,2:0|2:0,2:0:0:0:
408,221,4170,1,2,2:0:0:0:
408,221,4328,2,0,P|413:194|416:166,1,56,2|0,2:0|2:0,2:0:0:0:
467,109,4643,2,0,P|416:129|365:108,1,112,2|2,2:0|2:0,2:0:0:0:
316,46,5117,5,2,2:0:0:0:
260,274,5591,6,0,P|257:247|254:219,1,56,2|0,2:0|2:0,2:0:0:0:
204,152,5906,1,2,2:0:0:0:
204,152,6064,2,0,P|209:125|212:97,1,56,2|2,2:0|2:0,2:0:0:0:
263,42,6380,6,0,P|212:62|161:41,1,112,2|2,2:0|2:0,2:0:0:0:
91,5,6854,1,2,2:0:0:0:
23,146,7170,2,0,P|25:172|27:201,1,56,2|0,2:0|2:0,2:0:0:0:
82,257,7485,6,0,P|79:286|74:332,1,56,2|2,2:0|2:0,2:0:0:0:
139,359,7801,2,0,P|169:357|199:356,1,56,2|0,2:0|2:0,2:0:0:0:
256,283,8117,1,2,1:2:0:0:
256,283,8196,1,0,1:2:0:0:
256,283,8275,1,10,2:0:0:0:
311,370,8433,1,2,1:2:0:0:
373,300,8591,1,8,1:3:0:0:
373,300,8906,6,0,B|341:249|360:173|395:208|419:133|387:89,2,224,6|6|6,1:2|1:2|1:2,2:0:0:0:
315,131,10643,1,8,2:3:0:0:
315,131,10722,1,8,2:3:0:0:
315,131,10801,1,2,1:2:0:0:
259,186,10959,2,0,P|254:198|247:214,5,28,8|8|8|8|8|8,2:0|2:0|2:0|2:0|2:0|2:0,2:0:0:0:
239,163,11433,6,0,P|205:158|171:164,1,70,6|2,1:2|2:0,2:0:0:0:
105,227,11749,1,8,2:0:0:0:
34,170,11906,2,0,P|31:132|29:96,1,70,2|0,2:0|1:2,2:0:0:0:
90,32,12222,2,0,P|124:26|159:29,1,70,2|8,1:2|2:0,2:0:0:0:
220,98,12538,1,2,2:0:0:0:
299,53,12696,6,0,B|332:21|370:25|370:25|391:51|421:56,2,140,2|8|2,1:2|2:0|1:2,2:0:0:0:
354,125,13485,1,2,1:2:0:0:
354,125,13643,2,0,P|350:153|344:218,1,70,10|0,2:0|2:0,2:0:0:0:
281,259,13959,6,0,P|246:267|213:260,1,70,6|2,1:2|2:0,2:0:0:0:
142,201,14275,1,10,2:0:0:0:
75,252,14433,2,0,P|76:286|77:333,1,70,2|0,2:0|1:2,2:0:0:0:
156,349,14749,2,0,P|190:355|225:351,1,70,2|8,1:2|2:0,2:0:0:0:
308,334,15064,1,2,2:0:0:0:
389,353,15222,6,0,B|392:305|392:305|374:276|374:276|375:218,1,140,2|8,1:2|2:0,2:0:0:0:
434,157,15696,2,0,P|429:119|424:77,1,70,2|0,2:0|1:0,2:0:0:0:
362,30,16012,2,0,P|327:22|293:28,1,70,2|10,2:0|2:0,2:0:0:0:
230,83,16328,1,2,2:0:0:0:
165,29,16485,6,0,B|95:53|100:-4|29:17,1,140,6|10,1:2|2:0,2:0:0:0:
1,96,16959,2,0,P|4:131|6:169,1,70,2|0,2:0|1:2,2:0:0:0:
63,227,17275,2,0,P|62:262|60:297,1,70,2|8,1:2|2:0,2:0:0:0:
125,350,17591,1,2,2:0:0:0:
201,315,17749,6,0,B|274:294|257:350|335:327,2,140,0|10|0,1:0|2:0|1:2,2:0:0:0:
316,248,18538,1,2,1:2:0:0:
316,248,18696,2,0,P|350:240|384:248,1,70,10|0,2:0|2:0,2:0:0:0:
477,289,19012,6,0,B|498:246|498:246|491:154,2,140,6|8|0,1:2|2:0|1:2,2:0:0:0:
409,350,19801,1,2,1:2:0:0:
409,350,19959,1,10,2:0:0:0:
322,322,20117,1,2,2:0:0:0:
322,322,20275,6,0,P|287:316|249:323,1,70,2|0,1:2|2:0,2:0:0:0:
170,361,20591,1,8,2:0:0:0:
90,316,20749,1,8,2:0:0:0:
90,316,20828,1,8,2:0:0:0:
90,316,20906,1,8,2:0:0:0:
158,256,21064,2,0,P|163:214|148:176,1,70,0|8,1:2|1:3,2:0:0:0:
102,112,21380,1,6,1:3:0:0:
172,18,21538,6,0,P|226:29|234:100,1,126,6|2,1:2|1:2,2:0:0:0:
295,151,22012,1,0,2:0:0:0:
366,110,22170,2,0,P|378:81|381:50,1,63.0000000000001,2|0,1:2|2:0,2:0:0:0:
458,23,22485,2,0,P|489:29|510:52,1,63.0000000000001,2|0,1:2|2:0,2:0:0:0:
510,134,22801,2,0,P|464:144|427:222,1,126,2|2,1:2|1:2,2:0:0:0:
469,278,23275,2,0,B|417:289|417:289|404:298|404:298|338:311,1,126,2|2,2:0|2:0,2:0:0:0:
281,260,23749,1,2,1:2:0:0:
281,260,23906,1,2,2:0:0:0:
218,347,24064,6,0,B|150:311|185:293|115:249,1,126,0|0,1:2|1:2,2:0:0:0:
47,255,24538,1,2,2:0:0:0:
29,175,24696,2,0,P|88:137|77:81,1,126,2|0,1:2|1:2,2:0:0:0:
246,89,25328,2,0,P|242:18|188:0,1,126,0|0,1:2|1:2,2:0:0:0:
193,163,25959,2,0,L|267:176,1,63.0000000000001,2|0,1:2|2:0,2:0:0:0:
312,232,26275,2,0,L|386:245,1,63.0000000000001,2|2,1:2|2:0,2:0:0:0:
448,278,26591,6,0,B|451:213|497:236|486:142,1,126,2|2,1:2|1:2,2:0:0:0:
508,82,27064,1,0,2:0:0:0:
444,29,27222,2,0,P|401:24|365:95,1,126,2|2,1:2|1:2,2:0:0:0:
363,87,27854,6,0,B|311:84|311:84|292:71|292:71|224:64,1,126,2|2,1:2|1:2,2:0:0:0:
87,10,28485,2,0,B|110:56|110:56|108:79|108:79|129:125,1,126,2|2,1:2|1:2,2:0:0:0:
267,215,29117,6,0,P|278:278|214:323,1,126,2|0,1:2|1:2,2:0:0:0:
180,378,29591,1,2,2:0:0:0:
105,344,29749,2,0,P|90:282|74:221,1,126,2|0,1:2|1:2,2:0:0:0:
26,64,30380,6,0,P|68:107|129:102,1,126,6|0,1:2|1:2,2:0:0:0:
163,27,30854,1,8,2:0:0:0:
172,29,30933,1,8,2:0:0:0:
181,31,31012,2,8,L|221:38,3,31.5,8|8|8|8,2:3|2:3|2:3|2:3,2:3:0:0:
244,62,31328,2,0,L|359:46,1,94.5000000000001,8|0,2:0|2:0,2:0:0:0:
382,40,31643,5,6,1:2:0:0:
382,40,31801,1,2,2:0:0:0:
459,88,31959,2,0,L|448:180,1,70,10|0,2:0|2:0,2:0:0:0:
432,247,32275,2,0,P|405:224|371:218,1,70,2|0,1:2|1:2,2:0:0:0:
343,131,32591,2,0,P|310:142|288:169,1,70,10|0,2:0|2:0,2:0:0:0:
285,260,32906,6,0,B|231:272|228:327|160:336,1,140,2|10,1:2|2:0,2:0:0:0:
80,356,33380,2,0,P|133:314|92:270,1,140,2|2,2:0|1:2,2:0:0:0:
12,231,33854,2,0,L|32:143,1,70,10|2,2:0|2:0,2:0:0:0:
1,52,34170,6,0,B|49:69|93:36|93:36|90:72|100:104,1,140,4|10,1:2|2:0,2:0:0:0:
131,161,34643,1,2,2:0:0:0:
221,173,34801,2,0,P|237:138|240:96,1,70,2|0,1:2|2:0,2:0:0:0:
303,40,35117,1,10,2:0:0:0:
314,34,35433,6,0,P|379:37|401:100,1,140,0|8,1:2|2:0,2:0:0:0:
348,174,35906,1,2,2:0:0:0:
407,243,36064,2,0,P|443:229|483:222,1,70,2|2,1:2|1:2,2:0:0:0:
362,322,36380,2,0,P|327:314|295:302,1,70,10|2,2:0|2:0,2:0:0:0:
215,212,36696,6,0,P|172:197|117:262,1,140,6|10,1:2|2:0,2:0:0:0:
141,355,37170,2,0,P|173:342|207:335,1,70,2|0,2:0|1:2,2:0:0:0:
295,302,37485,2,0,P|327:314|362:322,1,70,2|8,1:2|2:0,2:0:0:0:
446,372,37801,1,2,2:0:0:0:
505,268,37959,6,0,B|513:222|513:222|475:192|475:192|485:123,1,140,0|10,1:0|2:0,2:0:0:0:
480,55,38433,2,0,P|447:77|411:76,1,70,2|0,2:0|1:2,2:0:0:0:
388,164,38749,2,0,P|352:146|335:114,1,70,2|8,1:2|2:0,2:0:0:0:
339,30,39064,1,2,2:0:0:0:
221,13,39222,6,0,P|162:25|163:112,1,140,4|8,1:2|2:0,2:0:0:0:
222,151,39696,1,0,2:0:0:0:
222,151,39854,2,0,L|238:225,1,70,0|0,1:2|1:2,2:0:0:0:
306,278,40170,1,8,2:0:0:0:
214,355,40328,6,0,B|134:336|167:304|72:280,1,140,0|8,1:0|2:0,2:0:0:0:
40,212,40801,2,0,P|76:196|91:162,1,70,0|0,1:2|1:2,2:0:0:0:
88,73,41117,2,0,P|119:96|156:92,1,70,10|0,2:0|1:2,2:0:0:0:
215,31,41433,1,10,1:3:0:0:
215,31,41591,1,4,1:3:0:0:
281,86,41749,5,6,1:2:0:0:
389,346,43012,1,2,2:0:0:0:
506,28,44275,5,2,2:0:0:0:
213,163,45538,1,2,2:0:0:0:
401,234,46012,1,0,1:2:0:0:
400,243,46091,1,0,1:2:0:0:
400,251,46170,2,0,P|383:288|344:302,2,84,10|10|6,2:0|2:3|1:3,2:0:0:0:
354,163,46801,6,0,P|349:130|344:84,1,56,6|0,1:2|2:0,2:0:0:0:
293,41,47117,2,0,P|265:35|237:38,1,56,0|2,1:0|2:0,2:0:0:0:
182,101,47433,2,0,P|154:103|126:98,1,56,2|0,1:2|2:0,2:0:0:0:
75,30,47749,2,0,P|47:24|19:27,1,56,0|2,1:2|2:0,2:0:0:0:
0,109,48064,6,0,P|2:139|6:179,1,56,2|0,1:2|2:0,2:0:0:0:
67,221,48380,2,0,P|65:248|62:279,1,56,2|0,1:2|2:0,2:0:0:0:
31,355,48696,2,0,P|58:361|85:360,1,56,2|0,1:2|2:0,2:0:0:0:
155,312,49012,2,0,P|182:310|209:317,1,56,0|4,1:2|1:3,2:0:0:0:
219,325,49249,1,4,1:3:0:0:
226,331,49328,6,0,P|260:341|294:333,1,70,12|0,2:0|2:0,2:0:0:0:
355,258,49643,2,0,P|351:229|343:176,1,70,8|2,2:0|1:2,2:0:0:0:
270,124,49959,2,0,P|273:90|276:40,1,70,10|0,2:0|1:2,2:0:0:0:
364,15,50275,2,0,P|399:11|434:17,1,70,8|2,2:0|1:2,2:0:0:0:
504,85,50591,6,0,P|512:123|504:162,1,70,10|0,2:0|1:2,2:0:0:0:
448,236,50906,2,0,P|451:266|456:308,1,70,8|2,2:0|1:2,2:0:0:0:
377,365,51222,2,0,P|341:364|303:363,1,70,10|0,2:0|1:2,2:0:0:0:
221,314,51538,1,8,2:0:0:0:
283,238,51696,1,2,2:0:0:0:
275,234,51775,1,0,1:2:0:0:
268,231,51854,6,0,B|236:207|204:198|204:198|177:204|141:222,1,140,14|8,1:2|2:0,2:0:0:0:
77,297,52328,1,2,1:2:0:0:
3,237,52485,2,0,P|1:198|-1:157,1,70,10|0,2:0|1:2,2:0:0:0:
1,68,52801,2,0,P|35:60|69:68,1,70,8|0,2:0|1:2,2:0:0:0:
155,115,53117,6,0,P|188:122|222:114,1,70,12|0,2:0|2:0,2:0:0:0:
305,61,53433,1,8,2:0:0:0:
305,61,53591,2,0,P|343:56|384:61,1,70,8|8,2:0|2:0,2:0:0:0:
468,113,53906,1,8,2:0:0:0:
468,113,53985,1,8,2:0:0:0:
468,113,54064,1,8,2:0:0:0:
503,21,54222,5,14,2:0:0:0:
25,315,55406,5,2,2:0:0:0:
25,315,55643,2,0,P|65:328|106:318,1,84,2|0,2:0|2:0,2:0:0:0:
141,302,55959,2,0,P|137:249|134:196,1,84,2|0,2:0|2:0,2:0:0:0:
137,178,56275,2,0,P|177:165|218:171,1,84,2|0,2:0|2:0,2:0:0:0:
255,185,56591,1,2,2:0:0:0:
337,125,56749,1,8,2:3:0:0:
337,125,56828,1,8,2:3:0:0:
337,125,56906,6,0,P|387:139|447:57,1,154,6|0,1:2|1:2,2:0:0:0:
362,3,57380,2,0,B|296:28|296:28|286:41|286:41|211:70,1,154,0|0,2:0|2:0,2:0:0:0:
115,69,57854,2,0,L|142:157,1,77,0|2,1:2|2:0,2:0:0:0:
187,238,58170,6,0,P|149:230|111:235,1,77,2|0,1:2|2:0,2:0:0:0:
237,161,58485,2,0,P|262:132|276:96,1,77,2|0,1:2|2:0,2:0:0:0:
278,245,58801,2,0,P|290:281|313:311,1,77,2|0,1:2|2:0,2:0:0:0:
221,369,59117,1,2,1:2:0:0:
130,309,59275,1,10,2:0:0:0:
123,318,59354,1,8,2:0:0:0:
115,326,59433,6,0,P|66:338|33:248,1,154,4|0,1:2|1:2,2:0:0:0:
3,153,59906,2,0,P|74:173|168:150,1,154,0|0,2:0|2:0,2:0:0:0:
214,71,60380,1,0,1:2:0:0:
214,71,60538,1,2,2:0:0:0:
295,141,60696,6,0,L|306:50,1,77,2|8,1:2|2:0,2:0:0:0:
398,11,61012,2,0,L|407:87,1,77,10|4,1:3|1:2,2:0:0:0:
497,148,61328,2,0,P|461:164|441:209,1,77,2|0,1:2|2:0,2:0:0:0:
490,292,61643,1,2,1:2:0:0:
396,345,61801,1,10,2:3:0:0:
389,335,61880,1,8,2:3:0:0:
381,326,61959,6,0,B|310:293|345:259|265:223,1,154,4|2,1:2|1:2,2:0:0:0:
161,213,62433,2,0,P|181:158|101:117,1,154,2|0,2:0|2:0,2:0:0:0:
54,205,62906,1,2,3:2:0:0:
104,300,63064,1,10,2:3:0:0:
110,309,63143,1,8,2:3:0:0:
117,317,63222,6,0,B|186:330|186:330|193:334|193:334|283:349,1,154,4|2,1:2|1:2,2:0:0:0:
371,377,63696,2,0,B|373:298|458:345|456:240,1,154.000004699707,2|0,2:0|3:2,2:0:0:0:
461,149,64170,1,2,1:2:0:0:
452,136,64485,6,0,P|400:184|312:155,1,154,6|0,1:2|1:2,2:0:0:0:
176,10,65117,1,0,1:2:0:0:
191,25,65433,2,0,P|202:67|214:127,1,77.0000023498536,2|0,1:2|0:0,0:0:0:0:
193,238,65749,6,0,P|161:262|93:252,1,77,4|8,1:2|2:0,2:0:0:0:
20,239,66064,1,10,2:0:0:0:
24,243,66222,2,0,L|-1:149,1,77,10|8,2:0|2:0,2:0:0:0:
89,100,66538,1,8,2:0:0:0:
94,110,66617,1,8,2:0:0:0:
99,120,66696,2,8,L|114:169,3,38.5,10|8|10|8,2:0|2:0|2:0|2:0,2:0:0:0:
160,178,67012,6,0,B|233:131|184:111|291:58,1,154,4|8,1:2|2:0,2:0:0:0:
351,4,67485,1,0,2:0:0:0:
429,77,67643,2,0,P|445:112|436:154,1,77,0|0,1:2|1:2,2:0:0:0:
348,209,67959,2,0,P|332:174|341:132,1,77,10|0,2:0|2:0,2:0:0:0:
436,235,68275,6,0,P|413:285|302:286,1,154,2|8,1:2|2:0,2:0:0:0:
231,241,68749,1,0,2:0:0:0:
155,316,68906,2,0,L|55:294,1,77,0|0,1:2|1:2,2:0:0:0:
13,213,69222,1,10,2:0:0:0:
13,213,69380,1,2,2:0:0:0:
102,97,69538,6,0,B|165:123|159:190|159:190|187:163,1,154,6|10,1:2|2:0,2:0:0:0:
234,68,70012,2,0,L|325:56,1,77,2|0,1:2|2:0,2:0:0:0:
370,147,70328,2,0,L|293:157,1,77,2|8,1:2|2:0,2:0:0:0:
413,60,70643,6,0,B|467:100|467:100|457:213,1,154,6|0,1:2|1:2,2:0:0:0:
379,248,71117,2,0,L|302:258,1,77,12|0,2:0|2:0,2:0:0:0:
230,328,71433,2,0,L|283:343,3,38.5,2|0|8|10,1:2|1:2|2:0|2:0,2:0:0:0:
315,354,71749,2,8,L|368:369,3,38.5,8|8|10|8,2:0|2:0|2:0|2:0,2:0:0:0:
399,374,72064,6,0,P|472:366|493:296,1,154,6|10,1:2|2:0,2:0:0:0:
399,258,72538,1,2,2:0:0:0:
472,189,72696,2,0,L|461:98,1,77,0|0,1:2|1:2,2:0:0:0:
407,34,73012,1,10,2:0:0:0:
407,34,73170,1,2,2:0:0:0:
303,100,73328,6,0,B|232:78|232:78|224:69|224:69|151:44,1,154,0|8,1:2|2:0,2:0:0:0:
160,47,73959,2,0,L|61:69,1,77,2|0,1:2|1:2,2:0:0:0:
17,148,74275,2,0,L|114:164,1,77,8|2,2:0|2:0,2:0:0:0:
228,192,74591,6,0,P|184:211|196:316,1,154,6|10,1:2|2:0,2:0:0:0:
257,384,75064,2,0,P|282:355|333:347,1,77,2|0,2:0|1:2,2:0:0:0:
406,281,75380,2,0,P|381:252|330:244,1,77,2|8,1:2|2:0,2:0:0:0:
228,192,75696,6,0,P|212:119|293:53,1,154,6|8,1:2|2:0,2:0:0:0:
270,60,76091,1,8,2:0:0:0:
281,58,76170,2,0,L|376:74,1,77,10|8,2:0|2:0,2:0:0:0:
457,30,76485,1,8,2:0:0:0:
509,124,76643,1,10,2:0:0:0:
413,174,76801,2,0,L|441:231,3,38.5,10|8|8|8,2:0|2:0|2:0|2:0,2:0:0:0:
440,256,77117,6,0,P|408:271|374:269,1,70,6|2,1:2|2:0,2:0:0:0:
298,217,77433,1,10,2:0:0:0:
228,276,77591,2,0,P|231:312|234:361,1,70,2|0,2:0|1:2,2:0:0:0:
143,359,77906,2,0,P|108:362|73:356,1,70,2|8,1:2|2:0,2:0:0:0:
3,297,78222,1,2,2:0:0:0:
53,221,78380,6,0,P|47:153|42:80,2,140,2|8|2,1:2|2:0|1:2,2:0:0:0:
146,238,79170,1,2,1:2:0:0:
146,238,79328,2,0,P|178:250|213:253,1,70,10|0,2:0|2:0,2:0:0:0:
272,183,79643,6,0,P|306:176|339:184,1,70,6|2,1:2|2:0,2:0:0:0:
405,247,79959,1,10,2:0:0:0:
464,178,80117,2,0,P|465:144|466:97,1,70,2|0,2:0|1:2,2:0:0:0:
428,19,80433,2,0,P|393:14|358:20,1,70,2|8,1:2|2:0,2:0:0:0:
298,89,80749,1,2,2:0:0:0:
213,49,80906,6,0,B|146:57|146:57|142:62|142:62|71:68,1,140,0|8,1:2|2:0,2:0:0:0:
1,119,81380,2,0,P|6:157|11:199,1,70,2|0,2:0|1:2,2:0:0:0:
63,262,81696,2,0,P|98:270|132:264,1,70,2|10,1:2|2:0,2:0:0:0:
221,247,82012,1,2,2:0:0:0:
289,306,82170,6,0,B|359:282|354:339|423:319,1,140,6|10,1:2|2:0,2:0:0:0:
494,260,82643,2,0,P|491:225|489:187,1,70,2|0,2:0|1:2,2:0:0:0:
444,110,82959,2,0,P|443:75|441:40,1,70,2|8,1:2|2:0,2:0:0:0:
350,14,83275,1,2,2:0:0:0:
276,67,83433,2,0,B|219:64|219:64|196:79|196:79|140:75,2,140,0|10|2,1:2|2:0|1:2,2:0:0:0:
317,154,84222,1,0,1:2:0:0:
317,154,84380,2,0,P|351:162|385:154,1,70,10|0,2:0|2:0,2:0:0:0:
453,94,84696,6,0,B|474:137|474:137|467:229,2,140,6|8|0,1:2|2:0|1:2,2:0:0:0:
396,29,85485,1,2,1:2:0:0:
396,29,85643,1,10,2:0:0:0:
315,66,85801,1,10,2:0:0:0:
315,66,85959,6,0,P|280:72|242:65,1,70,6|0,1:2|1:2,2:0:0:0:
165,23,86275,1,8,2:0:0:0:
92,74,86433,1,8,2:0:0:0:
92,74,86512,1,8,2:0:0:0:
92,74,86591,2,0,P|86:109|94:143,1,70,8|8,2:3|1:3,2:0:0:0:
154,211,86906,1,4,1:3:0:0:
81,267,87064,1,2,1:2:0:0:
81,267,87143,1,0,1:2:0:0:
81,267,87222,6,0,P|86:318|170:337,1,126,6|10,1:2|2:0,2:0:0:0:
218,301,87696,1,2,2:0:0:0:
285,346,87854,2,0,P|316:336|346:329,1,63.0000000000001,2|0,1:2|1:2,2:0:0:0:
389,258,88170,2,0,P|358:248|328:241,1,63.0000000000001,2|10,1:2|2:0,2:0:0:0:
270,182,88485,6,0,P|304:133|301:59,1,126,2|10,1:2|2:0,2:0:0:0:
361,9,88959,2,0,P|415:1|441:70,1,126,2|2,2:0|1:2,2:0:0:0:
393,121,89433,1,8,2:0:0:0:
463,163,89591,1,10,2:0:0:0:
467,171,89670,1,8,2:0:0:0:
471,179,89749,6,0,B|475:231|475:231|481:237|481:237|488:318,1,126,6|8,1:2|2:0,2:0:0:0:
419,348,90222,1,0,2:0:0:0:
419,348,90380,1,2,1:2:0:0:
360,290,90538,2,0,P|298:285|241:343,1,126,0|8,2:0|2:0,2:0:0:0:
92,370,91170,1,0,1:2:0:0:
34,312,91328,2,0,L|55:166,1,126,8|2,2:0|1:2,2:0:0:0:
122,145,91801,1,2,1:2:0:0:
90,69,91959,2,0,L|9:55,1,63.0000000000001,10|2,2:0|2:0,2:0:0:0:
144,8,92275,6,0,L|223:25,1,63.0000000000001,6|0,1:2|2:0,2:0:0:0:
267,75,92591,2,0,L|346:92,1,63.0000000000001,10|0,2:0|2:0,2:0:0:0:
408,70,92906,2,0,P|413:100|400:129,1,63.0000000000001,2|0,1:2|1:2,2:0:0:0:
457,189,93222,2,0,P|432:208|402:212,1,63.0000000000001,2|8,2:0|2:0,2:0:0:0:
326,178,93538,6,0,P|295:181|271:201,1,63.0000000000001,2|0,2:0|1:2,2:0:0:0:
197,165,93854,2,0,P|184:193|189:224,1,63.0000000000001,10|0,2:0|2:0,2:0:0:0:
222,300,94170,2,0,L|295:322,1,63.0000000000001,2|0,1:2|1:2,2:0:0:0:
361,340,94485,1,10,2:0:0:0:
374,343,94801,6,0,P|431:343|464:273,1,126,6|8,1:2|2:0,2:0:0:0:
430,214,95275,1,10,2:0:0:0:
436,206,95354,1,8,2:0:0:0:
442,199,95433,2,0,L|424:47,1,126,6|8,1:2|2:0,2:0:0:0:
358,29,95906,1,0,1:2:0:0:
352,36,95985,1,0,1:2:0:0:
347,44,96064,6,0,L|352:120,1,63.0000000000001,4|8,2:0|2:0,2:0:0:0:
278,145,96380,2,0,L|272:76,1,63.0000000000001,8|8,2:0|2:0,2:0:0:0:
208,30,96696,1,0,1:2:0:0:
148,86,96854,1,8,2:0:0:0:
143,94,96933,1,8,2:0:0:0:
138,102,97012,2,8,L|96:93,3,31.5,8|8|10|8,2:0|2:0|2:0|2:0,2:0:0:0:
68,110,97328,6,0,B|46:155|46:155|73:254,1,126,6|10,1:2|2:0,2:0:0:0:
122,288,97801,1,0,2:0:0:0:
180,231,97959,2,0,P|210:225|241:232,1,63.0000000000001,2|0,1:2|1:2,2:0:0:0:
301,288,98275,2,0,P|331:294|362:289,1,63.0000000000001,10|0,2:0|2:0,2:0:0:0:
423,234,98591,6,0,P|446:176|431:116,1,126,2|10,1:2|2:0,2:0:0:0:
383,50,99064,2,0,B|356:30|324:22|324:22|291:31|269:46,1,126,2|2,2:0|1:2,2:0:0:0:
218,112,99538,1,10,2:0:0:0:
286,174,99696,1,2,2:0:0:0:
286,174,99775,1,0,2:0:0:0:
286,174,99854,6,0,B|262:231|311:241|286:296,1,126,4|8,1:2|2:0,2:0:0:0:
236,362,100328,1,2,2:0:0:0:
236,362,100485,1,2,1:2:0:0:
204,286,100643,2,0,P|172:235|104:216,1,126,2|0,1:2|2:0,2:0:0:0:
39,254,101117,5,0,1:2:0:0:
28,28,101433,2,0,P|24:59|21:91,1,63.0000000000001,8|2,2:0|2:0,2:0:0:0:
88,152,101749,2,0,P|118:157|149:150,1,63.0000000000001,2|2,1:2|1:2,2:0:0:0:
227,69,102064,2,0,P|197:64|166:71,1,63.0000000000001,10|2,2:0|2:0,2:0:0:0:
234,151,102380,6,0,P|264:159|295:157,1,63.0000000000001,6|0,2:0|2:0,2:0:0:0:
350,96,102696,1,10,2:0:0:0:
423,131,102854,2,0,P|427:160|436:214,1,63.0000000000001,2|0,2:0|1:2,2:0:0:0:
339,277,103170,2,0,P|345:246|354:215,1,63.0000000000001,2|8,1:2|2:0,2:0:0:0:
416,321,103485,6,0,P|366:361|299:355,1,126,2|0,2:0|2:0,2:0:0:0:
236,310,103959,1,10,2:0:0:0:
236,310,104117,2,0,P|204:308|173:311,1,63.0000000000001,2|0,2:0|1:2,2:0:0:0:
104,353,104433,1,2,1:2:0:0:
104,353,104591,2,0,P|59:356|26:356,1,63.0000000000001,8|2,2:0|1:2,2:0:0:0:
8,281,104906,6,0,P|7:212|7:143,1,126,4|10,1:2|2:0,2:0:0:0:
108,25,105538,2,0,P|143:40|161:75,1,63.0000000000001,0|0,1:2|1:2,2:0:0:0:
140,143,105854,1,8,2:0:0:0:
140,143,106012,6,0,B|185:123|241:141|213:166|267:184|318:159,1,189,4|8,1:2|2:0,2:0:0:0:
377,101,106643,1,10,2:0:0:0:
382,106,106722,1,8,2:0:0:0:
388,110,106801,2,0,P|409:135|388:224,1,126,14|10,2:0|1:3,2:0:0:0:
314,258,107275,1,4,1:3:0:0:
380,341,107433,6,0,P|423:344|465:263,1,126,6|0,1:2|1:2,2:0:0:0:
482,195,107906,1,0,1:2:0:0:
482,195,108064,2,0,P|494:154|498:114,1,63.0000000000001,8|0,2:0|2:0,2:0:0:0:
463,51,108380,1,2,2:0:0:0:
395,108,108538,2,0,B|356:123|356:123|257:86,1,126,10|8,2:0|2:0,2:0:0:0:
115,21,109170,5,2,1:2:0:0:
37,62,109328,2,0,L|50:140,1,63.0000000000001,10|0,2:0|2:0,2:0:0:0:
23,209,109643,2,0,L|36:287,1,63.0000000000001,2|8,1:2|2:0,2:0:0:0:
98,364,109959,6,0,P|121:312|198:323,1,126,6|0,1:2|1:2,2:0:0:0:
256,360,110433,1,0,1:2:0:0:
318,297,110591,2,0,P|294:271|256:248,1,63.0000000000001,8|0,2:0|2:0,2:0:0:0:
191,218,110906,1,2,1:2:0:0:
193,129,111064,2,0,B|246:115|246:115|253:108|253:108|325:90,1,126,10|8,2:0|2:0,2:0:0:0:
468,8,111696,5,0,1:2:0:0:
503,88,111854,2,0,L|494:201,2,94.5000000000001,10|10|6,2:0|1:3|1:3,2:0:0:0:
402,124,112485,6,0,L|422:248,1,126,6|0,1:2|1:0,2:0:0:0:
439,335,112959,1,2,2:0:0:0:
434,343,113038,1,0,2:0:0:0:
429,351,113117,2,0,P|395:376|305:348,1,126,2|0,1:2|1:2,2:0:0:0:
244,310,113591,1,2,2:0:0:0:
146,367,113749,6,0,B|101:342|101:342|81:345|81:345|23:315,1,126,6|2,1:2|1:2,2:0:0:0:
21,232,114222,2,0,L|97:219,1,63.0000000000001,2|0,2:0|1:2,2:0:0:0:
142,154,114538,2,0,L|218:141,1,63.0000000000001,2|4,1:2|1:2,2:0:0:0:
275,196,114854,1,2,1:2:0:0:
351,111,115012,6,0,P|360:45|297:26,1,126,6|8,1:2|2:0,2:0:0:0:
234,58,115485,1,10,2:0:0:0:
152,23,115643,2,0,L|71:32,1,63.0000000000001,10|8,2:0|2:0,2:0:0:0:
37,101,115959,2,0,L|106:126,1,63.0000000000001,8|10,2:0|2:0,2:0:0:0:
172,196,116275,6,0,P|194:238|208:284,1,94.5000000000001,14|0,2:0|2:0,2:0:0:0:
211,328,116591,2,0,L|138:353,1,63.0000000000001,10|0,2:0|1:2,2:0:0:0:
69,380,116906,2,0,L|46:308,1,63.0000000000001,10|8,2:0|2:0,2:0:0:0:
19,236,117222,1,10,2:0:0:0:
19,236,117380,1,10,2:0:0:0:
93,155,117538,6,0,B|171:128|160:197|240:162,1,154,4|0,1:2|1:2,2:0:0:0:
319,82,118012,1,0,1:2:0:0:
395,157,118170,2,0,B|416:207|416:207|383:301,1,154,8|0,2:0|3:2,2:0:0:0:
293,354,118643,6,0,P|253:355|203:351,1,77.0000000000001,10|2,2:0|1:2,2:0:0:0:
139,276,118959,1,0,1:2:0:0:
189,180,119117,2,0,P|183:139|171:75,1,77.0000000000001,2|0,1:2|1:2,2:0:0:0:
283,51,119433,2,0,P|274:89|266:144,1,77.0000000000001,10|0,2:0|1:2,2:0:0:0:
348,198,119749,1,2,2:0:0:0:
454,206,119906,1,10,2:0:0:0:
460,198,119985,1,0,2:0:0:0:
466,191,120064,6,0,P|470:107|474:20,1,154,4|0,1:2|1:2,2:0:0:0:
372,75,120538,1,0,1:2:0:0:
267,47,120696,2,0,B|213:47|213:47|174:68|174:68|117:66,1,154,8|0,2:0|3:2,2:0:0:0:
2,33,121170,1,10,2:0:0:0:
33,136,121328,6,0,P|29:170|24:217,1,77.0000000000001,2|0,1:2|2:0,2:0:0:0:
95,290,121643,2,0,P|99:328|103:366,1,77.0000000000001,2|0,1:2|1:2,2:0:0:0:
194,278,121959,1,10,2:0:0:0:
194,278,122117,2,0,P|224:253|261:248,1,77.0000000000001,0|2,2:0|3:2,2:0:0:0:
348,328,122433,1,10,2:0:0:0:
436,266,122591,6,0,B|469:223|469:223|439:112,1,154,4|2,1:2|2:0,2:0:0:0:
359,49,123064,2,0,B|269:36|283:86|209:63,1,154,2|0,1:2|2:0,2:0:0:0:
110,34,123538,1,2,3:2:0:0:
110,34,123696,6,0,P|176:65|186:139,1,154,10|8,2:0|2:0,2:0:0:0:
120,225,124170,1,2,2:0:0:0:
120,225,124328,2,0,B|167:243|167:243|218:234|218:234|278:262,1,154,2|0,1:2|2:0,2:0:0:0:
358,309,124801,1,2,2:0:0:0:
470,357,124959,1,10,2:0:0:0:
479,348,125038,1,0,2:0:0:0:
487,340,125117,6,0,P|478:251|470:162,1,154,6|0,1:2|3:2,2:0:0:0:
293,65,125749,2,0,P|355:24|424:51,1,154,8|2,2:0|2:0,2:0:0:0:
378,151,126222,1,0,1:2:0:0:
378,151,126380,6,0,P|346:175|278:165,1,77.0000000000001,8|4,2:3|1:3,2:0:0:0:
206,199,126696,1,14,2:0:0:0:
206,199,126854,2,0,P|149:198|111:207,1,77.0000000000001,2|0,2:0|1:2,2:0:0:0:
36,257,127170,1,8,2:0:0:0:
41,267,127249,1,8,2:0:0:0:
47,276,127328,2,8,L|58:312,3,38.5,8|8|10|8,2:0|2:0|2:0|2:0,2:0:0:0:
106,336,127643,6,0,B|162:331|162:331|203:353|203:353|253:346,1,154,4|8,1:2|2:0,2:0:0:0:
352,279,128117,1,0,2:0:0:0:
274,206,128275,2,0,P|258:171|267:129,1,77.0000000000001,0|0,1:2|1:2,2:0:0:0:
355,74,128591,2,0,P|371:109|362:151,1,77.0000000000001,10|2,2:0|2:0,2:0:0:0:
251,46,128906,6,0,P|187:85|171:164,1,154,2|8,1:2|2:0,2:0:0:0:
223,264,129380,1,0,2:0:0:0:
148,341,129538,2,0,P|109:345|72:335,1,77.0000000000001,0|0,1:2|1:2,2:0:0:0:
4,257,129854,1,10,2:0:0:0:
4,257,130012,1,2,2:0:0:0:
78,178,130170,6,0,B|63:125|50:73|50:73|74:84|109:73,1,154,6|10,1:2|2:0,2:0:0:0:
191,32,130643,2,0,P|227:18|266:20,1,77.0000000000001,2|0,1:2|2:0,2:0:0:0:
331,106,130959,2,0,P|295:119|256:117,1,77.0000000000001,0|10,1:2|2:0,2:0:0:0:
367,19,131275,6,0,B|411:41|411:41|435:169,1,154,6|0,1:2|1:2,2:0:0:0:
378,249,131749,2,0,P|388:283|403:338,1,77.0000000000001,8|0,2:0|2:0,2:0:0:0:
485,259,132064,2,0,P|490:220|497:175,1,77.0000000000001,2|0,1:2|1:2,2:0:0:0:
494,74,132380,2,0,P|460:45|416:40,1,77.0000000000001,8|2,2:0|2:0,2:0:0:0:
348,117,132696,6,0,B|305:107|273:143|273:143|231:151|209:123,1,154,6|10,1:2|2:0,2:0:0:0:
164,25,133170,1,2,2:0:0:0:
86,99,133328,2,0,P|90:136|95:175,1,77.0000000000001,0|2,1:2|1:2,2:0:0:0:
158,269,133643,1,8,2:0:0:0:
158,269,133801,1,2,2:0:0:0:
261,233,133959,6,0,B|306:215|352:232|334:253|379:262|408:245,1,154,0|8,1:2|2:0,2:0:0:0:
492,43,134591,2,0,P|458:23|421:18,1,77.0000000000001,2|0,1:2|1:2,2:0:0:0:
347,97,134906,2,0,P|380:116|417:121,1,77.0000000000001,8|2,2:0|2:0,2:0:0:0:
336,15,135222,6,0,P|270:49|268:123,1,154,6|10,1:2|2:0,2:0:0:0:
326,214,135696,2,0,P|282:234|231:226,1,77.0000000000001,2|0,2:0|1:2,2:0:0:0:
172,162,136012,2,0,P|133:163|100:181,1,77.0000000000001,2|8,1:2|2:0,2:0:0:0:
22,257,136328,6,0,B|47:308|47:308|141:330,1,154,6|8,1:2|2:0,2:0:0:0:
248,347,136801,1,10,2:0:0:0:
335,284,136959,1,2,1:2:0:0:
332,278,137038,1,2,2:0:0:0:
329,272,137117,2,0,P|322:246|317:227,3,38.5,10|0|0|0,2:0|2:0|1:0|1:0,2:0:0:0:
357,215,137433,2,0,P|360:189|363:166,3,38.5,10|0|8|8,2:0|2:0|2:0|2:0,2:0:0:0:
380,149,137749,6,0,P|328:109|366:32,1,140,6|8,1:2|2:0,2:0:0:0:
442,35,138222,2,0,P|467:58|472:92,1,70,2|0,2:0|1:2,2:0:0:0:
469,191,138538,2,0,P|474:225|499:248,1,70,2|8,1:2|2:0,2:0:0:0:
480,345,138854,6,0,B|421:338|421:338|399:348|399:348|316:336,1,140,2|2,1:2|1:2,2:0:0:0:
311,246,139328,1,8,2:0:0:0:
213,249,139485,2,0,P|198:288|188:330,1,70,2|0,2:0|1:2,2:0:0:0:
104,361,139801,1,2,1:2:0:0:
84,264,139959,2,0,P|74:230|61:197,1,70,10|0,2:0|2:0,2:0:0:0:
36,80,140275,6,0,P|96:63|139:138,1,140,6|8,1:2|2:0,2:0:0:0:
228,161,140749,2,0,P|241:127|247:68,1,70,2|0,2:0|1:2,2:0:0:0:
318,27,141064,2,0,P|336:56|348:89,1,70,2|8,1:2|2:0,2:0:0:0:
335,200,141380,6,0,P|300:239|326:325,1,140,2|0,1:2|1:2,2:0:0:0:
404,365,141854,1,12,2:0:0:0:
444,274,142012,2,0,L|518:293,2,70,2|2|2,2:0|1:2|1:2,2:0:0:0:
478,183,142485,2,0,P|464:132|465:104,1,70,10|0,2:0|2:0,2:0:0:0:
400,19,142801,6,0,P|330:27|261:40,1,140,6|8,1:2|2:0,2:0:0:0:
199,117,143275,2,0,P|235:124|280:135,1,70,2|0,2:0|1:2,2:0:0:0:
331,207,143591,2,0,P|295:214|250:225,1,70,2|8,1:2|2:0,2:0:0:0:
205,322,143906,6,0,P|166:266|99:262,1,140,2|2,1:2|1:2,2:0:0:0:
21,201,144380,1,8,2:0:0:0:
95,137,144538,2,0,P|110:103|116:63,1,70,2|0,2:0|1:2,2:0:0:0:
211,10,144854,1,2,1:2:0:0:
278,80,145012,2,0,L|323:72,3,35,8|0|2|0,2:0|2:0|1:2|1:2,2:0:0:0:
351,43,145328,6,0,P|387:27|458:91,1,140,6|10,1:2|2:0,2:0:0:0:
472,180,145801,2,0,P|438:169|404:162,1,70,2|2,2:0|1:2,2:0:0:0:
326,222,146117,2,0,P|292:232|258:239,1,70,2|10,1:2|2:0,2:0:0:0:
111,179,146433,6,0,P|171:207|172:273,1,140,6|2,1:2|1:2,2:0:0:0:
131,364,146906,1,10,2:0:0:0:
131,364,147064,1,2,1:2:0:0:
227,383,147222,2,0,L|302:370,1,70,10|2,2:0|1:2,2:0:0:0:
392,351,147538,1,10,2:3:0:0:
409,356,147854,6,0,P|475:345|478:267,1,140,6|10,1:2|2:0,2:0:0:0:
423,206,148328,2,0,P|458:198|495:175,1,70,2|0,1:2|2:0,2:0:0:0:
454,89,148643,2,0,P|419:97|382:120,1,70,2|10,2:0|2:0,2:0:0:0:
306,197,148959,6,0,B|294:138|294:138|280:126|280:126|261:42,1,140,6|2,1:2|1:2,2:0:0:0:
183,13,149433,1,10,2:0:0:0:
105,72,149591,1,10,2:3:0:0:
109,81,149670,1,8,2:3:0:0:
113,90,149749,5,8,2:3:0:0:
155,177,149906,1,2,1:2:0:0:
76,235,150064,2,0,L|62:319,1,70,12|2,2:0|2:0,2:0:0:0:
153,346,150380,6,0,L|164:276,2,70,2|2|10,1:2|1:2|2:0,2:0:0:0:
250,361,150854,2,0,P|283:347|407:356,1,140,6|2,1:2|1:2,2:0:0:0:
472,301,151328,1,10,2:0:0:0:
395,240,151485,6,0,L|407:91,1,140,6|10,1:2|2:0,2:0:0:0:
335,31,151959,1,10,2:0:0:0:
270,105,152117,2,0,L|278:168,2,35,2|0|0,1:2|1:2|1:2,2:0:0:0:
186,51,152433,2,0,L|190:16,2,35,2|0|2,1:2|1:2|1:2,2:0:0:0:
104,105,152749,1,2,1:2:0:0:
93,102,152828,1,0,1:2:0:0:
83,99,152906,6,0,P|29:124|36:212,1,140,6|8,1:2|2:0,2:0:0:0:
87,273,153380,1,2,2:0:0:0:
87,273,153538,1,2,1:2:0:0:
173,226,153696,2,0,P|205:235|252:242,1,70,2|10,1:2|2:0,2:0:0:0:
348,195,154012,6,0,B|320:237|320:237|346:333,1,140,14|2,2:0|1:2,2:0:0:0:
422,380,154485,2,0,L|438:306,1,70,10|10,2:0|2:3,2:0:0:0:
507,243,154801,2,0,L|485:156,1,70,10|2,2:0|1:2,2:0:0:0:
510,81,155117,1,10,2:3:0:0:
510,81,155275,1,6,1:3:0:0:
404,25,155433,6,0,B|338:33|352:83|272:91,1,140,14|8,2:0|2:0,2:0:0:0:
196,43,155906,1,2,2:0:0:0:
118,102,156064,2,0,L|95:20,1,70,10|0,2:0|1:2,2:0:0:0:
4,62,156380,2,0,L|22:129,1,70,8|2,2:0|1:2,2:0:0:0:
18,249,156696,6,0,P|66:200|143:224,1,140,14|8,2:0|2:0,2:0:0:0:
219,254,157170,1,2,1:2:0:0:
300,200,157328,2,0,P|308:165|310:130,1,70,10|0,2:0|1:2,2:0:0:0:
405,200,157643,2,0,P|406:234|414:269,1,70,8|2,2:0|1:2,2:0:0:0:
504,347,157959,6,0,B|447:348|447:348|432:357|432:357|347:361,1,140,14|8,2:0|2:0,2:0:0:0:
284,305,158433,1,2,2:0:0:0:
205,363,158591,2,0,L|108:350,1,70,10|0,2:0|1:2,2:0:0:0:
125,351,158828,1,0,1:2:0:0:
114,348,158906,2,0,P|94:312|98:279,1,70,8|0,2:0|1:2,2:0:0:0:
151,202,159222,6,0,P|151:167|133:138,1,70,12|8,2:0|2:0,2:0:0:0:
70,62,159538,2,0,L|154:46,1,70,8|8,2:0|2:0,2:0:0:0:
228,8,159854,2,0,L|310:28,1,70,8|8,2:0|2:0,2:0:0:0:
367,100,160170,1,8,2:0:0:0:
367,100,160328,1,8,2:0:0:0:
290,160,160485,5,14,2:0:0:0:
256,192,160564,12,2,163012,2:0:0:0:
0,27,172328,5,0,1:2:0:0:
0,27,172485,1,10,2:3:0:0:
74,90,172643,1,4,2:3:0:0:
74,90,172801,1,6,2:3:0:0:
267,52,173117,6,0,B|324:37|319:80|375:61,1,112,4|8,1:2|2:1,2:0:0:0:
503,171,173749,2,0,P|466:177|431:182,1,56,8|2,2:1|2:0,2:0:0:0:
389,239,174064,2,0,P|354:237|309:235,1,56,10|2,2:1|1:2,2:0:0:0:
249,220,174380,6,0,B|202:222|202:222|179:238|179:238|142:238,1,112,0|8,1:2|2:1,2:0:0:0:
53,95,175012,2,0,P|88:87|130:79,1,56,8|2,2:1|2:0,2:0:0:0:
190,97,175328,2,0,P|226:96|260:93,1,56,10|2,2:1|1:2,2:0:0:0:
320,33,175643,6,0,P|373:46|403:91,1,112,2|10,1:2|2:1,2:0:0:0:
381,173,176117,2,0,P|390:227|398:283,1,112,2|0,2:0|1:2,2:0:0:0:
330,332,176591,1,10,2:1:0:0:
330,332,176749,6,0,B|257:360|257:360|206:339,1,112,2|0,1:2|2:0,2:0:0:0:
148,314,177222,2,0,P|135:278|136:236,1,56,8|0,2:1|2:0,2:0:0:0:
167,185,177538,1,10,2:1:0:0:
167,185,177696,2,0,P|165:150|155:124,1,56,0|8,1:2|2:1,2:0:0:0:
106,70,178012,1,2,2:0:0:0:
106,70,178170,6,0,P|61:95|47:163,1,112,6|10,1:2|2:1,2:0:0:0:
15,229,178643,2,0,P|20:285|27:346,1,112,2|0,2:0|2:0,2:0:0:0:
107,364,179117,2,0,P|141:361|182:360,1,56,10|2,2:1|1:2,2:0:0:0:
235,317,179433,6,0,P|271:319|309:323,1,56,0|0,1:2|2:0,2:0:0:0:
369,352,179749,2,0,P|406:347|442:341,1,56,8|0,2:1|2:0,2:0:0:0:
498,304,180064,2,0,P|495:265|491:226,1,56,10|0,2:1|1:2,2:0:0:0:
479,169,180380,1,8,2:1:0:0:
479,169,180538,1,2,2:0:0:0:
412,220,180696,6,0,B|349:233|359:199|301:212,1,112,6|0,1:2|1:2,2:0:0:0:
221,186,181170,1,0,1:2:0:0:
221,186,181328,2,0,P|216:147|210:109,1,56,0|0,1:2|1:2,2:0:0:0:
247,55,181643,1,0,1:2:0:0:
322,18,181801,1,2,1:2:0:0:
322,18,181959,6,0,P|361:5|412:27,1,84,2|0,2:0|2:0,2:0:0:0:
414,60,182275,2,0,P|413:101|412:143,1,84,2|0,2:0|2:0,2:0:0:0:
390,180,182591,2,0,P|394:235|398:284,1,84,2|0,2:0|2:0,2:0:0:0:
372,298,182906,2,0,P|332:285|293:298,1,84,2|0,2:0|2:0,2:0:0:0:
260,350,183222,6,0,B|202:340|202:340|169:361|169:361|96:351,1,154,6|0,1:2|1:2,2:0:0:0:
4,379,183696,1,0,1:2:0:0:
6,272,183854,2,0,P|23:227|119:237,1,154,8|0,2:0|3:2,2:0:0:0:
223,235,184328,1,10,2:0:0:0:
246,130,184485,6,0,L|154:105,1,77,2|0,1:2|1:2,2:0:0:0:
326,111,184801,2,0,L|393:43,1,77,2|0,1:2|1:2,2:0:0:0:
308,193,185117,2,0,L|333:287,1,77,10|0,2:0|1:2,2:0:0:0:
301,376,185433,1,2,2:0:0:0:
408,380,185591,1,10,2:0:0:0:
415,372,185670,1,0,2:0:0:0:
421,363,185749,6,0,P|472:349|474:253,1,154,4|0,1:2|1:2,2:0:0:0:
394,193,186222,1,0,1:2:0:0:
483,132,186380,2,0,B|424:104|424:104|414:89|414:89|341:56,1,154,8|0,2:0|3:2,2:0:0:0:
255,5,186854,1,10,2:0:0:0:
173,76,187012,6,0,L|85:90,1,77,2|8,1:2|2:3,2:0:0:0:
31,174,187328,2,0,L|125:188,1,77,2|0,1:2|1:2,2:0:0:0:
179,265,187643,2,0,L|83:280,1,77,10|0,2:0|2:0,2:0:0:0:
41,367,187959,1,2,3:2:0:0:
41,367,188117,1,10,2:0:0:0:
175,381,188275,6,0,P|211:353|148:262,1,154,4|2,1:2|2:0,2:0:0:0:
107,185,188749,1,2,1:2:0:0:
192,120,188906,2,0,P|261:130|360:137,1,154,8|2,2:0|3:2,2:0:0:0:
432,72,189380,2,0,B|446:134|446:134|434:157|434:157|454:235,1,154,10|8,2:0|2:0,2:0:0:0:
509,309,189854,1,2,2:0:0:0:
410,352,190012,2,0,P|364:307|268:325,1,154,2|0,1:2|2:0,2:0:0:0:
190,375,190485,1,2,2:0:0:0:
131,284,190643,1,10,2:0:0:0:
225,200,190801,6,0,B|212:142|212:142|224:119|224:119|201:33,1,154,4|0,1:2|3:2,2:0:0:0:
106,9,191275,1,0,1:2:0:0:
16,69,191433,2,0,P|27:137|44:227,1,154,8|2,2:0|2:0,2:0:0:0:
3,321,191906,1,8,2:0:0:0:
8,330,191985,1,0,2:0:0:0:
11,339,192064,6,0,P|46:336|88:348,1,77,4|4,1:2|1:3,2:0:0:0:
165,273,192380,1,10,2:0:0:0:
243,347,192538,2,0,B|320:313|281:279|373:248,1,154,6|8,1:2|2:0,2:0:0:0:
444,321,193012,1,14,2:0:0:0:
496,226,193170,1,10,2:0:0:0:
499,220,193249,1,8,2:0:0:0:
502,213,193328,6,0,B|509:105|509:105|493:51,1,154,0|8,1:2|2:0,2:0:0:0:
395,22,193801,1,0,2:0:0:0:
301,74,193959,2,0,P|312:111|305:148,1,77,0|0,1:2|1:2,2:0:0:0:
202,184,194275,2,0,P|191:151|202:108,1,77,10|2,2:0|2:0,2:0:0:0:
284,254,194591,6,0,B|217:299|217:299|143:287,1,154,2|8,1:2|2:0,2:0:0:0:
40,257,195064,1,0,2:0:0:0:
64,151,195222,2,0,P|60:110|58:59,1,77,0|0,1:2|1:2,2:0:0:0:
149,13,195538,1,10,2:0:0:0:
149,13,195696,1,2,2:0:0:0:
187,112,195854,6,0,B|230:122|257:88|257:88|304:78|326:106,1,154,2|10,1:2|2:0,2:0:0:0:
392,188,196328,2,0,B|382:229|382:229|339:263,1,77,6|0,1:2|2:0,2:0:0:0:
246,253,196643,2,0,B|258:213|258:213|297:178,1,77,2|8,1:2|2:0,2:0:0:0:
290,336,196959,6,0,P|216:344|163:292,1,154,2|0,1:2|1:2,2:0:0:0:
103,202,197433,2,0,P|111:164|120:126,1,77,12|0,2:0|2:0,2:0:0:0:
183,34,197749,2,0,P|149:16|111:15,1,77,2|0,1:2|1:2,2:0:0:0:
2,66,198064,2,0,P|4:104|7:142,1,77,8|10,2:0|2:0,2:0:0:0:
103,202,198380,6,0,B|154:201|154:201|193:229|193:229|247:227,1,154,14|10,2:0|2:0,2:0:0:0:
341,172,198854,1,2,1:2:0:0:
434,226,199012,2,0,P|442:263|433:300,1,77,8|0,2:0|1:2,2:0:0:0:
352,371,199328,1,10,2:0:0:0:
352,371,199485,1,2,1:2:0:0:
263,309,199643,6,0,B|220:293|176:310|194:330|152:343|118:324,1,154,8|8,2:0|2:0,2:0:0:0:
0,104,200275,2,0,P|36:114|73:105,1,77,10|0,2:0|1:2,2:0:0:0:
138,17,200591,2,0,P|101:6|64:15,1,77,8|2,2:0|1:2,2:0:0:0:
154,99,200906,6,0,P|151:170|147:270,1,154,14|14,2:0|2:0,2:0:0:0:
194,350,201380,2,0,P|229:345|268:307,1,77,2|12,1:2|2:0,2:0:0:0:
291,215,201696,2,0,P|320:190|357:184,1,77,2|12,1:2|2:0,2:0:0:0:
458,226,202012,6,0,P|465:151|416:93,1,154,2|8,1:2|2:0,2:0:0:0:
405,91,202406,1,8,2:0:0:0:
394,92,202485,2,0,P|356:97|319:87,1,77,10|8,2:0|2:0,2:0:0:0:
233,20,202801,1,8,2:0:0:0:
167,105,202959,1,10,2:0:0:0:
94,23,203117,2,0,P|72:26|47:31,3,38.5,10|8|8|8,2:0|2:0|2:0|2:0,2:0:0:0:
21,65,203433,6,0,L|34:138,1,70,6|2,1:2|2:0,2:0:0:0:
3,228,203749,1,10,2:0:0:0:
79,286,203906,2,0,P|104:261|137:252,1,70,2|0,2:0|1:2,2:0:0:0:
206,181,204222,2,0,P|240:186|267:207,1,70,2|8,2:0|2:0,2:0:0:0:
364,225,204538,1,2,2:0:0:0:
343,332,204696,6,0,B|275:341|275:341|270:346|270:346|196:356,1,140,2|8,1:2|2:0,2:0:0:0:
109,375,205170,2,0,L|23:362,1,70,2|2,2:0|1:2,2:0:0:0:
10,271,205485,2,0,L|155:242,1,140,2|0,2:0|2:0,2:0:0:0:
198,158,205959,6,0,L|107:141,1,70,6|2,1:2|2:0,2:0:0:0:
36,180,206275,1,10,2:0:0:0:
4,87,206433,2,0,P|0:53|29:16,1,70,2|0,2:0|1:2,2:0:0:0:
116,20,206749,2,0,L|189:34,1,70,2|8,2:0|2:0,2:0:0:0:
262,93,207064,1,2,2:0:0:0:
327,20,207222,6,0,P|381:57|364:121,1,140,2|8,1:2|2:0,2:0:0:0:
262,93,207696,1,2,2:0:0:0:
203,171,207854,2,0,L|219:253,1,70,2|2,1:2|2:0,2:0:0:0:
301,289,208170,2,0,L|326:206,1,70,10|2,2:0|2:0,2:0:0:0:
363,121,208485,6,0,P|430:132|455:194,1,140,2|8,1:2|2:0,2:0:0:0:
510,276,208959,1,2,2:0:0:0:
437,342,209117,2,0,B|371:329|386:398|287:374,1,140,2|8,1:2|2:0,2:0:0:0:
223,325,209591,1,2,2:0:0:0:
125,379,209749,6,0,B|85:354|85:354|119:240,1,140,6|8,1:2|2:0,2:0:0:0:
44,193,210222,1,2,2:0:0:0:
68,97,210380,2,0,P|92:58|198:74,1,140,2|8,1:2|2:0,2:0:0:0:
261,109,210854,1,2,2:0:0:0:
349,31,211012,6,0,B|365:95|365:95|357:106|357:106|371:176,1,140,2|8,1:2|2:0,2:0:0:0:
290,224,211485,1,10,2:3:0:0:
289,234,211564,1,8,2:3:0:0:
288,244,211643,2,0,P|285:288|380:318,1,140,6|8,1:2|2:0,2:0:0:0:
445,378,212117,1,10,2:0:0:0:
450,373,212196,1,8,2:0:0:0:
458,367,212275,6,0,B|474:303|474:303|466:292|466:292|480:222,1,140,2|12,1:2|1:2,2:0:0:0:
507,138,212749,1,2,2:0:0:0:
453,56,212906,2,0,L|365:64,1,70,10|8,2:0|2:0,2:0:0:0:
295,17,213222,2,0,L|207:25,1,70,8|8,2:0|2:0,2:0:0:0:
170,105,213538,6,0,P|139:123|105:124,1,70,2|2,1:2|2:0,2:0:0:0:
16,82,213854,1,14,2:0:0:0:
0,178,214012,2,0,P|7:211|17:260,1,70,2|0,2:0|1:2,2:0:0:0:
90,308,214328,2,0,P|123:288|171:286,1,70,2|8,2:0|2:0,2:0:0:0:
232,341,214643,1,2,2:0:0:0:
321,290,214801,6,0,B|357:312|385:319|385:319|415:315|442:282,2,140,2|8|2,1:2|2:0|1:2,2:0:0:0:
280,210,215591,1,2,2:0:0:0:
280,210,215749,2,0,P|290:177|291:142,1,70,8|0,2:0|2:0,2:0:0:0:
232,63,216064,6,0,P|271:32|305:27,1,70,6|2,1:2|2:0,2:0:0:0:
380,66,216380,1,10,2:0:0:0:
464,15,216538,2,0,P|472:49|486:102,1,70,2|0,2:0|1:2,2:0:0:0:
439,172,216854,2,0,P|446:203|458:247,1,70,2|8,2:0|2:0,2:0:0:0:
507,323,217170,1,2,2:0:0:0:
413,355,217328,6,0,B|329:340|351:391|278:368,1,140,2|8,1:2|2:0,2:0:0:0:
196,314,217801,1,2,2:0:0:0:
247,230,217959,2,0,P|252:193|239:148,1,70,2|2,1:2|2:0,2:0:0:0:
196,75,218275,2,0,B|158:70|158:70|127:78,1,70,10|2,2:0|2:0,2:0:0:0:
40,124,218591,6,0,B|7:161|7:161|24:249,1,140,6|8,1:2|2:0,2:0:0:0:
58,341,219064,1,0,2:0:0:0:
147,302,219222,2,0,B|198:300|198:300|229:317|229:317|282:312,1,140,2|8,1:2|2:0,2:0:0:0:
365,259,219696,1,2,2:0:0:0:
421,339,219854,6,0,P|455:342|489:333,1,70,14|8,2:0|2:0,2:0:0:0:
510,236,220170,1,10,2:0:0:0:
453,155,220328,2,0,P|453:120|450:74,1,70,10|4,2:3|2:3,2:0:0:0:
377,19,220643,2,0,P|342:15|307:21,1,70,2|0,1:2|1:2,2:0:0:0:
254,103,220959,1,2,2:0:0:0:
308,184,221117,1,4,1:2:0:0:
256,192,221196,12,0,226091,2:0:0:0:
