osu file format v14

[General]
AudioFilename: audio.mp3
AudioLeadIn: 0
PreviewTime: 81898
Countdown: 0
SampleSet: Soft
StackLeniency: 0.5
Mode: 0
LetterboxInBreaks: 0
WidescreenStoryboard: 1

[Editor]
DistanceSpacing: 1.6
BeatDivisor: 4
GridSize: 4
TimelineZoom: 1.2

[Metadata]
Title:Kimi Dake wa.
TitleUnicode:きみだけは。
Artist:Amatsuki
ArtistUnicode:天月
Creator:PikAqours
Version:Hard
Source:#ハッシュタグ
Tags:ha male vocalist only you natsushiro takaaki 夏代孝明 japanese pop jap j-pop jpop それはきっと恋でした。 あまつき #hashtag edit cut ver version op opening
BeatmapID:2448146
BeatmapSetID:1173774

[Difficulty]
HPDrainRate:4
CircleSize:3.8
OverallDifficulty:6
ApproachRate:8
SliderMultiplier:1.4
SliderTickRate:1

[Events]
//Background and Video events
0,0,"background.jpg",0,0
//Break Periods
//Storyboard Layer 0 (Background)
//Storyboard Layer 1 (Fail)
//Storyboard Layer 2 (Pass)
//Storyboard Layer 3 (Foreground)
//Storyboard Layer 4 (Overlay)
//Storyboard Sound Samples

[TimingPoints]
727,342.857142857143,4,2,1,40,1,0
11698,-133.333333333334,4,2,1,40,0,0
22669,-117.647058823529,4,2,1,50,0,0
44612,-117.647058823529,4,2,1,55,0,0
66212,-117.647058823529,4,2,1,60,0,0
66555,-133.333333333333,4,2,1,60,0,0
74784,-133.333333333333,4,2,1,60,0,0
77527,-133.333333333333,4,2,1,60,0,0
80269,-117.647058823529,4,2,1,60,0,0
80784,-111.111111111111,4,2,1,64,0,0
80955,-111.111111111111,4,2,1,68,0,0
81127,-111.111111111111,4,2,1,72,0,0
81298,-111.111111111111,4,2,1,76,0,0
81984,-125,4,2,1,52,0,0
82327,-133.333333333333,4,2,1,52,0,0
83012,-100,4,2,1,80,0,1
93984,-100,4,2,1,80,0,1
115927,-199.999999999999,4,2,1,74,0,0
118669,-100,4,2,1,60,0,1
119012,-100,4,2,1,46,0,1
119184,-100,4,2,1,50,0,1
119355,-100,4,2,1,54,0,1
119527,-100,4,2,1,58,0,1
119698,-100,4,2,1,62,0,1
119869,-100,4,2,1,66,0,1
120041,-100,4,2,1,70,0,1
120212,-100,4,2,1,74,0,1
120384,-100,4,2,1,78,0,1
120555,-100,4,2,1,82,0,1
120727,-100,4,2,1,80,0,1
121069,-99.9999999999999,4,2,1,70,0,0
121412,-111.111111111111,4,2,1,70,0,0
132041,-111.111111111111,4,2,1,70,0,0
132384,-133.333333333333,4,2,1,54,0,0
139241,-111.111111111111,4,2,1,54,0,0
139584,-111.111111111111,4,2,1,48,0,0
139927,-111.111111111111,4,2,1,42,0,0
140269,-111.111111111111,4,2,1,38,0,0
140612,-111.111111111111,4,2,1,34,0,0
140955,-111.111111111111,4,2,1,30,0,0
141298,-111.111111111111,4,2,1,26,0,0
141641,-111.111111111111,4,2,1,22,0,0
141984,-111.111111111111,4,2,1,16,0,0
142327,-111.111111111111,4,2,1,12,0,0
142669,-111.111111111111,4,2,1,8,0,0
143012,-111.111111111111,4,2,1,5,0,0

[Colours]
Combo1 : 255,147,0
Combo2 : 128,64,64

[HitObjects]
4,100,11698,6,0,L|112:84,1,105.000004005432,2|2,1:2|1:2,0:0:0:0:
164,20,12212,2,0,P|192:68|180:136,1,105.000004005432,2|2,0:2|0:0,0:0:0:0:
146,187,12727,1,2,1:2:0:0:
119,355,13069,1,2,1:2:0:0:
119,355,13241,2,0,P|190:357|227:323,1,105.000004005432,2|2,0:0|0:2,0:0:0:0:
279,284,13755,2,0,L|339:296,1,52.5000020027161,2|0,1:2|0:0,0:0:0:0:
388,357,14098,2,0,L|439:346,1,52.5000020027161,2|0,1:2|0:0,0:0:0:0:
483,273,14441,6,0,P|435:245|379:249,1,105.000004005432,2|2,1:2|1:2,0:0:0:0:
320,192,14955,2,0,B|272:176|272:224|204:208,1,105.000004005432,2|2,0:2|0:0,0:0:0:0:
154,264,15469,1,2,1:2:0:0:
16,164,15812,1,2,1:2:0:0:
16,164,15984,2,0,P|24:96|68:60,1,105.000004005432,2|2,0:0|0:0,0:0:0:0:
116,22,16498,2,0,L|176:34,1,52.5000020027161,2|0,1:2|0:0,0:0:0:0:
232,86,16841,2,0,L|283:75,1,52.5000020027161,2|0,1:2|0:0,0:0:0:0:
341,14,17184,6,0,P|369:70|357:126,1,105.000004005432,2|2,1:2|1:2,0:0:0:0:
324,184,17698,2,0,B|304:224|304:224|328:304,1,105.000004005432,2|2,0:0|0:0,0:0:0:0:
373,348,18212,1,2,1:2:0:0:
209,363,18555,1,2,1:2:0:0:
209,363,18727,2,0,L|97:343,1,105.000004005432,2|2,0:0|0:0,0:0:0:0:
21,353,19241,2,0,P|29:305|45:285,1,52.5000020027161,2|0,1:2|0:0,0:0:0:0:
84,237,19584,2,0,P|93:212|93:186,1,52.5000020027161,2|0,1:2|0:0,0:0:0:0:
26,134,19927,6,0,P|58:106|134:114,1,105.000004005432,2|2,1:2|1:2,0:0:0:0:
192,152,20441,2,0,B|232:164|232:164|316:144,1,105.000004005432,2|2,0:0|0:0,0:0:0:0:
365,105,20955,1,2,1:2:0:0:
490,224,21298,1,2,1:2:0:0:
490,224,21469,2,0,L|374:244,1,105.000004005432,2|2,0:0|0:0,0:0:0:0:
316,292,21984,2,0,P|260:296|204:256,1,105.000004005432,2|2,1:2|1:2,0:0:0:0:
160,212,22498,1,2,0:2:0:0:
160,212,22669,6,0,L|140:88,1,119.000002269745,14|2,0:2|1:2,0:0:0:0:
86,22,23184,2,0,P|122:6|166:10,1,59.5000011348725,2|0,0:2|1:2,0:0:0:0:
220,48,23527,2,0,L|284:60,1,59.5000011348725,2|0,0:2|1:2,0:0:0:0:
354,10,23869,2,0,L|412:0,1,59.5000011348725,2|0,0:2|1:2,0:0:0:0:
472,65,24212,2,0,P|472:104|456:145,1,59.5000011348725,2|0,0:2|1:2,0:0:0:0:
423,201,24555,2,0,L|359:183,1,59.5000011348725,2|0,0:2|1:2,0:0:0:0:
287,130,24898,2,0,P|272:156|267:186,2,59.5000011348725,2|2|10,0:2|1:2|0:2,0:0:0:0:
362,71,25412,6,0,P|310:39|250:39,1,119.000002269745,2|0,1:2|1:2,0:0:0:0:
177,96,25927,2,0,B|140:121|140:121|50:102,1,119.000002269745,2|2,0:2|0:2,0:0:0:0:
0,174,26441,2,0,L|12:245,1,59.5000011348725,2|0,1:2|0:0,0:0:0:0:
72,305,26784,2,0,B|199:287,1,119.000002269745,2|0,1:2|1:2,0:0:0:0:
255,219,27298,1,0,0:0:0:0:
255,219,27469,2,0,P|295:219|355:283,1,119.000002269745,8|0,0:2|1:2,0:0:0:0:
425,337,27984,1,2,0:2:0:0:
425,337,28155,6,0,L|447:218,1,119.000002269745,2|2,1:2|1:2,0:0:0:0:
493,137,28669,2,0,P|455:107|380:112,1,119.000002269745,2|2,0:2|0:2,0:0:0:0:
331,188,29184,1,0,1:2:0:0:
331,188,29355,2,0,L|193:210,1,119.000002269745,2|2,0:2|0:2,0:0:0:0:
146,275,29869,1,0,1:2:0:0:
146,275,30041,2,0,P|122:247|118:203,1,59.5000011348725,2|0,0:2|1:2,0:0:0:0:
20,222,30384,2,0,P|22:185|51:151,1,59.5000011348725,2|0,0:2|1:2,0:0:0:0:
95,94,30727,1,8,0:2:0:0:
95,94,30898,6,0,B|167:70|155:130|223:106,1,119.000002269745,2|2,1:2|1:2,0:0:0:0:
289,60,31412,2,0,P|301:88|305:124,1,59.5000011348725,2|0,0:2|1:2,0:0:0:0:
390,160,31755,2,0,P|378:188|356:216,1,59.5000011348725,2|0,0:2|1:2,0:0:0:0:
317,296,32098,2,0,P|261:308|197:272,1,119.000002269745,2|2,0:2|0:2,0:0:0:0:
136,220,32612,2,0,L|120:144,1,59.5000011348725,2|0,1:2|0:0,0:0:0:0:
44,93,32955,2,0,L|20:216,1,119.000002269745,8|0,0:2|1:2,0:0:0:0:
8,308,33469,1,2,0:2:0:0:
8,308,33641,6,0,P|64:292|124:324,1,119.000002269745,2|2,1:2|1:2,0:0:0:0:
192,368,34155,2,0,L|329:348,1,119.000002269745,2|2,0:2|0:2,0:0:0:0:
407,370,34669,1,0,1:2:0:0:
407,370,34841,2,0,P|399:318|387:298,1,59.5000011348725,2|0,0:2|1:2,0:0:0:0:
329,244,35184,2,0,P|330:214|339:186,1,59.5000011348725,2|0,0:2|1:2,0:0:0:0:
405,117,35527,2,0,P|377:97|333:93,1,59.5000011348725,2|0,0:2|1:2,0:0:0:0:
269,49,35869,2,0,P|241:69|197:73,1,59.5000011348725,2|0,0:2|1:2,0:0:0:0:
140,26,36212,1,10,0:2:0:0:
140,26,36384,6,0,B|120:74|120:74|144:158,1,119.000002269745,2|2,1:2|1:2,0:0:0:0:
204,207,36898,2,0,P|168:175|80:179,1,119.000002269745,2|2,0:2|0:0,0:0:0:0:
69,260,37412,2,0,P|105:292|193:288,2,119.000002269745,2|0|0,1:2|1:2|1:2,0:0:0:0:
31,177,38269,1,0,0:0:0:0:
31,177,38441,2,0,L|51:101,1,59.5000011348725,10|2,0:2|0:0,0:0:0:0:
133,81,38784,2,0,L|148:138,1,59.5000011348725,2|0,1:2|0:0,0:0:0:0:
224,196,39127,6,0,P|296:204|352:160,1,119.000002269745,2|2,1:2|1:2,0:0:0:0:
407,120,39641,2,0,B|435:161|435:161|414:238,1,119.000002269745,2|2,0:2|0:2,0:0:0:0:
425,327,40155,1,0,1:2:0:0:
425,327,40327,2,0,L|353:311,1,59.5000011348725,2|0,0:2|1:2,0:0:0:0:
274,293,40669,2,0,L|215:302,1,59.5000011348725,2|0,0:2|1:2,0:0:0:0:
133,352,41012,2,0,P|117:316|113:276,1,59.5000011348725,2|0,0:2|1:2,0:0:0:0:
148,207,41355,2,0,P|161:180|167:151,1,59.5000011348725,2|0,0:2|1:2,0:0:0:0:
122,72,41698,1,10,0:2:0:0:
122,72,41869,6,0,P|194:64|242:92,1,119.000002269745,0|0,1:2|1:2,0:0:0:0:
381,205,42555,2,0,P|435:227|492:217,1,119.000002269745,0|0,1:2|1:2,0:0:0:0:
412,45,43241,1,0,1:2:0:0:
332,100,43412,2,0,L|264:84,2,59.5000011348725,2|2|2,0:2|1:2|0:2,0:0:0:0:
404,164,43927,2,0,L|472:148,2,59.5000011348725,10|2|2,0:2|0:2|1:2,0:0:0:0:
340,236,44441,1,2,0:2:0:0:
340,236,44612,6,0,L|220:208,1,119.000002269745,2|10,1:2|0:2,0:0:0:0:
140,164,45127,2,0,P|128:200|164:288,1,119.000002269745,2|8,0:2|0:2,0:0:0:0:
232,324,45641,2,0,B|300:312|284:356|352:344,1,119.000002269745,2|0,1:2|1:2,0:0:0:0:
436,308,46155,2,0,L|493:323,2,59.5000011348725,2|2|2,0:2|1:2|0:2,0:0:0:0:
372,236,46669,1,2,1:2:0:0:
372,236,46841,1,2,0:2:0:0:
428,159,47012,2,0,L|408:79,1,59.5000011348725,10|2,0:2|0:2,0:0:0:0:
352,27,47355,6,0,P|301:55|243:46,1,119.000002269745,2|2,1:2|1:2,0:0:0:0:
167,0,47869,2,0,B|147:40|147:40|175:132,1,119.000002269745,2|8,0:2|0:2,0:0:0:0:
240,176,48384,2,0,L|216:300,1,119.000002269745,2|0,1:2|1:2,0:0:0:0:
136,340,48898,2,0,L|68:352,2,59.5000011348725,2|2|2,0:2|1:2|0:2,0:0:0:0:
217,292,49412,1,2,1:2:0:0:
217,292,49584,1,2,0:2:0:0:
287,355,49755,2,0,L|345:343,1,59.5000011348725,10|2,0:2|0:2,0:0:0:0:
435,375,50098,6,0,P|433:307|389:259,1,119.000002269745,2|10,1:2|0:2,0:0:0:0:
341,195,50612,2,0,L|357:71,1,119.000002269745,2|8,0:2|0:2,0:0:0:0:
429,14,51127,2,0,P|397:42|313:38,1,119.000002269745,2|0,1:2|1:2,0:0:0:0:
234,54,51641,2,0,P|236:23|248:-5,2,59.5000011348725,2|2|2,0:2|1:2|0:2,0:0:0:0:
262,150,52155,1,2,1:2:0:0:
262,150,52327,1,2,0:2:0:0:
169,123,52498,2,0,L|105:140,1,59.5000011348725,10|2,0:2|0:2,0:0:0:0:
22,172,52841,6,0,P|94:180|126:232,1,119.000002269745,2|8,1:2|0:2,0:0:0:0:
161,299,53355,2,0,L|281:279,1,119.000002269745,2|8,0:2|0:2,0:0:0:0:
354,336,53869,2,0,B|374:292|374:292|354:204,1,119.000002269745,2|0,1:2|1:2,0:0:0:0:
429,158,54384,2,0,B|453:18,1,119.000002269745,2|0,0:2|0:0,0:0:0:0:
365,5,54898,1,2,1:2:0:0:
365,5,55069,1,2,0:2:0:0:
291,66,55241,2,0,L|233:52,1,59.5000011348725,10|2,0:2|0:2,0:0:0:0:
151,3,55584,6,0,P|139:59|175:135,1,119.000002269745,2|8,1:2|0:2,0:0:0:0:
218,190,56098,2,0,L|186:330,1,119.000002269745,2|8,0:2|0:2,0:0:0:0:
128,377,56612,2,0,P|196:341|252:353,1,119.000002269745,2|0,1:2|1:2,0:0:0:0:
329,326,57127,2,0,L|316:384,2,59.5000011348725,2|2|2,0:2|1:2|0:2,0:0:0:0:
323,234,57641,1,2,1:2:0:0:
323,234,57812,1,2,0:2:0:0:
410,272,57984,2,0,L|467:285,1,59.5000011348725,10|2,0:2|0:2,0:0:0:0:
508,198,58327,6,0,P|520:129|492:81,1,119.000002269745,2|8,1:2|0:2,0:0:0:0:
421,31,58841,2,0,B|369:11|365:59|289:35,1,119.000002269745,2|8,0:0|0:2,0:0:0:0:
210,24,59355,2,0,B|190:60|190:60|222:160,1,119.000002269745,2|0,1:2|1:2,0:0:0:0:
216,229,59869,2,0,P|244:225|280:193,2,59.5000011348725,2|2|2,0:2|1:2|0:2,0:0:0:0:
129,199,60384,1,2,1:2:0:0:
129,199,60555,1,2,0:2:0:0:
140,293,60727,2,0,L|125:349,1,59.5000011348725,10|2,0:2|0:2,0:0:0:0:
36,315,61069,6,0,L|15:189,1,119.000002269745,2|8,1:2|0:2,0:0:0:0:
42,105,61584,2,0,P|108:75|172:90,1,119.000002269745,2|8,0:2|0:2,0:0:0:0:
231,26,62098,2,0,B|251:66|251:66|227:158,1,119.000002269745,2|0,1:2|1:2,0:0:0:0:
150,187,62612,2,0,L|174:315,1,119.000002269745,2|0,0:2|0:0,0:0:0:0:
254,353,63127,2,0,L|316:362,1,59.5000011348725,2|0,1:2|0:0,0:0:0:0:
324,267,63469,2,0,L|262:258,1,59.5000011348725,10|0,0:2|0:0,0:0:0:0:
178,299,63812,6,0,P|150:312|98:306,2,59.5000011348725,2|0|0,1:2|0:0|1:2,0:0:0:0:
130,215,64327,2,0,L|146:143,1,59.5000011348725,0|0,0:0|1:2,0:0:0:0:
204,87,64669,2,0,L|191:28,1,59.5000011348725,8|0,0:2|1:2,0:0:0:0:
288,15,65012,1,0,0:0:0:0:
288,15,65184,2,0,P|332:39|396:43,2,89.2500017023087,8|8|8,0:2|0:2|0:2,0:0:0:0:
195,35,65869,2,0,L|151:43,2,29.7500005674362,0|8|0,1:2|0:2|0:0,0:0:0:0:
229,123,66212,2,0,L|209:215,1,89.2500017023087,8|0,0:2|0:0,0:0:0:0:
204,224,66555,6,0,P|260:200|316:216,1,105.000004005432,6|2,1:2|0:2,0:0:0:0:
371,254,67069,1,0,1:2:0:0:
438,203,67241,2,0,L|418:83,1,105.000004005432,10|2,0:2|0:2,0:0:0:0:
369,32,67755,2,0,P|341:32|301:52,1,52.5000020027161,2|0,1:2|0:2,0:0:0:0:
248,87,68098,2,0,P|220:87|180:67,1,52.5000020027161,2|0,1:2|1:2,0:0:0:0:
123,40,68441,1,2,0:2:0:0:
56,91,68612,2,0,L|80:219,1,105.000004005432,8|0,0:2|0:0,0:0:0:0:
65,284,69127,1,10,0:2:0:0:
65,284,69212,1,8,0:2:0:0:
65,284,69298,6,0,P|97:284|125:264,1,52.5000020027161,2|0,1:2|0:0,0:0:0:0:
188,234,69641,2,0,L|252:246,1,52.5000020027161,2|0,0:2|1:2,0:0:0:0:
300,301,69984,1,10,0:2:0:0:
232,350,70155,2,0,L|176:338,1,52.5000020027161,2|0,0:2|0:2,0:0:0:0:
111,290,70498,2,0,P|98:256|98:220,1,52.5000020027161,2|0,1:2|0:2,0:0:0:0:
97,155,70841,1,2,1:2:0:0:
177,178,71012,2,0,L|237:166,1,52.5000020027161,0|0,1:2|0:0,0:0:0:0:
290,110,71355,2,0,L|418:134,1,105.000004005432,8|0,0:2|0:0,0:0:0:0:
451,69,71869,1,8,0:2:0:0:
451,69,71955,1,8,0:2:0:0:
451,69,72041,6,0,P|479:121|462:183,1,105.000004005432,6|0,1:2|0:0,0:0:0:0:
443,243,72555,1,2,1:2:0:0:
377,189,72727,2,0,B|329:177|329:177|261:197,1,105.000004005432,8|2,0:2|0:2,0:0:0:0:
218,254,73241,2,0,L|94:230,1,105.000004005432,0|2,1:2|1:2,0:0:0:0:
43,278,73755,2,0,P|31:242|31:210,1,52.5000020027161,2|0,1:2|0:0,0:0:0:0:
74,155,74098,2,0,P|86:119|86:87,1,52.5000020027161,10|0,0:2|1:2,0:0:0:0:
70,21,74441,1,2,0:0:0:0:
158,50,74612,1,8,0:2:0:0:
158,50,74698,1,8,0:2:0:0:
158,50,74784,6,0,L|234:38,1,52.5000020027161,2|0,1:2|0:0,0:0:0:0:
286,6,75127,2,0,L|342:14,1,52.5000020027161,2|0,0:2|1:2,0:0:0:0:
402,66,75469,1,10,0:2:0:0:
356,136,75641,2,0,L|368:204,1,52.5000020027161,2|0,0:2|0:2,0:0:0:0:
401,263,75984,2,0,P|329:263|297:231,1,105.000004005432,2|0,1:2|1:2,0:0:0:0:
225,218,76498,2,0,L|169:234,1,52.5000020027161,2|0,1:2|0:0,0:0:0:0:
113,290,76841,2,0,P|97:258|89:218,1,52.5000020027161,10|0,0:2|1:2,0:0:0:0:
90,157,77184,1,2,0:2:0:0:
20,198,77355,1,8,0:2:0:0:
20,198,77441,1,8,0:2:0:0:
20,198,77527,6,0,P|8:142|44:86,1,105.000004005432,6|0,1:2|0:0,0:0:0:0:
95,50,78041,1,0,1:2:0:0:
166,94,78212,2,0,L|234:78,1,52.5000020027161,8|0,0:2|0:0,0:0:0:0:
290,39,78555,2,0,L|341:51,1,52.5000020027161,0|0,0:2|1:2,0:0:0:0:
409,109,78898,1,0,0:2:0:0:
409,109,79069,1,0,1:2:0:0:
366,181,79241,2,0,L|306:197,1,52.5000020027161,0|0,1:2|0:0,0:0:0:0:
235,166,79584,1,8,0:2:0:0:
186,234,79755,2,0,L|206:298,1,52.5000020027161,2|2,1:2|0:2,0:0:0:0:
190,373,80098,1,10,0:2:0:0:
190,373,80184,1,8,0:2:0:0:
190,373,80269,6,0,P|227:369|262:345,1,59.5000011348725,14|0,0:2|0:0,0:0:0:0:
320,299,80612,2,0,P|346:286|376:285,1,59.5000011348725,8|8,0:2|0:2,0:0:0:0:
462,337,80955,2,0,L|474:261,1,62.9999980773926,8|8,0:2|0:2,0:0:0:0:
403,200,81298,1,8,0:2:0:0:
464,120,81469,1,12,0:2:0:0:
464,120,82327,5,10,0:2:0:0:
464,120,82498,1,0,1:2:0:0:
392,52,82669,1,2,1:2:0:0:
392,52,82755,1,0,1:2:0:0:
392,52,82841,1,0,1:2:0:0:
300,115,83012,6,0,L|224:99,1,70,6|2,1:2|0:2,0:0:0:0:
153,29,83355,2,0,L|84:43,1,70,10|2,1:2|0:0,0:0:0:0:
9,117,83698,1,2,1:2:0:0:
9,117,83869,1,2,1:2:0:0:
92,181,84041,1,10,1:2:0:0:
24,256,84212,6,0,P|55:280|102:287,1,70,2|0,1:2|0:0,0:0:0:0:
185,257,84555,2,0,P|224:240|272:239,1,70,2|8,1:2|1:2,0:0:0:0:
333,302,84898,2,0,B|409:274|397:346|469:319,1,140,2|0,0:2|1:2,0:0:0:0:
498,221,85412,2,0,L|481:142,1,70,8|2,1:2|0:2,0:0:0:0:
468,48,85755,6,0,P|432:32|388:32,1,70,2|0,1:2|0:0,0:0:0:0:
315,90,86098,2,0,P|283:104|248:108,1,70,10|2,1:2|0:2,0:0:0:0:
149,87,86441,1,2,1:2:0:0:
149,87,86612,1,2,1:2:0:0:
177,188,86784,1,10,1:2:0:0:
77,156,86955,6,0,L|-3:176,1,70,2|0,1:2|0:0,0:0:0:0:
61,264,87298,2,0,L|128:280,1,70,2|8,1:2|1:2,0:0:0:0:
204,353,87641,2,0,B|264:341|264:341|300:357|300:357|356:345,1,140,2|0,0:2|1:2,0:0:0:0:
440,374,88155,2,0,P|439:327|422:293,1,70,8|0,1:2|0:0,0:0:0:0:
340,238,88498,6,0,L|266:252,1,70,6|2,1:2|0:2,0:0:0:0:
205,333,88841,2,0,L|136:319,1,70,10|2,1:2|0:2,0:0:0:0:
58,256,89184,1,0,1:2:0:0:
58,256,89355,1,2,1:2:0:0:
145,196,89527,1,8,1:2:0:0:
68,124,89698,6,0,L|85:52,1,70,2|0,1:2|0:0,0:0:0:0:
173,0,90041,2,0,L|189:68,1,70,2|10,1:2|1:2,0:0:0:0:
254,150,90384,2,0,P|290:150|324:135,1,70,2|0,0:2|1:2,0:0:0:0:
381,50,90727,2,0,P|417:50|451:65,1,70,2|8,1:2|1:2,0:0:0:0:
498,154,91069,1,2,0:2:0:0:
393,142,91241,6,0,L|409:221,1,70,0|0,1:2|0:0,0:0:0:0:
479,287,91584,2,0,L|465:355,1,70,8|0,1:2|0:0,0:0:0:0:
376,299,91927,1,2,1:2:0:0:
376,299,92098,1,0,1:2:0:0:
312,382,92269,1,8,0:2:0:0:
235,295,92441,6,0,P|207:279|155:279,1,70,14|0,0:2|0:0,0:0:0:0:
72,330,92784,2,0,L|59:262,1,70,14|2,0:2|0:2,0:0:0:0:
113,166,93127,1,8,0:2:0:0:
113,166,93212,1,8,0:2:0:0:
113,166,93298,1,10,0:2:0:0:
50,81,93469,2,0,L|6:69,5,35,8|8|8|8|10|8,1:2|0:2|0:2|0:2|0:2|0:2,0:0:0:0:
69,67,93984,6,0,L|137:51,1,70,6|2,1:2|0:2,0:0:0:0:
234,11,94327,2,0,L|302:27,1,70,10|2,1:2|0:2,0:0:0:0:
376,108,94669,1,2,1:2:0:0:
376,108,94841,1,2,1:2:0:0:
467,58,95012,1,10,1:2:0:0:
499,156,95184,6,0,L|482:223,1,70,2|0,1:2|0:0,0:0:0:0:
402,292,95527,2,0,L|385:224,1,70,2|8,1:2|1:2,0:0:0:0:
294,170,95869,2,0,B|247:146|247:146|153:166,1,140,2|0,0:2|1:2,0:0:0:0:
91,244,96384,2,0,P|91:284|105:318,1,70,8|2,1:2|0:2,0:0:0:0:
179,382,96727,5,2,1:2:0:0:
262,318,96898,2,0,L|358:334,1,70,2|10,0:2|1:2,0:0:0:0:
415,384,97241,2,0,P|428:348|425:306,1,70,2|2,0:2|1:2,0:0:0:0:
366,230,97584,2,0,P|353:194|356:152,2,70,2|10|2,1:2|1:2|1:2,0:0:0:0:
455,174,98098,5,2,0:2:0:0:
402,83,98269,2,0,L|325:67,1,70,2|8,1:2|1:2,0:0:0:0:
257,142,98612,1,2,0:2:0:0:
190,60,98784,2,0,L|122:79,1,70,2|0,1:2|1:2,0:0:0:0:
42,146,99127,2,0,P|41:180|52:214,1,70,8|0,1:2|0:0,0:0:0:0:
87,319,99469,5,6,1:2:0:0:
176,262,99641,2,0,L|256:283,1,70,2|8,0:2|1:2,0:0:0:0:
313,358,99984,1,2,0:2:0:0:
378,276,100155,2,0,L|364:200,2,70,2|2|10,1:2|1:2|1:2,0:0:0:0:
450,352,100669,6,0,P|472:312|478:261,1,70,2|0,1:2|0:0,0:0:0:0:
457,185,101012,2,0,P|440:145|434:94,1,70,2|8,1:2|1:2,0:0:0:0:
404,18,101355,2,0,L|315:37,1,70,2|0,0:2|1:2,0:0:0:0:
272,117,101698,2,0,L|203:102,1,70,2|8,1:2|1:2,0:0:0:0:
125,32,102041,1,2,0:2:0:0:
53,108,102212,6,0,L|81:253,1,140,0|8,1:2|1:2,0:0:0:0:
255,370,102898,1,2,1:2:0:0:
255,370,103069,1,0,1:2:0:0:
195,283,103241,1,8,1:2:0:0:
118,364,103412,6,0,L|99:291,1,70,14|0,0:2|0:0,0:0:0:0:
5,236,103755,2,0,L|24:163,1,70,14|2,0:2|0:2,0:0:0:0:
105,92,104098,1,12,0:2:0:0:
105,92,104184,1,8,0:2:0:0:
105,92,104269,1,6,1:2:0:0:
192,150,104441,2,0,L|236:142,5,35,8|8|8|8|10|8,0:2|0:2|0:2|0:2|0:2|0:2,0:0:0:0:
244,117,104955,6,0,L|327:131,1,70,6|2,1:2|0:2,0:0:0:0:
327,24,105298,2,0,L|396:12,1,70,10|2,1:2|0:2,0:0:0:0:
487,72,105640,1,2,1:2:0:0:
487,72,105812,1,2,0:2:0:0:
405,138,105983,1,10,1:2:0:0:
477,214,106155,6,0,L|460:281,1,70,2|0,0:2|1:2,0:0:0:0:
380,351,106498,2,0,L|363:283,1,70,2|8,0:2|1:2,0:0:0:0:
286,210,106841,2,0,B|202:174|222:250|138:210,1,140,2|2,0:2|0:2,0:0:0:0:
62,162,107355,1,10,1:2:0:0:
4,250,107527,2,0,L|27:339,1,70,2|0,0:2|1:2,0:0:0:0:
125,303,107869,2,0,L|106:378,2,70,2|10|2,0:2|1:2|0:2,0:0:0:0:
188,218,108384,2,0,L|163:115,2,105,2|2|2,1:2|0:2|0:2,0:0:0:0:
269,283,109069,6,0,P|305:275|345:239,1,70,0|0,1:2|0:0,0:0:0:0:
416,319,109412,2,0,P|436:287|439:234,1,70,8|0,1:2|0:0,0:0:0:0:
492,165,109755,1,0,1:2:0:0:
492,165,109927,1,0,0:0:0:0:
414,94,110098,2,0,L|341:112,1,70,8|2,1:2|0:2,0:0:0:0:
268,192,110441,6,0,L|172:172,1,70,6|2,1:2|0:2,0:0:0:0:
127,100,110784,1,10,1:2:0:0:
40,159,110955,2,0,P|27:122|26:67,1,70,2|0,0:2|1:2,0:0:0:0:
84,5,111298,1,2,0:2:0:0:
84,5,111469,1,10,1:2:0:0:
187,19,111640,6,0,L|256:37,1,70,2|0,0:2|1:2,0:0:0:0:
323,117,111984,2,0,L|390:99,1,70,2|8,0:2|1:2,0:0:0:0:
472,33,112327,2,0,P|489:63|494:116,1,70,2|0,0:2|1:2,0:0:0:0:
449,191,112669,2,0,P|432:221|427:274,1,70,2|10,0:2|1:2,0:0:0:0:
470,351,113012,1,2,0:2:0:0:
359,333,113184,6,0,P|284:323|227:365,1,140,14|0,1:2|1:2,0:0:0:0:
122,336,113698,2,0,B|94:296|94:296|118:180,1,140,8|0,1:2|1:2,0:0:0:0:
195,149,114212,2,0,L|272:163,1,70,8|0,1:2|1:2,0:0:0:0:
206,53,114555,6,0,B|132:30|154:101|66:75,1,140,12|0,1:2|1:2,0:0:0:0:
0,164,115069,2,0,B|26:307,1,140,8|0,1:2|1:2,0:0:0:0:
132,267,115584,2,0,L|147:192,1,70,8|2,0:2|1:2,0:0:0:0:
125,90,115927,5,6,1:2:0:0:
160,96,117298,1,6,1:2:0:0:
184,80,118498,1,2,1:2:0:0:
184,80,118584,1,0,1:2:0:0:
184,80,118669,6,0,L|271:68,1,70,10|0,0:2|0:0,0:0:0:0:
307,152,119012,2,0,L|376:161,1,70,8|8,0:2|0:2,0:0:0:0:
455,102,119355,1,8,0:2:0:0:
494,191,119527,2,0,L|476:272,1,70,10|10,0:2|0:2,0:0:0:0:
425,341,119869,1,10,0:2:0:0:
379,255,120041,1,8,0:2:0:0:
310,325,120212,1,8,0:2:0:0:
263,238,120384,6,0,P|219:233|189:245,1,70,8|8,0:2|0:2,0:0:0:0:
133,317,120727,2,0,P|98:323|65:313,1,70,8|0,0:2|1:2,0:0:0:0:
2,238,121069,2,0,L|15:143,1,70,8|0,0:2|0:0,0:0:0:0:
4,52,121412,6,0,P|56:91|129:62,1,125.999996154785,6|8,1:2|1:2,0:0:0:0:
192,16,121927,1,2,0:2:0:0:
274,73,122098,2,0,L|258:143,2,62.9999980773926,2|2|10,1:2|1:2|1:2,0:0:0:0:
368,4,122612,6,0,L|392:151,1,125.999996154785,6|2,1:2|1:2,0:0:0:0:
448,210,123127,1,10,1:2:0:0:
390,292,123298,2,0,P|421:308|476:312,2,62.9999980773926,2|2|2,0:2|1:2|1:2,0:0:0:0:
322,231,123812,2,0,L|277:243,3,31.4999990386963,10|8|10|8,1:2|1:2|1:2|1:2,0:0:0:0:
265,262,124155,6,0,B|219:256|219:256|192:270|192:270|129:259,1,125.999996154785,6|8,1:2|1:2,0:0:0:0:
64,198,124669,1,2,0:2:0:0:
143,135,124841,2,0,L|217:128,2,62.9999980773926,2|2|10,1:2|1:2|1:2,0:0:0:0:
222,35,125355,6,0,P|254:45|300:126,1,125.999996154785,6|2,1:2|1:2,0:0:0:0:
273,217,125869,1,10,1:2:0:0:
364,259,126041,2,0,L|441:242,2,62.9999980773926,2|2|2,0:2|1:2|1:2,0:0:0:0:
293,331,126555,2,0,L|236:317,3,31.4999990386963,10|8|10|8,1:2|1:2|1:2|1:2,0:0:0:0:
225,309,126898,6,0,P|174:304|110:359,1,125.999996154785,6|8,1:2|0:2,0:0:0:0:
15,359,127412,1,2,0:2:0:0:
60,268,127584,2,0,L|43:192,2,62.9999980773926,2|2|10,1:2|1:2|0:2,0:0:0:0:
156,181,128098,6,0,P|185:149|276:145,1,125.999996154785,6|2,1:2|1:2,0:0:0:0:
347,196,128612,1,10,0:2:0:0:
434,145,128784,2,0,P|448:175|449:227,2,62.9999980773926,2|2|2,0:2|1:2|1:2,0:0:0:0:
378,73,129298,2,0,L|327:83,3,31.4999990386963,10|8|10|8,0:2|0:2|0:2|0:2,0:0:0:0:
315,92,129641,6,0,L|239:77,1,62.9999980773926,14|0,0:2|1:2,0:0:0:0:
161,37,129984,1,0,1:2:0:0:
113,132,130155,2,0,L|129:220,1,62.9999980773926,10|2,0:2|1:2,0:0:0:0:
172,282,130498,1,2,1:2:0:0:
248,207,130669,2,0,L|324:193,1,62.9999980773926,10|0,0:2|1:2,0:0:0:0:
377,278,131012,6,0,P|406:288|438:289,1,62.9999980773926,14|2,0:2|1:2,0:0:0:0:
502,211,131355,1,0,1:2:0:0:
438,124,131527,2,0,P|410:119|369:134,1,62.9999980773926,10|2,0:2|1:2,0:0:0:0:
300,193,131869,1,2,1:2:0:0:
236,106,132041,2,0,L|251:44,1,62.9999980773926,10|2,0:2|1:2,0:0:0:0:
133,0,132384,6,0,L|154:120,1,105.000004005432,6|0,1:2|1:2,0:0:0:0:
140,189,132898,1,2,0:2:0:0:
140,189,133069,2,0,P|171:188|208:169,2,52.5000020027161,0|0|2,1:2|0:0|1:2,0:0:0:0:
79,247,133584,1,2,0:2:0:0:
225,330,133927,2,0,L|173:318,2,52.5000020027161,2|0|0,0:0|1:2|0:0,0:0:0:0:
230,246,134441,2,0,L|291:235,1,52.5000020027161,2|0,1:2|0:0,0:0:0:0:
344,285,134784,2,0,L|395:294,1,52.5000020027161,2|0,1:2|0:0,0:0:0:0:
457,352,135127,6,0,P|476:307|467:246,1,105.000004005432,2|0,1:2|1:2,0:0:0:0:
420,183,135641,1,2,0:2:0:0:
465,112,135812,2,0,L|531:98,2,52.5000020027161,0|0|2,1:2|0:0|1:2,0:0:0:0:
394,64,136327,1,2,0:0:0:0:
238,126,136669,2,0,P|226:94|221:60,2,52.5000020027161,2|0|0,0:2|1:2|0:0,0:0:0:0:
315,180,137184,5,8,0:2:0:0:
227,216,137355,1,8,0:2:0:0:
296,279,137527,1,8,0:2:0:0:
213,323,137698,1,4,1:2:0:0:
256,192,137784,12,0,143355,0:0:0:0:
