osu file format v14

[General]
AudioFilename: audio.mp3
AudioLeadIn: 0
PreviewTime: 82584
Countdown: 0
SampleSet: Soft
StackLeniency: 0.7
Mode: 0
LetterboxInBreaks: 0
WidescreenStoryboard: 0

[Editor]
Bookmarks: 23442,45384,67327,81041,82241,83784,94756,105727,116699,120813,121499,121841,122184,133156,138470,144127
DistanceSpacing: 0.6
BeatDivisor: 4
GridSize: 4
TimelineZoom: 1

[Metadata]
Title:Kimi Dake wa.
TitleUnicode:きみだけは。
Artist:Amatsuki
ArtistUnicode:天月
Creator:AirinCat
Version:Love
Source:#ハッシュタグ
Tags:only you natsushiro takaaki spoes serizawa haruki jack j_a_c_k japanese pop jap j-pop それはきっと恋でした。 夏代孝明 あまつき
BeatmapID:1921160
BeatmapSetID:919884

[Difficulty]
HPDrainRate:5
CircleSize:4
OverallDifficulty:8.6
ApproachRate:9
SliderMultiplier:1.6
SliderTickRate:1

[Events]
//Background and Video events
0,0,"bg resize.jpg",0,0
//Break Periods
//Storyboard Layer 0 (Background)
//Storyboard Layer 1 (Fail)
//Storyboard Layer 2 (Pass)
//Storyboard Layer 3 (Foreground)
//Storyboard Sound Samples

[TimingPoints]
1499,342.857142857143,4,2,1,35,1,0
12470,-153.846153846154,4,2,1,35,0,0
23441,-125,4,2,1,50,0,0
45384,-133.333333333333,4,2,2,55,0,0
66984,-133.333333333333,4,2,1,60,0,0
67327,-133.333333333333,4,2,1,60,0,0
75556,-117.647058823529,4,2,1,60,0,0
78299,-111.111111111111,4,2,1,60,0,0
81556,-111.111111111111,4,2,1,64,0,0
81727,-111.111111111111,4,2,1,68,0,0
81899,-111.111111111111,4,2,1,72,0,0
82070,-111.111111111111,4,2,1,76,0,0
83099,-166.666666666666,4,2,1,52,0,0
83784,-90.9090909090909,4,2,1,74,0,1
94756,-90.9090909090909,4,2,1,74,0,1
116699,-166.666666666666,4,2,1,74,0,0
119441,-125,4,2,1,60,0,1
119784,-125,4,2,1,40,0,1
119956,-125,4,2,1,44,0,1
120127,-125,4,2,1,48,0,1
120299,-125,4,2,1,52,0,1
120470,-125,4,2,1,56,0,1
120641,-125,4,2,1,60,0,1
120813,-125,4,2,1,64,0,1
120984,-125,4,2,1,66,0,1
121156,-125,4,2,1,68,0,1
121327,-125,4,2,1,72,0,1
121499,-125,4,2,1,74,0,1
121841,-166.666666666667,4,2,1,60,0,0
122184,-100,4,2,1,60,0,0
132813,-166.666666666667,4,2,1,60,0,0
133156,-125,4,2,1,60,0,0
140013,-125,4,2,1,54,0,0
140356,-125,4,2,1,48,0,0
140699,-125,4,2,1,42,0,0
141041,-125,4,2,1,38,0,0
141384,-125,4,2,1,34,0,0
141727,-125,4,2,1,30,0,0
142070,-125,4,2,1,26,0,0
142413,-125,4,2,1,22,0,0
142756,-125,4,2,1,16,0,0
143099,-125,4,2,1,12,0,0
143441,-125,4,2,1,8,0,0
143784,-125,4,2,1,5,0,0

[Colours]
Combo1 : 228,213,186
Combo2 : 138,168,200

[HitObjects]
43,128,12470,6,0,P|22:176|29:232,1,103.999995239258,2|0,1:2|1:2,0:0:0:0:
82,285,12984,2,0,P|109:290|137:289,1,51.999997619629,2|0,0:2|1:2,0:0:0:0:
209,254,13327,1,2,0:0:0:0:
209,254,13499,2,0,P|260:235|314:246,1,103.999995239258,2|0,1:2|1:2,0:0:0:0:
384,290,14013,2,0,P|395:314|400:348,1,51.999997619629,2|0,0:2|1:2,0:0:0:0:
472,252,14356,1,2,0:0:0:0:
472,252,14527,2,0,P|476:226|488:203,1,51.999997619629,2|0,1:2|0:0,0:0:0:0:
422,159,14870,2,0,P|438:139|460:125,1,51.999997619629,2|0,1:2|0:0,0:0:0:0:
327,219,15213,6,0,P|275:223|226:200,1,103.999995239258,2|0,1:2|1:2,0:0:0:0:
167,155,15727,2,0,P|132:152|106:157,1,51.999997619629,2|0,0:2|1:2,0:0:0:0:
61,209,16070,1,2,0:0:0:0:
61,209,16241,2,0,P|48:249|70:315,1,103.999995239258,2|0,1:2|1:2,0:0:0:0:
129,352,16756,2,0,P|164:354|198:345,1,51.999997619629,2|0,0:2|1:2,0:0:0:0:
254,308,17099,1,2,0:0:0:0:
254,308,17270,2,0,P|270:287|279:258,1,51.999997619629,2|0,1:2|0:0,0:0:0:0:
353,285,17613,2,0,P|356:260|352:242,3,25.9999988098145,2|0|0|0,1:2|0:0|0:0|0:0,0:0:0:0:
360,311,17956,6,0,P|415:329|461:316,1,103.999995239258,2|0,1:2|1:2,0:0:0:0:
500,237,18470,2,0,P|497:198|489:177,1,51.999997619629,2|0,0:2|1:2,0:0:0:0:
443,124,18813,1,2,0:0:0:0:
443,124,18984,2,0,P|393:108|344:121,1,103.999995239258,2|0,1:2|1:2,0:0:0:0:
277,165,19499,2,0,P|245:169|215:164,1,51.999997619629,2|0,0:2|1:2,0:0:0:0:
317,239,19841,1,2,0:0:0:0:
317,239,20013,2,0,P|344:216|354:196,1,51.999997619629,2|0,1:2|0:0,0:0:0:0:
419,249,20356,2,0,P|431:217|431:190,1,51.999997619629,2|0,1:2|0:0,0:0:0:0:
300,347,20699,6,0,P|242:354|191:326,1,103.999995239258,2|0,1:2|1:2,0:0:0:0:
133,296,21213,2,0,P|107:294|80:299,1,51.999997619629,2|0,0:2|1:2,0:0:0:0:
15,269,21556,1,2,0:0:0:0:
15,269,21727,2,0,P|3:238|6:203,1,51.999997619629,2|0,1:2|0:0,0:0:0:0:
9,144,22070,1,0,1:2:0:0:
70,95,22241,2,0,P|78:59|74:35,1,51.999997619629,2|0,0:2|1:2,0:0:0:0:
149,134,22584,1,2,0:0:0:0:
149,134,22756,2,0,P|199:145|248:125,1,103.999995239258,2|2,1:2|1:2,0:0:0:0:
320,51,23270,1,2,0:0:0:0:
284,262,23441,6,0,L|287:329,1,64,14|0,1:2|0:0,0:0:0:0:
393,221,23784,1,2,1:2:0:0:
393,221,23956,2,0,L|388:152,1,64,2|0,0:0|1:2,0:0:0:0:
283,262,24299,2,0,P|252:269|221:266,1,64,2|0,0:0|1:2,0:0:0:0:
136,247,24641,2,0,P|106:238|79:220,1,64,2|0,0:0|1:2,0:0:0:0:
9,118,24984,2,0,P|40:125|71:123,1,64,2|0,0:0|1:2,0:0:0:0:
154,106,25327,2,0,P|184:97|211:80,1,64,2|0,0:0|1:2,0:0:0:0:
272,11,25670,1,2,0:0:0:0:
280,139,25841,1,2,1:2:0:0:
170,12,26013,1,10,0:0:0:0:
344,67,26184,6,0,P|372:109|361:187,1,128,2|0,1:2|1:2,0:0:0:0:
227,245,26699,2,0,P|256:232|290:232,1,64,2|0,0:0|1:2,0:0:0:0:
277,322,27041,1,2,0:0:0:0:
144,253,27213,2,0,P|147:221|164:191,1,64,2|0,1:2|0:0,0:0:0:0:
357,285,27556,6,0,P|418:300|482:257,1,128,2|0,1:2|1:2,0:0:0:0:
512,185,28070,1,0,0:0:0:0:
391,117,28241,2,0,P|395:148|401:182,1,64,10|0,1:2|0:0,0:0:0:0:
490,93,28584,1,2,1:2:0:0:
291,106,28756,5,2,0:0:0:0:
291,106,28841,1,0,0:0:0:0:
291,106,28927,2,0,B|216:102|243:148|163:144,1,128,2|2,1:2|1:2,0:0:0:0:
88,96,29441,2,0,P|75:67|73:36,1,64,2|0,0:0|1:2,0:0:0:0:
85,187,29784,2,0,P|70:214|67:246,1,64,2|0,0:0|1:2,0:0:0:0:
338,334,30127,2,0,P|321:307|294:289,1,64,2|0,0:0|1:2,0:0:0:0:
223,248,30470,2,0,P|195:233|163:230,1,64,2|0,0:0|1:2,0:0:0:0:
24,202,30813,2,0,P|55:200|84:187,1,64,2|0,0:0|1:2,0:0:0:0:
155,138,31156,2,0,P|181:121|199:94,1,64,2|0,0:0|1:2,0:0:0:0:
249,0,31499,1,10,0:0:0:0:
401,152,31670,6,0,P|457:161|517:113,1,128,2|2,1:2|1:2,0:0:0:0:
345,88,32184,2,0,P|324:112|316:143,1,64,2|0,0:0|1:2,0:0:0:0:
303,279,32527,2,0,P|294:248|274:223,1,64,2|0,0:0|1:2,0:0:0:0:
130,128,32870,2,0,P|99:120|67:124,1,64,2|0,0:0|1:2,0:0:0:0:
94,218,33213,1,2,0:0:0:0:
223,147,33384,2,0,P|278:133|329:149,1,96,2|0,1:2|0:0,0:0:0:0:
337,153,33727,2,0,P|368:157|399:149,1,64,8|0,1:2|0:0,0:0:0:0:
354,53,34070,1,0,1:2:0:0:
278,228,34241,5,2,0:0:0:0:
278,228,34327,1,0,0:0:0:0:
278,228,34413,2,0,P|290:291|285:364,1,128,6|2,1:2|1:2,0:0:0:0:
145,291,34927,2,0,P|169:270|199:259,1,64,2|0,0:0|1:2,0:0:0:0:
278,228,35270,2,0,P|309:222|340:227,1,64,2|0,0:0|1:2,0:0:0:0:
469,168,35613,2,0,P|437:168|407:157,1,64,2|0,0:0|1:2,0:0:0:0:
336,115,35956,2,0,P|308:99|287:74,1,64,2|0,0:0|1:2,0:0:0:0:
140,124,36299,2,0,P|167:108|188:83,1,64,2|0,0:0|1:2,0:0:0:0:
231,10,36641,1,2,0:0:0:0:
238,150,36813,1,2,1:2:0:0:
118,42,36984,1,10,0:0:0:0:
354,29,37156,6,0,B|426:21|400:69|473:60,1,128,2|2,1:2|1:2,0:0:0:0:
364,193,37670,2,0,P|359:161|365:130,1,64,2|0,0:0|1:2,0:0:0:0:
468,161,38013,1,2,0:0:0:0:
405,277,38184,2,0,P|352:284|284:237,1,128,2|0,1:2|1:2,0:0:0:0:
232,167,38699,1,0,0:0:0:0:
152,220,38870,2,0,P|116:225|84:216,1,64,0|0,1:2|0:0,0:0:0:0:
109,27,39213,2,0,L|114:90,1,64,10|0,1:2|0:0,0:0:0:0:
232,167,39556,2,0,L|237:103,1,64,2|0,1:2|0:0,0:0:0:0:
34,143,39899,6,0,P|1:190|10:274,1,128,2|2,1:2|1:2,0:0:0:0:
177,257,40413,2,0,P|154:236|125:224,1,64,2|0,0:0|1:2,0:0:0:0:
29,340,40756,2,0,P|58:329|90:327,1,64,2|0,0:0|1:2,0:0:0:0:
282,357,41099,2,0,P|335:370|405:336,1,128,2|2,0:0|0:0,0:0:0:0:
453,267,41613,1,0,1:2:0:0:
313,205,41784,2,0,L|327:289,1,64,2|0,0:0|1:2,0:0:0:0:
405,195,42127,2,0,L|419:110,1,64,2|0,0:0|1:2,0:0:0:0:
449,0,42470,1,10,0:0:0:0:
312,121,42641,6,0,B|232:116|274:165|172:156,1,128,0|0,1:2|1:2,0:0:0:0:
124,93,43156,2,0,L|124:18,1,64,2|0,0:2|1:2,0:0:0:0:
26,66,43499,1,2,0:0:0:0:
26,66,43670,2,0,L|25:135,1,64,2|0,1:2|0:0,0:0:0:0:
193,157,44013,1,0,1:2:0:0:
70,206,44184,5,2,0:0:0:0:
163,281,44356,1,2,1:2:0:0:
56,207,44527,1,2,0:0:0:0:
267,226,44699,1,10,1:2:0:0:
267,226,44870,1,2,0:0:0:0:
163,281,45041,1,2,1:2:0:0:
193,157,45213,1,2,0:0:0:0:
259,312,45384,6,0,P|328:291|354:233,1,120.000004577637,14|8,1:2|1:2,0:0:0:0:
367,107,45899,2,0,L|378:177,1,60.0000022888184,2|0,0:0|1:2,0:0:0:0:
433,229,46241,1,8,0:2:0:0:
478,99,46413,1,2,1:2:0:0:
478,99,46584,2,0,L|473:165,1,60.0000022888184,8|0,0:2|1:2,0:0:0:0:
433,229,46927,5,2,0:0:0:0:
267,226,47099,1,2,1:2:0:0:
434,247,47270,1,2,0:0:0:0:
336,345,47441,1,2,1:2:0:0:
349,212,47613,1,2,0:0:0:0:
335,367,47784,1,10,1:2:0:0:
347,231,47956,1,2,0:0:0:0:
238,324,48127,6,0,P|186:325|132:276,1,120.000004577637,6|8,1:2|1:2,0:0:0:0:
114,142,48641,2,0,L|107:207,1,60.0000022888184,2|0,0:0|1:2,0:0:0:0:
51,260,48984,1,8,0:2:0:0:
9,124,49156,1,2,1:2:0:0:
9,124,49327,2,0,L|21:189,1,60.0000022888184,8|0,0:2|1:2,0:0:0:0:
51,260,49670,5,2,0:0:0:0:
210,242,49841,1,2,1:2:0:0:
44,280,50013,1,2,0:0:0:0:
118,158,50184,1,2,1:2:0:0:
134,297,50356,1,2,0:0:0:0:
115,134,50527,1,10,1:2:0:0:
129,277,50699,1,2,0:0:0:0:
232,180,50870,6,0,B|268:164|268:164|312:164|312:164|345:178,1,120.000004577637,6|8,1:2|1:2,0:0:0:0:
409,279,51384,2,0,L|421:204,1,60.0000022888184,2|0,0:0|1:2,0:0:0:0:
453,138,51727,1,8,0:2:0:0:
508,278,51899,1,2,1:2:0:0:
507,277,52070,2,0,L|495:209,1,60.0000022888184,8|0,0:2|1:2,0:0:0:0:
453,138,52413,5,2,0:0:0:0:
295,174,52584,1,2,1:2:0:0:
455,121,52756,1,2,0:0:0:0:
337,16,52927,1,2,1:2:0:0:
370,142,53099,1,2,0:0:0:0:
233,88,53270,1,10,1:2:0:0:
331,37,53441,1,2,0:0:0:0:
68,133,53613,6,0,P|125:133|193:168,1,120.000004577637,6|8,1:2|1:2,0:0:0:0:
329,212,54127,2,0,P|292:216|258:235,1,60.0000022888184,2|0,0:0|1:2,0:0:0:0:
206,287,54470,1,8,0:2:0:0:
78,211,54641,1,2,1:2:0:0:
78,211,54813,2,0,P|115:215|149:234,1,60.0000022888184,8|0,0:2|1:2,0:0:0:0:
43,318,55156,2,0,P|68:301|97:293,2,60.0000022888184,2|0|0,0:0|1:2|0:0,0:0:0:0:
205,287,55670,5,2,1:2:0:0:
119,374,55841,1,2,0:0:0:0:
135,224,56013,1,10,1:2:0:0:
208,312,56184,1,2,0:0:0:0:
310,231,56356,6,0,B|374:211|368:258|434:240,1,120.000004577637,6|8,1:2|1:2,0:0:0:0:
441,108,56870,2,0,P|420:129|409:157,1,60.0000022888184,2|0,0:0|1:2,0:0:0:0:
498,174,57213,1,8,0:2:0:0:
477,33,57384,1,2,1:2:0:0:
477,33,57556,2,0,L|418:30,1,60.0000022888184,8|0,0:2|1:2,0:0:0:0:
298,29,57899,5,2,0:0:0:0:
409,156,58070,1,2,1:2:0:0:
284,39,58241,1,2,0:0:0:0:
260,178,58413,1,2,1:2:0:0:
350,96,58584,1,2,0:0:0:0:
246,188,58756,1,10,1:2:0:0:
399,172,58927,1,2,0:0:0:0:
157,63,59099,6,0,P|111:52|45:84,1,120.000004577637,6|8,1:2|1:2,0:0:0:0:
121,191,59613,2,0,P|121:161|114:132,1,60.0000022888184,2|0,0:0|1:2,0:0:0:0:
22,177,59956,1,8,0:2:0:0:
102,278,60127,1,2,1:2:0:0:
102,278,60299,2,0,L|172:270,1,60.0000022888184,8|0,0:2|1:2,0:0:0:0:
204,197,60641,5,2,0:0:0:0:
48,82,60813,1,2,1:2:0:0:
206,179,60984,1,2,0:0:0:0:
51,209,61156,1,2,1:2:0:0:
151,90,61327,1,2,0:0:0:0:
37,227,61499,1,10,1:2:0:0:
139,111,61670,1,2,0:0:0:0:
111,326,61841,6,0,P|156:346|235:312,1,120.000004577637,6|8,1:2|1:2,0:0:0:0:
268,195,62356,2,0,P|260:223|260:253,1,60.0000022888184,2|0,0:0|1:2,0:0:0:0:
312,318,62699,1,8,0:2:0:0:
376,190,62870,1,2,1:2:0:0:
376,189,63041,2,0,P|353:210|341:237,1,60.0000022888184,8|0,0:2|1:2,0:0:0:0:
472,236,63384,2,0,P|443:242|419:259,2,60.0000022888184,2|0|0,0:0|1:2|0:0,0:0:0:0:
511,135,63899,2,0,P|490:102|467:83,1,60.0000022888184,2|0,1:2|0:0,0:0:0:0:
405,34,64241,2,0,P|370:15|340:10,1,60.0000022888184,10|0,1:2|0:0,0:0:0:0:
154,95,64584,6,0,P|197:74|280:71,1,120.000004577637,6|8,1:2|1:2,0:0:0:0:
347,138,65099,1,2,0:0:0:0:
347,138,65270,1,0,1:2:0:0:
242,173,65441,1,10,0:2:0:0:
242,173,65613,1,0,1:2:0:0:
327,246,65784,1,2,0:0:0:0:
222,260,65956,6,0,L|151:253,1,60.0000022888184,8|0,1:2|0:0,0:0:0:0:
147,252,66213,1,8,0:2:0:0:
133,250,66299,1,0,1:2:0:0:
113,373,66470,1,8,0:2:0:0:
113,373,66641,2,0,L|154:368,1,30.0000011444092,0|8,1:2|0:2,0:0:0:0:
29,233,66984,5,8,1:2:0:0:
298,161,67327,6,0,P|357:151|427:182,1,120.000004577637,6|2,1:2|0:0,0:0:0:0:
489,218,67841,1,0,1:2:0:0:
414,74,68013,2,0,P|423:29|441:5,1,60.0000022888184,10|0,0:0|0:0,0:0:0:0:
499,101,68356,1,2,3:2:0:0:
304,75,68527,6,0,P|273:70|241:76,1,60.0000022888184,2|0,1:2|3:2,0:0:0:0:
114,132,68870,2,0,P|137:113|169:101,1,60.0000022888184,2|0,1:2|1:2,0:0:0:0:
228,158,69213,1,2,0:0:0:0:
80,208,69384,2,0,P|51:188|42:97,1,120.000004577637,8|0,0:0|0:0,0:0:0:0:
178,242,69899,5,2,3:2:0:0:
178,242,69984,1,0,3:2:0:0:
178,242,70070,2,0,P|174:303|174:369,1,120.000004577637,2|2,1:2|0:0,0:0:0:0:
88,358,70584,1,0,1:2:0:0:
261,293,70756,1,10,0:0:0:0:
261,293,70927,2,0,P|294:293|324:303,1,60.0000022888184,2|0,0:0|3:2,0:0:0:0:
347,165,71270,6,0,P|323:188|311:222,1,60.0000022888184,2|0,1:2|3:2,0:0:0:0:
402,349,71613,2,0,P|413:291|390:236,1,120.000004577637,2|0,1:2|0:0,0:0:0:0:
286,107,72127,2,0,P|285:48|317:0,1,120.000004577637,8|0,0:0|0:0,0:0:0:0:
201,139,72641,5,0,3:2:0:0:
201,139,72727,1,0,3:2:0:0:
201,139,72813,2,0,B|125:127|160:169|67:155,1,120.000004577637,2|0,1:2|0:0,0:0:0:0:
100,72,73327,1,2,1:2:0:0:
184,215,73499,2,0,P|195:242|193:335,1,120.000004577637,8|0,0:0|3:2,0:0:0:0:
289,193,74013,6,0,P|327:198|355:211,1,60.0000022888184,2|0,1:2|3:2,0:0:0:0:
463,275,74356,2,0,P|429:274|349:318,1,120.000004577637,2|0,1:2|0:0,0:0:0:0:
493,153,74870,2,0,P|509:124|512:94,1,60.0000022888184,10|0,0:0|1:2,0:0:0:0:
411,2,75213,2,0,L|417:62,1,60.0000022888184,2|0,0:0|3:2,0:0:0:0:
416,80,75470,1,0,3:2:0:0:
414,97,75556,6,0,P|340:70|281:96,1,136.000002593994,6|2,1:2|0:0,0:0:0:0:
222,159,76070,1,0,1:2:0:0:
343,240,76241,1,10,0:0:0:0:
343,240,76413,2,0,L|346:163,1,68.0000012969971,2|0,0:0|3:2,0:0:0:0:
214,366,76756,6,0,B|171:358|171:358|139:385|139:385|73:370,1,136.000002593994,2|0,1:2|1:2,0:0:0:0:
267,298,77270,2,0,P|292:329|301:362,1,68.0000012969971,2|0,1:2|0:0,0:0:0:0:
219,180,77613,2,0,P|226:156|255:120,1,68.0000012969971,10|0,0:0|1:2,0:0:0:0:
118,245,77956,2,0,P|79:237|52:220,1,68.0000012969971,2|0,0:0|3:2,0:0:0:0:
39,208,78213,1,0,3:2:0:0:
27,195,78299,6,0,B|6:158|6:158|7:99|52:66,1,143.999995605469,4|0,1:2|0:0,0:0:0:0:
177,23,78813,1,0,1:2:0:0:
288,139,78984,2,0,P|229:124|132:139,1,143.999995605469,8|0,0:0|3:2,0:0:0:0:
253,23,79499,1,0,1:2:0:0:
288,139,79670,6,0,P|300:174|303:221,1,71.9999978027344,0|0,3:2|1:2,0:0:0:0:
383,358,80013,2,0,P|386:313|401:277,1,71.9999978027344,0|0,1:2|0:0,0:0:0:0:
435,181,80356,1,8,0:0:0:0:
289,316,80527,1,2,1:2:0:0:
477,353,80699,1,2,0:0:0:0:
184,194,80870,5,2,3:2:0:0:
184,194,80956,1,0,3:2:0:0:
184,194,81041,2,0,B|96:202,1,71.9999978027344,8|0,1:2|0:0,0:0:0:0:
352,43,81384,1,8,0:0:0:0:
266,314,81556,1,8,0:0:0:0:
139,58,81727,1,8,0:0:0:0:
271,342,81899,1,8,0:0:0:0:
362,11,82070,1,8,0:0:0:0:
274,367,82241,5,8,0:0:0:0:
274,367,83099,5,8,0:0:0:0:
284,263,83270,1,8,0:3:0:0:
399,323,83441,2,0,L|422:322,2,23.9999992675781,8|8|8,0:0|0:3|0:3,0:0:0:0:
224,60,83784,5,14,1:2:0:0:
147,251,83956,1,2,0:0:0:0:
66,58,84127,1,10,0:0:0:0:
246,200,84299,1,2,0:0:0:0:
53,207,84470,1,2,1:2:0:0:
53,207,84641,1,2,1:2:0:0:
147,78,84813,1,8,0:0:0:0:
290,286,84984,6,0,L|288:373,1,88.000002685547,2|0,1:2|0:0,0:0:0:0:
232,95,85327,2,0,L|235:0,1,88.000002685547,2|8,1:2|0:0,0:0:0:0:
370,219,85670,2,0,P|291:187|212:220,1,176.000005371094,2|0,0:0|1:2,0:0:0:0:
64,336,86184,1,8,0:0:0:0:
105,168,86356,1,2,0:0:0:0:
251,375,86527,6,0,P|302:381|347:366,1,88.000002685547,2|0,1:2|0:0,0:0:0:0:
492,222,86870,1,10,0:0:0:0:
289,286,87041,1,2,0:0:0:0:
481,345,87213,1,2,1:2:0:0:
481,345,87384,1,2,1:2:0:0:
361,188,87556,1,10,0:0:0:0:
186,312,87727,6,0,P|142:315|100:302,1,88.000002685547,2|0,1:2|0:0,0:0:0:0:
361,188,88070,2,0,P|408:174|450:180,1,88.000002685547,2|8,1:2|0:0,0:0:0:0:
281,331,88413,2,0,B|299:232|237:267|252:161,1,176.000005371094,2|0,0:0|1:2,0:0:0:0:
267,0,88927,1,8,0:0:0:0:
362,133,89099,1,0,0:0:0:0:
67,149,89270,5,6,1:2:0:0:
169,78,89441,2,0,L|265:82,1,88.000002685547,2|10,0:0|0:0,0:0:0:0:
100,309,89784,2,0,L|2:304,1,88.000002685547,2|0,0:0|1:2,0:0:0:0:
157,160,90127,1,2,1:2:0:0:
208,358,90299,1,10,0:0:0:0:
295,166,90470,6,0,B|307:119|299:73|264:42|264:42|263:65|256:86,1,176.000005371094,2|2,1:2|1:2,0:0:0:0:
96,225,90984,1,10,0:0:0:0:
268,291,91156,2,0,P|320:292|361:275,1,88.000002685547,2|0,0:0|1:2,0:0:0:0:
512,176,91499,2,0,P|459:169|422:146,1,88.000002685547,2|8,1:2|0:0,0:0:0:0:
283,23,91841,5,2,0:0:0:0:
283,23,92013,2,0,B|251:23|226:40|226:40|177:2|104:35,1,176.000005371094,0|8,1:2|0:0,0:0:0:0:
34,93,92527,1,0,0:0:0:0:
176,284,92699,2,0,B|192:243|180:205|180:205|144:162|161:116,1,176.000005371094,2|8,1:2|0:0,0:0:0:0:
363,208,93213,6,0,P|422:211|467:154,1,132.00000402832,14|0,1:2|0:0,0:0:0:0:
471,130,93556,1,10,1:2:0:0:
292,136,93727,2,0,P|268:189|268:226,1,88.000002685547,2|8,0:0|0:0,0:0:0:0:
270,242,93984,1,8,0:0:0:0:
270,242,94070,1,10,0:0:0:0:
149,107,94241,1,8,0:0:0:0:
125,94,94327,1,8,0:0:0:0:
99,89,94413,1,8,0:0:0:0:
72,89,94499,1,8,0:0:0:0:
46,92,94584,1,8,0:3:0:0:
166,332,94756,5,14,1:2:0:0:
251,151,94927,1,2,0:0:0:0:
74,267,95099,1,10,0:0:0:0:
269,384,95270,1,2,0:0:0:0:
112,182,95441,2,0,P|68:174|25:182,1,88.000002685547,2|2,1:2|1:2,0:0:0:0:
213,49,95784,1,10,0:0:0:0:
349,206,95956,6,0,P|390:217|437:212,1,88.000002685547,2|0,1:2|0:0,0:0:0:0:
450,25,96299,2,0,P|418:53|400:95,1,88.000002685547,2|8,1:2|0:0,0:0:0:0:
329,321,96641,2,0,P|266:347|176:291,1,176.000005371094,2|0,0:0|1:2,0:0:0:0:
171,91,97156,1,8,0:0:0:0:
262,257,97327,1,2,0:0:0:0:
69,107,97499,5,2,1:2:0:0:
226,175,97670,1,2,0:0:0:0:
37,218,97841,1,10,0:0:0:0:
171,91,98013,2,0,L|266:87,1,88.000002685547,2|0,0:0|1:2,0:0:0:0:
419,85,98356,1,2,1:2:0:0:
311,187,98527,1,10,0:0:0:0:
305,8,98699,1,2,1:2:0:0:
398,243,98870,5,2,0:0:0:0:
481,153,99041,2,0,P|498:111|498:57,1,88.000002685547,2|8,1:2|0:0,0:0:0:0:
381,253,99384,1,2,0:0:0:0:
226,175,99556,2,0,B|193:162|161:170|161:170|121:226|50:205,1,176.000005371094,2|8,1:2|0:0,0:0:0:0:
79,110,100070,1,0,0:0:0:0:
168,373,100241,5,6,1:2:0:0:
62,296,100413,2,0,L|65:206,1,88.000002685547,2|8,0:0|0:0,0:0:0:0:
271,66,100756,2,0,L|266:160,1,88.000002685547,2|0,0:0|1:2,0:0:0:0:
266,313,101099,1,2,1:2:0:0:
412,229,101270,1,10,0:0:0:0:
271,66,101441,6,0,P|225:70|184:93,1,88.000002685547,2|0,1:2|0:0,0:0:0:0:
130,262,101784,2,0,P|148:220|148:172,1,88.000002685547,2|8,1:2|0:0,0:0:0:0:
35,49,102127,2,0,P|60:85|102:109,1,88.000002685547,2|0,0:0|1:2,0:0:0:0:
259,167,102470,1,2,1:2:0:0:
127,26,102641,1,10,0:0:0:0:
0,218,102813,5,2,0:0:0:0:
0,218,102984,2,0,B|25:197|63:209|63:209|98:269|155:260,1,176.000005371094,0|8,1:2|0:0,0:0:0:0:
249,265,103499,1,0,0:0:0:0:
320,92,103670,2,0,B|277:94|243:63|243:63|209:99|159:93,1,176.000005371094,2|8,1:2|0:0,0:0:0:0:
366,300,104184,6,0,P|403:246|393:177,1,132.00000402832,14|0,1:2|0:0,0:0:0:0:
384,161,104527,1,10,1:2:0:0:
249,265,104699,2,0,P|248:305|249:360,1,88.000002685547,2|8,0:0|0:0,0:0:0:0:
253,379,104956,1,8,0:0:0:0:
253,379,105041,1,10,0:0:0:0:
116,234,105213,1,8,0:0:0:0:
94,243,105299,1,8,0:0:0:0:
72,254,105384,1,8,0:0:0:0:
56,269,105470,1,8,0:0:0:0:
42,284,105556,1,8,0:3:0:0:
105,95,105727,5,6,1:2:0:0:
224,299,105899,1,2,0:0:0:0:
217,37,106070,1,10,0:0:0:0:
138,209,106241,1,2,0:0:0:0:
338,71,106413,1,2,1:2:0:0:
105,95,106584,1,2,0:0:0:0:
338,71,106756,1,10,0:0:0:0:
138,209,106927,6,0,P|89:210|49:189,1,88.000002685547,2|0,0:0|1:2,0:0:0:0:
366,162,107270,2,0,P|406:146|449:149,1,88.000002685547,2|8,0:0|0:0,0:0:0:0:
274,369,107613,2,0,L|269:274,1,88.000002685547,2|0,0:0|1:2,0:0:0:0:
251,143,107956,1,2,0:0:0:0:
146,323,108127,1,10,0:0:0:0:
426,238,108299,6,0,B|471:225|471:225|525:240,1,88.000002685547,2|0,0:0|1:2,0:0:0:0:
377,359,108641,1,2,0:0:0:0:
366,121,108813,1,10,0:0:0:0:
269,281,108984,1,2,0:0:0:0:
137,109,109156,2,0,L|48:119,1,88.000002685547,2|0,1:2|0:0,0:0:0:0:
107,232,109499,1,10,0:0:0:0:
269,81,109670,5,2,0:0:0:0:
269,81,109841,2,0,B|325:70|325:70|380:100|380:100|440:89,1,176.000005371094,0|8,1:2|0:0,0:0:0:0:
506,8,110356,1,2,0:0:0:0:
492,209,110527,1,0,1:2:0:0:
435,89,110699,1,2,0:0:0:0:
339,284,110870,2,0,L|429:283,1,88.000002685547,10|0,0:0|0:0,0:0:0:0:
233,75,111213,5,6,1:2:0:0:
228,317,111384,1,2,0:0:0:0:
233,75,111556,1,10,0:0:0:0:
88,260,111727,2,0,P|45:256|3:236,1,88.000002685547,2|0,0:0|1:2,0:0:0:0:
113,69,112070,1,2,0:0:0:0:
238,227,112241,1,10,0:0:0:0:
351,71,112413,2,0,P|398:60|442:66,1,88.000002685547,2|0,0:0|1:2,0:0:0:0:
512,250,112756,6,0,P|477:221|436:209,1,88.000002685547,2|8,0:0|0:0,0:0:0:0:
281,299,113099,2,0,P|214:307|158:253,1,132.00000402832,2|0,0:0|0:0,0:0:0:0:
152,251,113441,1,2,0:0:0:0:
179,384,113613,1,10,0:0:0:0:
324,232,113784,1,2,0:0:0:0:
88,139,113956,6,0,L|-3:147,1,88.000002685547,12|0,0:0|1:2,0:0:0:0:
89,29,114299,1,0,1:2:0:0:
237,226,114470,2,0,L|342:234,1,88.000002685547,8|0,0:0|1:2,0:0:0:0:
286,106,114813,1,0,1:2:0:0:
89,284,114984,2,0,L|-14:291,1,88.000002685547,8|0,0:0|1:2,0:0:0:0:
286,106,115327,6,0,L|391:112,1,88.000002685547,4|0,1:2|1:2,0:0:0:0:
409,236,115670,1,0,1:2:0:0:
195,153,115841,1,8,0:0:0:0:
198,61,116013,1,0,1:2:0:0:
273,0,116184,1,0,1:2:0:0:
271,217,116356,1,8,0:0:0:0:
118,106,116527,1,0,1:2:0:0:
392,95,116699,6,0,B|414:72|421:29|421:29|459:83|422:155|422:155|484:170|497:222|484:265,1,335.999989746094,6|0,1:2|0:0,0:0:0:0:
153,251,118070,6,0,B|177:241|213:244|235:275|235:275|285:284|316:233|316:233|373:267|426:224,1,287.999991210938,6|0,1:2|0:0,0:0:0:0:
365,98,119270,5,0,3:2:0:0:
365,98,119356,1,0,3:2:0:0:
365,98,119441,2,0,L|364:174,1,64,8|0,0:0|0:0,0:0:0:0:
362,333,119784,1,8,0:0:0:0:
270,234,119956,1,8,0:0:0:0:
140,277,120127,1,8,0:0:0:0:
212,77,120299,5,8,0:0:0:0:
133,296,120470,1,8,0:0:0:0:
61,63,120641,1,8,0:0:0:0:
224,348,120813,5,8,0:0:0:0:
340,51,120984,1,8,0:0:0:0:
214,368,121156,1,8,0:0:0:0:
139,5,121327,1,8,0:0:0:0:
335,376,121499,5,8,0:0:0:0:
409,205,121670,1,0,1:2:0:0:
135,301,121841,6,0,B|100:308|100:308|50:294,1,71.9999978027344,8|0,0:0|0:0,0:0:0:0:
44,285,122184,6,0,B|33:246|33:246|53:187|53:187|39:123,1,160,6|8,1:2|0:0,0:0:0:0:
155,12,122699,1,2,0:0:0:0:
155,12,122870,2,0,L|148:96,1,80,0|0,1:2|1:2,0:0:0:0:
17,40,123213,1,10,0:0:0:0:
236,46,123384,6,0,B|268:40|308:57|308:57|339:24|389:30,1,160,2|2,1:2|1:2,0:0:0:0:
481,230,123899,1,8,0:0:0:0:
373,109,124070,1,2,0:0:0:0:
332,314,124241,1,2,1:2:0:0:
395,192,124413,1,2,1:2:0:0:
450,342,124584,1,8,0:0:0:0:
419,352,124670,1,8,0:0:0:0:
387,349,124756,1,8,0:0:0:0:
355,334,124841,1,8,0:0:0:0:
332,314,124927,6,0,B|289:295|250:307|250:307|231:342|185:344,1,160,6|8,1:2|0:0,0:0:0:0:
88,223,125441,1,2,0:0:0:0:
88,223,125613,2,0,P|128:224|164:242,1,80,0|0,1:2|1:2,0:0:0:0:
97,350,125956,1,10,0:0:0:0:
56,141,126127,6,0,P|134:137|207:168,1,160,2|2,1:2|1:2,0:0:0:0:
362,285,126641,1,8,0:0:0:0:
283,128,126813,1,2,0:0:0:0:
239,336,126984,1,2,1:2:0:0:
289,219,127156,1,2,1:2:0:0:
355,369,127327,1,8,0:0:0:0:
383,372,127413,1,8,0:0:0:0:
410,365,127499,1,8,0:0:0:0:
432,348,127584,1,8,0:0:0:0:
445,323,127670,6,0,P|440:266|455:159,1,160,6|8,1:2|0:0,0:0:0:0:
343,34,128184,1,2,0:0:0:0:
343,34,128356,2,0,P|350:77|353:127,1,80,0|0,1:2|1:2,0:0:0:0:
466,70,128699,1,10,0:0:0:0:
305,212,128870,6,0,B|212:205|250:269|160:262,1,160,2|0,1:2|1:2,0:0:0:0:
58,98,129384,1,10,0:0:0:0:
168,183,129556,1,2,0:0:0:0:
196,7,129727,1,2,1:2:0:0:
139,98,129899,1,2,1:2:0:0:
299,83,130070,1,8,0:0:0:0:
315,94,130156,1,8,0:0:0:0:
329,112,130241,1,8,0:0:0:0:
336,134,130327,1,8,0:0:0:0:
338,157,130413,6,0,L|430:150,1,80,6|0,1:2|1:2,0:0:0:0:
376,37,130756,1,0,1:2:0:0:
215,221,130927,2,0,L|123:214,1,80,10|0,0:0|1:2,0:0:0:0:
216,119,131270,1,0,1:2:0:0:
338,301,131441,2,0,L|425:292,1,80,10|0,0:0|1:2,0:0:0:0:
131,334,131784,6,0,L|44:325,1,80,8|2,0:0|1:2,0:0:0:0:
135,214,132127,1,0,1:2:0:0:
240,382,132299,1,10,0:0:0:0:
338,301,132470,1,2,1:2:0:0:
338,301,132641,1,0,1:2:0:0:
271,179,132813,6,0,P|275:129|297:98,1,71.9999978027344,10|0,0:0|0:0,0:0:0:0:
296,95,133156,6,0,P|240:99|170:72,1,128,6|0,1:2|1:2,0:0:0:0:
108,35,133670,1,2,0:0:0:0:
108,35,133841,2,0,L|36:39,1,64,0|0,1:2|0:0,0:0:0:0:
0,109,134184,2,0,P|24:167|23:233,1,128,2|0,1:2|1:2,0:0:0:0:
91,295,134699,1,2,0:0:0:0:
91,294,134870,2,0,L|156:292,1,64,0|2,1:2|0:0,0:0:0:0:
252,346,135213,1,2,1:2:0:0:
252,346,135384,1,2,0:0:0:0:
302,263,135556,1,2,1:2:0:0:
391,329,135727,5,0,0:0:0:0:
391,329,135813,1,0,0:0:0:0:
391,329,135899,2,0,P|462:329|500:283,1,128,2|0,1:2|1:2,0:0:0:0:
507,210,136413,1,2,0:0:0:0:
507,210,136584,2,0,L|502:147,1,64,0|0,1:2|0:0,0:0:0:0:
447,89,136927,2,0,P|384:99|328:66,1,128,2|0,1:2|1:2,0:0:0:0:
273,14,137441,1,2,0:0:0:0:
273,14,137613,2,0,L|199:21,1,64,0|2,1:2|0:0,0:0:0:0:
165,289,137956,5,8,1:2:0:0:
241,108,138127,1,8,0:0:0:0:
158,306,138299,1,8,1:2:0:0:
89,49,138470,5,14,1:2:0:0:
256,192,138556,12,0,144127,0:0:0:0:
