osu file format v14

[General]
AudioFilename: audio.mp3
AudioLeadIn: 0
PreviewTime: 82584
Countdown: 0
SampleSet: Soft
StackLeniency: 0.7
Mode: 0
LetterboxInBreaks: 0
WidescreenStoryboard: 0

[Editor]
Bookmarks: 23442,45384,67327,81041,82241,83784,94756,105727,116699,120813,121499,121841,122184,133156,138470,144127
DistanceSpacing: 0.4
BeatDivisor: 4
GridSize: 4
TimelineZoom: 1

[Metadata]
Title:Kimi Dake wa.
TitleUnicode:きみだけは。
Artist:Amatsuki
ArtistUnicode:天月
Creator:AirinCat
Version:Insane
Source:#ハッシュタグ
Tags:only you natsushiro takaaki spoes serizawa haruki jack j_a_c_k japanese pop jap j-pop それはきっと恋でした。 夏代孝明 あまつき
BeatmapID:1924573
BeatmapSetID:919884

[Difficulty]
HPDrainRate:5
CircleSize:3.8
OverallDifficulty:8
ApproachRate:9
SliderMultiplier:1.6
SliderTickRate:1

[Events]
//Background and Video events
0,0,"bg resize.jpg",0,0
//Break Periods
//Storyboard Layer 0 (Background)
//Storyboard Layer 1 (Fail)
//Storyboard Layer 2 (Pass)
//Storyboard Layer 3 (Foreground)
//Storyboard Sound Samples

[TimingPoints]
1499,342.857142857143,4,2,1,35,1,0
12470,-153.846153846154,4,2,1,35,0,0
23441,-125,4,2,1,50,0,0
45384,-133.333333333333,4,2,2,55,0,0
66984,-133.333333333333,4,2,1,60,0,0
67327,-142.857142857143,4,2,1,60,0,0
75556,-117.647058823529,4,2,1,60,0,0
78299,-111.111111111111,4,2,1,60,0,0
81556,-111.111111111111,4,2,1,64,0,0
81727,-111.111111111111,4,2,1,68,0,0
81899,-111.111111111111,4,2,1,72,0,0
82070,-111.111111111111,4,2,1,76,0,0
83099,-166.666666666666,4,2,1,52,0,0
83784,-90.9090909090909,4,2,1,74,0,1
94756,-90.9090909090909,4,2,1,74,0,1
116699,-166.666666666666,4,2,1,74,0,0
119441,-125,4,2,1,60,0,1
119784,-125,4,2,1,40,0,1
119956,-125,4,2,1,44,0,1
120127,-125,4,2,1,48,0,1
120299,-125,4,2,1,52,0,1
120470,-125,4,2,1,56,0,1
120641,-125,4,2,1,60,0,1
120813,-125,4,2,1,64,0,1
120984,-125,4,2,1,66,0,1
121156,-125,4,2,1,68,0,1
121327,-125,4,2,1,72,0,1
121499,-125,4,2,1,74,0,1
121841,-166.666666666667,4,2,1,60,0,0
122184,-100,4,2,1,60,0,0
132813,-166.666666666667,4,2,1,60,0,0
133156,-125,4,2,1,60,0,0
140013,-125,4,2,1,54,0,0
140356,-125,4,2,1,48,0,0
140699,-125,4,2,1,42,0,0
141041,-125,4,2,1,38,0,0
141384,-125,4,2,1,34,0,0
141727,-125,4,2,1,30,0,0
142070,-125,4,2,1,26,0,0
142413,-125,4,2,1,22,0,0
142756,-125,4,2,1,16,0,0
143099,-125,4,2,1,12,0,0
143441,-125,4,2,1,8,0,0
143784,-125,4,2,1,5,0,0

[Colours]
Combo1 : 228,213,186
Combo2 : 138,168,200

[HitObjects]
66,337,12470,6,0,P|83:281|69:225,1,103.999995239258,2|0,1:2|1:2,0:0:0:0:
48,162,12984,2,0,P|39:137|36:111,1,51.999997619629,2|0,0:2|1:2,0:0:0:0:
83,48,13327,1,2,0:0:0:0:
83,48,13499,2,0,P|141:31|196:47,1,103.999995239258,2|0,1:2|1:2,0:0:0:0:
258,69,14013,2,0,P|285:76|313:75,1,51.999997619629,2|0,0:2|1:2,0:0:0:0:
230,152,14356,1,2,0:0:0:0:
230,152,14527,2,0,P|207:139|189:120,1,51.999997619629,2|0,1:2|0:0,0:0:0:0:
129,175,14870,2,0,P|115:152|109:127,1,51.999997619629,2|0,1:2|0:0,0:0:0:0:
174,243,15213,6,0,P|197:290|194:356,1,103.999995239258,2|0,1:2|1:2,0:0:0:0:
276,374,15727,2,0,P|306:376|341:368,1,51.999997619629,2|0,0:2|1:2,0:0:0:0:
387,319,16070,1,2,0:0:0:0:
387,319,16241,2,0,P|435:300|501:317,1,103.999995239258,2|0,1:2|1:2,0:0:0:0:
498,227,16756,2,0,P|487:193|488:173,1,51.999997619629,2|0,0:2|1:2,0:0:0:0:
398,172,17099,1,2,0:0:0:0:
398,172,17270,2,0,P|406:138|418:119,1,51.999997619629,2|0,1:2|0:0,0:0:0:0:
343,76,17613,2,0,L|372:53,3,25.9999988098145,2|0|0|0,1:2|0:0|0:0|0:0,0:0:0:0:
326,91,17956,6,0,P|281:112|213:94,1,103.999995239258,2|0,1:2|1:2,0:0:0:0:
157,70,18470,2,0,P|124:68|101:73,1,51.999997619629,2|0,0:2|1:2,0:0:0:0:
33,104,18813,1,2,0:0:0:0:
33,104,18984,2,0,P|7:143|11:207,1,103.999995239258,2|0,1:2|1:2,0:0:0:0:
39,271,19499,2,0,P|47:295|51:323,1,51.999997619629,2|0,0:2|1:2,0:0:0:0:
120,237,19841,1,2,0:0:0:0:
120,237,20013,2,0,P|105:215|81:196,1,51.999997619629,2|0,1:2|0:0,0:0:0:0:
133,136,20356,2,0,P|109:125|78:122,1,51.999997619629,2|0,1:2|0:0,0:0:0:0:
208,169,20699,6,0,P|256:184|306:172,1,103.999995239258,2|0,1:2|1:2,0:0:0:0:
378,141,21213,2,0,P|407:134|439:139,1,51.999997619629,2|0,0:2|1:2,0:0:0:0:
499,175,21556,1,2,0:0:0:0:
499,175,21727,2,0,P|508:141|507:119,2,51.999997619629,2|0|0,1:2|0:0|1:2,0:0:0:0:
464,250,22241,2,0,P|455:283|457:305,1,51.999997619629,2|0,0:2|1:2,0:0:0:0:
364,261,22584,1,2,0:0:0:0:
364,261,22756,2,0,P|319:244|251:265,1,103.999995239258,2|2,1:2|1:2,0:0:0:0:
174,301,23270,1,2,0:0:0:0:
126,167,23441,6,0,P|121:135|111:105,1,64,14|0,1:2|0:0,0:0:0:0:
222,14,23784,1,2,1:2:0:0:
222,14,23956,2,0,P|211:44|207:75,1,64,2|0,0:0|1:2,0:0:0:0:
216,156,24299,2,0,P|221:187|233:216,1,64,2|0,0:0|1:2,0:0:0:0:
279,282,24641,2,0,P|299:306|324:325,1,64,2|0,0:0|1:2,0:0:0:0:
466,341,24984,2,0,P|435:330|404:326,1,64,2|0,0:0|1:2,0:0:0:0:
325,325,25327,2,0,P|293:330|262:343,1,64,2|0,0:0|1:2,0:0:0:0:
178,384,25670,1,2,0:0:0:0:
154,292,25841,1,2,1:2:0:0:
263,342,26013,1,10,0:0:0:0:
73,340,26184,6,0,P|68:276|105:217,1,128,2|0,1:2|1:2,0:0:0:0:
156,154,26699,2,0,P|171:124|175:86,1,64,2|0,0:0|1:2,0:0:0:0:
115,8,27041,1,2,0:0:0:0:
35,66,27213,2,0,P|64:90|96:100,1,64,2|0,1:2|0:0,0:0:0:0:
233,26,27556,6,0,B|307:12|283:57|375:38,1,128,2|0,1:2|1:2,0:0:0:0:
455,50,28070,1,0,0:0:0:0:
381,188,28241,2,0,P|381:156|390:126,1,64,10|0,1:2|0:0,0:0:0:0:
467,220,28584,1,2,1:2:0:0:
343,276,28756,5,2,0:0:0:0:
343,276,28841,1,0,0:0:0:0:
343,276,28927,2,0,P|292:264|219:295,1,128,2|2,1:2|1:2,0:0:0:0:
161,356,29441,2,0,P|144:328|135:298,1,64,2|0,0:0|1:2,0:0:0:0:
119,219,29784,2,0,P|118:187|125:156,1,64,2|0,0:0|1:2,0:0:0:0:
284,33,30127,2,0,P|268:61|246:84,1,64,2|0,0:0|1:2,0:0:0:0:
183,130,30470,2,0,P|155:146|125:155,1,64,2|0,0:0|1:2,0:0:0:0:
4,208,30813,2,0,P|35:207|66:214,1,64,2|0,0:0|1:2,0:0:0:0:
139,245,31156,2,0,P|167:260|190:282,1,64,2|0,0:0|1:2,0:0:0:0:
257,350,31499,1,10,0:0:0:0:
328,250,31670,6,0,B|335:182|297:194|312:119,1,128,2|2,1:2|1:2,0:0:0:0:
362,56,32184,2,0,P|392:47|424:46,1,64,2|0,0:0|1:2,0:0:0:0:
311,126,32527,2,0,P|279:125|248:115,1,64,2|0,0:0|1:2,0:0:0:0:
128,183,32870,2,0,P|159:184|191:177,1,64,2|0,0:0|1:2,0:0:0:0:
153,99,33213,1,2,0:0:0:0:
63,122,33384,2,0,P|40:182|64:245,2,128,2|8|0,1:2|1:2|1:2,0:0:0:0:
154,280,34241,5,2,0:0:0:0:
154,280,34327,1,0,0:0:0:0:
154,280,34413,2,0,B|222:260|205:308|284:284,1,128,6|2,1:2|1:2,0:0:0:0:
352,233,34927,2,0,P|364:200|364:167,1,64,2|0,0:0|1:2,0:0:0:0:
356,90,35270,2,0,P|349:55|333:26,1,64,2|0,0:0|1:2,0:0:0:0:
483,94,35613,2,0,P|460:120|431:137,1,64,2|0,0:0|1:2,0:0:0:0:
364,171,35956,2,0,P|331:182|298:182,1,64,2|0,0:0|1:2,0:0:0:0:
188,237,36299,2,0,P|219:238|249:248,1,64,2|0,0:0|1:2,0:0:0:0:
198,321,36641,2,0,P|166:322|136:332,1,64,2|2,0:0|1:2,0:0:0:0:
57,375,36984,1,10,0:0:0:0:
83,232,37156,6,0,P|80:169|47:103,1,128,2|2,1:2|1:2,0:0:0:0:
118,55,37670,2,0,P|149:59|182:57,1,64,2|0,0:0|1:2,0:0:0:0:
259,34,38013,1,2,0:0:0:0:
334,127,38184,2,0,B|317:62|354:66|336:2,2,128,2|0|0,1:2|1:2|1:2,0:0:0:0:
367,216,39041,1,0,0:0:0:0:
472,88,39213,2,0,P|440:87|409:96,1,64,10|0,1:2|0:0,0:0:0:0:
334,127,39556,2,0,P|306:142|284:165,1,64,2|0,1:2|0:0,0:0:0:0:
185,298,39899,6,0,P|136:318|71:278,1,128,2|2,1:2|1:2,0:0:0:0:
50,191,40413,2,0,P|45:155|33:123,1,64,2|0,0:0|1:2,0:0:0:0:
162,90,40756,2,0,P|151:120|147:151,1,64,2|0,0:0|1:2,0:0:0:0:
185,298,41099,2,0,P|258:323|307:301,1,128,2|2,0:0|0:0,0:0:0:0:
373,239,41613,1,0,1:2:0:0:
242,165,41784,2,0,L|251:240,1,64,2|0,0:0|1:2,0:0:0:0:
344,158,42127,2,0,L|347:81,1,64,2|0,0:0|1:2,0:0:0:0:
360,3,42470,1,10,0:0:0:0:
459,151,42641,6,0,P|397:131|332:173,1,128,0|0,1:2|1:2,0:0:0:0:
276,217,43156,2,0,L|207:221,1,64,2|0,0:2|1:2,0:0:0:0:
258,331,43499,1,2,0:0:0:0:
258,331,43670,2,0,L|338:325,1,64,2|0,1:2|0:0,0:0:0:0:
212,220,44013,1,0,1:2:0:0:
101,353,44184,5,2,0:0:0:0:
125,223,44356,1,2,1:2:0:0:
104,339,44527,1,2,0:0:0:0:
34,179,44699,1,10,1:2:0:0:
34,179,44870,1,2,0:0:0:0:
125,223,45041,1,2,1:2:0:0:
33,278,45213,1,2,0:0:0:0:
141,125,45384,6,0,P|201:91|256:101,1,120.000004577637,14|8,1:2|1:2,0:0:0:0:
228,230,45899,2,0,P|214:189|216:164,2,60.0000022888184,2|0|8,0:0|1:2|0:2,0:0:0:0:
315,148,46413,2,0,P|328:107|327:82,2,60.0000022888184,2|8|0,1:2|0:2|1:2,0:0:0:0:
249,97,46927,5,2,0:0:0:0:
332,8,47099,1,2,1:2:0:0:
332,8,47270,1,2,0:0:0:0:
218,0,47441,1,2,1:2:0:0:
218,0,47613,1,2,0:0:0:0:
156,76,47784,2,0,L|163:136,1,60.0000022888184,10|2,1:2|0:0,0:0:0:0:
210,224,48127,6,0,P|160:215|100:259,1,120.000004577637,6|8,1:2|1:2,0:0:0:0:
177,353,48641,2,0,P|177:316|170:287,2,60.0000022888184,2|0|8,0:0|1:2|0:2,0:0:0:0:
210,224,49156,2,0,P|210:187|217:158,2,60.0000022888184,2|8|0,1:2|0:2|1:2,0:0:0:0:
301,202,49670,5,2,0:0:0:0:
265,97,49841,1,2,1:2:0:0:
265,97,50013,1,2,0:0:0:0:
364,106,50184,1,2,1:2:0:0:
364,106,50356,1,2,0:0:0:0:
408,197,50527,2,0,L|398:262,1,60.0000022888184,10|2,1:2|0:0,0:0:0:0:
326,326,50870,6,0,P|363:353|449:340,1,120.000004577637,6|8,1:2|1:2,0:0:0:0:
299,246,51384,2,0,P|273:261|251:289,2,60.0000022888184,2|0|8,0:0|1:2|0:2,0:0:0:0:
228,362,51899,2,0,P|202:347|180:319,2,60.0000022888184,2|8|0,1:2|0:2|1:2,0:0:0:0:
253,283,52413,5,2,0:0:0:0:
155,225,52584,1,2,1:2:0:0:
155,225,52756,1,2,0:0:0:0:
84,313,52927,1,2,1:2:0:0:
84,313,53099,1,2,0:0:0:0:
35,175,53270,1,10,1:2:0:0:
130,216,53441,1,2,0:0:0:0:
143,70,53613,6,0,B|195:64|195:64|222:75|222:75|283:65,1,120.000004577637,6|8,1:2|1:2,0:0:0:0:
342,0,54127,2,0,P|295:10|260:84,1,120.000004577637,2|8,0:0|0:2,0:0:0:0:
343,142,54641,2,0,P|342:102|332:72,2,60.0000022888184,2|8|0,1:2|0:2|1:2,0:0:0:0:
419,66,55156,2,0,P|420:26|430:-4,2,60.0000022888184,2|0|0,0:0|1:2|0:0,0:0:0:0:
461,230,55670,5,2,1:2:0:0:
483,149,55841,1,2,0:0:0:0:
365,222,56013,1,10,1:2:0:0:
343,142,56184,1,2,0:0:0:0:
284,261,56356,6,0,P|246:257|171:302,1,120.000004577637,6|8,1:2|1:2,0:0:0:0:
107,234,56870,2,0,P|108:204|101:174,2,60.0000022888184,2|0|8,0:0|1:2|0:2,0:0:0:0:
74,368,57384,2,0,P|88:341|97:310,2,60.0000022888184,2|8|0,1:2|0:2|1:2,0:0:0:0:
12,308,57899,5,2,0:0:0:0:
10,202,58070,1,2,1:2:0:0:
10,202,58241,1,2,0:0:0:0:
107,234,58413,1,2,1:2:0:0:
107,234,58584,1,2,0:0:0:0:
112,116,58756,2,0,L|106:48,1,60.0000022888184,10|2,1:2|0:0,0:0:0:0:
263,138,59099,6,0,P|322:147|377:108,1,120.000004577637,6|8,1:2|1:2,0:0:0:0:
313,8,59613,2,0,P|306:42|306:82,2,60.0000022888184,2|0|8,0:0|1:2|0:2,0:0:0:0:
263,138,60127,2,0,P|270:172|270:212,2,60.0000022888184,2|8|0,1:2|0:2|1:2,0:0:0:0:
186,180,60641,5,2,0:0:0:0:
230,270,60813,1,2,1:2:0:0:
230,270,60984,1,2,0:0:0:0:
165,344,61156,1,2,1:2:0:0:
165,344,61327,1,2,0:0:0:0:
288,366,61499,1,10,1:2:0:0:
246,280,61670,1,2,0:0:0:0:
421,357,61841,6,0,P|440:313|412:245,1,120.000004577637,6|8,1:2|1:2,0:0:0:0:
304,263,62356,2,0,P|352:274|423:240,1,120.000004577637,2|8,0:0|0:2,0:0:0:0:
355,131,62870,2,0,P|349:160|351:190,2,60.0000022888184,2|8|0,1:2|0:2|1:2,0:0:0:0:
304,263,63384,2,0,P|310:291|312:324,2,60.0000022888184,2|0|0,0:0|1:2|0:0,0:0:0:0:
247,181,63899,2,0,P|221:168|191:163,1,60.0000022888184,2|0,1:2|0:0,0:0:0:0:
106,161,64241,2,0,P|76:162|48:173,1,60.0000022888184,10|0,1:2|0:0,0:0:0:0:
0,290,64584,6,0,P|44:263|116:248,1,120.000004577637,6|8,1:2|1:2,0:0:0:0:
193,252,65099,2,0,P|222:256|251:266,1,60.0000022888184,2|0,0:0|1:2,0:0:0:0:
118,327,65441,2,0,P|88:333|61:345,1,60.0000022888184,10|0,0:2|1:2,0:0:0:0:
209,353,65784,1,2,0:0:0:0:
209,353,65956,2,0,P|262:361|313:385,1,90.0000034332277,8|8,1:2|0:2,0:0:0:0:
314,381,66299,2,0,L|385:377,1,60.0000022888184,0|8,1:2|0:2,0:0:0:0:
433,310,66641,2,0,L|481:314,1,30.0000011444092,0|8,1:2|0:2,0:0:0:0:
346,224,66984,5,8,1:2:0:0:
140,235,67327,6,0,P|81:227|33:258,1,111.999996582031,6|2,1:2|0:0,0:0:0:0:
100,309,67841,1,0,1:2:0:0:
219,228,68013,2,0,L|212:164,1,55.9999982910157,10|0,0:0|0:0,0:0:0:0:
204,87,68356,1,2,3:2:0:0:
317,159,68527,6,0,P|352:157|384:140,1,55.9999982910157,2|0,1:2|3:2,0:0:0:0:
440,110,68870,2,0,P|469:90|488:60,1,55.9999982910157,2|0,1:2|1:2,0:0:0:0:
397,23,69213,1,2,0:0:0:0:
371,149,69384,2,0,P|371:203|376:274,1,111.999996582031,8|0,0:0|0:0,0:0:0:0:
268,267,69899,5,2,3:2:0:0:
268,267,69984,1,0,3:2:0:0:
268,267,70070,2,0,P|317:249|384:266,1,111.999996582031,2|2,1:2|0:0,0:0:0:0:
325,336,70584,1,0,1:2:0:0:
200,210,70756,1,10,0:0:0:0:
200,210,70927,2,0,L|203:148,1,55.9999982910157,2|0,0:0|3:2,0:0:0:0:
89,200,71270,6,0,L|98:271,1,55.9999982910157,2|0,1:2|3:2,0:0:0:0:
11,158,71613,2,0,P|48:123|107:116,1,111.999996582031,2|0,1:2|0:0,0:0:0:0:
268,171,72127,2,0,P|329:186|389:153,1,111.999996582031,8|0,0:0|0:0,0:0:0:0:
392,59,72641,5,0,3:2:0:0:
392,59,72727,1,0,3:2:0:0:
392,59,72813,2,0,P|376:114|375:191,1,111.999996582031,2|0,1:2|0:0,0:0:0:0:
374,256,73327,1,2,1:2:0:0:
475,274,73499,2,0,B|445:242|404:244|404:244|362:260,1,111.999996582031,8|0,0:0|3:2,0:0:0:0:
240,282,74013,6,0,P|199:278|163:262,1,55.9999982910157,2|0,1:2|3:2,0:0:0:0:
109,236,74356,2,0,P|75:212|44:130,1,111.999996582031,2|0,1:2|0:0,0:0:0:0:
122,321,74870,2,0,L|126:398,1,55.9999982910157,10|0,0:0|1:2,0:0:0:0:
240,282,75213,2,0,L|235:222,1,55.9999982910157,2|0,0:0|3:2,0:0:0:0:
243,209,75470,1,0,3:2:0:0:
253,195,75556,6,0,B|291:196|319:176|319:176|346:204|402:195,1,136.000002593994,6|2,1:2|0:0,0:0:0:0:
467,153,76070,1,0,1:2:0:0:
385,49,76241,1,10,0:0:0:0:
385,49,76413,2,0,L|383:131,1,68.0000012969971,2|0,0:0|3:2,0:0:0:0:
312,308,76756,6,0,P|370:337|432:304,1,136.000002593994,2|0,1:2|1:2,0:0:0:0:
267,234,77270,2,0,P|237:261|222:297,1,68.0000012969971,2|0,1:2|0:0,0:0:0:0:
54,335,77613,2,0,P|94:336|131:348,1,68.0000012969971,10|0,0:0|1:2,0:0:0:0:
160,216,77956,2,0,P|127:224|100:244,1,68.0000012969971,2|0,0:0|3:2,0:0:0:0:
79,243,78213,1,0,3:2:0:0:
63,234,78299,6,0,B|55:190|55:190|72:145|72:145|61:89,1,143.999995605469,4|0,1:2|0:0,0:0:0:0:
47,3,78813,1,0,1:2:0:0:
192,106,78984,2,0,P|123:126|61:94,1,143.999995605469,8|0,0:0|3:2,0:0:0:0:
135,32,79499,1,0,1:2:0:0:
262,163,79670,6,0,P|297:162|331:151,1,71.9999978027344,0|0,3:2|1:2,0:0:0:0:
465,100,80013,2,0,P|429:99|395:88,1,71.9999978027344,0|0,1:2|0:0,0:0:0:0:
280,79,80356,1,8,0:0:0:0:
315,257,80527,1,2,1:2:0:0:
395,88,80699,1,2,0:0:0:0:
174,219,80870,5,2,3:2:0:0:
174,219,80956,1,0,3:2:0:0:
174,219,81041,2,0,L|94:223,1,71.9999978027344,8|0,1:2|0:0,0:0:0:0:
238,101,81384,1,8,0:0:0:0:
315,257,81556,1,8,0:0:0:0:
236,83,81727,1,8,0:0:0:0:
174,311,81899,1,8,0:0:0:0:
235,63,82070,1,8,0:0:0:0:
277,354,82241,5,8,0:0:0:0:
277,354,83099,6,0,L|227:356,1,47.9999985351563,8|8,0:0|0:3,0:0:0:0:
396,328,83441,2,0,L|426:327,2,23.9999992675781,8|8|8,0:0|0:3|0:3,0:0:0:0:
168,235,83784,6,0,P|158:192|167:149,1,88.000002685547,14|2,1:2|0:0,0:0:0:0:
238,7,84127,1,10,0:0:0:0:
256,193,84299,1,2,0:0:0:0:
131,65,84470,1,2,1:2:0:0:
131,65,84641,1,2,1:2:0:0:
303,92,84813,1,8,0:0:0:0:
87,168,84984,6,0,L|0:162,1,88.000002685547,2|0,1:2|0:0,0:0:0:0:
256,255,85327,2,0,L|345:251,1,88.000002685547,2|8,1:2|0:0,0:0:0:0:
181,384,85670,2,0,B|203:300|140:304|169:206,1,176.000005371094,2|0,0:0|1:2,0:0:0:0:
218,50,86184,1,8,0:0:0:0:
83,119,86356,1,2,0:0:0:0:
282,181,86527,6,0,P|324:181|368:163,1,88.000002685547,2|0,1:2|0:0,0:0:0:0:
466,33,86870,1,10,0:0:0:0:
307,82,87041,1,2,0:0:0:0:
461,145,87213,1,2,1:2:0:0:
461,145,87384,1,2,1:2:0:0:
369,6,87556,1,10,0:0:0:0:
258,212,87727,6,0,P|209:196|181:172,1,88.000002685547,2|0,1:2|0:0,0:0:0:0:
442,325,88070,2,0,P|492:309|519:285,1,88.000002685547,2|8,1:2|0:0,0:0:0:0:
246,372,88413,2,0,P|174:351|92:293,1,176.000005371094,2|0,0:0|1:2,0:0:0:0:
336,187,88927,1,8,0:0:0:0:
324,325,89099,1,0,0:0:0:0:
199,127,89270,5,6,1:2:0:0:
199,127,89441,2,0,L|198:32,1,88.000002685547,2|10,0:0|0:0,0:0:0:0:
30,263,89784,2,0,L|34:354,1,88.000002685547,2|0,0:0|1:2,0:0:0:0:
174,221,90127,1,2,1:2:0:0:
27,167,90299,1,10,0:0:0:0:
150,324,90470,6,0,B|189:332|224:315|224:315|256:343|295:345|327:329,1,176.000005371094,2|2,1:2|1:2,0:0:0:0:
417,290,90984,1,10,0:0:0:0:
298,164,91156,2,0,P|284:205|284:258,1,88.000002685547,2|0,0:0|1:2,0:0:0:0:
460,177,91499,2,0,P|458:137|438:89,1,88.000002685547,2|8,1:2|0:0,0:0:0:0:
316,333,91841,5,2,0:0:0:0:
316,333,92013,2,0,B|248:341|248:341|210:320|210:320|179:329|131:325,1,176.000005371094,0|8,1:2|0:0,0:0:0:0:
31,333,92527,1,0,0:0:0:0:
96,171,92699,2,0,B|114:71|114:71|77:37|20:70,1,176.000005371094,2|8,1:2|0:0,0:0:0:0:
297,142,93213,6,0,P|361:144|406:91,1,132.00000402832,14|0,1:2|0:0,0:0:0:0:
418,77,93556,1,10,0:0:0:0:
223,82,93727,2,0,P|207:114|210:187,1,88.000002685547,2|8,0:0|0:0,0:0:0:0:
208,188,93984,1,8,0:0:0:0:
208,188,94070,1,10,0:0:0:0:
331,262,94241,1,8,0:0:0:0:
330,279,94327,1,8,0:0:0:0:
329,297,94413,1,8,0:0:0:0:
329,312,94499,1,8,0:0:0:0:
328,330,94584,1,8,0:3:0:0:
210,276,94756,6,0,L|208:184,1,88.000002685547,14|2,1:2|0:0,0:0:0:0:
328,73,95099,1,10,0:0:0:0:
313,215,95270,1,2,0:0:0:0:
143,91,95441,2,0,P|96:86|53:100,1,88.000002685547,2|2,1:2|1:2,0:0:0:0:
108,194,95784,1,10,0:0:0:0:
235,89,95956,6,0,L|235:-3,1,88.000002685547,2|0,1:2|0:0,0:0:0:0:
369,221,96299,2,0,L|369:319,1,88.000002685547,2|8,1:2|0:0,0:0:0:0:
108,194,96641,2,0,P|176:163|259:214,1,176.000005371094,2|0,0:0|1:2,0:0:0:0:
241,384,97156,1,8,0:0:0:0:
177,248,97327,1,2,0:0:0:0:
427,301,97499,6,0,P|470:302|528:279,1,88.000002685547,2|2,1:2|0:0,0:0:0:0:
384,159,97841,1,10,0:0:0:0:
329,303,98013,2,0,P|281:308|240:292,1,88.000002685547,2|0,0:0|1:2,0:0:0:0:
83,198,98356,1,2,1:2:0:0:
264,191,98527,1,10,0:0:0:0:
125,307,98699,1,2,1:2:0:0:
176,112,98870,5,2,0:0:0:0:
176,112,99041,2,0,L|176:21,1,88.000002685547,2|8,1:2|0:0,0:0:0:0:
83,198,99384,1,2,0:0:0:0:
264,191,99556,2,0,B|320:186|320:186|341:191|363:209|363:209|436:210,1,176.000005371094,2|8,1:2|0:0,0:0:0:0:
405,113,100070,1,0,0:0:0:0:
309,286,100241,5,6,1:2:0:0:
309,286,100413,2,0,L|308:379,1,88.000002685547,2|8,0:0|0:0,0:0:0:0:
175,195,100756,2,0,L|180:94,1,88.000002685547,2|0,0:0|1:2,0:0:0:0:
309,7,101099,1,2,1:2:0:0:
353,141,101270,1,10,0:0:0:0:
179,107,101441,6,0,P|141:98|89:100,1,88.000002685547,2|0,1:2|0:0,0:0:0:0:
305,244,101784,2,0,P|343:234|395:239,1,88.000002685547,2|8,1:2|0:0,0:0:0:0:
154,373,102127,2,0,P|115:363|68:364,1,88.000002685547,2|0,0:0|1:2,0:0:0:0:
184,234,102470,1,2,1:2:0:0:
251,377,102641,1,10,0:0:0:0:
84,270,102813,5,2,0:0:0:0:
84,270,102984,2,0,B|66:211|104:168|104:168|95:94,1,176.000005371094,0|8,1:2|0:0,0:0:0:0:
67,0,103499,1,0,0:0:0:0:
249,59,103670,2,0,B|298:69|352:38|352:38|357:74|397:103,1,176.000005371094,2|8,1:2|0:0,0:0:0:0:
262,267,104184,6,0,P|249:208|296:148,1,132.00000402832,14|0,1:2|0:0,0:0:0:0:
307,140,104527,1,10,0:0:0:0:
322,334,104699,2,0,P|282:352|238:350,1,88.000002685547,2|8,0:0|0:0,0:0:0:0:
218,344,104956,1,8,0:0:0:0:
218,344,105041,1,10,0:0:0:0:
116,277,105213,1,8,0:0:0:0:
116,258,105299,1,8,0:0:0:0:
115,239,105384,1,8,0:0:0:0:
115,222,105470,1,8,0:0:0:0:
115,206,105556,1,8,0:3:0:0:
238,350,105727,6,0,P|281:350|320:332,1,88.000002685547,6|2,1:2|0:0,0:0:0:0:
512,245,106070,2,0,P|468:242|426:255,1,88.000002685547,10|2,0:0|0:0,0:0:0:0:
238,350,106413,1,2,1:2:0:0:
307,149,106584,1,2,0:0:0:0:
406,340,106756,1,10,0:0:0:0:
305,122,106927,6,0,L|303:24,1,88.000002685547,2|0,0:0|1:2,0:0:0:0:
133,287,107270,2,0,L|135:380,1,88.000002685547,2|8,0:0|0:0,0:0:0:0:
385,213,107613,2,0,L|293:211,1,88.000002685547,2|0,0:0|1:2,0:0:0:0:
153,201,107956,1,2,0:0:0:0:
219,349,108127,1,10,0:0:0:0:
214,124,108299,6,0,P|223:66|248:29,1,88.000002685547,2|0,0:0|1:2,0:0:0:0:
331,116,108641,1,2,0:0:0:0:
153,201,108813,1,10,0:0:0:0:
98,46,108984,1,2,0:0:0:0:
151,218,109156,2,0,L|149:308,1,88.000002685547,2|0,1:2|0:0,0:0:0:0:
36,225,109499,1,10,0:0:0:0:
249,224,109670,5,2,0:0:0:0:
249,224,109841,2,0,B|291:214|291:214|331:234|331:234|370:215|370:215|431:221,1,176.000005371094,0|8,1:2|0:0,0:0:0:0:
495,174,110356,1,2,0:0:0:0:
332,140,110527,1,0,1:2:0:0:
397,302,110699,1,2,0:0:0:0:
495,154,110870,2,0,L|494:65,1,88.000002685547,10|0,0:0|0:0,0:0:0:0:
304,338,111213,5,6,1:2:0:0:
332,140,111384,1,2,0:0:0:0:
307,361,111556,1,10,0:0:0:0:
167,215,111727,2,0,L|66:216,1,88.000002685547,2|0,0:0|1:2,0:0:0:0:
181,325,112070,1,2,0:0:0:0:
238,146,112241,1,10,0:0:0:0:
374,257,112413,2,0,L|465:258,1,88.000002685547,2|0,0:0|1:2,0:0:0:0:
356,26,112756,6,0,P|336:64|330:110,1,88.000002685547,2|8,0:0|0:0,0:0:0:0:
302,342,113099,2,0,P|294:296|272:258,1,88.000002685547,2|0,0:0|1:2,0:0:0:0:
146,135,113441,1,2,0:0:0:0:
181,325,113613,1,10,0:0:0:0:
267,158,113784,1,2,0:0:0:0:
88,246,113956,6,0,L|-12:246,1,88.000002685547,12|0,0:0|1:2,0:0:0:0:
146,135,114299,1,0,1:2:0:0:
274,261,114470,2,0,L|371:261,1,88.000002685547,8|0,0:0|1:2,0:0:0:0:
267,158,114813,1,0,1:2:0:0:
151,332,114984,2,0,L|63:332,1,88.000002685547,8|0,0:0|1:2,0:0:0:0:
267,158,115327,6,0,L|364:158,1,88.000002685547,12|0,1:2|1:2,0:0:0:0:
274,261,115670,1,0,1:2:0:0:
142,110,115841,2,0,L|48:107,1,88.000002685547,8|0,0:0|1:2,0:0:0:0:
122,238,116184,1,0,1:2:0:0:
267,158,116356,1,8,0:0:0:0:
212,56,116527,1,0,1:2:0:0:
190,187,116699,6,0,B|211:241|289:256|341:205|341:205|325:172|337:129|337:129|305:161|255:157,1,335.999989746094,6|0,1:2|0:0,0:0:0:0:
379,20,118070,6,0,B|369:62|369:62|402:75|426:115|405:155|406:162|406:162|404:167|425:188|412:236|412:236|456:188,1,287.999991210938,6|0,1:2|0:0,0:0:0:0:
376,309,119270,5,0,3:2:0:0:
376,309,119356,1,0,3:2:0:0:
376,309,119441,2,0,B|291:300|334:348|234:334,1,128,8|8,0:0|0:0,0:0:0:0:
178,269,119956,1,8,0:0:0:0:
73,281,120127,1,8,0:0:0:0:
100,116,120299,5,8,0:0:0:0:
171,287,120470,1,8,0:0:0:0:
269,118,120641,1,8,0:0:0:0:
254,336,120813,5,8,0:0:0:0:
181,80,120984,1,8,0:0:0:0:
243,357,121156,1,8,0:0:0:0:
395,108,121327,1,8,0:0:0:0:
337,384,121499,5,8,0:0:0:0:
249,240,121670,1,0,1:2:0:0:
435,198,121841,6,0,B|472:184|472:184|511:191,1,71.9999978027344,8|0,0:0|0:0,0:0:0:0:
511,177,122184,6,0,B|465:171|465:171|415:189|415:189|349:185,1,160,6|8,1:2|0:0,0:0:0:0:
286,39,122699,1,2,0:0:0:0:
286,39,122870,2,0,L|386:44,1,80,0|0,1:2|1:2,0:0:0:0:
229,122,123213,1,10,0:0:0:0:
149,27,123384,6,0,P|85:33|49:134,1,160,2|2,1:2|1:2,0:0:0:0:
184,202,123899,2,0,P|222:210|262:205,1,80,8|2,0:0|0:0,0:0:0:0:
130,111,124241,1,2,1:2:0:0:
104,230,124413,1,2,1:2:0:0:
229,122,124584,1,8,0:0:0:0:
227,98,124670,1,8,0:0:0:0:
224,75,124756,1,8,0:0:0:0:
222,51,124841,1,8,0:0:0:0:
221,30,124927,6,0,B|258:6|302:34|302:34|336:12|382:24,1,160,6|8,1:2|0:0,0:0:0:0:
462,141,125441,1,2,0:0:0:0:
461,140,125613,2,0,P|418:135|378:116,1,80,0|0,1:2|1:2,0:0:0:0:
451,36,125956,1,10,0:0:0:0:
470,227,126127,6,0,P|396:219|318:174,1,160,2|2,1:2|1:2,0:0:0:0:
178,83,126641,2,0,P|139:74|100:79,1,80,8|2,0:0|0:0,0:0:0:0:
239,150,126984,1,2,1:2:0:0:
233,24,127156,1,2,1:2:0:0:
136,162,127327,1,8,0:0:0:0:
137,179,127413,1,8,0:0:0:0:
138,193,127499,1,8,0:0:0:0:
138,205,127584,1,8,0:0:0:0:
138,220,127670,6,0,P|85:244|68:346,1,160,6|8,1:2|0:0,0:0:0:0:
230,314,128184,1,2,0:0:0:0:
230,314,128356,2,0,L|137:308,1,80,0|0,1:2|1:2,0:0:0:0:
217,208,128699,1,10,0:0:0:0:
342,314,128870,6,0,B|401:310|401:310|435:325|435:325|508:323,1,160,2|0,1:2|1:2,0:0:0:0:
401,169,129384,2,0,L|310:172,1,80,10|2,0:0|0:0,0:0:0:0:
460,241,129727,1,2,1:2:0:0:
476,123,129899,1,2,1:2:0:0:
356,254,130070,1,8,0:0:0:0:
358,270,130156,1,8,0:0:0:0:
360,287,130241,1,8,0:0:0:0:
363,306,130327,1,8,0:0:0:0:
366,325,130413,6,0,L|451:324,2,80,6|0|0,1:2|1:2|1:2,0:0:0:0:
241,267,130927,2,0,L|156:266,2,80,10|0|0,0:0|1:2|1:2,0:0:0:0:
321,168,131441,2,0,L|406:169,1,80,10|0,0:0|1:2,0:0:0:0:
224,55,131784,6,0,L|139:56,1,80,8|2,0:0|1:2,0:0:0:0:
215,164,132127,1,0,1:2:0:0:
342,87,132299,1,10,0:0:0:0:
297,9,132470,1,2,1:2:0:0:
297,9,132641,1,0,1:2:0:0:
215,164,132813,6,0,P|207:202|219:256,1,71.9999978027344,10|0,0:0|0:0,0:0:0:0:
216,257,133156,6,0,P|170:251|93:298,1,128,6|0,1:2|1:2,0:0:0:0:
22,267,133670,1,2,0:0:0:0:
22,267,133841,2,0,L|16:198,1,64,0|0,1:2|0:0,0:0:0:0:
9,122,134184,2,0,P|21:75|103:53,1,128,2|0,1:2|1:2,0:0:0:0:
173,69,134699,1,2,0:0:0:0:
173,69,134870,2,0,P|210:69|238:59,1,64,0|2,1:2|0:0,0:0:0:0:
259,138,135213,2,0,P|291:119|310:96,1,64,2|2,1:2|0:0,0:0:0:0:
370,28,135556,1,2,1:2:0:0:
449,93,135727,5,0,0:0:0:0:
449,93,135813,1,0,0:0:0:0:
449,93,135899,2,0,P|471:155|460:220,1,128,2|0,1:2|1:2,0:0:0:0:
406,276,136413,1,2,0:0:0:0:
406,276,136584,2,0,P|369:282|337:277,1,64,0|0,1:2|0:0,0:0:0:0:
266,250,136927,2,0,P|204:246|153:288,1,128,2|0,1:2|1:2,0:0:0:0:
79,328,137441,1,2,0:0:0:0:
79,328,137613,2,0,P|68:286|72:256,1,64,0|2,1:2|0:0,0:0:0:0:
181,139,137956,5,8,1:2:0:0:
154,285,138127,1,8,0:0:0:0:
184,120,138299,1,8,1:2:0:0:
231,324,138470,5,14,1:2:0:0:
256,192,138556,12,0,144127,0:0:0:0:
