osu file format v14

[General]
AudioFilename: audio.mp3
AudioLeadIn: 0
PreviewTime: 82584
Countdown: 0
SampleSet: Soft
StackLeniency: 0.3
Mode: 0
LetterboxInBreaks: 0
WidescreenStoryboard: 0

[Editor]
Bookmarks: 1499,12470,23442,45384,67327,83784,116699,122184,133156,138470,149613
DistanceSpacing: 2
BeatDivisor: 4
GridSize: 4
TimelineZoom: 1.6

[Metadata]
Title:Kimi Dake wa.
TitleUnicode:きみだけは。
Artist:Amatsuki
ArtistUnicode:天月
Creator:AirinCat
Version:Haruki's Normal
Source:#ハッシュタグ
Tags:only you natsushiro takaaki spoes serizawa haruki jack j_a_c_k japanese pop jap j-pop それはきっと恋でした。 夏代孝明 あまつき
BeatmapID:1971318
BeatmapSetID:919884

[Difficulty]
HPDrainRate:3
CircleSize:3
OverallDifficulty:4
ApproachRate:5
SliderMultiplier:1
SliderTickRate:1

[Events]
//Background and Video events
0,0,"bg resize.jpg",0,0
//Break Periods
//Storyboard Layer 0 (Background)
//Storyboard Layer 1 (Fail)
//Storyboard Layer 2 (Pass)
//Storyboard Layer 3 (Foreground)
//Storyboard Sound Samples

[TimingPoints]
1499,342.857142857143,4,2,1,35,1,0
23441,-100,4,2,1,50,0,0
45384,-100,4,2,2,55,0,0
66984,-100,4,2,1,60,0,0
67327,-100,4,2,1,60,0,0
81556,-100,4,2,1,64,0,0
81727,-100,4,2,1,68,0,0
81899,-100,4,2,1,72,0,0
82070,-100,4,2,1,76,0,0
83099,-100,4,2,1,52,0,0
83784,-100,4,2,1,74,0,1
116699,-100,4,2,1,74,0,0
119441,-100,4,2,1,60,0,0
119784,-100,4,2,1,40,0,0
119956,-100,4,2,1,44,0,0
120127,-100,4,2,1,48,0,0
120299,-100,4,2,1,52,0,0
120470,-100,4,2,1,56,0,0
120641,-100,4,2,1,60,0,0
120813,-100,4,2,1,64,0,0
120984,-100,4,2,1,66,0,0
121156,-100,4,2,1,68,0,0
121327,-100,4,2,1,72,0,0
121499,-100,4,2,1,74,0,0
121841,-100,4,2,1,60,0,0
140013,-100,4,2,1,54,0,0
140356,-100,4,2,1,48,0,0
140699,-100,4,2,1,42,0,0
141041,-100,4,2,1,38,0,0
141384,-100,4,2,1,34,0,0
141727,-100,4,2,1,30,0,0
142070,-100,4,2,1,26,0,0
142413,-100,4,2,1,22,0,0
142756,-100,4,2,1,16,0,0
143099,-100,4,2,1,12,0,0
143441,-100,4,2,1,8,0,0
143784,-100,4,2,1,5,0,0

[Colours]
Combo1 : 228,213,186
Combo2 : 138,168,200

[HitObjects]
400,80,12470,6,0,L|499:88,2,100,2|0|0,1:2|1:2|1:2,0:0:0:0:
312,128,13499,2,0,P|300:80|312:32,2,100,2|0|0,1:2|1:2|1:2,0:0:0:0:
369,210,14527,1,2,1:2:0:0:
328,301,14870,1,2,1:2:0:0:
227,309,15213,6,0,L|127:317,2,100,2|0|0,1:2|1:2|1:2,0:0:0:0:
271,219,16241,2,0,P|283:171|271:123,2,100,2|0|0,1:2|1:2|1:2,0:0:0:0:
183,171,17270,1,2,1:2:0:0:
102,229,17613,1,2,1:2:0:0:
11,186,17956,6,0,L|2:86,2,100,2|0|0,1:2|1:2|1:2,0:0:0:0:
102,145,18984,2,0,P|150:133|198:145,2,100,2|0|0,1:2|1:2|1:2,0:0:0:0:
150,233,20013,1,2,1:2:0:0:
93,315,20356,1,2,1:2:0:0:
193,324,20699,6,0,L|292:332,2,100,2|0|0,1:2|1:2|1:2,0:0:0:0:
150,233,21727,2,0,P|137:184|150:136,2,100,2|0|0,1:2|1:2|1:2,0:0:0:0:
238,185,22756,1,2,1:2:0:0:
321,244,23099,2,0,L|370:248,1,50,2|2,1:2|0:0,0:0:0:0:
412,220,23441,6,0,P|425:171|412:123,1,100,14|2,1:2|1:2,0:0:0:0:
384,83,23956,1,2,0:0:0:0:
284,74,24299,2,0,L|184:65,1,100,2|2,0:0|0:0,0:0:0:0:
97,17,24984,2,0,P|84:64|97:112,1,100,2|2,0:0|0:0,0:0:0:0:
170,182,25670,2,0,L|165:231,1,50,2|2,0:0|1:2,0:0:0:0:
194,279,26013,1,10,0:0:0:0:
194,279,26184,6,0,P|242:291|290:279,1,100,2|0,1:2|1:2,0:0:0:0:
330,248,26699,2,0,L|321:148,1,100,2|2,0:0|0:0,0:0:0:0:
316,99,27213,1,2,1:2:0:0:
416,90,27556,2,0,B|421:156|421:156|459:210|459:210|465:276,1,200,2|10,1:2|1:2,0:0:0:0:
348,369,28756,1,2,0:0:0:0:
348,369,28927,6,0,L|248:360,1,100,2|2,1:2|1:2,0:0:0:0:
213,325,29441,2,0,L|113:333,1,100,2|2,0:0|0:0,0:0:0:0:
56,252,30127,1,2,0:0:0:0:
98,161,30470,1,2,0:0:0:0:
50,73,30813,2,0,P|98:61|146:73,1,100,2|2,0:0|0:0,0:0:0:0:
239,124,31499,1,10,0:0:0:0:
239,124,31670,6,0,L|340:115,1,100,2|2,1:2|1:2,0:0:0:0:
388,110,32184,2,0,P|375:159|388:207,1,100,2|2,0:0|0:0,0:0:0:0:
436,293,32870,2,0,P|388:305|340:293,1,100,2|2,0:0|0:0,0:0:0:0:
296,270,33384,2,0,L|196:278,1,100,2|8,1:2|1:2,0:0:0:0:
269,149,34241,1,2,0:0:0:0:
269,149,34413,6,0,P|282:100|269:52,1,100,6|2,1:2|1:2,0:0:0:0:
238,15,34927,1,2,0:0:0:0:
138,23,35270,2,0,L|38:31,1,100,2|2,0:0|0:0,0:0:0:0:
22,129,35956,2,0,L|122:121,1,100,2|2,0:0|0:0,0:0:0:0:
175,205,36641,2,0,P|178:229|175:254,1,50,2|2,0:0|1:2,0:0:0:0:
162,305,36984,1,10,0:0:0:0:
162,305,37156,6,0,L|261:313,1,100,2|2,1:2|1:2,0:0:0:0:
296,350,37670,2,0,L|395:341,1,100,2|2,0:0|0:0,0:0:0:0:
430,305,38184,2,0,P|443:256|430:208,2,100,2|0|0,1:2|1:2|1:2,0:0:0:0:
342,256,39213,1,10,1:2:0:0:
243,265,39556,1,2,1:2:0:0:
185,183,39899,6,0,P|172:134|185:86,1,100,2|2,1:2|1:2,0:0:0:0:
220,52,40413,2,0,L|319:60,1,100,2|2,0:0|0:0,0:0:0:0:
419,69,41099,1,2,0:0:0:0:
461,160,41441,1,2,0:0:0:0:
404,242,41784,2,0,L|305:250,1,100,2|2,0:0|0:0,0:0:0:0:
219,299,42470,1,10,0:0:0:0:
219,299,42641,6,0,B|195:250|219:202|219:202|219:146|171:118|171:118|195:69|171:21,1,300,0|2,1:2|1:2,0:0:0:0:
83,69,44013,1,0,1:2:0:0:
75,168,44356,1,2,1:2:0:0:
157,226,44699,1,10,1:2:0:0:
149,325,45041,1,2,1:2:0:0:
231,383,45384,6,0,L|330:374,1,100,14|8,1:2|1:2,0:0:0:0:
368,340,45899,2,0,P|381:293|368:245,1,100,2|8,0:0|0:2,0:0:0:0:
340,203,46413,2,0,L|344:153,2,50,2|8|0,1:2|0:2|1:2,0:0:0:0:
250,246,47099,1,2,1:2:0:0:
168,188,47441,1,2,1:2:0:0:
78,231,47784,1,10,1:2:0:0:
20,150,48127,6,0,P|7:103|20:55,1,100,6|8,1:2|1:2,0:0:0:0:
51,15,48641,2,0,L|150:6,1,100,2|8,0:0|0:2,0:0:0:0:
190,38,49156,2,0,L|239:42,2,50,2|8|0,1:2|0:2|1:2,0:0:0:0:
133,120,49841,1,2,1:2:0:0:
175,211,50184,1,2,1:2:0:0:
275,220,50527,1,10,1:2:0:0:
332,138,50870,6,0,L|431:146,1,100,6|8,1:2|1:2,0:0:0:0:
469,180,51384,2,0,P|482:229|469:277,1,100,2|8,0:0|0:2,0:0:0:0:
435,312,51899,2,0,L|439:361,2,50,2|8|0,1:2|0:2|1:2,0:0:0:0:
344,269,52584,1,2,1:2:0:0:
263,327,52927,1,2,1:2:0:0:
172,284,53270,1,10,1:2:0:0:
163,185,53613,6,0,L|154:85,1,100,6|8,1:2|1:2,0:0:0:0:
180,43,54127,2,0,P|228:31|276:43,1,100,2|8,0:0|0:2,0:0:0:0:
320,67,54641,2,0,P|368:79|416:67,1,100,2|0,1:2|1:2,0:0:0:0:
460,43,55156,2,0,L|509:47,1,50,2|0,0:0|1:2,0:0:0:0:
501,146,55670,1,2,1:2:0:0:
411,189,56013,1,10,1:2:0:0:
329,131,56356,6,0,P|281:119|233:131,1,100,6|8,1:2|1:2,0:0:0:0:
192,160,56870,2,0,L|92:151,1,100,2|8,0:0|0:2,0:0:0:0:
53,183,57384,2,0,L|4:187,2,50,2|8|0,1:2|0:2|1:2,0:0:0:0:
111,265,58070,1,2,1:2:0:0:
210,256,58413,1,2,1:2:0:0:
268,338,58756,1,10,1:2:0:0:
367,329,59099,6,0,L|466:320,1,100,6|8,1:2|1:2,0:0:0:0:
502,285,59613,2,0,P|515:238|502:190,1,100,2|8,0:0|0:2,0:0:0:0:
471,150,60127,2,0,L|475:100,2,50,2|8|0,1:2|0:2|1:2,0:0:0:0:
381,193,60813,1,2,1:2:0:0:
299,135,61156,1,2,1:2:0:0:
209,178,61499,1,10,1:2:0:0:
127,120,61841,6,0,P|79:108|31:120,1,100,6|8,1:2|1:2,0:0:0:0:
0,159,62356,2,0,L|8:258,1,100,2|8,0:0|0:2,0:0:0:0:
43,295,62870,2,0,L|142:303,1,100,2|0,1:2|1:2,0:0:0:0:
187,280,63384,2,0,B|234:254|282:280|282:280|325:255,1,150,2|2,0:0|1:2,0:0:0:0:
412,204,64241,1,10,1:2:0:0:
457,115,64584,6,0,B|477:45|424:-3|424:-3|363:31|363:31|316:7|267:31|267:31|240:74|185:79,1,400,6|8,1:2|1:2,0:0:0:0:
96,30,66299,2,0,P|83:79|96:127,1,100,0|0,1:2|1:2,0:0:0:0:
162,200,66984,1,8,1:2:0:0:
261,191,67327,6,0,L|360:182,1,100,6|2,1:2|0:0,0:0:0:0:
435,250,68013,2,0,P|448:299|435:347,1,100,10|2,0:0|3:2,0:0:0:0:
402,383,68527,1,2,1:2:0:0:
302,374,68870,2,0,L|202:365,1,100,2|2,1:2|0:0,0:0:0:0:
152,360,69385,1,8,0:0:0:0:
93,228,69899,1,2,3:2:0:0:
93,228,70070,6,0,L|84:128,1,100,2|2,1:2|0:0,0:0:0:0:
144,49,70756,1,10,0:0:0:0:
144,49,70927,2,0,P|192:37|240:49,1,100,2|2,0:0|1:2,0:0:0:0:
332,90,71613,2,0,B|369:102|405:90|405:90|442:76|479:90,1,150,2|8,1:2|0:0,0:0:0:0:
419,280,72813,6,0,B|319:271|319:271|274:292,1,150,2|2,1:2|1:2,0:0:0:0:
229,315,73499,1,8,0:0:0:0:
156,383,73841,2,0,P|129:315|156:247,1,150,2|2,3:2|1:2,0:0:0:0:
251,130,74870,2,0,P|264:81|251:33,1,100,10|2,0:0|0:0,0:0:0:0:
163,81,75556,6,0,L|63:89,1,100,6|2,1:2|0:0,0:0:0:0:
26,123,76070,2,0,P|23:148|26:172,1,50,0|10,1:2|0:0,0:0:0:0:
46,219,76413,1,2,0:0:0:0:
145,227,76756,2,0,L|244:235,1,100,2|0,1:2|0:0,0:0:0:0:
294,240,77270,1,2,1:2:0:0:
381,191,77613,2,0,P|393:239|381:287,1,100,10|2,0:0|0:0,0:0:0:0:
303,350,78299,6,0,L|199:359,1,100,4|0,1:2|0:0,0:0:0:0:
170,329,78813,1,0,1:2:0:0:
170,329,78984,2,0,L|70:320,1,100,8|0,0:0|3:2,0:0:0:0:
24,319,79499,1,0,1:2:0:0:
24,319,79670,2,0,L|29:369,2,50,0|0|0,3:2|1:2|1:2,0:0:0:0:
69,233,80356,1,8,0:0:0:0:
69,233,80527,2,0,L|118:237,2,50,2|2|2,1:2|0:0|3:2,0:0:0:0:
19,228,81041,5,8,1:2:0:0:
256,192,81213,12,8,82241,0:0:0:0:
19,228,83099,6,0,L|68:232,1,50,8|8,0:0|0:3,0:0:0:0:
110,205,83441,2,0,L|159:200,1,50,8|8,0:0|0:3,0:0:0:0:
200,231,83784,6,0,P|248:243|296:231,1,100,14|10,1:2|0:0,0:0:0:0:
385,184,84470,2,0,L|389:234,2,50,2|2|8,1:2|1:2|0:0,0:0:0:0:
380,134,84984,1,2,1:2:0:0:
323,52,85327,1,2,1:2:0:0:
223,62,85670,2,0,L|123:70,1,100,2|0,0:0|1:2,0:0:0:0:
59,147,86356,1,2,0:0:0:0:
59,147,86527,6,0,P|46:196|59:244,1,100,2|10,1:2|0:0,0:0:0:0:
108,330,87213,2,0,L|58:334,2,50,2|2|10,1:2|1:2|0:0,0:0:0:0:
158,326,87727,1,2,1:2:0:0:
257,317,88070,1,2,1:2:0:0:
303,230,88413,1,2,0:0:0:0:
303,230,88584,2,0,B|316:182|316:182|303:134,1,100,0|8,1:2|0:0,0:0:0:0:
255,45,89270,6,0,P|303:33|351:45,1,100,6|10,1:2|0:0,0:0:0:0:
394,72,89784,1,2,0:0:0:0:
476,131,90127,1,2,1:2:0:0:
466,230,90470,2,0,L|457:329,2,100,2|2|2,1:2|1:2|0:0,0:0:0:0:
384,171,91499,1,2,1:2:0:0:
293,214,91841,6,0,B|240:239|188:214|188:214|167:179,1,150,2|8,0:0|0:0,0:0:0:0:
119,90,92699,2,0,P|167:78|215:90,1,100,2|8,1:2|0:0,0:0:0:0:
258,116,93213,1,14,1:2:0:0:
341,58,93556,1,10,1:2:0:0:
435,104,93899,1,8,0:0:0:0:
435,104,94070,2,0,L|484:99,2,50,10|8|8,0:0|0:0|0:0,0:0:0:0:
424,156,94585,1,8,0:3:0:0:
424,156,94756,6,0,B|411:204|411:204|424:252,1,100,14|10,1:2|0:0,0:0:0:0:
449,349,95441,2,0,L|498:353,2,50,2|2|10,1:2|1:2|0:0,0:0:0:0:
399,344,95956,1,2,1:2:0:0:
299,335,96299,1,2,1:2:0:0:
257,244,96641,2,0,P|244:195|257:147,1,100,2|0,0:0|1:2,0:0:0:0:
318,70,97327,1,2,0:0:0:0:
318,70,97499,6,0,L|367:65,2,50,2|2|10,1:2|0:0|0:0,0:0:0:0:
275,44,98013,2,0,L|175:35,1,100,2|2,0:0|1:2,0:0:0:0:
125,30,98527,1,10,0:0:0:0:
72,116,98870,1,2,0:0:0:0:
72,116,99041,2,0,B|59:164|59:164|72:212,1,100,2|2,1:2|0:0,0:0:0:0:
99,254,99556,2,0,P|148:267|196:254,1,100,2|8,1:2|0:0,0:0:0:0:
274,193,100241,5,6,1:2:0:0:
274,193,100413,2,0,L|373:201,1,100,2|2,0:0|0:0,0:0:0:0:
438,279,101099,2,0,P|441:303|438:328,1,50,2|10,1:2|0:0,0:0:0:0:
420,375,101441,2,0,L|519:366,2,100,2|2|2,1:2|1:2|0:0,0:0:0:0:
321,384,102470,1,2,1:2:0:0:
240,325,102813,6,0,B|209:299|170:306|170:306|140:332|101:325,1,150,2|8,0:0|0:0,0:0:0:0:
12,280,103670,2,0,B|-1:232|-1:232|12:184,1,100,2|8,1:2|0:0,0:0:0:0:
24,134,104184,1,14,1:2:0:0:
124,143,104527,1,10,1:2:0:0:
185,65,104870,1,8,0:0:0:0:
185,65,105041,2,0,L|189:15,2,50,10|8|8,0:0|0:0|0:0,0:0:0:0:
233,94,105556,1,8,0:3:0:0:
233,94,105727,6,0,P|281:106|329:94,1,100,6|10,1:2|0:0,0:0:0:0:
419,50,106413,2,0,L|414:0,2,50,2|2|10,1:2|0:0|0:0,0:0:0:0:
423,100,106927,1,2,0:0:0:0:
431,199,107270,1,2,0:0:0:0:
350,257,107613,1,2,0:0:0:0:
255,225,107956,2,0,P|231:222|206:225,1,50,2|10,0:0|0:0,0:0:0:0:
160,245,108299,6,0,B|112:258|112:258|64:245,1,100,2|2,0:0|0:0,0:0:0:0:
15,231,108813,1,10,0:0:0:0:
23,132,109156,2,0,L|29:57,2,75,2|2|2,1:2|0:0|0:0,0:0:0:0:
72,140,109841,2,0,B|113:142|153:125|153:125|194:140|221:172|221:172|261:186|304:179,1,250,0|2,1:2|0:0,0:0:0:0:
353,174,110870,1,10,0:0:0:0:
450,150,111213,6,0,P|453:174|450:199,2,50,6|2|10,1:2|0:0|0:0,0:0:0:0:
438,101,111727,1,2,0:0:0:0:
381,19,112070,2,0,L|331:23,1,50,2|10,0:0|0:0,0:0:0:0:
281,27,112413,1,2,0:0:0:0:
181,36,112756,1,2,0:0:0:0:
139,127,113099,1,2,0:0:0:0:
197,209,113441,2,0,L|246:204,2,50,2|10|2,0:0|0:0|0:0,0:0:0:0:
218,255,113956,6,0,P|230:302|218:350,1,100,12|0,0:0|1:2,0:0:0:0:
181,384,114470,2,0,L|81:375,1,100,8|0,0:0|1:2,0:0:0:0:
31,370,114984,1,8,0:0:0:0:
56,273,115327,2,0,B|69:225|69:225|56:177,1,100,12|0,1:2|1:2,0:0:0:0:
43,128,115841,2,0,P|92:141|140:128,1,100,8|0,0:0|1:2,0:0:0:0:
184,107,116356,1,8,0:0:0:0:
266,165,116699,5,6,1:2:0:0:
266,165,118070,1,6,1:2:0:0:
266,165,119441,6,0,L|256:263,1,100,8|8,0:0|0:0,0:0:0:0:
289,310,119956,1,8,0:0:0:0:
289,310,120127,2,0,P|313:313|338:310,1,50,8|8,0:0|0:0,0:0:0:0:
387,297,120470,2,0,P|411:294|436:297,1,50,8|8,0:0|0:0,0:0:0:0:
485,310,120813,2,0,L|489:260,1,50,8|8,0:0|0:0,0:0:0:0:
460,220,121156,2,0,L|455:170,1,50,8|8,0:0|0:0,0:0:0:0:
451,120,121499,1,8,0:0:0:0:
360,77,121841,1,8,0:0:0:0:
272,125,122184,6,0,P|224:137|176:125,1,100,6|8,1:2|0:0,0:0:0:0:
132,100,122699,2,0,L|82:104,1,50,2|0,0:0|1:2,0:0:0:0:
5,165,123213,1,10,0:0:0:0:
5,165,123384,2,0,L|13:264,1,100,2|2,1:2|1:2,0:0:0:0:
20,315,123899,1,8,0:0:0:0:
111,358,124241,1,2,1:2:0:0:
204,320,124584,2,0,P|228:317|253:320,1,50,8|8,0:0|0:0,0:0:0:0:
302,332,124927,6,0,B|289:284|289:284|302:236,1,100,6|8,1:2|0:0,0:0:0:0:
314,186,125441,2,0,L|309:136,1,50,2|0,0:0|1:2,0:0:0:0:
371,59,125956,1,10,0:0:0:0:
371,59,126127,2,0,P|419:46|467:58,1,100,2|2,1:2|1:2,0:0:0:0:
511,83,126641,1,8,0:0:0:0:
502,182,126984,1,2,1:2:0:0:
412,225,127327,2,0,P|388:228|363:225,1,50,8|8,0:0|0:0,0:0:0:0:
315,210,127670,6,0,L|215:218,1,100,6|8,1:2|0:0,0:0:0:0:
178,185,128184,2,0,L|128:180,1,50,2|0,0:0|1:2,0:0:0:0:
42,227,128699,1,10,0:0:0:0:
42,227,128870,2,0,B|29:275|29:275|42:323,1,100,2|0,1:2|1:2,0:0:0:0:
55,372,129384,1,10,0:0:0:0:
145,329,129727,1,2,1:2:0:0:
236,370,130070,2,0,P|260:373|285:370,1,50,8|8,0:0|0:0,0:0:0:0:
337,350,130413,6,0,L|436:358,1,100,6|0,1:2|1:2,0:0:0:0:
478,330,130927,2,0,P|490:282|477:234,1,100,10|0,0:0|1:2,0:0:0:0:
449,193,131441,1,10,0:0:0:0:
353,167,131784,2,0,B|305:154|305:154|257:167,1,100,8|0,0:0|1:2,0:0:0:0:
208,179,132299,2,0,L|199:79,1,100,10|0,0:0|1:2,0:0:0:0:
194,29,132813,1,10,0:0:0:0:
100,63,133156,6,0,B|106:137|106:137|74:205,2,150,6|2|2,1:2|0:0|1:2,0:0:0:0:
194,29,134527,1,0,1:2:0:0:
285,70,134870,2,0,P|333:82|381:70,2,100,0|2|2,1:2|1:2|1:2,0:0:0:0:
194,29,135899,6,0,L|207:178,2,150,2|2|2,1:2|0:0|1:2,0:0:0:0:
100,63,137270,1,0,1:2:0:0:
109,162,137613,1,0,1:2:0:0:
117,261,137956,2,0,L|67:265,2,50,8|8|8,1:2|0:0|1:2,0:0:0:0:
166,256,138471,5,14,1:2:0:0:
256,192,138641,12,0,144127,0:0:0:0:
