osu file format v14

[General]
AudioFilename: audio.mp3
AudioLeadIn: 0
PreviewTime: 47936
Countdown: 1
SampleSet: Normal
StackLeniency: 0.7
Mode: 0
LetterboxInBreaks: 0
WidescreenStoryboard: 0

[Editor]
Bookmarks: 1157,49970,66261,74397,82532,98804,99312,115075,131346,155753,163888,180160,196431,224905
DistanceSpacing: 1.2
BeatDivisor: 4
GridSize: 32
TimelineZoom: 3.399999

[Metadata]
Title:Kaishin no ichi geki
TitleUnicode:かいしんのいちげき!
Artist:Amatsuki
ArtistUnicode:天月
Creator:Karnageee
Version:Wakaranai !
Source:
Tags:
BeatmapID:1873503
BeatmapSetID:896699

[Difficulty]
HPDrainRate:5
CircleSize:4
OverallDifficulty:8
ApproachRate:9.2
SliderMultiplier:1.4
SliderTickRate:1

[Events]
//Background and Video events
Video,0,"かいしんのいちげき 天月-あまつき-オリジナル.mp4"
0,0,"bg.png",0,0
//Break Periods
2,155889,163288
//Storyboard Layer 0 (Background)
//Storyboard Layer 1 (Fail)
//Storyboard Layer 2 (Pass)
//Storyboard Layer 3 (Foreground)
//Storyboard Sound Samples

[TimingPoints]
1177,254.237288135593,4,1,0,60,1,0
1177,-166.666666666667,4,1,0,30,0,0
8549,-83.3333333333333,4,1,0,60,0,0
9312,-83.3333333333333,4,1,0,60,0,1
15414,-83.3333333333333,4,1,0,60,0,1
15541,-83.3333333333333,4,1,0,5,0,1
15668,-62.5,4,1,0,60,0,1
15795,-62.5,4,1,0,5,0,1
15922,-50,4,1,0,60,0,1
16049,-50,4,1,0,5,0,1
16176,-45.4545454545455,4,1,0,60,0,1
16304,-45.4545454545455,4,1,0,5,0,1
16431,-83.3333333333333,4,1,0,60,0,1
17448,-83.3333333333333,4,1,0,60,0,0
24948,-83.3333333333333,4,1,0,5,0,0
25075,-83.3333333333333,4,1,0,60,0,0
33719,-83.3333333333333,4,1,0,60,0,0
37787,-83.3333333333333,4,1,0,60,0,0
41854,-83.3333333333333,4,1,0,60,0,0
45922,-83.3333333333333,4,1,0,60,0,0
47956,-100,4,1,0,60,0,0
48973,-100,4,1,0,60,0,0
49990,-83.3333333333333,4,1,0,60,0,0
62702,-66.6666666666667,4,1,0,60,0,0
63719,-83.3333333333333,4,1,0,60,0,0
66261,-100,4,1,0,60,0,1
70329,-83.3333333333333,4,1,0,60,0,1
74397,-83.3333333333333,4,1,0,60,0,1
80499,-62.5,4,1,0,60,0,1
80626,-62.5,4,1,0,5,0,1
80753,-50,4,1,0,60,0,1
80880,-50,4,1,0,5,0,1
81007,-45.4545454545455,4,1,0,60,0,1
81134,-45.4545454545455,4,1,0,5,0,1
81261,-38.4615384615385,4,1,0,60,0,1
81388,-83.3333333333333,4,1,0,5,0,1
81452,-83.3333333333333,4,1,0,60,0,1
82532,-83.3333333333333,4,1,0,60,0,0
98804,-83.3333333333333,4,1,0,60,0,0
106939,-83.3333333333333,4,1,0,60,0,0
115075,-83.3333333333333,4,1,0,60,0,0
119143,-83.3333333333333,4,1,0,60,0,0
123210,-83.3333333333333,4,1,0,60,0,0
127278,-83.3333333333333,4,1,0,60,0,0
131346,-83.3333333333333,4,1,0,60,0,0
144058,-66.6666666666667,4,1,0,60,0,0
144566,-66.6666666666667,4,1,0,60,0,0
145075,-83.3333333333333,4,1,0,60,0,0
147617,-83.3333333333333,4,1,0,60,0,1
151685,-83.3333333333333,4,1,0,60,0,1
155753,-83.3333333333333,4,1,0,60,0,0
163888,-83.3333333333333,4,1,0,60,0,0
180160,-83.3333333333333,4,1,0,60,0,0
196431,-71.4285714285714,4,1,0,60,0,1
209143,-62.5,4,1,0,60,0,1
210160,-71.4285714285714,4,1,0,60,0,1
212702,-71.4285714285714,4,1,0,60,0,1
220838,-133.333333333333,4,1,0,60,0,0
221791,-133.333333333333,4,1,0,5,0,0
221854,-133.333333333333,4,1,0,60,0,0

[HitObjects]
312,34,1177,6,0,B|226:78|226:78|206:167,1,167.999994873047
292,126,2193,2,0,B|378:170|378:170|393:239,1,167.999994873047
317,242,3210,2,0,B|231:198|231:198|215:128,1,167.999994873047
236,48,4227,2,0,B|166:63|166:63|122:149,1,167.999994873047
57,239,5499,6,0,B|83:276|83:276|130:280,1,83.9999974365235
123,197,6007,2,0,B|149:160|149:160|187:156,1,83.9999974365235
191,233,6515,2,0,B|229:229|229:229|255:192,1,83.9999974365235
256,192,7024,1,0,0:0:0:0:
256,192,7278,1,0,0:0:0:0:
256,192,7342,12,0,8804,0:0:0:0:
79,7,9312,5,0,0:0:0:0:
168,53,9439,1,0,0:0:0:0:
83,108,9566,1,0,0:0:0:0:
174,149,9693,2,0,L|271:215,1,83.9999974365235
290,141,9948,1,0,0:0:0:0:
353,62,10075,2,0,P|396:48|394:70,1,83.9999974365235
423,176,10329,5,0,0:0:0:0:
453,271,10456,1,0,0:0:0:0:
370,328,10583,1,0,0:0:0:0:
338,235,10710,2,0,L|241:169,1,83.9999974365235
222,243,10965,1,0,0:0:0:0:
159,322,11092,2,0,P|116:336|118:314,1,83.9999974365235
77,225,11346,5,0,0:0:0:0:
145,151,11473,1,0,0:0:0:0:
211,75,11600,1,0,0:0:0:0:
305,40,11727,2,0,P|377:42|395:68,1,83.9999974365235
449,122,11982,1,0,0:0:0:0:
356,162,12109,1,0,0:0:0:0:
434,225,12236,2,0,L|372:298,1,83.9999974365235
295,230,12490,5,0,0:0:0:0:
193,230,12617,1,0,0:0:0:0:
240,318,12744,2,0,L|154:360,1,83.9999974365235
96,280,12999,2,0,L|11:219,2,83.9999974365235
122,181,13380,5,0,0:0:0:0:
177,97,13507,1,0,0:0:0:0:
224,185,13634,1,0,0:0:0:0:
286,106,13761,2,0,P|319:68|369:57,1,83.9999974365235
451,84,14015,1,0,0:0:0:0:
364,137,14143,2,0,P|399:161|412:200,1,83.9999974365235
386,298,14397,5,0,0:0:0:0:
336,210,14524,1,0,0:0:0:0:
276,291,14651,1,0,0:0:0:0:
234,199,14778,2,0,L|159:267,1,83.9999974365235
109,334,15032,1,0,0:0:0:0:
35,264,15160,2,0,B|25:216|25:216|40:163,1,83.9999974365235
96,224,15414,6,0,L|105:137,1,83.9999974365235
160,224,15668,2,0,L|175:73,1,112
224,224,15922,2,0,L|240:56,1,140
288,224,16176,2,0,L|304:56,1,154.000004699707
395,38,16431,1,0,0:0:0:0:
508,204,16685,1,0,0:0:0:0:
358,339,16939,2,0,P|263:288|213:214,1,167.999994873047
374,133,17448,6,0,B|283:97|283:97|213:128,1,167.999994873047
292,188,17956,2,0,B|201:223|201:223|138:189,1,167.999994873047
43,250,18465,1,0,0:0:0:0:
54,108,18719,1,0,0:0:0:0:
151,84,18846,2,0,L|230:45,1,83.9999974365235
327,48,19100,2,0,L|403:86,1,83.9999974365235
444,189,19482,1,0,0:0:0:0:
427,294,19736,1,0,0:0:0:0:
282,216,19990,6,0,B|249:176|249:176|180:177|180:177|136:236,1,167.999994873047
143,332,20499,2,0,P|90:313|36:220,1,167.999994873047
69,127,21007,1,0,0:0:0:0:
161,78,21134,1,0,0:0:0:0:
183,176,21261,2,0,P|221:251|324:279,1,167.999994873047
478,314,21770,6,0,B|467:238|467:238|429:203|429:203|418:148,1,167.999994873047
455,84,22278,2,0,B|379:95|379:95|344:133|344:133|289:144,1,167.999994873047
421,164,22787,2,0,B|375:225|375:225|377:277|377:277|346:323,1,167.999994873047
302,254,23295,2,0,B|271:183|271:183|225:159|225:159|201:109,1,167.999994873047
104,60,23804,1,0,0:0:0:0:
15,241,24058,1,0,0:0:0:0:
194,149,24312,1,0,0:0:0:0:
145,356,24566,2,0,B|220:288|220:288|232:221|232:221|319:160,1,251.999992309571
376,216,25075,2,0,P|337:113|258:90,1,167.999994873047
158,66,25583,6,0,B|107:94|107:94|98:132,1,83.9999974365235
193,144,25838,2,0,B|173:187|173:187|137:202,1,83.9999974365235
60,185,26092,2,0,B|58:225|58:225|83:262,1,83.9999974365235
130,329,26346,2,0,B|167:303|167:303|207:305,1,83.9999974365235
286,320,26600,2,0,B|281:280|281:280|250:248,1,83.9999974365235
174,244,26854,2,0,B|178:204|178:204|210:171,1,83.9999974365235
304,186,27109,6,0,B|353:253|353:253|456:268,1,167.999994873047
493,181,27490,1,0,0:0:0:0:
432,100,27617,2,0,B|381:68|381:68|339:70,1,83.9999974365235
259,44,27871,1,0,0:0:0:0:
167,87,27999,1,0,0:0:0:0:
107,168,28126,1,0,0:0:0:0:
102,268,28253,2,0,P|131:318|167:335,1,83.9999974365235
293,331,28634,2,0,B|320:255|320:255|286:170,1,167.999994873047
297,60,29143,5,0,0:0:0:0:
375,123,29270,1,0,0:0:0:0:
288,174,29397,2,0,L|357:245,2,83.9999974365235
204,125,29905,6,0,P|163:96|52:146,1,167.999994873047
133,182,30414,2,0,P|105:263|136:337,1,167.999994873047
196,261,30922,2,0,P|273:289|349:259,1,167.999994873047
271,209,31431,2,0,P|241:132|269:55,1,167.999994873047
414,89,31939,1,0,0:0:0:0:
356,246,32193,1,0,0:0:0:0:
240,102,32448,1,0,0:0:0:0:
104,72,32702,6,0,B|99:155|99:155|36:217,1,167.999994873047
96,268,33210,2,0,B|157:211|157:211|245:210,1,167.999994873047
309,226,33719,5,0,0:0:0:0:
447,354,33973,1,0,0:0:0:0:
507,169,34227,1,0,0:0:0:0:
321,49,34482,5,0,0:0:0:0:
220,50,34609,1,0,0:0:0:0:
63,46,34863,1,0,0:0:0:0:
78,188,35117,1,0,0:0:0:0:
139,267,35244,1,0,0:0:0:0:
197,185,35371,1,0,0:0:0:0:
257,266,35499,1,0,0:0:0:0:
315,184,35626,1,0,0:0:0:0:
382,258,35753,5,0,0:0:0:0:
254,352,36007,1,0,0:0:0:0:
130,258,36261,1,0,0:0:0:0:
17,183,36579,5,0,0:0:0:0:
65,94,36706,1,0,0:0:0:0:
205,38,36897,2,0,B|212:103|212:103|311:137,1,167.999994873047
380,65,37278,1,0,0:0:0:0:
418,157,37405,1,0,0:0:0:0:
365,242,37532,1,0,0:0:0:0:
267,212,37660,1,0,0:0:0:0:
229,134,37787,6,0,B|214:91|214:91|163:74,1,83.9999974365235
93,101,38041,2,0,B|39:123|39:123|33:164,1,83.9999974365235
45,248,38295,2,0,B|105:307|105:307|205:312,1,167.999994873047
296,348,38804,2,0,P|347:309|351:271,1,83.9999974365235
274,269,39059,2,0,P|260:224|291:195,1,83.9999974365235
384,197,39312,2,0,P|362:141|267:93,1,167.999994873047
181,78,39821,6,0,B|218:224|193:215|138:122,1,167.999994873047
109,97,40329,6,0,B|73:35|48:26|85:172,1,167.999994873047
51,243,40710,1,0,0:0:0:0:
118,318,40838,2,0,P|173:323|281:284,1,167.999994873047
362,325,41346,2,0,B|345:226|345:226|280:194,1,167.999994873047
203,158,41854,5,0,0:0:0:0:
65,30,42108,1,0,0:0:0:0:
5,215,42362,1,0,0:0:0:0:
191,335,42617,5,0,0:0:0:0:
292,334,42744,1,0,0:0:0:0:
449,338,42998,1,0,0:0:0:0:
434,196,43252,1,0,0:0:0:0:
373,117,43379,1,0,0:0:0:0:
315,199,43506,1,0,0:0:0:0:
255,118,43634,1,0,0:0:0:0:
197,200,43761,1,0,0:0:0:0:
130,126,43888,5,0,0:0:0:0:
258,32,44143,1,0,0:0:0:0:
130,258,44397,1,0,0:0:0:0:
262,337,44651,5,0,0:0:0:0:
321,255,44778,1,0,0:0:0:0:
318,154,44905,2,0,L|246:74,1,83.9999974365235
51,134,45287,1,0,0:0:0:0:
108,216,45414,1,0,0:0:0:0:
183,283,45541,1,0,0:0:0:0:
257,215,45668,1,0,0:0:0:0:
315,133,45795,1,0,0:0:0:0:
387,63,45922,6,0,P|464:86|513:161,1,167.999994873047
400,250,46431,2,0,B|324:270|324:270|272:253|272:253|206:263,1,167.999994873047
176,325,46939,1,0,0:0:0:0:
65,209,47193,1,0,0:0:0:0:
173,101,47448,1,0,0:0:0:0:
165,194,47702,2,0,L|231:251,1,83.9999974365235
319,274,47956,6,0,L|393:326,1,70
397,201,48210,6,0,L|461:168,1,70
347,91,48465,6,0,L|287:23,1,70
150,44,48719,6,0,L|73:98,1,70
166,161,48973,2,0,B|59:250|130:268|130:268|191:279|80:380,1,280
77,42,49990,6,0,P|117:93|82:187,1,167.999994873047
46,112,50499,2,0,P|3:180|36:253,1,167.999994873047
158,177,50943,2,0,L|217:124,1,41.9999987182618
275,47,51261,1,0,0:0:0:0:
346,192,51515,1,0,0:0:0:0:
275,337,51770,1,0,0:0:0:0:
185,236,52024,6,0,B|103:190|103:190|101:95,1,167.999994873047
175,144,52532,2,0,B|221:62|221:62|316:60,1,167.999994873047
265,141,53041,2,0,L|402:254,1,167.999994873047
460,208,53549,2,0,P|460:294|380:321,1,167.999994873047
249,312,54058,5,0,0:0:0:0:
96,224,54312,2,0,L|28:129,1,83.9999974365235
169,68,54566,2,0,L|243:10,1,83.9999974365235
352,128,54821,2,0,L|400:196,1,83.9999974365235
343,316,55075,2,0,L|269:374,1,83.9999974365235
105,353,55329,6,0,P|47:286|47:261,1,83.9999974365235
134,280,55583,2,0,P|113:243|77:222,1,83.9999974365235
9,180,55838,2,0,B|39:137|39:137|106:123,1,83.9999974365235
158,134,56092,2,0,P|225:76|250:76,1,83.9999974365235
231,163,56346,2,0,P|267:142|288:106,1,83.9999974365235
332,30,56600,2,0,B|385:37|385:37|427:83,1,83.9999974365235
409,139,56855,2,0,B|354:144|354:144|307:195,1,83.9999974365235
378,236,57109,2,0,B|397:214|397:214|452:209,1,83.9999974365235
439,299,57363,5,0,0:0:0:0:
241,342,57617,1,0,0:0:0:0:
349,172,57871,1,0,0:0:0:0:
156,234,58126,1,0,0:0:0:0:
91,344,58380,6,0,L|20:271,1,83.9999974365235
110,254,58634,2,0,L|205:254,1,83.9999974365235
188,174,58888,2,0,L|117:101,1,83.9999974365235
207,84,59142,2,0,L|302:84,1,83.9999974365235
384,32,59397,2,0,B|426:68|426:68|424:133,1,83.9999974365235
350,145,59651,2,0,L|266:145,1,83.9999974365235
185,184,59905,2,0,L|263:228,1,83.9999974365235
349,230,60160,6,0,P|337:290|296:310,1,83.9999974365235
234,311,60414,2,0,P|174:299|154:258,1,83.9999974365235
145,204,60668,2,0,P|157:144|198:124,1,83.9999974365235
245,95,60922,2,0,P|233:35|192:15,1,83.9999974365235
145,30,61176,2,0,P|58:37|25:118,1,167.999994873047
65,171,61685,6,0,B|85:229|85:229|146:263|146:263|176:327,1,167.999994873047
106,344,62193,2,0,P|212:354|236:304,1,167.999994873047
423,316,62702,6,0,B|389:248|389:248|327:211|327:211|297:145,1,210.000008010865
364,106,63210,2,0,P|266:86|225:183,1,210.000008010865
263,341,63719,6,0,L|211:237,1,83.9999974365235
267,174,63973,2,0,L|328:76,1,83.9999974365235
235,36,64227,2,0,L|125:26,1,83.9999974365235
91,110,64482,2,0,L|61:202,1,83.9999974365235
152,239,64736,2,0,L|266:217,1,83.9999974365235
322,167,64990,2,0,L|372:73,1,83.9999974365235
459,38,65244,2,0,P|490:112|489:219,1,167.999994873047
356,84,65753,2,0,P|421:126|388:199,1,167.999994873047
486,215,66261,5,0,0:0:0:0:
302,343,66515,1,0,0:0:0:0:
357,125,66770,5,0,0:0:0:0:
429,336,67024,1,0,0:0:0:0:
265,182,67278,5,0,0:0:0:0:
68,288,67532,1,0,0:0:0:0:
148,78,67787,5,0,0:0:0:0:
210,292,68041,1,0,0:0:0:0:
355,122,68295,5,0,0:0:0:0:
278,332,68549,1,0,0:0:0:0:
217,115,68804,5,0,0:0:0:0:
142,325,69058,1,0,0:0:0:0:
292,159,69312,5,0,0:0:0:0:
80,233,69566,1,0,0:0:0:0:
261,365,69821,5,0,0:0:0:0:
444,236,70075,1,0,0:0:0:0:
414,41,70329,6,0,P|325:71|287:134,1,167.999994873047
375,133,70838,2,0,B|368:215|368:215|281:243,1,167.999994873047
229,294,71346,6,0,P|169:308|131:299,1,83.9999974365235
167,228,71600,2,0,P|108:230|78:252,1,83.9999974365235
60,320,71854,2,0,P|21:291|12:235,1,83.9999974365235
9,175,72109,2,0,P|1:126|35:80,1,83.9999974365235
83,144,72363,2,0,P|99:182|90:222,1,83.9999974365235
93,312,72617,2,0,P|141:316|179:290,1,83.9999974365235
268,326,72871,5,0,0:0:0:0:
322,301,72999,1,0,0:0:0:0:
357,254,73126,1,0,0:0:0:0:
369,196,73253,1,0,0:0:0:0:
370,137,73380,1,0,0:0:0:0:
256,32,73634,1,0,0:0:0:0:
142,137,73888,1,0,0:0:0:0:
469,288,74397,5,0,0:0:0:0:
369,280,74524,1,0,0:0:0:0:
426,196,74651,1,0,0:0:0:0:
326,194,74778,2,0,L|211:171,1,83.9999974365235
222,247,75033,1,0,0:0:0:0:
195,344,75160,2,0,P|161:374|154:353,1,83.9999974365235
86,266,75414,5,0,0:0:0:0:
21,191,75541,1,0,0:0:0:0:
76,106,75668,1,0,0:0:0:0:
141,179,75795,2,0,L|256:202,1,83.9999974365235
245,126,76050,1,0,0:0:0:0:
272,29,76177,2,0,P|306:0|313:20,1,83.9999974365235
385,86,76431,5,0,0:0:0:0:
352,181,76558,1,0,0:0:0:0:
321,277,76685,1,0,0:0:0:0:
248,345,76812,2,0,P|181:372|154:355,1,83.9999974365235
83,326,77067,1,0,0:0:0:0:
153,253,77194,1,0,0:0:0:0:
57,226,77321,2,0,L|85:134,1,83.9999974365235
183,167,77575,5,0,0:0:0:0:
277,127,77702,1,0,0:0:0:0:
199,64,77829,2,0,L|271:2,1,83.9999974365235
346,43,78084,2,0,L|449:66,2,83.9999974365235
361,144,78465,5,0,0:0:0:0:
343,243,78592,1,0,0:0:0:0:
266,180,78719,1,0,0:0:0:0:
240,277,78846,2,0,P|224:325|182:355,1,83.9999974365235
96,362,79100,1,0,0:0:0:0:
156,279,79228,2,0,P|114:271|87:240,1,83.9999974365235
73,140,79482,5,0,0:0:0:0:
153,201,79609,1,0,0:0:0:0:
176,103,79736,1,0,0:0:0:0:
251,171,79863,2,0,L|294:79,1,83.9999974365235
308,23,80117,1,0,0:0:0:0:
403,58,80245,2,0,B|430:98|430:98|437:152,1,83.9999974365235
243,97,80499,6,0,P|301:111|346:155,1,112
339,144,80753,6,0,P|362:197|336:284,1,140
342,275,81007,6,0,P|306:322|178:338,1,154.000004699707
218,349,81261,6,0,P|122:331|52:220,1,181.999991668702
40,83,81643,6,0,L|122:131,1,83.9999974365235
227,246,82024,2,0,L|292:171,1,83.9999974365235
382,92,82532,6,0,L|448:32,1,83.9999974365235
382,92,82786,2,0,L|461:141,1,83.9999974365235
284,51,83041,2,0,B|239:63|239:63|212:103,1,83.9999974365235
291,137,83295,1,0,0:0:0:0:
334,227,83422,1,0,0:0:0:0:
291,318,83549,1,0,0:0:0:0:
201,363,83676,6,0,L|100:328,1,83.9999974365235
26,300,83931,1,0,0:0:0:0:
76,213,84058,1,0,0:0:0:0:
11,135,84185,1,0,0:0:0:0:
81,62,84312,6,0,P|133:24|180:17,1,83.9999974365235
156,137,84693,1,0,0:0:0:0:
233,202,84821,1,0,0:0:0:0:
300,127,84948,1,0,0:0:0:0:
359,45,85075,1,0,0:0:0:0:
502,48,85329,6,0,L|476:133,1,83.9999974365235
397,189,85583,1,0,0:0:0:0:
480,245,85710,1,0,0:0:0:0:
415,323,85838,1,0,0:0:0:0:
314,324,85965,1,0,0:0:0:0:
246,249,86092,1,0,0:0:0:0:
166,187,86219,2,0,B|126:217|126:217|125:260,1,83.9999974365235
52,250,86473,2,0,B|52:217|52:217|12:187,1,83.9999974365235
102,62,86854,5,0,0:0:0:0:
210,63,87109,2,0,B|244:100|244:100|229:165|229:165|255:210,1,167.999994873047
305,154,87617,2,0,B|339:191|339:191|324:256|324:256|350:301,1,167.999994873047
414,340,88126,2,0,P|476:267|491:191,1,167.999994873047
491,198,88634,2,0,P|470:117|413:56,1,167.999994873047
322,79,89143,2,0,B|256:82|256:82|226:61|226:61|156:64,1,167.999994873047
83,137,89651,5,0,0:0:0:0:
135,331,89905,1,0,0:0:0:0:
229,152,90160,1,0,0:0:0:0:
265,350,90414,1,0,0:0:0:0:
384,322,90668,6,0,P|427:293|416:238,1,83.9999974365235
357,249,90922,2,0,P|347:209|310:191,1,83.9999974365235
282,263,91176,2,0,P|245:244|235:205,1,83.9999974365235
162,189,91430,2,0,P|171:149|208:131,1,83.9999974365235
295,117,91685,2,0,B|327:82|327:82|318:37,1,83.9999974365235
244,60,91939,2,0,B|209:28|209:28|164:37,1,83.9999974365235
105,110,92193,5,0,0:0:0:0:
41,189,92321,1,0,0:0:0:0:
136,222,92448,1,0,0:0:0:0:
92,313,92575,2,0,B|138:345|138:345|192:318,1,83.9999974365235
247,277,92829,6,0,L|281:189,1,83.9999974365235
379,230,93083,2,0,L|353:310,1,83.9999974365235
439,359,93338,2,0,P|509:345|522:308,1,83.9999974365235
460,280,93592,2,0,P|497:249|494:211,1,83.9999974365235
396,204,93846,5,0,0:0:0:0:
337,122,93973,1,0,0:0:0:0:
250,71,94100,1,0,0:0:0:0:
164,123,94227,1,0,0:0:0:0:
81,180,94354,2,0,P|38:209|2:258,1,83.9999974365235
22,334,94609,2,0,P|86:334|122:309,1,83.9999974365235
192,320,94990,6,0,B|256:256|256:256|160:288,1,167.999994873047
114,263,95499,2,0,B|50:198|50:198|135:173,1,167.999994873047
204,208,96007,2,0,B|268:143|268:143|222:82,1,167.999994873047
162,140,96515,2,0,B|81:98|81:98|45:21,1,167.999994873047
146,51,97024,2,0,P|195:29|238:36,1,83.9999974365235
204,104,97278,2,0,P|255:112|292:87,1,83.9999974365235
324,32,97532,2,0,P|376:69|405:120,1,83.9999974365235
317,120,97787,2,0,B|288:160|288:160|298:205,1,83.9999974365235
374,180,98041,2,0,B|403:220|403:220|393:265,1,83.9999974365235
300,312,98295,5,0,0:0:0:0:
270,296,98422,1,0,0:0:0:0:
240,280,98549,1,0,0:0:0:0:
212,260,98676,1,0,0:0:0:0:
116,247,98804,6,0,B|64:320|64:320|64:224,1,167.999994873047
116,137,99312,2,0,B|64:64|64:64|64:160,1,167.999994873047
224,192,99821,2,0,B|182:220|182:220|181:279|181:279|233:320,1,167.999994873047
288,192,100329,2,0,B|330:220|330:220|331:279|331:279|279:320,1,167.999994873047
396,247,100838,6,0,B|448:320|448:320|448:224,1,167.999994873047
396,137,101346,2,0,B|448:64|448:64|448:160,1,167.999994873047
288,192,101854,2,0,B|330:164|330:164|331:105|331:105|279:64,1,167.999994873047
224,192,102363,2,0,B|182:164|182:164|181:105|181:105|233:64,1,167.999994873047
130,287,102871,6,0,B|182:360|182:360|182:264,1,167.999994873047
382,287,103380,6,0,B|330:360|330:360|330:264,1,167.999994873047
260,184,103761,1,0,0:0:0:0:
311,97,103888,2,0,B|337:55|337:55|304:16,1,83.9999974365235
197,28,104143,2,0,B|175:55|175:55|201:97,1,83.9999974365235
165,172,104397,2,0,P|111:196|95:225,1,83.9999974365235
151,300,104651,2,0,P|205:324|221:353,1,83.9999974365235
316,345,104905,6,0,P|342:313|382:301,1,83.9999974365235
464,228,105159,2,0,P|437:196|397:184,1,83.9999974365235
328,110,105414,2,0,B|295:73|295:73|246:87,1,83.9999974365235
273,154,105668,2,0,B|244:173|244:173|244:222,1,83.9999974365235
335,242,105922,2,0,P|271:301|170:263,1,167.999994873047
178,363,106431,2,0,P|119:299|157:198,1,167.999994873047
26,171,106939,6,0,B|-7:83|-7:83|57:147,1,167.999994873047
26,213,107448,2,0,B|-7:301|-7:301|57:237,1,167.999994873047
132,221,107956,2,0,B|169:267|169:267|228:266|228:266|256:224,1,167.999994873047
132,162,108464,2,0,B|169:117|169:117|228:118|228:118|256:160,1,167.999994873047
486,213,108973,6,0,B|519:301|519:301|455:237,1,167.999994873047
486,171,109482,2,0,B|519:83|519:83|455:147,1,167.999994873047
379,221,109990,2,0,B|343:267|343:267|284:266|284:266|256:224,1,167.999994873047
379,162,110498,2,0,B|343:117|343:117|284:118|284:118|256:160,1,167.999994873047
32,96,111007,6,0,B|96:128|96:128|128:128|128:128|184:94,1,167.999994873047
111,58,111515,2,0,B|166:24|166:24|198:24|198:24|262:56,1,167.999994873047
278,137,112024,2,0,P|316:173|352:181,1,83.9999974365235
365,81,112278,2,0,P|393:50|432:37,1,83.9999974365235
444,137,112532,2,0,P|488:151|511:180,1,83.9999974365235
424,233,112787,2,0,B|360:244|360:244|323:282|323:282|263:287,1,167.999994873047
288,192,113295,6,0,B|230:185|230:185|192:224,1,83.9999974365235
263,278,113549,2,0,B|224:325|224:325|172:340,1,83.9999974365235
172,264,113804,2,0,B|129:242|129:242|105:201,1,83.9999974365235
37,154,114058,2,0,P|93:79|167:62,1,167.999994873047
124,156,114566,2,0,P|215:134|282:169,1,167.999994873047
393,339,115075,5,0,0:0:0:0:
194,305,115329,1,0,0:0:0:0:
393,277,115583,1,0,0:0:0:0:
449,179,115838,5,0,0:0:0:0:
433,79,115965,2,0,B|383:45|383:45|331:46,1,83.9999974365235
258,43,116219,1,0,0:0:0:0:
161,73,116346,1,0,0:0:0:0:
118,164,116473,1,0,0:0:0:0:
119,264,116600,2,0,P|161:314|210:342,1,83.9999974365235
276,322,116854,2,0,P|308:295|332:261,1,83.9999974365235
323,174,117109,5,0,0:0:0:0:
482,50,117363,1,0,0:0:0:0:
483,251,117617,1,0,0:0:0:0:
349,343,117871,6,0,P|296:339|261:304,1,83.9999974365235
316,229,118126,1,0,0:0:0:0:
226,181,118253,1,0,0:0:0:0:
186,274,118380,2,0,P|156:323|109:352,1,83.9999974365235
39,308,118634,1,0,0:0:0:0:
89,220,118761,1,0,0:0:0:0:
33,135,118888,1,0,0:0:0:0:
89,51,119015,1,0,0:0:0:0:
184,85,119143,6,0,P|180:145|201:187,1,83.9999974365235
263,120,119397,2,0,P|267:180|246:222,1,83.9999974365235
183,241,119651,2,0,P|214:283|276:302,1,83.9999974365235
318,302,119905,2,0,P|369:309|421:273,1,83.9999974365235
416,224,120160,2,0,L|416:128,1,83.9999974365235
354,93,120414,2,0,L|286:25,1,83.9999974365235
224,32,120668,2,0,L|127:32,1,83.9999974365235
41,43,120922,2,0,L|101:103,1,83.9999974365235
184,121,121176,6,0,B|163:167|163:167|125:189,1,83.9999974365235
45,181,121431,2,0,B|66:227|66:227|104:249,1,83.9999974365235
180,243,121685,2,0,L|278:243,1,83.9999974365235
327,196,121939,2,0,P|344:251|313:302,1,83.9999974365235
251,326,122193,2,0,B|190:328|190:328|131:354|131:354|60:351,1,167.999994873047
49,250,122638,2,0,B|33:169|33:169|63:119|63:119|58:40,1,209.999993591309
261,353,123210,5,0,0:0:0:0:
256,150,123465,1,0,0:0:0:0:
428,254,123719,1,0,0:0:0:0:
226,256,123973,1,0,0:0:0:0:
156,326,124100,2,0,P|84:319|66:225,1,167.999994873047
66,93,124609,5,0,0:0:0:0:
154,48,124736,1,0,0:0:0:0:
202,136,124863,1,0,0:0:0:0:
254,222,124990,1,0,0:0:0:0:
342,173,125117,1,0,0:0:0:0:
419,108,125244,5,0,0:0:0:0:
254,41,125499,1,0,0:0:0:0:
179,228,125753,1,0,0:0:0:0:
86,165,126007,6,0,L|45:87,1,83.9999974365235
3,21,126388,1,0,0:0:0:0:
183,24,126643,1,0,0:0:0:0:
139,114,126770,1,0,0:0:0:0:
85,199,126897,1,0,0:0:0:0:
139,283,127024,1,0,0:0:0:0:
190,369,127151,1,0,0:0:0:0:
270,319,127278,6,0,L|393:197,1,167.999994873047
417,96,127787,2,0,P|352:44|265:35,1,167.999994873047
212,109,128168,1,0,0:0:0:0:
318,129,128295,2,0,L|217:268,1,167.999994873047
266,335,128804,2,0,P|176:335|130:269,1,167.999994873047
129,206,129312,6,0,L|76:141,1,83.9999974365235
241,65,129566,6,0,L|306:12,1,83.9999974365235
382,177,129821,6,0,L|435:242,1,83.9999974365235
270,318,130075,6,0,L|205:371,1,83.9999974365235
159,101,130329,2,0,B|293:80|293:80|205:116|215:268|215:268,1,335.999989746094
72,345,131346,6,0,P|60:281|135:214,1,167.999994873047
133,298,131855,2,0,P|202:258|208:178,1,167.999994873047
109,127,132299,2,0,L|172:82,1,41.9999987182618
273,50,132617,1,0,0:0:0:0:
395,151,132871,1,0,0:0:0:0:
276,279,133126,1,0,0:0:0:0:
172,197,133380,2,0,B|121:118|121:118|164:33,1,167.999994873047
207,111,133888,2,0,B|286:60|286:60|370:103,1,167.999994873047
287,151,134397,2,0,L|355:315,1,167.999994873047
428,301,134905,2,0,P|388:377|304:364,1,167.999994873047
233,222,135414,5,0,0:0:0:0:
334,131,135668,2,0,L|271:77,1,83.9999974365235
141,93,135922,2,0,L|75:159,1,83.9999974365235
121,270,136176,2,0,L|181:330,1,83.9999974365235
314,329,136431,2,0,L|372:265,1,83.9999974365235
465,263,136685,6,0,P|485:176|473:154,1,83.9999974365235
406,212,136939,2,0,P|407:169|429:134,1,83.9999974365235
469,65,137194,2,0,B|422:41|422:41|357:60,1,83.9999974365235
316,94,137448,2,0,P|229:75|207:86,1,83.9999974365235
265,154,137702,2,0,P|223:153|188:131,1,83.9999974365235
113,84,137956,2,0,B|70:115|70:115|54:176,1,83.9999974365235
97,217,138211,2,0,B|147:195|147:195|213:218,1,83.9999974365235
268,269,138465,5,0,0:0:0:0:
367,372,138719,5,0,0:0:0:0:
172,317,138973,1,0,0:0:0:0:
347,218,139227,1,0,0:0:0:0:
147,182,139482,1,0,0:0:0:0:
38,248,139736,6,0,L|10:150,1,83.9999974365235
97,178,139990,2,0,L|181:222,1,83.9999974365235
204,144,140244,2,0,L|175:46,1,83.9999974365235
261,73,140498,2,0,L|345:118,1,83.9999974365235
416,144,140753,2,0,B|436:196|436:196|413:257,1,83.9999974365235
358,203,141007,2,0,L|283:164,1,83.9999974365235
204,144,141261,2,0,L|227:224,1,83.9999974365235
320,269,141516,6,0,P|281:316|235:314,1,83.9999974365235
180,286,141770,2,0,P|133:247|134:202,1,83.9999974365235
152,150,142024,2,0,P|191:103|236:104,1,83.9999974365235
276,143,142278,2,0,P|293:84|266:47,1,83.9999974365235
221,23,142532,2,0,L|48:53,1,167.999994873047
71,126,143041,6,0,B|72:177|72:177|110:236|110:236|106:306,1,167.999994873047
39,302,143549,2,0,P|127:360|166:325,1,167.999994873047
345,379,144058,6,0,B|347:303|347:303|309:242|309:242|314:169,1,210.000008010865
391,166,144566,2,0,P|314:103|232:169,1,210.000008010865
192,326,145075,6,0,L|195:210,1,83.9999974365235
274,181,145329,2,0,L|374:123,1,83.9999974365235
307,65,145583,2,0,L|214:4,1,83.9999974365235
137,45,145838,2,0,L|67:112,1,83.9999974365235
142,184,146092,2,0,L|249:189,1,83.9999974365235
326,200,146346,2,0,L|414:141,1,83.9999974365235
507,151,146600,2,0,P|500:231|449:325,1,167.999994873047
394,143,147109,2,0,P|432:211|369:260,1,167.999994873047
296,139,147617,5,0,0:0:0:0:
107,67,147871,1,0,0:0:0:0:
228,228,148126,5,0,0:0:0:0:
42,149,148380,1,0,0:0:0:0:
138,325,148634,5,0,0:0:0:0:
163,125,148888,1,0,0:0:0:0:
276,292,149143,5,0,0:0:0:0:
274,90,149397,1,0,0:0:0:0:
470,136,149651,5,0,0:0:0:0:
274,185,149905,1,0,0:0:0:0:
498,300,150160,5,0,0:0:0:0:
303,351,150414,1,0,0:0:0:0:
362,158,150668,5,0,0:0:0:0:
413,352,150922,1,0,0:0:0:0:
249,233,151176,5,0,0:0:0:0:
224,32,151431,1,0,0:0:0:0:
120,75,151685,6,0,P|51:138|49:214,1,167.999994873047
136,167,152193,2,0,B|176:254|176:254|257:257,1,167.999994873047
252,172,152702,2,0,L|300:98,1,83.9999974365235
354,18,152956,2,0,L|440:67,1,83.9999974365235
400,156,153210,2,0,L|350:241,1,83.9999974365235
438,235,153465,2,0,L|493:310,1,83.9999974365235
396,325,153719,2,0,L|335:241,1,83.9999974365235
265,258,153973,2,0,L|215:325,1,83.9999974365235
132,315,154227,5,0,0:0:0:0:
78,290,154355,1,0,0:0:0:0:
43,243,154482,1,0,0:0:0:0:
31,185,154609,1,0,0:0:0:0:
30,126,154736,1,0,0:0:0:0:
181,33,154990,1,0,0:0:0:0:
295,138,155244,1,0,0:0:0:0:
160,169,155435,2,0,L|164:222,4,41.9999987182618
318,33,163888,6,0,B|258:97|316:100|274:197,1,167.999994873047
384,49,164397,2,0,B|324:113|382:116|340:213,1,167.999994873047
427,136,164778,1,0,0:0:0:0:
432,216,164905,6,0,B|342:309|342:309|297:237|297:237|248:311|248:311|159:232,1,419.999987182618
74,217,165668,6,0,L|40:256,1,41.9999987182618
70,143,165795,2,0,L|34:117,1,41.9999987182618
101,46,165922,5,0,0:0:0:0:
193,86,166049,1,0,0:0:0:0:
234,177,166176,1,0,0:0:0:0:
319,36,166431,5,0,0:0:0:0:
367,130,166558,1,0,0:0:0:0:
398,40,166812,2,0,P|445:82|464:116,1,83.9999974365235
401,203,167066,5,0,0:0:0:0:
438,314,167193,1,0,0:0:0:0:
320,303,167321,1,0,0:0:0:0:
274,194,167448,1,0,0:0:0:0:
213,285,167575,2,0,L|131:356,2,83.9999974365235
101,252,167956,5,0,0:0:0:0:
78,206,168083,1,0,0:0:0:0:
56,160,168210,1,0,0:0:0:0:
59,109,168338,1,0,0:0:0:0:
107,94,168465,5,0,0:0:0:0:
143,128,168592,1,0,0:0:0:0:
172,168,168719,1,0,0:0:0:0:
214,195,168846,1,0,0:0:0:0:
257,170,168973,5,0,0:0:0:0:
240,122,169100,1,0,0:0:0:0:
210,81,169227,1,0,0:0:0:0:
196,32,169354,1,0,0:0:0:0:
245,19,169482,5,0,0:0:0:0:
296,54,169609,1,0,0:0:0:0:
327,93,169736,1,0,0:0:0:0:
355,134,169863,1,0,0:0:0:0:
384,174,169990,1,0,0:0:0:0:
412,215,170117,2,0,L|450:251,2,41.9999987182618
366,297,170371,5,0,0:0:0:0:
327,264,170499,1,0,0:0:0:0:
292,227,170626,1,0,0:0:0:0:
294,277,170753,1,0,0:0:0:0:
316,322,170880,5,0,0:0:0:0:
265,317,171007,1,0,0:0:0:0:
236,276,171134,1,0,0:0:0:0:
209,234,171261,1,0,0:0:0:0:
183,195,171388,1,0,0:0:0:0:
156,160,171515,6,0,L|128:120,2,41.9999987182618
205,86,171770,5,0,0:0:0:0:
301,71,171897,1,0,0:0:0:0:
404,79,172024,6,0,L|493:35,1,83.9999974365235
431,162,172278,5,0,0:0:0:0:
392,187,172405,1,0,0:0:0:0:
406,303,172532,6,0,L|375:272|413:369,1,83.9999974365235
341,340,172787,6,0,L|333:332|310:309|348:406,1,83.9999974365235
213,341,173041,6,0,L|220:333|243:310|205:407,1,83.9999974365235
173,261,173295,5,0,0:0:0:0:
144,220,173422,1,0,0:0:0:0:
98,182,173549,6,0,L|34:248,1,83.9999974365235
26,132,173804,5,0,0:0:0:0:
106,97,173931,2,0,L|175:47,1,83.9999974365235
218,88,174121,2,0,L|256:121,2,41.9999987182618
326,41,174312,5,0,0:0:0:0:
378,105,174439,2,0,L|416:138,2,41.9999987182618
392,195,174693,1,0,0:0:0:0:
368,230,174821,1,0,0:0:0:0:
347,266,174948,6,0,L|326:353,1,83.9999974365235
280,349,175202,1,0,0:0:0:0:
252,274,175329,2,0,L|226:222,4,41.9999987182618
192,245,175647,2,0,L|168:289,5,41.9999987182618
79,215,176092,5,0,0:0:0:0:
44,138,176219,1,0,0:0:0:0:
181,231,176473,5,0,0:0:0:0:
112,77,176600,1,0,0:0:0:0:
289,261,176854,5,0,0:0:0:0:
220,107,176981,1,0,0:0:0:0:
370,189,177236,5,0,0:0:0:0:
335,112,177363,1,0,0:0:0:0:
429,43,177617,6,0,L|483:84,1,41.9999987182618
458,111,177871,2,0,L|425:144,1,41.9999987182618
307,317,178126,5,0,0:0:0:0:
141,342,178380,1,0,0:0:0:0:
249,214,178634,5,0,0:0:0:0:
82,192,178888,1,0,0:0:0:0:
194,66,179143,2,0,L|286:42,1,83.9999974365235
350,82,179397,5,0,0:0:0:0:
364,107,179460,1,0,0:0:0:0:
378,133,179524,1,0,0:0:0:0:
386,162,179588,1,0,0:0:0:0:
390,191,179651,1,0,0:0:0:0:
395,220,179715,1,0,0:0:0:0:
398,249,179778,1,0,0:0:0:0:
398,279,179842,1,0,0:0:0:0:
395,312,179905,6,0,P|356:353|300:356,1,83.9999974365235
322,295,180160,2,0,B|254:255|254:255|164:255|164:255|89:305,1,251.999992309571
3,292,180668,1,0,0:0:0:0:
29,204,180795,1,0,0:0:0:0:
81,130,180922,6,0,B|156:53|156:53|243:53,1,167.999994873047
190,137,181431,2,0,L|119:208,1,83.9999974365235
171,288,181685,1,0,0:0:0:0:
275,260,181812,1,0,0:0:0:0:
364,224,181939,2,0,P|443:168|445:91,1,167.999994873047
364,133,182448,2,0,P|285:77|283:0,1,167.999994873047
232,11,182956,2,0,P|218:92|148:133,1,167.999994873047
110,69,183465,2,0,P|64:125|112:197,1,167.999994873047
160,135,183973,6,0,B|217:148|217:148|241:202,1,83.9999974365235
164,217,184227,2,0,B|177:274|177:274|228:312,1,83.9999974365235
243,215,184482,2,0,B|300:202|300:202|341:178,1,83.9999974365235
371,124,184736,2,0,L|418:200,1,83.9999974365235
416,274,184990,6,0,B|473:261|473:261|483:237,1,83.9999974365235
489,156,185244,2,0,B|476:99|476:99|455:83,1,83.9999974365235
386,35,185499,2,0,B|360:34|360:34|306:60,1,83.9999974365235
251,120,185753,2,0,B|226:159|226:159|188:186,1,83.9999974365235
135,107,186007,6,0,B|84:122|84:122|61:148,1,83.9999974365235
62,225,186261,2,0,B|75:282|75:282|95:297,1,83.9999974365235
156,348,186516,2,0,B|183:351|183:351|235:322,1,83.9999974365235
300,261,186770,2,0,L|347:185,1,83.9999974365235
362,108,187024,2,0,P|329:63|281:48,1,83.9999974365235
191,45,187278,2,0,B|127:92|127:92|127:182,1,167.999994873047
204,134,187787,2,0,B|268:181|268:181|268:271,2,167.999994873047
104,146,188549,5,0,0:0:0:0:
78,243,188676,2,0,L|163:308,1,83.9999974365235
241,262,188931,1,0,0:0:0:0:
374,314,189058,2,0,B|371:243|371:243|406:188|406:188|404:145,1,167.999994873047
354,92,189566,1,0,0:0:0:0:
301,180,189821,1,0,0:0:0:0:
246,294,190075,2,0,B|196:251|196:251|186:202|186:202|143:158,1,167.999994873047
36,245,190583,5,0,0:0:0:0:
21,216,190710,1,0,0:0:0:0:
6,185,190837,1,0,0:0:0:0:
91,162,191092,5,0,0:0:0:0:
106,133,191219,1,0,0:0:0:0:
122,103,191346,2,0,B|148:58|148:58|265:60,1,167.999994873047
360,127,191854,1,0,0:0:0:0:
280,189,192110,6,0,P|299:225|296:267,1,83.9999974365235
313,352,192364,2,0,P|355:355|392:336,1,83.9999974365235
500,279,192617,2,0,P|458:282|421:263,1,83.9999974365235
343,222,192872,2,0,L|411:148,1,83.9999974365235
489,161,193127,6,0,L|489:71,1,83.9999974365235
410,76,193381,2,0,L|354:12,1,83.9999974365235
262,17,193635,2,0,L|207:86,1,83.9999974365235
215,167,193889,2,0,L|320:168,1,83.9999974365235
384,167,194143,6,0,B|405:199|405:199|374:259,1,83.9999974365235
300,267,194398,2,0,B|261:290|261:290|228:270,1,83.9999974365235
162,220,194652,2,0,L|95:164,1,83.9999974365235
43,208,194906,2,0,L|-9:278,1,83.9999974365235
84,325,195160,2,0,L|197:290,1,83.9999974365235
263,200,195414,2,0,B|166:212|142:197|136:163|153:138|176:126|187:121|201:116|230:113|230:113|130:27,1,335.999989746094
90,29,196049,1,0,0:0:0:0:
77,77,196175,1,0,0:0:0:0:
63,125,196303,1,0,0:0:0:0:
59,212,196431,6,0,B|132:250|132:250|150:295|150:295|224:331,1,195.999994018555
303,323,196939,2,0,B|362:295|362:295|380:250|380:250|453:212,1,195.999994018555
410,122,197448,2,0,B|421:98|421:98|370:85,1,48.9999985046387
189,36,197702,1,0,0:0:0:0:
142,326,197956,1,0,0:0:0:0:
371,142,198210,5,0,0:0:0:0:
38,174,198465,1,0,0:0:0:0:
343,306,198719,1,0,0:0:0:0:
426,169,198973,2,0,B|415:62|415:62|331:29,1,195.999994018555
345,119,199482,2,0,B|238:130|238:130|205:214,1,195.999994018555
297,196,199990,2,0,B|379:228|379:228|390:335,1,195.999994018555
271,343,200499,5,0,0:0:0:0:
75,240,200753,2,0,L|8:154,1,97.9999970092774
204,48,201007,2,0,L|330:0,1,97.9999970092774
437,144,201261,2,0,L|504:230,1,97.9999970092774
308,336,201515,6,0,L|182:384,1,97.9999970092774
91,311,201770,2,0,P|42:273|26:207,1,97.9999970092774
26,143,202024,2,0,P|48:100|88:73,1,97.9999970092774
116,150,202278,2,0,P|134:196|179:230,1,97.9999970092774
244,290,202532,6,0,L|323:356,1,97.9999970092774
415,331,202787,2,0,L|490:268,1,97.9999970092774
499,178,203041,2,0,L|420:112,1,97.9999970092774
330,145,203295,2,0,L|254:207,1,97.9999970092774
166,229,203549,6,0,B|100:223|100:223|59:183,1,97.9999970092774
134,149,203804,2,0,B|140:83|140:83|180:42,1,97.9999970092774
213,128,204058,2,0,B|279:134|279:134|320:174,1,97.9999970092774
245,207,204312,2,0,B|239:273|239:273|199:314,1,97.9999970092774
101,316,204566,1,0,0:0:0:0:
53,221,204821,6,0,P|54:167|81:120,1,97.9999970092774
135,52,205075,2,0,L|245:53,1,97.9999970092774
292,124,205329,2,0,P|322:177|359:200,1,97.9999970092774
438,192,205583,2,0,P|476:221|477:268,1,97.9999970092774
436,334,205838,6,0,B|378:352|378:352|317:338,1,97.9999970092774
249,313,206092,2,0,B|200:287|200:287|200:228,1,97.9999970092774
199,158,206346,2,0,L|199:30,1,97.9999970092774
101,48,206600,2,0,B|52:74|52:74|52:116,1,97.9999970092774
53,214,206854,6,0,L|53:312,1,97.9999970092774
146,343,207109,2,0,B|204:361|204:361|265:347,1,97.9999970092774
343,336,207363,2,0,L|340:216,1,97.9999970092774
266,185,207617,2,0,B|209:185|209:185|141:159|141:159|43:158,1,195.999994018555
71,72,208126,6,0,B|137:72|137:72|205:98|205:98|262:98,1,195.999994018555
303,24,208634,2,0,P|342:61|292:178,1,195.999994018555
143,246,209143,6,0,B|226:248|226:248|294:274|294:274|367:275,1,224
379,360,209651,2,0,P|433:318|364:184,1,224
296,147,210160,6,0,L|219:65,1,97.9999970092774
131,72,210414,2,0,L|64:164,1,97.9999970092774
70,249,210668,2,0,L|137:320,1,97.9999970092774
234,323,210922,2,0,L|291:243,1,97.9999970092774
353,167,211176,2,0,L|410:87,1,97.9999970092774
508,77,211431,2,0,L|508:199,1,97.9999970092774
509,272,211685,2,0,B|421:331|421:331|301:283,1,195.999994018555
413,246,212193,2,0,B|329:212|329:212|241:271,1,195.999994018555
63,315,212702,5,0,0:0:0:0:
135,50,212956,1,0,0:0:0:0:
212,313,213210,5,0,0:0:0:0:
293,50,213465,1,0,0:0:0:0:
507,221,213719,5,0,0:0:0:0:
248,129,213973,1,0,0:0:0:0:
416,345,214227,5,0,0:0:0:0:
370,73,214482,1,0,0:0:0:0:
252,320,214736,5,0,0:0:0:0:
463,145,214990,1,0,0:0:0:0:
457,369,215244,5,0,0:0:0:0:
299,143,215499,1,0,0:0:0:0:
135,362,215753,5,0,0:0:0:0:
247,112,216007,1,0,0:0:0:0:
406,334,216261,5,0,0:0:0:0:
296,82,216515,1,0,0:0:0:0:
128,63,216770,6,0,B|126:150|126:150|160:187|160:187|160:277,1,195.999994018555
86,279,217278,2,0,P|165:328|241:250,1,195.999994018555
205,60,217787,6,0,P|193:116|211:162,1,97.9999970092774
292,173,218041,2,0,P|304:229|286:275,1,97.9999970092774
226,223,218295,2,0,P|170:211|124:229,1,97.9999970092774
112,298,218549,2,0,P|56:310|10:292,1,97.9999970092774
62,234,218804,2,0,P|50:178|68:132,1,97.9999970092774
138,182,219058,2,0,P|150:126|132:80,1,97.9999970092774
223,121,219312,5,0,0:0:0:0:
277,99,219440,1,0,0:0:0:0:
330,75,219567,1,0,0:0:0:0:
384,54,219694,1,0,0:0:0:0:
438,32,219821,1,0,0:0:0:0:
489,137,220075,1,0,0:0:0:0:
446,246,220329,1,0,0:0:0:0:
489,137,220583,1,0,0:0:0:0:
286,139,220838,6,0,B|277:83|300:22|505:51|398:143|478:222|309:213|284:272,1,393.750015020371
291,261,221854,2,0,B|245:215|76:224|162:137|57:48|239:29|276:85|288:155,1,420.000016021729
256,192,222935,12,0,224905,0:0:0:0:
