osu file format v14

[General]
AudioFilename: audio.mp3
AudioLeadIn: 0
PreviewTime: 188127
Countdown: 0
SampleSet: Soft
StackLeniency: 0.4
Mode: 0
LetterboxInBreaks: 0
WidescreenStoryboard: 0

[Editor]
Bookmarks: 1510,13846,30721,39721,58846,76846,81346,117346,126346,143221,145471,163471,167971,188221,207346,243346,251221,258346
DistanceSpacing: 1.3
BeatDivisor: 3
GridSize: 8
TimelineZoom: 1

[Metadata]
Title:Hoshi no Komoriuta
TitleUnicode:ほしのこもりうた
Artist:Amatsuki
ArtistUnicode:天月
Creator:Silent Rock
Version:Lullaby of the Stars
Source:
Tags:-あまつき- Saku utaite japanese pop j-pop jpop 恋人募集中(仮) koibito boshuuchuu (kari) ep Stars on Planet -星の王子さまにさよならを-
BeatmapID:2242500
BeatmapSetID:1071349

[Difficulty]
HPDrainRate:5
CircleSize:4
OverallDifficulty:7
ApproachRate:8
SliderMultiplier:1.5
SliderTickRate:1

[Events]
//Background and Video events
0,0,"lullaby2.jpg",0,0
Video,-1000,"stolen from sekai set.mp4"
//Break Periods
//Storyboard Layer 0 (Background)
//Storyboard Layer 1 (Fail)
//Storyboard Layer 2 (Pass)
//Storyboard Layer 3 (Foreground)
//Storyboard Layer 4 (Overlay)
//Storyboard Sound Samples

[TimingPoints]
1510,375,3,2,1,40,1,0
1510,-200,3,2,1,40,0,0
3385,-200,3,2,1,10,0,0
3760,357.142857142857,3,2,1,40,1,0
3760,-200,3,2,1,40,0,0
4117,375,3,2,1,40,1,8
4117,-200,3,2,1,40,0,8
4867,386.349001931745,3,2,1,40,1,0
4867,-200,3,2,1,40,0,0
5639,-200,3,2,1,10,0,0
6026,359.281437125748,3,2,1,40,1,0
6026,-200,3,2,1,40,0,0
6744,375,3,2,1,40,1,8
6744,-200,3,2,1,40,0,8
7119,365.853658536585,3,2,1,40,1,0
7119,-200,3,2,1,40,0,0
7484,375,3,2,1,40,1,8
7484,-200,3,2,1,40,0,0
8234,375,3,2,1,40,1,0
8234,-200,3,2,1,40,0,0
10109,365.853658536585,3,2,1,40,1,8
10109,-200,3,2,1,40,0,8
10474,383.877159309021,3,2,1,40,1,0
10474,-200,3,2,1,40,0,0
11625,370.25609379821,3,2,1,40,1,0
11625,-200,3,2,1,40,0,0
13846,375,3,2,1,40,1,0
13846,-133.333333333333,3,2,1,40,0,0
17971,357.142857142857,3,2,1,40,1,8
17971,-133.333333333333,3,2,1,40,0,0
18328,386.847195357834,3,2,1,40,1,0
18328,-133.333333333333,3,2,1,40,0,0
19488,375,3,2,1,40,1,0
19488,-133.333333333333,3,2,1,40,0,0
20988,356.188780053428,3,2,1,40,1,8
20988,-133.333333333333,3,2,1,40,0,8
21344,389.105058365759,3,2,1,40,1,8
21344,-133.333333333333,3,2,1,40,0,8
21733,399.733510992672,3,2,1,40,1,0
21733,-133.333333333333,3,2,1,40,0,0
22532,344.827586206897,3,2,1,40,1,8
22532,-133.333333333333,3,2,1,40,0,8
22876,375,3,2,1,40,1,0
22876,-133.333333333333,3,2,1,40,0,0
23626,342.857142857143,3,2,1,40,1,8
23626,-133.333333333333,3,2,1,40,0,0
23968,375,3,2,1,40,1,0
23968,-133.333333333333,3,2,1,40,0,0
24718,382.65306122449,3,2,1,40,1,8
24718,-133.333333333333,3,2,1,40,0,0
25100,375,3,2,1,40,1,0
25100,-133.333333333333,3,2,1,40,0,0
26225,381.679389312977,3,2,1,40,1,0
26225,-133.333333333333,3,2,1,40,0,0
26988,375,3,2,1,40,1,8
26988,-133.333333333333,3,2,1,40,0,8
27363,375,3,2,1,40,1,0
27363,-133.333333333333,3,2,1,40,0,0
28113,367.197062423501,3,2,1,40,1,8
28113,-133.333333333333,3,2,1,40,0,0
28480,381.194409148666,3,2,1,40,1,0
28480,-133.333333333333,3,2,1,40,0,0
29242,352.941176470588,3,2,1,40,1,8
29242,-133.333333333333,3,2,1,40,0,0
29594,418.118466898955,3,2,1,40,1,0
29594,-133.333333333333,3,2,1,40,0,0
30012,359.281437125748,3,2,1,40,1,8
30012,-133.333333333333,3,2,1,40,0,0
30371,350.877192982456,3,2,1,40,1,8
30371,-133.333333333333,3,2,1,40,0,0
30721,375,3,2,1,50,1,0
31846,-100,3,2,1,50,0,0
31939,-100,3,2,1,60,0,0
32971,-100,3,2,1,40,0,0
33064,-100,3,2,1,60,0,0
34096,-100,3,2,1,40,0,0
34189,-100,3,2,1,60,0,0
35221,-100,3,2,1,40,0,0
35314,-100,3,2,1,60,0,0
36346,-100,3,2,1,40,0,0
36439,-100,3,2,1,60,0,0
37471,-100,3,2,1,40,0,0
37564,-100,3,2,1,60,0,0
38596,-100,3,2,1,40,0,0
38689,-100,3,2,1,60,0,0
38971,-100,3,2,2,60,0,0
39721,-100,3,2,2,60,0,0
47971,-100,3,2,2,40,0,0
48064,-100,3,2,2,60,0,0
48346,-100,3,2,1,60,0,0
48721,-100,3,2,2,60,0,0
55096,-100,3,2,1,60,0,0
55471,-100,3,2,2,60,0,0
56221,-100,3,2,21,60,0,0
56408,-100,3,2,1,60,0,0
56596,-100,3,2,2,60,0,0
57721,-100,3,2,22,50,0,0
57814,-100,3,2,2,60,0,0
58096,-100,3,2,2,50,0,0
58846,-100,3,2,2,60,0,0
60346,-100,3,2,2,40,0,0
60439,-100,3,2,2,60,0,0
62971,-100,3,2,1,60,0,0
63252,-100,3,2,1,5,0,0
63346,-100,3,2,2,60,0,0
67096,-100,3,2,2,40,0,0
67189,-100,3,2,2,60,0,0
67471,-100,3,2,1,60,0,0
67846,-100,3,2,2,60,0,0
70658,-100,3,2,2,40,0,0
70752,-100,3,2,2,60,0,0
71221,-100,3,2,2,40,0,0
71314,-100,3,2,2,60,0,0
71971,-100,3,2,22,60,0,0
72346,-100,3,2,2,60,0,0
74221,-100,3,2,1,60,0,0
74596,-100,3,2,2,60,0,0
75721,-100,3,2,2,55,0,0
75814,-100,3,2,2,60,0,0
76096,-100,3,2,2,55,0,0
76189,-100,3,2,2,60,0,0
76471,-100,3,2,2,55,0,0
76564,-100,3,2,2,60,0,0
77221,-100,3,2,21,20,0,0
77596,-100,3,2,21,30,0,0
77971,-100,3,2,21,40,0,0
78346,-100,3,2,21,50,0,0
78721,-100,3,2,21,60,0,0
79096,-100,3,2,2,60,0,0
80033,-100,3,2,1,10,0,0
80221,-200,3,2,1,60,0,0
80596,-200,3,2,1,20,0,0
80971,-200,3,2,1,60,0,0
81346,-83.3333333333333,3,2,21,70,0,1
81439,-83.3333333333333,3,2,2,70,0,1
82471,-83.3333333333333,3,2,3,70,0,1
82846,-83.3333333333333,3,2,3,70,0,1
83596,-83.3333333333333,3,2,3,50,0,1
83689,-83.3333333333333,3,2,2,70,0,1
84721,-83.3333333333333,3,2,3,70,0,1
85096,-83.3333333333333,3,2,3,50,0,1
85189,-83.3333333333333,3,2,3,70,0,1
85846,-83.3333333333333,3,2,3,50,0,1
85939,-83.3333333333333,3,2,2,70,0,1
86971,-83.3333333333333,3,2,3,70,0,1
87346,-83.3333333333333,3,2,3,50,0,1
87439,-83.3333333333333,3,2,3,70,0,1
88189,-83.3333333333333,3,2,2,70,0,1
89221,-83.3333333333333,3,2,3,70,0,1
90439,-83.3333333333333,3,2,2,70,0,1
91471,-83.3333333333333,3,2,3,70,0,1
91846,-83.3333333333333,3,2,3,50,0,1
91939,-83.3333333333333,3,2,3,70,0,1
92596,-83.3333333333333,3,2,3,50,0,1
92689,-83.3333333333333,3,2,2,70,0,1
93533,-83.3333333333333,3,2,2,70,0,1
93721,-83.3333333333333,3,2,3,70,0,1
94939,-83.3333333333333,3,2,2,70,0,1
95971,-83.3333333333333,3,2,3,70,0,1
97096,-83.3333333333333,3,2,3,50,0,1
97189,-83.3333333333333,3,2,2,70,0,1
98221,-83.3333333333333,3,2,23,60,0,1
98314,-83.3333333333333,3,2,3,70,0,1
98596,-83.3333333333333,3,2,3,60,0,1
98689,-83.3333333333333,3,2,1,70,0,1
98971,-83.3333333333333,3,2,3,60,0,1
99064,-83.3333333333333,3,2,1,70,0,1
99346,-83.3333333333333,3,2,21,70,0,1
99439,-83.3333333333333,3,2,2,70,0,1
100471,-83.3333333333333,3,2,3,70,0,1
101596,-83.3333333333333,3,2,3,50,0,1
101689,-83.3333333333333,3,2,2,70,0,1
102721,-83.3333333333333,3,2,3,70,0,1
103096,-83.3333333333333,3,2,3,50,0,1
103189,-83.3333333333333,3,2,3,70,0,1
103846,-83.3333333333333,3,2,3,50,0,1
103939,-83.3333333333333,3,2,2,70,0,1
104971,-83.3333333333333,3,2,3,70,0,1
106096,-83.3333333333333,3,2,3,50,0,1
106189,-83.3333333333333,3,2,2,70,0,1
107221,-83.3333333333333,3,2,3,70,0,1
107596,-83.3333333333333,3,2,2,50,0,1
108346,-83.3333333333333,3,2,3,70,0,1
108439,-83.3333333333333,3,2,2,70,0,1
109471,-83.3333333333333,3,2,3,70,0,1
109846,-83.3333333333333,3,2,2,70,0,1
110596,-83.3333333333333,3,2,3,70,0,1
110689,-83.3333333333333,3,2,2,70,0,1
112096,-83.3333333333333,3,2,2,50,0,1
112564,-83.3333333333333,3,2,2,70,0,1
112846,-83.3333333333333,3,2,3,70,0,1
112939,-83.3333333333333,3,2,2,70,0,1
113971,-83.3333333333333,3,2,3,50,0,1
114346,-83.3333333333333,3,2,2,50,0,1
114908,-83.3333333333333,3,2,2,70,0,1
115096,-83.3333333333333,3,2,3,70,0,1
116033,-100,3,2,2,50,0,1
117346,-100,3,2,2,70,0,0
117533,-100,3,2,2,40,0,0
125596,-100,3,2,2,50,0,0
125689,-100,3,2,2,60,0,0
126346,-100,3,2,2,60,0,0
126439,-100,3,3,5,40,0,0
130096,-100,3,3,5,30,0,0
130189,-100,3,3,5,40,0,0
134596,-100,3,3,5,30,0,0
134689,-100,3,3,5,40,0,0
139096,-100,3,3,5,30,0,0
139189,-100,3,3,5,40,0,0
139846,-100,3,2,2,50,0,0
140596,-100,3,2,1,50,0,0
140971,-100,3,2,3,50,0,0
141346,-100,3,2,2,50,0,0
141908,-100,3,2,2,60,0,0
144721,-100,3,2,2,50,0,0
145471,-100,3,3,4,50,0,0
153908,-100,3,3,2,50,0,0
154096,-100,3,3,4,50,0,0
154471,-100,3,2,2,50,0,0
155596,-100,3,2,3,50,0,0
156721,-100,3,2,2,50,0,0
157846,-100,3,2,3,50,0,0
158221,-100,3,2,2,50,0,0
158596,-100,3,2,3,50,0,0
158971,-100,3,2,2,50,0,0
160096,-100,3,2,3,50,0,0
161221,-100,3,2,2,50,0,0
167971,-100,3,3,2,50,0,0
184096,-100,3,2,21,20,0,0
184471,-100,3,2,21,30,0,0
184846,-100,3,2,21,40,0,0
185221,-100,3,2,21,50,0,0
185596,-100,3,2,21,60,0,0
185971,-100,3,2,24,60,0,0
186158,-100,3,2,1,60,0,0
187846,-100,3,2,1,5,0,0
188221,-333.333333333333,3,2,1,40,0,0
188314,-333.333333333333,3,2,1,40,0,0
206033,-333.333333333333,3,2,2,40,0,0
206221,-100,3,2,22,60,0,0
206596,-100,3,2,2,60,0,0
207346,-83.3333333333333,3,2,21,70,0,1
207439,-83.3333333333333,3,2,2,70,0,1
208471,-83.3333333333333,3,2,3,70,0,1
209596,-83.3333333333333,3,2,3,50,0,1
209689,-83.3333333333333,3,2,2,70,0,1
210721,-83.3333333333333,3,2,3,70,0,1
211846,-83.3333333333333,3,2,3,50,0,1
211939,-83.3333333333333,3,2,2,70,0,1
212971,-83.3333333333333,3,2,3,70,0,1
214096,-83.3333333333333,3,2,3,50,0,1
214189,-83.3333333333333,3,2,2,70,0,1
215221,-83.3333333333333,3,2,3,70,0,1
216439,-83.3333333333333,3,2,2,70,0,1
217471,-83.3333333333333,3,2,3,70,0,1
217846,-83.3333333333333,3,2,3,50,0,1
217939,-83.3333333333333,3,2,3,70,0,1
218596,-83.3333333333333,3,2,3,50,0,1
218689,-83.3333333333333,3,2,2,70,0,1
219721,-83.3333333333333,3,2,3,70,0,1
220939,-83.3333333333333,3,2,2,70,0,1
221971,-83.3333333333333,3,2,3,70,0,1
223096,-83.3333333333333,3,2,3,50,0,1
223189,-83.3333333333333,3,2,2,70,0,1
224221,-83.3333333333333,3,2,3,70,0,1
224971,-83.3333333333333,3,2,3,50,0,1
225346,-83.3333333333333,3,2,21,70,0,1
225439,-83.3333333333333,3,2,2,70,0,1
226471,-83.3333333333333,3,2,3,50,0,1
227689,-83.3333333333333,3,2,2,70,0,1
228721,-83.3333333333333,3,2,3,50,0,1
228814,-83.3333333333333,3,2,3,70,0,1
229846,-83.3333333333333,3,2,3,50,0,1
229939,-83.3333333333333,3,2,2,70,0,1
230971,-83.3333333333333,3,2,3,70,0,1
231533,-83.3333333333333,3,2,2,70,0,1
231721,-83.3333333333333,3,2,3,70,0,1
232189,-83.3333333333333,3,2,2,70,0,1
233221,-83.3333333333333,3,2,3,70,0,1
233596,-83.3333333333333,3,2,2,70,0,1
234346,-83.3333333333333,3,2,3,70,0,1
234439,-83.3333333333333,3,2,2,70,0,1
235471,-83.3333333333333,3,2,3,70,0,1
236221,-83.3333333333333,3,2,2,70,0,1
236596,-83.3333333333333,3,2,3,70,0,1
236689,-83.3333333333333,3,2,2,70,0,1
237721,-83.3333333333333,3,2,3,70,0,1
238096,-83.3333333333333,3,2,2,70,0,1
238846,-83.3333333333333,3,2,3,70,0,1
238939,-83.3333333333333,3,2,2,70,0,1
239971,-83.3333333333333,3,2,3,70,0,1
240346,-83.3333333333333,3,2,2,70,0,1
241096,-83.3333333333333,3,2,3,70,0,1
241846,-100,3,2,2,70,0,1
242221,-100,3,2,1,50,0,1
243346,-100,3,2,2,50,0,0
243439,-100,3,2,2,60,0,0
245221,-100,3,2,1,60,0,0
245596,-100,3,2,2,50,0,0
245689,-100,3,2,2,60,0,0
247471,-100,3,2,1,60,0,0
247846,-100,3,2,2,50,0,0
247939,-100,3,2,2,60,0,0
248971,-100,3,2,2,50,0,0
249064,-100,3,2,2,60,0,0
249721,-100,3,2,1,60,0,0
250096,-100,3,2,2,60,0,0
251221,-250.000000000001,3,2,21,50,0,0
253471,-250.000000000001,3,2,1,40,0,0
255721,-250.000000000001,3,2,1,30,0,0
256846,-250.000000000001,3,2,1,20,0,0
257596,-250.000000000001,3,2,1,10,0,0
258346,-250.000000000001,3,2,1,5,0,0

[Colours]
Combo1 : 247,163,79
Combo2 : 18,3,201
Combo3 : 132,200,240
Combo4 : 216,216,216
Combo5 : 243,58,58

[HitObjects]
158,295,1510,6,0,P|154:258|135:226,1,75,2|0,0:0|0:0,0:0:0:0:
72,172,2260,1,2,0:0:0:0:
136,227,2635,2,0,P|208:234|256:180,1,150,2|0,0:0|0:0,0:0:0:0:
352,296,3760,6,0,P|355:258|374:226,1,75,2|0,0:0|0:0,0:0:0:0:
440,172,4492,1,2,0:0:0:0:
375,227,4867,2,0,P|303:234|256:180,1,150,2|0,0:0|0:0,0:0:0:0:
203,67,6026,6,0,P|200:104|178:134,1,75,2|0,0:0|0:0,0:0:0:0:
309,67,6744,1,2,0:0:0:0:
309,67,7119,2,0,P|312:104|334:134,1,75,2|0,0:0|0:0,0:0:0:0:
256,0,7859,1,2,0:0:0:0:
203,67,8234,38,0,P|200:104|178:134,2,75,2|2|0,0:0|0:0|0:0,0:0:0:0:
256,0,9359,1,2,0:0:0:0:
309,67,9734,1,0,0:0:0:0:
203,67,10109,6,0,L|165:60,2,37.5,2|0|2,0:0|0:0|0:0,0:0:0:0:
256,0,10857,1,0,0:0:0:0:
309,67,11241,2,0,L|347:60,2,37.5,2|0|2,0:0|0:0|0:0,0:0:0:0:
314,286,13846,22,0,P|353:247|367:193,1,112.500004291535,2|0,0:0|0:0,0:0:0:0:
309,92,14596,1,0,0:0:0:0:
308,91,14971,2,0,P|255:75|202:90,1,112.500004291535,2|0,0:0|0:0,0:0:0:0:
144,195,15721,1,0,0:0:0:0:
144,195,16096,2,0,P|158:248|198:287,1,112.500004291535,2|0,0:0|0:0,0:0:0:0:
263,229,16846,1,0,0:0:0:0:
263,229,17221,2,0,P|255:153|248:229,1,225.000008583069,2|0,0:0|0:0,0:0:0:0:
348,329,18328,6,0,B|397:307|414:342|458:319,2,112.500004291535,2|0|2,0:0|0:0|0:0,0:0:0:0:
348,329,19488,1,2,0:0:0:0:
164,329,20238,1,0,0:0:0:0:
164,329,20613,2,0,B|115:307|98:342|53:319,1,112.500004291535,2|0,0:0|0:0,0:0:0:0:
182,240,21344,1,0,0:0:0:0:
182,240,21733,2,0,B|240:251|256:315|256:315|271:251|329:240,1,225.000008583069,2|0,0:0|0:0,0:0:0:0:
339,87,22876,54,0,P|351:132|419:158,2,112.500004291535,2|0|0,0:0|0:0|0:0,0:0:0:0:
256,168,23968,2,0,L|255:35,2,112.500004291535,2|0|0,0:0|0:0|0:0,0:0:0:0:
173,87,25100,2,0,P|161:132|93:158,2,112.500004291535,2|0|2,0:0|0:0|0:0,0:0:0:0:
256,168,26225,1,2,0:0:0:0:
0,248,26988,5,0,0:0:0:0:
0,248,27363,2,0,P|48:264|108:309,1,112.500004291535,2|0,0:0|0:0,0:0:0:0:
184,384,28113,1,2,0:0:0:0:
206,266,28480,1,2,0:0:0:0:
511,248,29242,53,0,0:0:0:0:
511,248,29594,2,0,P|459:266|413:299,1,112.500004291535,2|0,0:0|0:0,0:0:0:0:
328,384,30371,1,2,0:0:0:0:
305,266,30721,22,0,B|297:196|359:204|349:129,1,150,2|0,3:2|0:0,0:0:0:0:
206,266,31283,2,0,B|215:196|153:204|162:129,1,150,0|0,3:0|3:0,0:0:0:0:
186,347,31846,2,0,B|228:356|256:332|256:332|284:356|327:348,2,150,10|0|0,0:0|0:0|0:0,0:0:0:0:
137,114,32971,6,0,P|209:105|256:160,1,150,2|0,3:2|0:0,0:0:0:0:
374,114,33533,2,0,P|302:105|256:160,1,150,0|0,3:0|3:0,0:0:0:0:
256,36,34096,1,10,0:0:0:0:
256,273,34471,2,0,L|256:348,2,75,0|0|2,0:0|0:0|0:3,0:0:0:0:
322,65,35221,6,0,B|320:139|368:205,1,150,2|0,3:2|0:0,0:0:0:0:
190,65,35783,2,0,B|191:139|143:205,1,150,0|0,3:0|3:0,0:0:0:0:
317,286,36346,2,0,B|296:256|256:244|256:244|216:256|196:285,2,150,10|0|2,0:0|0:0|0:3,0:0:0:0:
68,250,37471,38,0,P|117:193|180:153,1,150,2|0,3:2|0:0,0:0:0:0:
256,319,38033,2,0,L|256:244,2,75,0|0|0,3:0|0:0|3:0,0:0:0:0:
443,250,38596,2,0,P|394:193|331:153,1,150,10|2,0:0|0:0,0:0:0:0:
256,244,39158,1,0,0:0:0:0:
256,252,39252,1,0,3:0:0:0:
256,260,39346,1,8,0:2:0:0:
180,153,39533,1,8,0:2:0:0:
330,152,39721,38,0,P|398:134|399:64,1,150,4|2,0:0|0:0,0:0:0:0:
256,119,40283,1,0,3:0:0:0:
256,119,40471,2,0,L|256:44,1,75,2|0,0:0|3:0,0:0:0:0:
181,152,40846,2,0,P|113:134|112:64,2,150,8|2|2,0:0|0:0|0:0,0:0:0:0:
392,248,41971,6,0,B|336:260|352:336|292:352,1,150,2|2,3:2|0:0,0:0:0:0:
256,275,42533,2,0,L|256:200,2,75,0|2|0,3:0|0:0|3:0,0:0:0:0:
120,248,43096,2,0,B|176:260|160:336|220:352,2,150,8|2|8,0:0|0:0|0:0,0:0:0:0:
372,48,44221,54,0,B|366:107|366:107|349:126|349:126|343:190,2,150,2|2|2,3:2|0:0|0:0,0:0:0:0:
421,162,45158,1,0,3:0:0:0:
421,162,45346,1,8,0:0:0:0:
91,162,46096,1,2,0:0:0:0:
91,162,46284,1,0,3:0:0:0:
140,48,46471,6,0,B|145:107|145:107|162:126|162:126|168:190,1,150,2|2,3:2|0:0,0:0:0:0:
256,82,47033,1,0,3:0:0:0:
256,82,47221,2,0,L|256:157,1,75,2|0,0:0|3:0,0:0:0:0:
372,48,47596,2,0,B|366:107|366:107|349:126|349:126|343:190,2,150,10|2|2,0:0|0:0|0:3,0:0:0:0:
66,205,48721,54,0,P|138:216|180:276,1,150,2|2,3:2|0:0,0:0:0:0:
256,157,49283,1,0,3:0:0:0:
256,157,49471,2,0,L|256:232,1,75,2|0,0:0|3:0,0:0:0:0:
445,205,49846,2,0,P|373:216|331:276,1,150,8|2,0:0|0:0,0:0:0:0:
256,384,50408,2,0,L|256:309,2,75,8|2|0,0:0|0:0|0:0,0:0:0:0:
137,216,50971,6,0,P|165:241|179:275,1,75,2|0,3:2|0:0,0:0:0:0:
374,215,51346,2,0,P|346:240|331:275,1,75,2|0,0:0|3:0,0:0:0:0:
256,157,51721,2,0,L|256:232,1,75,2|0,0:0|3:0,0:0:0:0:
388,129,52096,2,0,P|322:100|316:29,1,150,8|2,0:0|0:3,0:0:0:0:
316,29,52658,1,2,0:0:0:0:
195,29,52846,1,8,0:0:0:0:
195,29,53221,54,0,P|189:100|123:129,2,150,2|2|2,3:2|0:0|0:0,0:0:0:0:
195,29,54158,1,0,3:0:0:0:
316,29,54346,2,0,P|322:100|388:129,1,150,8|2,0:0|0:0,0:0:0:0:
352,327,55096,1,2,0:3:0:0:
352,327,55471,6,0,P|366:285|392:245,1,75,2|0,3:2|0:0,0:0:0:0:
256,280,55846,2,0,L|256:205,1,75,2|0,0:0|0:0,0:0:0:0:
160,327,56221,2,0,P|146:285|120:245,1,75,2|0,3:0|0:0,0:0:0:0:
32,136,56596,6,0,B|100:128|104:184|172:176,1,150,4|0,3:2|0:0,0:0:0:0:
256,116,57158,2,0,L|256:32,2,75,0|0|0,3:0|0:0|3:0,0:0:0:0:
480,136,57721,2,0,B|412:128|408:184|340:176,1,150,10|8,0:0|3:0,0:0:0:0:
256,116,58283,1,0,3:0:0:0:
172,175,58471,1,4,3:0:0:0:
172,175,58846,38,0,B|147:207|146:258|172:288|172:288|124:268|64:280,1,225,6|0,3:2|0:0,0:0:0:0:
77,356,59596,2,0,P|114:354|150:364,1,75,2|0,0:0|3:0,0:0:0:0:
256,384,59971,2,0,L|256:232,2,150,8|2|2,0:0|0:0|0:0,0:0:0:0:
340,175,61096,6,0,B|365:207|366:258|340:288|340:288|388:268|448:280,1,225,2|0,3:2|3:0,0:0:0:0:
434,356,61846,2,0,P|397:354|361:364,1,75,2|0,0:0|3:0,0:0:0:0:
256,384,62221,1,8,0:0:0:0:
256,159,62596,2,0,L|256:234,1,75,2|0,0:0|0:0,0:0:0:0:
307,103,62971,2,0,P|256:84|204:102,1,112.5,2|0,0:3|0:0,0:0:0:0:
201,106,63346,54,0,P|137:118|143:54,1,150,2|2,3:2|0:0,0:0:0:0:
256,159,63908,2,0,L|256:234,2,75,0|2|0,3:0|0:0|3:0,0:0:0:0:
173,259,64471,2,0,L|153:186,1,75,8|0,0:0|0:0,0:0:0:0:
256,159,64846,2,0,L|256:234,1,75,2|0,0:0|0:0,0:0:0:0:
339,259,65221,2,0,L|358:186,1,75,2|2,0:0|0:3,0:0:0:0:
368,54,65596,6,0,P|374:118|310:106,1,150,2|2,3:2|0:0,0:0:0:0:
256,52,66158,1,0,3:0:0:0:
201,106,66346,1,2,0:0:0:0:
256,44,66533,1,0,3:0:0:0:
256,159,66721,2,0,L|256:234,1,75,8|0,0:0|0:0,0:0:0:0:
173,259,67096,2,0,L|153:186,1,75,2|0,0:0|0:0,0:0:0:0:
339,259,67471,2,0,L|358:186,1,75,2|0,0:3|0:0,0:0:0:0:
216,329,67846,54,0,P|143:337|94:284,1,150,6|2,0:0|0:0,0:0:0:0:
295,329,68408,2,0,P|368:337|417:284,1,150,0|0,3:0|3:0,0:0:0:0:
358,186,68971,2,0,L|339:259,1,75,8|0,0:0|0:0,0:0:0:0:
173,259,69346,2,0,L|153:186,1,75,2|0,0:0|0:0,0:0:0:0:
341,107,69721,2,0,L|321:179,1,75,2|0,0:0|0:0,0:0:0:0:
171,107,70096,6,0,L|190:179,1,75,0|0,3:2|0:0,0:0:0:0:
339,259,70471,2,0,L|358:186,1,75,2|0,0:0|3:0,0:0:0:0:
173,259,70846,2,0,L|153:186,1,75,2|0,0:0|3:0,0:0:0:0:
256,56,71221,2,0,L|256:212,2,150,8|0|10,0:0|3:0|0:0,0:0:0:0:
336,383,72346,54,0,P|375:323|448:323,1,150,6|0,0:0|0:0,0:0:0:0:
256,356,72908,2,0,L|256:192,1,150,0|0,3:0|3:0,0:0:0:0:
175,383,73471,2,0,P|136:323|63:323,2,150,8|2|2,0:0|0:0|0:3,0:0:0:0:
32,243,74596,6,0,P|67:231|104:228,1,75,2|0,3:2|0:0,0:0:0:0:
74,130,74971,2,0,P|110:136|144:153,1,75,2|0,0:0|3:0,0:0:0:0:
167,52,75346,2,0,P|195:76|216:107,1,75,2|0,0:0|3:0,0:0:0:0:
345,52,75721,2,0,P|316:76|295:107,1,75,8|0,0:0|0:0,0:0:0:0:
437,130,76096,2,0,P|400:136|366:153,1,75,8|0,3:0|0:0,0:0:0:0:
479,243,76471,2,0,P|444:231|407:228,1,75,8|0,0:3|3:0,0:0:0:0:
256,240,76846,5,4,3:2:0:0:
362,53,77221,1,8,0:0:0:0:
147,55,77596,1,8,0:0:0:0:
256,285,77971,5,8,0:0:0:0:
108,28,78346,1,8,0:0:0:0:
401,29,78721,2,0,P|380:64|374:99,1,75,8|0,0:0|3:0,0:0:0:0:
432,180,79096,22,0,B|376:212|320:180|320:180|256:208|256:208|192:180|192:180|136:212|80:180,1,375,8|0,0:0|0:0,0:0:0:0:
136,96,80221,6,0,P|129:59|108:28,2,75
120,256,81346,54,0,B|92:285|44:291|44:291|11:219|76:160|133:171,1,269.999991760254,6|0,3:1|3:0,0:0:0:0:
176,304,82096,2,0,P|144:334|97:355,1,89.9999972534181,2|0,0:0|3:0,0:0:0:0:
28,182,82471,2,0,P|60:152|103:138,1,89.9999972534181,8|0,0:0|0:0,0:0:0:0:
256,216,82846,2,0,P|213:202|179:173,1,89.9999972534181,2|0,0:0|0:0,0:0:0:0:
171,2,83221,2,0,P|180:45|171:89,1,89.9999972534181,2|0,0:0|0:0,0:0:0:0:
56,252,83596,6,0,B|84:248|108:232|108:232|153:280|212:296,1,179.999994506836,2|2,3:1|0:0,0:0:0:0:
300,296,84158,2,0,B|358:280|404:232|404:232|428:248|456:252,1,179.999994506836,0|0,3:2|3:0,0:0:0:0:
256,216,84721,2,0,P|298:202|332:173,1,89.9999972534181,8|0,0:0|0:0,0:0:0:0:
341,2,85096,2,0,P|331:45|340:89,1,89.9999972534181,2|0,0:0|0:0,0:0:0:0:
483,182,85471,2,0,P|451:152|408:138,1,89.9999972534181,2|0,0:0|0:0,0:0:0:0:
392,256,85846,54,0,B|419:285|467:291|467:291|500:219|435:160|378:171,1,269.999991760254,2|0,3:1|3:0,0:0:0:0:
336,304,86596,2,0,P|368:334|415:355,1,89.9999972534181,2|0,0:0|3:0,0:0:0:0:
378,171,86971,2,0,P|380:128|376:80,1,89.9999972534181,8|0,0:0|0:0,0:0:0:0:
256,240,87346,2,0,L|256:330,1,89.9999972534181,2|0,0:0|0:0,0:0:0:0:
134,171,87721,2,0,P|132:128|136:80,1,89.9999972534181,2|0,0:0|0:0,0:0:0:0:
56,263,88096,6,0,P|143:280|209:340,1,179.999994506836,2|2,3:1|0:0,0:0:0:0:
302,340,88658,2,0,P|368:280|456:264,1,179.999994506836,0|0,3:0|3:0,0:0:0:0:
511,191,89221,2,0,P|468:181|423:182,1,89.9999972534181,8|0,0:0|0:0,0:0:0:0:
455,85,89596,2,0,P|411:97|373:120,1,89.9999972534181,2|0,0:0|0:0,0:0:0:0:
352,21,89971,2,0,P|320:53|299:92,1,89.9999972534181,2|0,0:0|0:0,0:0:0:0:
307,260,90346,54,0,B|327:280|366:284|366:284|377:223|323:183,1,179.999994506836,6|2,3:1|0:0,0:0:0:0:
205,260,90908,2,0,B|184:280|146:284|146:284|134:223|188:183,1,179.999994506836,0|0,3:0|3:0,0:0:0:0:
160,21,91471,2,0,P|191:53|212:92,1,89.9999972534181,8|0,0:0|0:0,0:0:0:0:
57,85,91846,2,0,P|100:97|138:120,1,89.9999972534181,2|0,0:0|0:0,0:0:0:0:
0,191,92221,2,0,P|43:181|88:182,1,89.9999972534181,2|0,0:0|0:0,0:0:0:0:
141,353,92596,6,0,P|155:310|158:265,1,89.9999972534181,2|0,3:1|0:0,0:0:0:0:
256,220,92971,2,0,L|256:316,1,89.9999972534181,2|0,0:0|3:0,0:0:0:0:
371,353,93346,2,0,P|356:310|353:265,1,89.9999972534181,2|0,0:0|3:0,0:0:0:0:
256,130,93721,2,0,B|256:316,2,179.999994506836,8|2|2,0:0|0:0|0:0,0:0:0:0:
511,191,94846,54,0,P|468:181|423:182,1,89.9999972534181,2|0,3:1|0:0,0:0:0:0:
297,114,95221,2,0,P|309:157|332:195,1,89.9999972534181,2|0,0:0|0:0,0:0:0:0:
338,338,95596,2,0,P|368:305|389:266,1,89.9999972534181,2|0,0:0|3:0,0:0:0:0:
215,114,95971,6,0,P|202:157|179:195,1,89.9999972534181,8|0,0:0|0:0,0:0:0:0:
174,338,96346,2,0,P|142:305|121:266,1,89.9999972534181,2|0,0:0|0:0,0:0:0:0:
0,191,96721,2,0,P|43:181|88:182,1,89.9999972534181,2|0,0:0|0:0,0:0:0:0:
256,384,97096,54,0,L|256:283,1,89.9999972534181,6|0,3:1|0:0,0:0:0:0:
107,83,97471,2,0,P|148:99|183:126,1,89.9999972534181,2|0,0:0|0:0,0:0:0:0:
405,83,97846,2,0,P|363:99|328:126,1,89.9999972534181,2|0,0:0|3:0,0:0:0:0:
256,216,98221,1,10,0:0:0:0:
256,216,98596,21,8,3:0:0:0:
214,85,98783,1,2,0:0:0:0:
325,166,98971,1,8,3:0:0:0:
187,166,99158,1,2,0:0:0:0:
298,85,99346,38,0,P|381:105|406:187,1,179.999994506836,6|2,3:1|0:0,0:0:0:0:
214,85,99908,2,0,P|131:105|106:187,1,179.999994506836,0|0,3:0|3:0,0:0:0:0:
218,299,100471,2,0,P|195:260|158:236,1,89.9999972534181,8|0,0:0|0:0,0:0:0:0:
5,279,100846,2,0,P|49:279|88:258,1,89.9999972534181,2|0,0:0|0:0,0:0:0:0:
128,104,101221,2,0,P|105:141|103:186,1,89.9999972534181,2|0,0:0|0:0,0:0:0:0:
294,299,101596,6,0,P|260:217|188:165,1,179.999994506836,2|2,3:1|0:0,0:0:0:0:
217,299,102158,2,0,P|251:217|324:165,1,179.999994506836,0|0,3:0|3:0,0:0:0:0:
294,299,102721,2,0,P|316:260|353:236,1,89.9999972534181,8|0,0:0|0:0,0:0:0:0:
507,279,103096,2,0,P|462:279|423:258,1,89.9999972534181,2|0,0:0|0:0,0:0:0:0:
383,104,103471,2,0,P|406:141|408:186,1,89.9999972534181,2|0,0:0|0:0,0:0:0:0:
256,328,103846,54,0,B|256:148,1,179.999994506836,2|2,3:1|0:0,0:0:0:0:
128,104,104408,1,0,3:0:0:0:
128,104,104596,2,0,P|105:142|104:187,1,89.9999972534181,2|0,0:0|3:0,0:0:0:0:
176,372,104971,2,0,P|153:333|116:309,1,89.9999972534181,8|0,0:0|0:0,0:0:0:0:
256,238,105346,2,0,L|256:328,1,89.9999972534181,2|0,0:0|0:0,0:0:0:0:
336,372,105721,2,0,P|359:333|396:309,1,89.9999972534181,2|0,0:0|3:0,0:0:0:0:
312,160,106096,6,0,B|324:216|372:240|428:224|428:224|396:204,1,179.999994506836,2|2,3:1|0:0,0:0:0:0:
200,160,106658,2,0,B|188:216|140:240|84:224|84:224|116:204,1,179.999994506836,0|0,3:0|3:0,0:0:0:0:
256,324,107221,1,8,0:0:0:0:
256,324,107596,2,0,L|256:232,1,89.9999972534181,2|0,3:2|3:0,0:0:0:0:
256,60,107971,2,0,L|256:152,1,89.9999972534181,8|0,3:0|0:0,0:0:0:0:
336,360,108346,54,0,P|354:265|388:180,1,179.999994506836,6|2,3:1|0:0,0:0:0:0:
176,360,108908,2,0,P|157:265|124:180,1,179.999994506836,0|0,3:0|3:0,0:0:0:0:
76,96,109471,1,8,0:0:0:0:
436,96,109846,1,2,0:0:0:0:
311,339,110408,1,0,3:0:0:0:
311,339,110596,6,0,P|255:242|201:339,1,269.999991760254,2|0,3:1|3:0,0:0:0:0:
120,84,111533,1,0,3:0:0:0:
120,84,111721,2,0,P|166:88|223:66,1,89.9999972534181,12|0,0:0|0:0,0:0:0:0:
392,84,112096,2,0,P|346:88|289:66,2,89.9999972534181,0|8|4,3:0|3:0|3:0,0:0:0:0:
207,75,112658,1,0,0:0:0:0:
256,0,112846,54,0,L|256:180,2,179.999994506836,6|2|2,3:1|0:0|0:0,0:0:0:0:
512,192,113971,1,8,0:0:0:0:
256,384,114346,1,8,3:0:0:0:
0,192,114721,1,4,3:0:0:0:
256,0,115096,1,6,0:1:0:0:
355,243,116033,5,0,0:0:0:0:
355,243,116221,2,0,P|287:226|255:287,1,150,2|0,0:0|0:0,0:0:0:0:
156,243,116783,2,0,P|224:226|256:287,1,150,2|0,0:0|0:0,0:0:0:0:
256,160,117346,1,4,0:0:0:0:
256,192,117533,12,0,121846,0:0:0:0:
75,135,125221,5,10,0:0:0:0:
256,100,125596,1,8,0:3:0:0:
437,135,125971,1,4,0:3:0:0:
437,135,126346,37,2,3:0:0:0:
462,216,126721,1,0,0:0:0:0:
439,234,126846,1,0,0:0:0:0:
417,249,126971,1,0,0:0:0:0:
393,264,127096,1,0,0:0:0:0:
325,214,127471,1,2,0:2:0:0:
256,264,127846,1,2,0:2:0:0:
188,214,128221,1,0,0:0:0:0:
188,214,128596,5,0,0:0:0:0:
214,133,128971,1,0,0:0:0:0:
243,132,129096,1,0,0:0:0:0:
270,132,129221,1,0,0:0:0:0:
298,134,129346,1,0,0:2:0:0:
188,214,129721,1,2,0:2:0:0:
256,264,130096,1,2,0:2:0:0:
324,214,130471,1,2,0:2:0:0:
325,214,130846,53,2,0:2:0:0:
298,133,131221,1,0,0:0:0:0:
269,132,131346,1,0,0:0:0:0:
242,132,131471,1,0,0:0:0:0:
214,134,131596,1,0,0:0:0:0:
325,214,131971,1,2,0:2:0:0:
256,264,132346,1,2,0:2:0:0:
188,214,132721,1,0,0:0:0:0:
188,214,133096,5,0,0:0:0:0:
119,264,133471,1,0,0:0:0:0:
95,249,133596,1,0,0:0:0:0:
73,234,133721,1,0,0:0:0:0:
50,216,133846,1,0,0:2:0:0:
75,135,134221,1,2,0:2:0:0:
188,214,134596,1,2,0:2:0:0:
325,214,134971,1,2,0:2:0:0:
437,135,135346,53,8,0:0:0:0:
313,77,135721,1,0,0:0:0:0:
316,116,135846,1,0,0:0:0:0:
348,93,135971,1,0,0:0:0:0:
313,77,136096,1,0,0:0:0:0:
325,214,136471,1,2,0:2:0:0:
188,214,136846,1,2,0:2:0:0:
199,77,137221,1,0,0:0:0:0:
75,135,137596,5,8,0:0:0:0:
199,77,137971,1,0,0:0:0:0:
196,116,138096,1,0,0:0:0:0:
164,93,138221,1,0,0:0:0:0:
199,77,138346,1,0,0:2:0:0:
188,214,138721,1,2,0:2:0:0:
325,214,139096,1,2,0:2:0:0:
313,77,139471,1,2,0:2:0:0:
437,135,139846,53,8,0:0:0:0:
325,214,140221,1,0,3:0:0:0:
313,77,140596,1,2,0:2:0:0:
75,135,140971,5,8,0:2:0:0:
188,214,141346,1,8,0:3:0:0:
199,77,141721,1,4,0:3:0:0:
64,272,142096,53,4,0:0:0:0:
188,214,142471,1,0,0:0:0:0:
325,214,142846,1,2,0:3:0:0:
448,272,143221,22,0,P|399:328|329:353,1,150,4|2,0:0|0:0,0:0:0:0:
256,300,143783,2,0,L|256:220,2,75,0|2|0,3:0|0:0|3:0,0:0:0:0:
63,272,144346,2,0,P|112:328|182:353,1,150,8|8,0:0|0:3,0:0:0:0:
256,300,144908,1,8,0:3:0:0:
330,353,145096,1,4,0:3:0:0:
448,112,145471,38,0,P|399:55|329:30,1,150,4|0,0:2|0:0,0:0:0:0:
256,84,146033,1,8,2:3:0:0:
256,84,146221,2,0,L|256:164,1,75,0|2,0:0|2:3,0:0:0:0:
182,30,146596,2,0,P|112:55|63:112,1,150,8|0,0:2|3:0,0:0:0:0:
40,192,147158,1,8,2:3:0:0:
63,273,147346,1,0,3:0:0:0:
328,216,147721,5,0,0:0:0:0:
328,216,148096,2,0,L|316:140,1,75,0|8,0:0|2:3,0:0:0:0:
184,216,148471,2,0,L|196:140,1,75,0|2,0:0|2:3,0:0:0:0:
310,294,148846,2,0,B|265:276|255:246|255:246|244:276|202:294,2,150,8|0|0,0:2|0:0|0:0,0:0:0:0:
64,112,149971,54,0,P|112:55|182:30,1,150
256,84,150533,1,8,2:3:0:0:
256,84,150721,2,0,L|256:164,1,75,0|2,0:0|2:3,0:0:0:0:
329,30,151096,2,0,P|399:55|448:112,1,150,8|0,0:2|0:0,0:0:0:0:
472,192,151658,1,8,2:3:0:0:
449,273,151846,1,0,0:0:0:0:
184,216,152221,5,0,0:0:0:0:
184,216,152596,2,0,L|196:140,1,75,0|8,0:0|2:3,0:0:0:0:
328,216,152971,2,0,L|316:140,1,75,0|2,0:0|2:3,0:0:0:0:
256,280,153346,1,8,0:2:0:0:
256,108,153721,1,0,0:0:0:0:
256,108,153908,1,0,0:0:0:0:
256,108,154096,2,0,L|256:32,1,75,8|0,0:0|2:0,0:0:0:0:
352,180,154471,54,0,P|255:228|158:180,1,225,4|8,3:2|0:3,0:0:0:0:
256,108,155221,1,0,3:0:0:0:
67,254,155596,2,0,P|119:306|187:337,2,150,8|0|0,0:0|3:0|3:0,0:0:0:0:
445,254,156721,2,0,P|392:306|324:337,1,150,2|0,3:0|0:0,0:0:0:0:
256,272,157283,1,8,0:3:0:0:
256,272,157471,2,0,L|256:197,1,75,8|0,0:0|3:0,0:0:0:0:
372,100,157846,6,0,P|340:119|322:151,1,75,8|0,0:0|0:0,0:0:0:0:
256,32,158221,2,0,L|256:116,1,75,8|0,0:3|0:0,0:0:0:0:
140,100,158596,2,0,P|171:119|189:151,1,75,8|0,0:0|3:0,0:0:0:0:
256,272,158971,1,4,0:0:0:0:
256,272,159346,2,0,L|256:197,2,75,0|0|2,0:0|3:0|0:3,0:0:0:0:
188,320,159908,1,0,3:0:0:0:
324,320,160096,1,8,0:0:0:0:
324,320,160471,2,0,L|368:248,1,75,0|0,3:0|0:0,0:0:0:0:
188,320,160846,2,0,L|144:248,1,75,8|0,3:2|0:0,0:0:0:0:
296,200,161221,54,0,P|256:118|215:200,1,225,4|0,3:2|0:0,0:0:0:0:
214,198,161971,1,2,0:3:0:0:
419,64,162346,2,0,P|461:108|401:115,2,150,12|0|0,0:0|0:0|3:0,0:0:0:0:
92,64,163471,6,0,P|50:108|110:115,1,150,4|2,0:0|0:3,0:0:0:0:
184,78,164033,1,0,0:0:0:0:
256,120,164221,1,2,0:3:0:0:
328,78,164408,1,0,0:0:0:0:
401,115,164596,2,0,P|461:108|419:64,1,150,4|2,0:0|0:3,0:0:0:0:
328,78,165158,1,8,0:3:0:0:
256,120,165345,1,2,0:3:0:0:
256,204,165533,1,0,3:0:0:0:
328,248,165721,54,0,P|400:268|476:232,2,150,4|8|8,0:0|0:0|0:0,0:0:0:0:
256,204,166658,1,0,3:0:0:0:
184,248,166846,2,0,P|112:268|36:232,1,150,12|8,0:0|3:2,0:0:0:0:
120,152,167408,1,8,3:0:0:0:
208,112,167596,1,0,3:0:0:0:
304,112,167783,1,0,3:0:0:0:
392,152,167971,22,0,B|387:207|387:207|369:230|369:230|362:302,2,150,4|0|0,0:2|0:0|0:0,0:0:0:0:
416,368,169096,5,8,0:2:0:0:
256,304,169471,1,8,0:2:0:0:
96,368,169846,1,8,0:2:0:0:
120,152,170221,6,0,B|124:207|124:207|142:230|142:230|149:302,2,150,4|0|0,0:2|0:0|0:0,0:0:0:0:
256,352,171346,37,8,0:2:0:0:
256,192,171721,1,8,0:2:0:0:
256,32,172096,2,0,L|256:112,1,75,8|0,0:2|0:0,0:0:0:0:
188,160,172471,6,0,B|256:192|256:192|328:160,2,150,4|0|8,0:2|0:0|0:2,0:0:0:0:
256,0,173596,5,8,0:2:0:0:
256,192,173971,1,8,0:2:0:0:
256,384,174346,2,0,L|256:304,1,75,8|0,0:2|0:0,0:0:0:0:
324,222,174721,38,0,B|256:192|256:192|188:224,1,150,12|2,0:2|0:0,0:0:0:0:
121,275,175283,2,0,B|109:238|109:238|84:211,1,75,0|2,0:0|0:0,0:0:0:0:
390,275,175846,6,0,B|403:239|403:239|426:210,1,75,4|0,0:2|0:0,0:0:0:0:
256,120,176221,2,0,L|256:200,1,75,2|0,0:2|0:0,0:0:0:0:
121,275,176596,1,8,0:2:0:0:
121,275,176783,1,8,0:2:0:0:
121,275,176971,6,0,B|68:248|68:248|60:158,1,150,4|2,0:2|0:0,0:0:0:0:
95,66,177533,2,0,B|148:93|148:93|156:183,1,150,8|0,0:0|0:0,0:0:0:0:
256,24,178096,2,0,L|256:160,1,112.5,4|0,0:2|2:0,0:0:0:0:
256,144,178471,2,0,L|256:192,2,37.5,0|0|8,0:0|2:0|0:0,2:0:0:0:
256,24,178846,1,2,0:0:0:0:
391,275,179221,38,0,B|444:248|444:248|452:158,1,150,4|2,0:2|0:0,0:0:0:0:
417,66,179783,2,0,B|364:93|364:93|356:183,1,150,8|0,0:0|0:0,0:0:0:0:
256,24,180346,2,0,L|256:160,1,112.5,4|0,0:2|2:0,0:0:0:0:
256,144,180721,2,0,L|256:197,2,50,0|0|0,0:0|2:0|2:0,0:0:0:0:
152,124,181096,1,8,0:2:0:0:
152,124,181283,1,8,0:2:0:0:
152,124,181471,6,0,B|136:197|136:197|190:259,1,150,4|2,0:2|0:0,0:0:0:0:
326,253,182033,2,0,B|376:197|376:197|360:124,1,150,0|0,0:2|0:0,0:0:0:0:
256,80,182596,2,0,L|256:155,1,75,4|0,0:2|0:0,0:0:0:0:
136,198,182971,2,0,B|167:220|167:220|185:253,1,75,8|0,0:0|0:0,0:0:0:0:
375,198,183346,2,0,B|344:220|344:220|327:253,1,75,2|0,0:0|0:0,0:0:0:0:
39,296,183721,6,0,B|92:308|92:308|112:337|112:337|171:348,2,150,4|8|8,0:2|0:0|0:0,0:0:0:0:
472,296,184846,2,0,B|421:307|421:307|400:338|400:338|340:348,2,150,8|8|8,0:0|0:0|0:0,0:0:0:0:
256,80,185971,1,4,0:0:0:0:
256,192,186158,12,0,187846,0:0:0:0:
142,208,188221,6,0,L|132:252,2,44.999998626709,2|0|0,0:0|0:0|0:0,0:0:0:0:
214,240,189346,2,0,L|204:284,2,44.999998626709
369,208,190471,6,0,L|380:252,2,44.999998626709,2|0|0,0:0|0:0|0:0,0:0:0:0:
297,240,191596,2,0,L|308:284,2,44.999998626709
256,160,192721,54,0,L|256:64,1,89.9999972534181,2|0,0:0|0:0,0:0:0:0:
200,0,193846,1,0,0:0:0:0:
177,38,194221,1,0,0:0:0:0:
155,77,194596,1,0,0:0:0:0:
256,70,194971,5,2,0:0:0:0:
256,70,195346,2,0,L|256:100,2,22.4999993133545
312,0,196096,1,0,0:0:0:0:
334,38,196471,1,0,0:0:0:0:
357,77,196846,1,0,0:0:0:0:
256,70,197221,54,0,L|256:144,1,67.4999979400635,2|0,0:0|0:0,0:0:0:0:
335,251,198158,1,0,0:0:0:0:
335,251,198346,2,0,L|367:215,2,44.999998626709,2|0|0,0:0|0:0|0:0,0:0:0:0:
256,137,199471,6,0,L|256:205,1,67.4999979400635,2|0,0:0|0:0,0:0:0:0:
177,251,200221,1,2,0:0:0:0:
177,251,200596,2,0,L|145:215,2,44.999998626709,2|0|0,0:0|0:0|0:0,0:0:0:0:
256,137,201721,53,2,0:0:0:0:
256,170,202096,1,0,0:0:0:0:
256,204,202471,1,2,0:0:0:0:
256,204,202846,5,2,0:0:0:0:
256,137,203221,1,0,0:0:0:0:
256,70,203596,1,2,0:0:0:0:
146,194,203971,53,2,0:0:0:0:
180,72,204346,1,2,0:0:0:0:
366,194,204721,1,2,0:0:0:0:
332,72,205096,1,2,0:0:0:0:
358,46,206033,21,0,3:0:0:0:
392,168,206221,1,8,0:1:0:0:
256,0,206596,1,8,3:0:0:0:
120,168,206971,1,0,3:0:0:0:
120,168,207158,1,0,3:0:0:0:
154,46,207346,38,0,P|159:180|114:306,1,269.999991760254,6|0,3:1|3:0,0:0:0:0:
70,76,208096,2,0,P|76:121|72:166,1,89.9999972534181,2|0,0:0|3:0,0:0:0:0:
114,306,208471,2,0,P|148:276|188:258,1,89.9999972534181,8|0,0:0|0:0,0:0:0:0:
397,306,208846,2,0,P|363:276|323:258,1,89.9999972534181,2|0,0:0|0:0,0:0:0:0:
256,60,209221,2,0,L|256:152,1,89.9999972534181,2|0,0:0|0:0,0:0:0:0:
407,346,209596,6,0,P|341:285|255:259,1,179.999994506836,6|2,3:1|0:0,0:0:0:0:
104,346,210158,2,0,P|170:286|256:260,1,179.999994506836,0|0,3:0|3:0,0:0:0:0:
391,227,210721,2,0,P|353:205|310:190,1,89.9999972534181,8|0,0:0|0:0,0:0:0:0:
120,227,211096,2,0,P|158:205|201:190,1,89.9999972534181,2|0,0:0|0:0,0:0:0:0:
255,350,211471,2,0,L|255:258,1,89.9999972534181,2|0,0:0|0:0,0:0:0:0:
358,46,211846,54,0,P|352:180|397:306,1,269.999991760254,2|0,3:1|3:0,0:0:0:0:
441,76,212596,2,0,P|435:121|439:166,1,89.9999972534181,2|0,0:0|3:0,0:0:0:0:
397,306,212971,2,0,P|383:264|356:216,1,89.9999972534181,8|0,0:0|0:0,0:0:0:0:
255,350,213346,2,0,L|255:258,1,89.9999972534181,2|0,0:0|0:0,0:0:0:0:
115,306,213721,2,0,P|129:264|156:216,1,89.9999972534181,2|0,0:0|0:0,0:0:0:0:
308,108,214096,6,0,P|256:168|204:108,1,179.999994506836,2|2,3:1|0:0,0:0:0:0:
391,133,214658,2,0,P|378:177|352:213,2,89.9999972534181,0|2|0,3:0|0:0|3:0,0:0:0:0:
256,28,215221,2,0,L|256:124,1,89.9999972534181,8|0,0:0|0:0,0:0:0:0:
159,213,215596,2,0,P|133:177|120:133,1,89.9999972534181,2|0,0:0|0:0,0:0:0:0:
352,213,215971,2,0,P|378:177|391:133,1,89.9999972534181,2|0,0:0|0:0,0:0:0:0:
125,42,216346,54,0,P|163:124|158:213,1,179.999994506836,6|2,3:1|0:0,0:0:0:0:
386,42,216908,2,0,P|348:124|353:213,1,179.999994506836,0|0,3:0|3:0,0:0:0:0:
512,302,217471,2,0,P|475:276|432:261,1,89.9999972534181,8|0,0:0|0:0,0:0:0:0:
277,355,217846,2,0,P|317:335|351:306,1,89.9999972534181,2|0,0:0|0:0,0:0:0:0:
348,124,218221,2,0,P|344:168|352:212,1,89.9999972534181,2|0,0:0|0:0,0:0:0:0:
235,355,218596,6,0,P|194:335|160:306,1,89.9999972534181,2|0,3:1|0:0,0:0:0:0:
163,124,218971,2,0,P|167:168|159:212,1,89.9999972534181,2|0,0:0|3:0,0:0:0:0:
0,302,219346,2,0,P|36:276|79:261,1,89.9999972534181,2|0,0:0|3:0,0:0:0:0:
308,195,219721,2,0,P|256:255|204:195,2,179.999994506836,8|2|2,0:0|0:0|0:0,0:0:0:0:
0,104,220846,54,0,L|92:142,1,89.9999972534181,2|0,3:1|0:0,0:0:0:0:
241,34,221221,2,0,L|158:0,1,89.9999972534181,2|0,0:0|3:0,0:0:0:0:
79,52,221596,2,0,L|171:90,1,89.9999972534181,2|0,0:0|3:0,0:0:0:0:
512,104,221971,2,0,L|420:142,1,89.9999972534181,8|0,0:0|0:0,0:0:0:0:
270,34,222346,2,0,L|354:0,1,89.9999972534181,2|0,0:0|0:0,0:0:0:0:
433,52,222721,2,0,L|341:90,1,89.9999972534181,2|0,0:0|0:0,0:0:0:0:
94,311,223096,6,0,P|96:267|113:225,1,89.9999972534181,6|0,3:1|0:0,0:0:0:0:
349,86,223471,2,0,P|347:130|330:172,1,89.9999972534181,2|0,0:0|3:0,0:0:0:0:
162,86,223846,2,0,P|164:130|181:172,1,89.9999972534181,2|0,0:0|3:0,0:0:0:0:
418,311,224221,2,0,P|416:267|399:225,1,89.9999972534181,8|0,0:0|0:0,0:0:0:0:
208,96,224596,6,0,P|210:118|218:139,3,44.999998626709,0|0|0|0,3:0|3:0|3:0|3:0,3:0:0:0:
293,139,224971,2,0,P|301:118|304:96,3,44.999998626709,0|0|0|0,3:0|3:0|3:0|3:0,3:0:0:0:
322,19,225346,38,0,P|335:108|353:197,1,179.999994506836,6|2,3:1|0:0,0:0:0:0:
158,197,225908,2,0,P|176:108|190:19,1,179.999994506836,0|0,3:0|3:0,0:0:0:0:
419,258,226471,2,0,P|381:282|336:284,1,89.9999972534181,12|0,0:0|0:0,0:0:0:0:
92,258,226846,2,0,P|130:282|175:284,1,89.9999972534181,6|0,3:2|0:0,0:0:0:0:
395,84,227221,2,0,P|396:128|376:168,1,89.9999972534181,6|0,3:2|0:0,0:0:0:0:
145,53,227596,6,0,P|138:139|205:194,1,179.999994506836,6|2,3:1|0:0,0:0:0:0:
366,53,228158,2,0,P|373:139|306:194,1,179.999994506836,0|0,3:0|3:0,0:0:0:0:
116,84,228721,2,0,P|115:128|135:168,1,89.9999972534181,8|0,0:0|0:0,0:0:0:0:
92,258,229096,2,0,P|130:282|175:284,1,89.9999972534181,2|0,3:2|0:0,0:0:0:0:
232,366,229471,2,0,P|271:345|296:308,1,89.9999972534181,2|0,3:2|0:0,0:0:0:0:
395,299,229846,54,0,P|351:224|264:213,1,179.999994506836,2|2,3:1|0:0,0:0:0:0:
92,258,230408,1,0,3:0:0:0:
92,258,230596,2,0,P|130:282|175:284,1,89.9999972534181,2|0,0:0|3:0,0:0:0:0:
395,84,230971,2,0,P|396:128|376:168,1,89.9999972534181,8|0,0:0|0:0,0:0:0:0:
419,258,231346,2,0,P|381:282|336:284,1,89.9999972534181,2|8,3:2|0:3,0:0:0:0:
279,366,231721,2,0,P|240:345|215:308,1,89.9999972534181,2|0,3:2|0:0,0:0:0:0:
116,299,232096,6,0,P|160:224|247:213,2,179.999994506836,6|2|2,3:1|0:0|3:0,0:0:0:0:
395,299,233221,2,0,L|406:209,1,89.9999972534181,8|0,0:0|0:0,0:0:0:0:
256,100,233596,2,0,L|256:190,1,89.9999972534181,8|0,3:0|0:0,0:0:0:0:
117,299,233971,2,0,L|105:209,1,89.9999972534181,0|0,3:2|3:0,0:0:0:0:
24,32,234346,54,0,B|108:76|104:-4|196:33,1,179.999994506836,6|2,3:1|0:0,0:0:0:0:
315,33,234908,2,0,B|408:-4|404:76|488:32,1,179.999994506836,0|0,3:0|3:0,0:0:0:0:
352,200,235471,2,0,L|360:108,1,89.9999972534181,8|0,0:0|0:0,0:0:0:0:
153,110,235846,2,0,L|160:200,1,89.9999972534181,0|8,3:0|0:0,0:0:0:0:
256,302,236221,2,0,L|256:212,1,89.9999972534181,2|0,0:0|0:0,0:0:0:0:
127,78,236596,6,0,L|142:257,1,179.999994506836,6|2,3:1|0:0,0:0:0:0:
369,257,237158,2,0,L|385:78,1,179.999994506836,0|0,3:0|3:0,0:0:0:0:
160,199,237721,2,0,L|168:289,1,89.9999972534181,8|0,0:0|0:0,0:0:0:0:
344,289,238096,2,0,L|352:197,1,89.9999972534181,8|0,3:0|0:0,0:0:0:0:
256,160,238471,2,0,L|256:256,1,89.9999972534181,4|0,3:0|0:0,0:0:0:0:
352,84,238846,54,0,P|397:75|441:84,1,89.9999972534181,6|0,3:1|0:0,0:0:0:0:
426,188,239221,2,0,P|455:222|471:264,1,89.9999972534181,2|0,0:0|3:0,0:0:0:0:
373,304,239596,2,0,P|358:346|329:380,1,89.9999972534181,2|0,0:0|3:0,0:0:0:0:
139,304,239971,6,0,P|155:346|184:380,1,89.9999972534181,8|0,0:0|0:0,0:0:0:0:
86,188,240346,2,0,P|58:222|42:264,1,89.9999972534181,8|0,3:0|3:0,0:0:0:0:
160,84,240721,2,0,P|116:75|72:84,1,89.9999972534181,4|0,3:0|0:0,0:0:0:0:
256,8,241096,53,6,0:1:0:0:
192,328,242033,5,0,0:0:0:0:
192,328,242221,2,0,B|144:320|120:280|120:280|156:272|192:300,1,150,2|0,0:0|0:0,0:0:0:0:
320,328,242783,2,0,B|368:320|392:280|392:280|356:272|320:300,1,150,2|0,0:0|0:0,0:0:0:0:
172,356,243346,6,0,P|107:319|72:254,1,150,4|2,3:2|0:0,0:0:0:0:
40,120,243908,2,0,P|34:156|14:188,2,75,0|2|0,3:0|0:0|3:0,0:0:0:0:
120,184,244471,2,0,P|185:164|173:96,2,150,8|2|2,0:0|0:0|0:3,0:0:0:0:
339,356,245596,6,0,P|404:319|439:254,1,150,2|2,3:2|0:0,0:0:0:0:
472,120,246158,2,0,P|477:156|497:188,2,75,0|2|0,3:0|0:0|3:0,0:0:0:0:
392,184,246721,2,0,P|326:164|338:96,2,150,8|2|2,0:0|0:0|0:3,0:0:0:0:
151,359,247846,6,0,P|199:305|177:237,1,150,2|2,3:2|0:0,0:0:0:0:
360,359,248408,2,0,P|312:305|334:237,1,150,0|0,3:0|3:0,0:0:0:0:
420,168,248971,1,8,0:0:0:0:
256,40,249346,2,0,L|256:124,2,75,2|0|2,0:0|0:0|0:3,0:0:0:0:
92,168,250096,37,8,0:0:0:0:
360,359,250471,1,8,3:0:0:0:
152,359,250846,1,4,3:0:0:0:
261,57,251221,6,0,L|303:156|420:168|336:248|360:360|256:312|152:360|176:248|92:168|208:156|252:56,1,1140,4|0,0:1|0:0,0:0:0:0:
