osu file format v14

[General]
AudioFilename: Higurashi Moratorium.mp3
AudioLeadIn: 0
PreviewTime: 173188
Countdown: 0
SampleSet: Soft
StackLeniency: 0.5
Mode: 0
LetterboxInBreaks: 0
WidescreenStoryboard: 1

[Editor]
Bookmarks: 21739,25486,35644,78819,94057,104216,135962,161041,172470,172999,174057,189295
DistanceSpacing: 1.3
BeatDivisor: 3
GridSize: 32
TimelineZoom: 2.399999

[Metadata]
Title:Higurashi Moratorium
TitleUnicode:茅蜩モラトリアム
Artist:Amatsuki
ArtistUnicode:天月
Creator:Nevo
Version:xChorse's Normal
Source:
Tags:TOTAL OBJECTION Vocaloid Megpoid GUMI xchorse yukiyo lasse airincat
BeatmapID:2023497
BeatmapSetID:931886

[Difficulty]
HPDrainRate:3
CircleSize:3.3
OverallDifficulty:4
ApproachRate:6
SliderMultiplier:1
SliderTickRate:1

[Events]
//Background and Video events
0,0,"BG.jpg",0,0
Video,0,"PV.avi"
//Break Periods
2,161241,165388
//Storyboard Layer 0 (Background)
//Storyboard Layer 1 (Fail)
//Storyboard Layer 2 (Pass)
//Storyboard Layer 3 (Foreground)
//Storyboard Layer 4 (Overlay)
//Storyboard Sound Samples

[TimingPoints]
3867,638.297872340426,4,2,86,40,1,0
3867,-80,4,2,86,40,0,0
25486,317.460317460317,4,2,86,50,1,0
25486,-133.333333333333,4,2,86,50,0,0
26279,-133.333333333333,4,2,86,50,0,0
26676,-133.333333333333,4,2,1,5,0,0
26755,-133.333333333333,4,1,85,65,0,0
35485,-133.333333333333,4,1,86,50,0,0
36597,-133.333333333333,4,1,85,50,0,0
36914,-133.333333333333,4,2,85,50,0,0
46279,-133.333333333333,4,2,85,50,0,0
47073,-133.333333333333,4,2,85,60,0,0
57232,-133.333333333333,4,2,86,55,0,0
58739,-133.333333333333,4,2,86,20,0,0
58819,-133.333333333333,4,2,86,55,0,0
59454,-133.333333333333,4,2,85,60,0,0
59771,-133.333333333333,4,2,85,65,0,0
61200,-133.333333333333,4,1,0,65,0,0
62946,-133.333333333333,4,2,86,50,0,0
63184,-133.333333333333,4,2,1,5,0,0
63263,-133.333333333333,4,2,86,55,0,0
63501,-133.333333333333,4,2,1,5,0,0
63581,-100,4,1,85,70,0,1
71200,-100,4,1,85,70,0,1
73739,-100,4,1,85,70,0,1
81359,-100,4,1,0,70,0,1
83263,-100,4,2,86,60,0,1
83581,-100,4,1,86,70,0,1
83898,-133.333333333333,4,2,85,60,0,0
94057,-133.333333333333,4,2,85,50,0,0
101676,-133.333333333333,4,2,85,50,0,0
101835,-133.333333333333,4,2,85,5,0,0
102152,-133.333333333333,4,2,85,50,0,0
102232,-133.333333333333,4,2,85,5,0,0
102628,-133.333333333333,4,2,85,50,0,0
102946,-133.333333333333,4,2,86,50,0,0
104216,-133.333333333333,4,2,86,50,0,0
112999,-133.333333333333,4,2,86,40,0,0
113316,-133.333333333333,4,2,86,30,0,0
114057,-133.333333333333,4,2,86,40,0,0
114374,-133.333333333333,4,2,86,55,0,0
115882,-133.333333333333,4,2,86,20,0,0
115962,-133.333333333333,4,2,86,55,0,0
116597,-133.333333333333,4,2,85,60,0,0
116914,-133.333333333333,4,2,85,65,0,0
118343,-133.333333333333,4,1,0,65,0,0
120089,-133.333333333333,4,2,86,50,0,0
120327,-133.333333333333,4,2,1,5,0,0
120406,-133.333333333333,4,2,86,55,0,0
120644,-133.333333333333,4,2,1,5,0,0
120724,-100,4,1,85,70,0,1
128343,-100,4,1,85,70,0,1
130882,-100,4,1,85,70,0,1
138501,-100,4,1,0,70,0,1
140406,-100,4,1,85,60,0,1
140962,-100,4,2,85,5,0,1
141041,-133.333333333333,4,1,85,65,0,0
160882,-133.333333333333,4,2,86,60,0,0
161041,-133.333333333333,4,2,86,55,0,0
166120,-133.333333333333,4,1,85,45,0,0
169612,-133.333333333333,4,2,86,45,0,0
170089,-133.333333333333,4,2,86,45,0,0
170247,-133.333333333333,4,2,1,5,0,0
171993,-133.333333333333,4,2,85,60,0,0
172311,-133.333333333333,4,2,85,30,0,0
172946,-133.333333333333,4,2,85,40,0,0
173263,-133.333333333333,4,2,86,35,0,0
173382,-133.333333333333,4,2,86,40,0,0
173620,-133.333333333333,4,2,86,5,0,0
173700,-133.333333333333,4,2,86,45,0,0
173978,-133.333333333333,4,2,86,5,0,0
174057,-100,4,1,85,70,0,1
181676,-100,4,1,85,70,0,1
184216,-100,4,1,85,70,0,1
191835,-100,4,1,0,70,0,1
197232,-133.333333333333,4,2,85,60,0,0
197708,-133.333333333333,4,2,86,50,0,0
198184,-133.333333333333,4,1,85,65,0,0
207549,-133.333333333333,4,1,85,65,0,0

[Colours]
Combo1 : 130,130,130
Combo2 : 205,190,150
Combo3 : 196,150,94
Combo4 : 190,126,126

[HitObjects]
131,82,21739,5,4,0:0:0:0:
256,192,21898,12,0,24292,0:0:0:0:
110,114,25486,6,0,P|106:181|96:245,1,112.500004291535,2|2,0:1|0:0,0:0:0:0:
134,259,26120,2,0,L|191:249,1,37.5000014305115,2|0,0:1|0:0,0:0:0:0:
289,338,26755,6,0,L|301:177,1,150.000005722046,14|8,0:1|0:1,0:0:0:0:
375,125,27708,1,8,0:2:0:0:
313,49,28025,2,0,L|152:37,1,150.000005722046,0|8,0:0|0:2,0:0:0:0:
79,88,28978,1,8,0:2:0:0:
118,177,29295,6,0,P|119:231|102:268,1,75.000002861023,10|8,0:1|0:2,0:0:0:0:
80,342,29930,2,0,P|116:332|153:336,1,75.000002861023,8|8,0:0|0:2,0:0:0:0:
248,359,30565,1,10,0:0:0:0:
308,282,30882,1,10,0:2:0:0:
401,309,31200,2,0,P|446:268|455:225,1,75.000002861023,10|8,0:0|0:2,0:0:0:0:
474,161,31835,6,0,B|451:174|420:171|420:171|404:119|343:112,1,150.000005722046,14|10,0:0|0:1,0:0:0:0:
275,174,32787,1,10,0:0:0:0:
194,118,33105,2,0,B|142:123|126:175|126:175|95:178|72:165,1,150.000005722046,10|8,0:0|0:1,0:0:0:0:
2,234,34057,1,10,0:2:0:0:
70,303,34374,6,0,L|174:287,1,75.000002861023,10|10,0:0|0:2,0:0:0:0:
216,225,35009,2,0,L|290:236,1,75.000002861023,10|8,0:1|0:2,0:0:0:0:
325,269,35485,1,4,1:2:0:0:
325,269,36914,6,0,B|395:248,2,37.5000014305115,14|0|0,2:1|0:0|2:1,0:0:0:0:
289,235,37390,2,0,P|262:189|221:166,1,75.000002861023,2|0,2:1|2:1,0:0:0:0:
196,175,37866,1,10,2:1:0:0:
196,175,38025,2,0,L|110:192,2,75.000002861023,2|0|2,2:1|2:1|2:1,0:0:0:0:
245,37,39136,6,0,P|260:63|271:74,1,37.5000014305115,10|2,2:1|2:1,0:0:0:0:
313,62,39454,2,0,L|325:146,1,75.000002861023,10|8,2:1|2:1,0:0:0:0:
366,159,39930,2,0,L|354:243,1,75.000002861023,2|0,2:1|2:1,0:0:0:0:
357,330,40565,6,0,P|309:309|250:327,1,112.500004291535,2|10,2:1|2:1,0:0:0:0:
220,288,41200,2,0,P|169:309|116:293,1,112.500004291535,2|0,2:1|0:0,0:0:0:0:
166,209,41993,6,0,L|162:117,1,75.0000028610231,10|8,2:1|2:1,0:0:0:0:
193,95,42470,1,2,2:1:0:0:
193,95,42628,2,0,P|216:94|239:85,2,37.5000014305115,10|0|8,2:1|0:0|2:1,0:0:0:0:
156,62,43105,2,0,P|127:52|82:45,1,75.0000028610231,2|2,2:1|2:1,0:0:0:0:
42,133,43739,6,0,P|36:170|25:205,1,75.0000028610231,2|2,2:1|2:1,0:0:0:0:
18,254,44216,2,0,L|70:260,1,37.5000014305115,8|0,2:1|2:1,0:0:0:0:
90,291,44533,2,0,L|175:277,1,75.0000028610231,10|8,2:1|2:1,0:0:0:0:
196,242,45009,6,0,L|270:254,1,75.0000028610231,2|0,2:1|2:1,0:0:0:0:
306,286,45485,1,10,2:1:0:0:
306,286,45644,1,2,2:1:0:0:
469,42,46597,6,0,L|462:124,1,75.0000028610231,2|2,2:1|2:1,0:0:0:0:
433,155,47073,6,0,P|408:144|355:146,1,75.0000028610231,14|10,0:1|0:0,0:0:0:0:
300,220,47708,2,0,P|304:238|313:254,2,37.5000014305115,10|8|8,0:1|0:1|0:0,0:0:0:0:
265,185,48184,2,0,P|209:193|186:189,1,75.0000028610231,2|0,0:0|0:0,0:0:0:0:
149,164,48660,1,10,0:0:0:0:
68,219,48978,2,0,P|68:237|72:255,2,37.5000014305115,10|8|8,0:1|0:1|0:0,0:0:0:0:
35,182,49454,6,0,L|33:97,1,75.0000028610231,2|0,0:0|0:0,0:0:0:0:
49,61,49930,1,10,0:0:0:0:
144,40,50247,2,0,L|229:32,1,75.0000028610231,10|8,0:1|0:0,0:0:0:0:
267,36,50724,1,2,0:0:0:0:
267,36,50882,6,0,L|352:28,1,75.0000028610231,10|10,0:1|0:0,0:0:0:0:
436,52,51517,2,0,L|460:18,2,37.5000014305115,10|8|8,0:1|0:1|0:0,0:0:0:0:
483,137,52152,6,0,L|474:211,1,75.0000028610231,8|10,0:1|0:0,0:0:0:0:
464,308,52787,2,0,P|483:305|512:306,2,37.5000014305115,10|0|10,0:1|0:0|0:0,0:0:0:0:
424,336,53263,6,0,P|369:329|299:323,1,112.500004291535,2|8,0:2|0:0,0:0:0:0:
248,249,54057,2,0,P|250:232|250:196,2,37.5000014305115,10|0|10,0:1|0:0|0:0,0:0:0:0:
217,286,54533,1,2,0:0:0:0:
126,322,54851,5,2,0:0:0:0:
126,322,55009,2,0,P|118:279|117:243,1,75.0000028610231,10|10,0:1|0:1,0:0:0:0:
141,205,55485,2,0,P|145:186|148:168,1,37.5000014305115,2|8,0:0|0:0,0:0:0:0:
122,126,55803,1,2,0:0:0:0:
122,126,55962,2,0,P|165:134|201:135,1,75.0000028610231,10|10,0:1|0:0,0:0:0:0:
293,133,56597,2,0,P|330:131|367:123,1,75.0000028610231,10|10,0:1|0:0,0:0:0:0:
441,59,57232,6,0,L|435:21,2,37.5000014305115,14|8|0,1:1|0:3|0:0,0:0:0:0:
474,94,57708,2,0,P|465:129|455:184,2,75.0000028610231,2|2|2,0:0|0:0|0:1,0:0:0:0:
336,44,58819,1,8,0:2:0:0:
336,44,58977,1,8,0:2:0:0:
227,142,59454,2,0,P|231:177|228:192,1,37.5000014305115,10|10,2:2|2:2,0:0:0:0:
195,215,59771,6,0,L|105:202,1,75.0000028610231,14|0,0:1|0:0,0:0:0:0:
72,208,60247,2,0,L|61:133,1,75.0000028610231,10|2,0:2|0:0,0:0:0:0:
42,88,60724,1,10,0:0:0:0:
42,88,60882,2,0,L|116:77,1,75.0000028610231,2|2,0:0|0:1,0:0:0:0:
143,36,61359,5,2,0:1:0:0:
231,78,61676,2,0,L|239:41,1,37.5000014305115,2|2,0:1|0:1,0:0:0:0:
340,31,62152,2,0,L|332:68,1,37.5000014305115,2|2,0:1|0:1,0:0:0:0:
433,58,62628,2,0,L|441:21,2,37.5000014305115,2|2|12,0:1|0:1|0:2,0:0:0:0:
488,138,63263,1,8,0:2:0:0:
420,211,63581,6,0,L|320:202,1,100,14|8,0:1|0:2,0:0:0:0:
298,157,64057,1,2,0:0:0:0:
298,157,64216,2,0,L|198:148,1,100,10|10,0:1|0:2,0:0:0:0:
119,86,64851,1,10,0:1:0:0:
41,149,65168,1,8,0:2:0:0:
121,208,65485,2,0,P|122:267|106:307,1,100,10|10,0:1|0:2,0:0:0:0:
191,358,66120,6,0,P|241:327|284:321,1,100,6|8,0:1|0:2,0:0:0:0:
331,324,66597,2,0,P|379:314|421:287,2,100,2|2|2,0:0|0:0|0:0,0:0:0:0:
295,230,67549,2,0,L|299:172,1,50,0|10,0:0|0:2,0:0:0:0:
302,130,67866,2,0,P|261:129|196:84,1,100,2|0,0:1|0:0,0:0:0:0:
188,55,68343,1,8,0:2:0:0:
92,24,68660,6,0,L|82:128,1,100,14|8,0:1|0:2,0:0:0:0:
78,173,69136,1,0,0:0:0:0:
72,222,69295,2,0,L|62:326,1,100,10|8,0:1|0:2,0:0:0:0:
99,355,69771,2,0,L|198:345,1,100,2|2,0:0|0:0,0:0:0:0:
244,256,70406,1,0,0:0:0:0:
244,256,70565,2,0,P|288:256|341:205,1,100,10|10,0:1|0:2,0:0:0:0:
431,214,71200,6,0,P|400:175|398:126,1,100,14|8,0:1|0:2,0:0:0:0:
412,78,71676,1,2,0:0:0:0:
412,78,71835,2,0,L|312:68,1,100,8|10,0:1|0:2,0:0:0:0:
283,109,72311,2,0,L|183:99,1,100,10|2,0:2|0:0,0:0:0:0:
153,59,72787,1,10,0:2:0:0:
61,100,73105,1,10,0:1:0:0:
49,199,73422,1,10,0:2:0:0:
105,281,73739,6,0,L|218:272,1,100,14|8,0:0|0:2,0:0:0:0:
250,293,74216,1,2,0:0:0:0:
291,265,74374,2,0,L|404:256,1,100,10|10,0:1|0:2,0:0:0:0:
474,201,75009,1,10,0:1:0:0:
414,120,75327,1,8,0:2:0:0:
394,21,75644,2,0,P|335:20|295:36,1,100,10|10,0:1|0:2,0:0:0:0:
264,129,76279,6,0,P|217:145|167:142,1,100,14|8,0:1|0:2,0:0:0:0:
121,123,76755,2,0,L|107:227,1,100,2|0,0:0|0:0,0:0:0:0:
122,270,77232,1,10,0:2:0:0:
204,325,77549,2,0,P|202:363|198:376,2,50,10|8|10,0:1|0:1|0:2,0:0:0:0:
288,270,78184,1,10,0:1:0:0:
378,320,78501,1,8,0:2:0:0:
448,248,78819,6,0,L|456:192,2,50,14|2|2,0:0|0:0|0:0,0:0:0:0:
357,205,79454,2,0,L|349:149,2,50,2|2|10,1:2|0:0|0:2,0:0:0:0:
288,270,80089,6,0,P|251:261|240:253,2,50,10|2|10,0:0|0:0|0:2,0:0:0:0:
343,353,80724,2,0,P|364:340|389:337,2,50,10|2|10,0:1|0:0|0:2,0:0:0:0:
243,343,81359,5,2,0:1:0:0:
243,343,81517,1,2,0:1:0:0:
170,276,81835,1,2,0:1:0:0:
170,276,81993,1,2,0:1:0:0:
82,324,82311,1,2,0:1:0:0:
82,324,82469,1,2,0:1:0:0:
25,240,82787,1,2,0:1:0:0:
25,240,82947,2,0,P|23:216|22:191,1,50,2|0,0:1|0:0,0:0:0:0:
48,147,83263,1,2,0:1:0:0:
223,46,83898,6,0,L|211:207,1,150.000005722046,14|8,2:1|0:1,0:0:0:0:
137,259,84851,1,8,0:0:0:0:
199,335,85168,2,0,L|360:347,1,150.000005722046,8|8,0:1|0:1,0:0:0:0:
433,296,86121,1,8,0:0:0:0:
394,207,86438,6,0,P|393:153|410:116,1,75.000002861023,8|8,0:1|0:0,0:0:0:0:
432,42,87073,2,0,P|396:52|359:48,1,75.000002861023,8|8,0:1|0:0,0:0:0:0:
264,25,87708,1,8,0:1:0:0:
204,102,88025,1,8,0:0:0:0:
111,75,88343,2,0,P|66:116|57:159,1,75.000002861023,8|8,0:1|0:0,0:0:0:0:
38,223,88978,6,0,B|61:210|92:213|92:213|108:265|169:272,1,150.000005722046,14|8,2:1|0:1,0:0:0:0:
237,210,89930,1,8,0:0:0:0:
318,266,90247,2,0,B|370:261|386:209|386:209|417:206|440:219,1,150.000005722046,8|8,0:1|0:1,0:0:0:0:
510,150,91200,1,8,0:0:0:0:
442,81,91517,6,0,L|338:97,1,75.000002861023,8|8,0:1|0:0,0:0:0:0:
296,159,92152,2,0,L|222:148,1,75.000002861023,8|8,0:1|0:0,0:0:0:0:
187,112,92628,1,0,0:0:0:0:
187,112,92787,2,0,L|113:101,1,75.000002861023,8|8,0:1|0:0,0:0:0:0:
57,181,93422,2,0,L|3:188,2,37.5000014305115,8|8|8,0:0|0:0|0:0,0:0:0:0:
100,268,94057,6,0,B|110:303,2,37.5000014305115,14|0|8,2:1|0:0|2:1,0:0:0:0:
137,237,94533,2,0,P|173:242|210:232,1,75.000002861023,2|0,2:1|2:1,0:0:0:0:
256,217,95009,1,10,2:1:0:0:
256,217,95168,2,0,L|287:303,2,75.0000028610231,2|0|2,2:1|2:1|2:1,0:0:0:0:
373,129,96279,6,0,P|347:114|336:103,1,37.5000014305115,10|10,2:1|2:1,0:0:0:0:
343,59,96597,2,0,L|259:71,1,75.000002861023,10|8,2:1|2:1,0:0:0:0:
230,39,97073,2,0,L|218:123,1,75.000002861023,2|0,2:1|2:1,0:0:0:0:
213,210,97708,6,0,P|265:194|316:215,1,112.500004291535,2|2,2:1|2:1,0:0:0:0:
330,262,98343,2,0,P|382:277|433:256,1,112.500004291535,2|8,2:1|0:1,0:0:0:0:
467,165,99136,6,0,L|463:73,1,75.0000028610231,2|8,2:1|2:1,0:0:0:0:
452,42,99613,1,2,2:1:0:0:
452,42,99771,2,0,P|475:41|498:32,2,37.5000014305115,8|0|10,0:1|2:1|2:1,0:0:0:0:
402,44,100248,2,0,P|373:34|328:27,1,75.0000028610231,2|2,2:1|2:1,0:0:0:0:
243,73,100882,6,0,P|206:67|171:56,1,75.0000028610231,2|10,2:1|2:1,0:0:0:0:
122,68,101359,2,0,L|116:120,1,37.5000014305115,0|0,2:1|2:1,0:0:0:0:
89,145,101676,2,0,L|103:230,1,75.0000028610231,2|0,2:1|0:0,0:0:0:0:
136,252,102152,6,0,L|210:264,1,75.0000028610231,2|0,2:1|0:0,0:0:0:0:
248,294,102628,1,2,2:1:0:0:
248,294,102787,1,0,0:0:0:0:
460,342,104216,6,0,L|472:260,1,75.0000028610231,14|2,0:1|0:0,0:0:0:0:
373,256,104851,2,0,L|385:174,1,75.0000028610231,8|2,1:2|0:0,0:0:0:0:
290,154,105485,2,0,L|300:64,1,75.0000028610231,10|2,0:1|0:0,0:0:0:0:
221,19,106120,2,0,L|146:8,1,75.0000028610231,8|2,1:2|0:0,0:0:0:0:
111,63,106650,6,0,L|-1:50,1,100.000003814697,0|2,0:0|0:0,0:0:0:0:
43,143,107390,2,0,L|31:229,1,75.0000028610231,8|2,1:2|0:0,0:0:0:0:
71,269,107919,1,0,0:0:0:0:
71,269,108025,2,0,L|81:343,1,75.0000028610231,10|2,0:1|0:0,0:0:0:0:
174,372,108660,2,0,P|220:353|254:347,1,75.0000028610231,8|0,1:2|3:0,0:0:0:0:
336,380,109295,6,0,L|415:365,1,75.0000028610231,14|2,0:1|0:0,0:0:0:0:
492,314,109930,2,0,L|496:226,1,75.0000028610231,8|0,1:2|0:0,0:0:0:0:
444,198,110459,2,0,L|441:132,1,50.0000019073487
468,88,110882,1,8,2:1:0:0:
375,57,111200,2,0,L|287:53,1,75.0000028610231,8|2,1:2|0:0,0:0:0:0:
248,92,111729,6,0,P|211:109|130:95,1,125.000004768372
78,56,112470,1,8,1:2:0:0:
32,103,112681,2,0,L|23:182,1,75.0000028610231,0|4,0:0|0:0,0:0:0:0:
71,325,114375,6,0,L|77:363,2,37.5000014305115,14|8|0,1:1|0:3|0:0,0:0:0:0:
38,290,114851,2,0,P|47:255|57:200,2,75.0000028610231,2|2|2,0:0|0:0|0:1,0:0:0:0:
176,340,115962,1,8,0:2:0:0:
176,340,116120,1,8,0:2:0:0:
285,242,116597,2,0,P|281:207|284:192,1,37.5000014305115,10|10,2:2|2:2,0:0:0:0:
317,169,116914,6,0,L|407:182,1,75.0000028610231,14|0,0:1|0:0,0:0:0:0:
440,176,117390,2,0,L|451:251,1,75.0000028610231,10|2,0:2|0:0,0:0:0:0:
470,296,117867,1,10,0:0:0:0:
470,296,118025,2,0,L|396:307,1,75.0000028610231,2|2,0:0|0:1,0:0:0:0:
369,348,118502,5,2,0:1:0:0:
281,306,118819,2,0,L|273:343,1,37.5000014305115,2|2,0:1|0:1,0:0:0:0:
172,353,119295,2,0,L|180:316,1,37.5000014305115,2|2,0:1|0:1,0:0:0:0:
79,326,119771,2,0,L|71:363,2,37.5000014305115,2|2|12,0:1|0:1|0:2,0:0:0:0:
24,246,120406,1,8,0:2:0:0:
89,168,120724,6,0,L|189:159,1,100,14|8,0:0|0:2,0:0:0:0:
211,114,121200,1,2,0:0:0:0:
211,114,121359,2,0,L|311:105,1,100,10|10,0:1|0:2,0:0:0:0:
395,52,121994,1,10,0:0:0:0:
454,132,122311,1,8,0:2:0:0:
391,208,122628,2,0,P|390:267|406:307,1,100,10|10,0:1|0:2,0:0:0:0:
321,358,123263,6,0,P|271:327|228:321,1,100,10|8,0:0|0:2,0:0:0:0:
181,324,123740,2,0,P|133:314|91:287,2,100,2|2|2,0:0|0:0|0:0,0:0:0:0:
217,230,124692,2,0,L|213:172,1,50,0|10,0:0|0:2,0:0:0:0:
210,130,125009,2,0,P|251:129|316:84,1,100,2|2,0:2|0:0,0:0:0:0:
324,55,125486,1,8,0:2:0:0:
420,24,125803,6,0,L|430:128,1,100,14|8,0:0|0:2,0:0:0:0:
451,168,126279,1,2,0:0:0:0:
472,213,126438,2,0,L|482:317,1,100,10|8,0:1|0:2,0:0:0:0:
463,359,126914,1,2,0:0:0:0:
379,303,127232,2,0,P|370:336|364:356,2,50,2|10|0,0:0|0:2|0:0,0:0:0:0:
349,262,127708,2,0,P|305:262|252:211,1,100,10|10,0:1|0:2,0:0:0:0:
161,227,128343,6,0,P|192:188|194:139,1,100,14|8,0:0|0:2,0:0:0:0:
169,95,128819,1,2,0:0:0:0:
169,95,128978,2,0,L|269:85,1,100,2|10,0:0|0:2,0:0:0:0:
306,117,129454,2,0,L|406:107,1,100,2|0,0:0|0:0,0:0:0:0:
433,65,129930,1,10,0:2:0:0:
496,142,130248,1,10,0:1:0:0:
497,241,130565,1,10,0:2:0:0:
415,298,130882,6,0,L|302:289,1,100,14|8,0:0|0:2,0:0:0:0:
270,266,131359,1,2,0:0:0:0:
223,284,131517,2,0,L|110:275,1,100,10|10,0:0|0:2,0:0:0:0:
49,208,132152,1,10,0:0:0:0:
98,120,132470,1,8,0:2:0:0:
118,21,132787,2,0,P|177:20|217:36,1,100,10|10,0:1|0:2,0:0:0:0:
248,129,133422,6,0,P|295:145|345:142,1,100,14|8,0:0|0:2,0:0:0:0:
391,123,133898,2,0,L|405:227,1,100,2|0,0:0|0:0,0:0:0:0:
390,270,134375,1,10,0:2:0:0:
308,325,134692,2,0,P|310:363|314:376,2,50,10|8|10,0:1|0:1|0:2,0:0:0:0:
224,270,135327,1,10,0:1:0:0:
134,320,135644,1,8,0:2:0:0:
64,248,135962,6,0,L|56:192,2,50,10|2|10,0:0|0:0|0:2,0:0:0:0:
155,205,136597,2,0,L|163:149,2,50,10|10|10,0:1|0:1|0:2,0:0:0:0:
224,270,137232,6,0,P|261:261|272:253,2,50,10|2|10,0:1|0:0|0:2,0:0:0:0:
169,353,137867,2,0,P|148:340|123:337,2,50,10|0|10,0:1|0:0|0:2,0:0:0:0:
269,343,138502,5,2,0:0:0:0:
269,343,138660,1,2,0:0:0:0:
342,276,138978,1,2,0:0:0:0:
342,276,139136,1,2,0:0:0:0:
430,324,139454,1,2,0:0:0:0:
430,324,139612,1,2,0:0:0:0:
487,241,139930,2,0,P|489:194|489:181,1,50,2|2,0:0|0:0,0:0:0:0:
464,147,140248,1,0,0:0:0:0:
464,147,140406,1,10,1:1:0:0:
326,87,141041,6,0,B|288:71|261:98|261:98|219:115|175:89,1,150.000005722046,14|8,0:0|0:0,0:0:0:0:
87,77,141993,1,10,0:2:0:0:
48,166,142311,2,0,B|45:204|69:237|69:237|80:264|62:319,1,150.000005722046,10|8,0:1|0:0,0:0:0:0:
142,369,143263,1,10,0:2:0:0:
227,321,143581,2,0,L|308:312,1,75.0000028610231,14|8,0:0|0:2,0:0:0:0:
360,234,144216,2,0,L|279:225,1,75.0000028610231,10|8,0:1|0:2,0:0:0:0:
188,240,144851,2,0,B|180:197|202:168|202:168|168:141|172:85,1,150.000005722046,10|10,0:0|0:1,0:0:0:0:
220,18,145803,1,10,0:2:0:0:
297,77,146120,6,0,B|297:100|308:120|308:120|353:91|424:99,1,150.000005722046,14|10,0:0|0:1,0:0:0:0:
482,163,147073,1,8,0:2:0:0:
409,228,147390,2,0,B|402:283|431:328|431:328|411:339|388:339,1,150.000005722046,10|2,0:0|0:0,0:0:0:0:
293,317,148343,1,10,0:2:0:0:
203,354,148660,2,0,L|122:345,1,75.0000028610231,14|10,0:0|0:2,0:0:0:0:
70,267,149295,2,0,L|151:258,1,75.0000028610231,10|10,0:1|0:2,0:0:0:0:
185,232,149771,6,0,P|207:203|165:138,1,112.500004291535,10|8,0:0|0:2,0:0:0:0:
80,123,150565,1,10,0:1:0:0:
128,38,150882,1,10,0:2:0:0:
222,63,151200,2,0,P|258:80|298:79,1,75.0000028610231,14|10,0:0|0:2,0:0:0:0:
382,41,151835,2,0,P|419:41|452:58,1,75.0000028610231,10|10,0:0|0:2,0:0:0:0:
482,97,152311,6,0,L|467:220,1,112.500004291535,0|10,0:0|0:2,0:0:0:0:
465,306,153105,2,0,P|419:287|384:285,1,75.0000028610231,10|10,0:0|0:2,0:0:0:0:
310,335,153739,2,0,P|264:354|229:356,2,75.0000028610231,14|10|10,0:0|0:2|0:0,0:0:0:0:
308,237,154692,1,10,0:2:0:0:
357,153,155009,2,0,L|366:70,1,75.0000028610231,10|8,0:1|0:2,0:0:0:0:
278,33,155644,2,0,L|269:107,1,75.0000028610231,10|10,0:1|0:2,0:0:0:0:
192,166,156279,6,0,P|157:145|145:137,2,37.5000014305115,14|2|10,0:1|0:0|0:2,0:0:0:0:
127,239,156914,2,0,P|106:274|98:286,2,37.5000014305115,10|2|10,0:1|0:0|0:2,0:0:0:0:
200,304,157549,2,0,P|235:325|247:333,2,37.5000014305115,14|2|10,0:0|0:0|0:2,0:0:0:0:
265,231,158184,2,0,P|286:196|294:184,2,37.5000014305115,10|2|8,0:0|0:0|0:2,0:0:0:0:
192,166,158819,6,0,P|201:130|186:79,1,75.0000028610231,10|0,0:0|0:0,0:0:0:0:
166,53,159295,2,0,P|130:44|79:59,1,75.0000028610231,10|0,0:1|0:0,0:0:0:0:
53,79,159771,2,0,P|44:115|59:166,1,75.0000028610231,10|0,0:1|0:0,0:0:0:0:
79,192,160247,2,0,P|115:201|166:186,1,75.0000028610231,10|0,0:1|0:0,0:0:0:0:
192,166,160724,2,0,P|228:158|264:167,1,75.0000028610231,10|2,0:2|0:1,0:0:0:0:
256,192,166438,12,0,170247,0:0:0:0:
420,211,174057,6,0,L|320:202,1,100,14|8,0:0|0:2,0:0:0:0:
298,157,174533,1,2,0:0:0:0:
298,157,174692,2,0,L|198:148,1,100,10|10,0:1|0:2,0:0:0:0:
119,86,175327,1,10,0:0:0:0:
41,149,175644,1,0,0:0:0:0:
121,208,175961,2,0,P|122:267|106:307,1,100,10|10,0:1|0:2,0:0:0:0:
194,354,176597,6,0,L|304:339,1,100,14|8,0:0|0:2,0:0:0:0:
339,359,177073,2,0,L|449:344,1,100,2|2,0:0|0:0,0:0:0:0:
472,251,177708,1,2,0:0:0:0:
472,251,177866,2,0,L|481:190,2,50,10|0|8,0:1|0:0|0:2,0:0:0:0:
422,259,178342,2,0,P|376:273|301:247,1,100,2|2,0:0|0:0,0:0:0:0:
293,224,178819,1,10,0:2:0:0:
206,273,179136,6,0,L|196:173,1,100,14|8,0:0|0:2,0:0:0:0:
179,126,179612,1,2,0:0:0:0:
191,75,179771,2,0,L|290:65,1,100,10|10,0:1|0:2,0:0:0:0:
336,86,180247,1,2,0:0:0:0:
435,76,180565,2,0,P|442:52|448:27,2,50,2|8|0,0:0|0:2|0:0,0:0:0:0:
450,123,181041,2,0,P|480:161|482:210,1,100,10|10,0:1|0:2,0:0:0:0:
419,289,181676,6,0,P|388:250|386:201,1,100,14|8,0:0|0:2,0:0:0:0:
351,165,182152,1,2,0:0:0:0:
351,165,182311,2,0,L|251:155,1,100,10|10,0:1|0:2,0:0:0:0:
226,198,182787,2,0,L|126:188,1,100,2|0,0:1|0:0,0:0:0:0:
94,149,183263,1,10,0:2:0:0:
33,228,183581,1,10,0:1:0:0:
67,321,183898,1,10,0:2:0:0:
161,351,184215,6,0,L|274:342,1,100,14|8,0:0|0:2,0:0:0:0:
301,313,184692,1,2,0:0:0:0:
345,335,184850,2,0,L|458:326,1,100,10|10,0:1|0:2,0:0:0:0:
500,243,185485,1,10,0:0:0:0:
503,142,185803,1,8,0:2:0:0:
435,68,186120,2,0,P|376:67|336:83,1,100,10|10,0:0|0:2,0:0:0:0:
281,164,186755,6,0,P|234:180|184:177,1,100,14|8,0:0|0:2,0:0:0:0:
139,154,187231,2,0,L|125:258,1,100,2|0,0:0|0:0,0:0:0:0:
102,298,187708,1,10,0:2:0:0:
194,335,188025,2,0,P|192:373|188:386,2,50,10|8|10,0:1|0:1|0:2,0:0:0:0:
260,260,188660,1,10,0:1:0:0:
329,331,188977,1,8,0:2:0:0:
411,274,189295,6,0,L|419:218,2,50,14|2|10,0:1|0:0|0:2,0:0:0:0:
333,210,189930,2,0,L|325:154,2,50,10|2|10,0:1|0:0|0:2,0:0:0:0:
238,175,190565,6,0,P|201:166|190:158,2,50,10|2|10,0:1|0:0|0:2,0:0:0:0:
269,79,191200,2,0,P|290:66|315:63,2,50,10|2|10,0:0|0:0|0:2,0:0:0:0:
169,70,191835,5,2,0:0:0:0:
169,70,191993,1,0,0:0:0:0:
105,147,192311,1,2,0:0:0:0:
105,147,192469,1,2,0:0:0:0:
22,90,192787,1,2,0:0:0:0:
22,90,192945,1,2,0:0:0:0:
12,189,193263,2,0,P|12:213|14:238,1,50,2|2,0:0|0:0,0:0:0:0:
87,306,193739,5,2,0:0:0:0:
87,306,193897,1,2,0:0:0:0:
151,229,194215,1,2,0:0:0:0:
151,229,194373,1,2,0:0:0:0:
234,286,194691,1,2,0:0:0:0:
234,286,194851,1,2,0:0:0:0:
244,187,195168,2,0,P|243:162|241:137,1,50,2|2,0:0|0:0,0:0:0:0:
311,64,195644,5,2,0:0:0:0:
311,64,195802,1,2,0:0:0:0:
375,141,196120,1,2,0:0:0:0:
375,141,196278,1,2,0:0:0:0:
458,84,196596,1,2,0:0:0:0:
458,84,196754,1,2,0:0:0:0:
467,195,197073,1,0,0:0:0:0:
467,195,197232,2,0,P|466:214|464:232,1,37.5000014305115,0|0,0:0|0:0,0:0:0:0:
444,263,197548,1,0,0:0:0:0:
312,336,198184,6,0,L|151:324,1,150.000005722046,14|8,0:0|0:0,0:0:0:0:
88,260,199137,1,8,0:2:0:0:
137,175,199454,2,0,L|145:25,1,150.000005722046,0|0,0:0|0:0,0:0:0:0:
234,66,200407,1,10,0:2:0:0:
318,18,200724,6,0,P|354:27|391:23,1,75.000002861023,10|8,0:0|0:2,0:0:0:0:
450,101,201359,2,0,P|446:138|456:173,1,75.000002861023,8|8,0:1|0:2,0:0:0:0:
493,264,201994,1,10,0:0:0:0:
434,341,202311,1,10,0:2:0:0:
336,331,202629,2,0,P|304:311|283:281,1,75.000002861023,10|8,0:0|0:2,0:0:0:0:
323,192,203264,6,0,B|336:169|333:138|333:138|281:122|274:61,1,150.000005722046,6|8,0:0|0:0,0:0:0:0:
194,15,204216,1,8,0:2:0:0:
115,72,204533,6,0,B|109:123|57:139|57:139|54:170|67:193,1,150.000005722046,10|10,0:1|0:1,0:0:0:0:
70,290,205486,1,10,0:2:0:0:
159,328,205803,6,0,L|233:316,1,75.000002861023,10|8,0:0|0:2,0:0:0:0:
292,239,206438,2,0,L|218:228,1,75.000002861023,10|8,0:1|0:2,0:0:0:0:
186,190,206914,1,4,1:2:0:0:
