osu file format v14

[General]
AudioFilename: Higurashi Moratorium.mp3
AudioLeadIn: 0
PreviewTime: 173188
Countdown: 0
SampleSet: Soft
StackLeniency: 0.5
Mode: 0
LetterboxInBreaks: 0
WidescreenStoryboard: 1

[Editor]
Bookmarks: 47073,54057,54216,54374,54533,65089,66676,67152,67628,68105,123819,124771,125247,144136,144216,144374,144533,144692,144851,145327,145406,145485,145644,145803,145962,146120,146279,146438,146597,146914,147073,147232,147390,147708,147866,148184,148263,148343,148501,148660,148978,149295,149454,149771,150168,150247,150406,150724,150882,151041,151200,156835,157311,157787,158105,161438
DistanceSpacing: 0.9
BeatDivisor: 4
GridSize: 32
TimelineZoom: 1.7

[Metadata]
Title:Higurashi Moratorium
TitleUnicode:茅蜩モラトリアム
Artist:Amatsuki
ArtistUnicode:天月
Creator:Nevo
Version:Yukiyo's Extra
Source:
Tags:TOTAL OBJECTION Vocaloid Megpoid GUMI xchorse yukiyo lasse airincat
BeatmapID:1975298
BeatmapSetID:931886

[Difficulty]
HPDrainRate:5.4
CircleSize:4.3
OverallDifficulty:8.4
ApproachRate:9.2
SliderMultiplier:1.4
SliderTickRate:1

[Events]
//Background and Video events
0,0,"BG.jpg",0,0
Video,0,"PV.avi"
//Break Periods
//Storyboard Layer 0 (Background)
//Storyboard Layer 1 (Fail)
//Storyboard Layer 2 (Pass)
//Storyboard Layer 3 (Foreground)
//Storyboard Layer 4 (Overlay)
//Storyboard Sound Samples

[TimingPoints]
3867,638.297872340426,4,2,86,40,1,0
3867,-133.333333333333,4,2,86,40,0,0
24292,-133.333333333333,4,2,86,40,0,0
25486,317.460317460317,4,2,86,50,1,0
26676,-100,4,2,1,5,0,0
26755,-83.3333333333333,4,1,85,65,0,0
35485,-83.3333333333333,4,1,86,50,0,0
36597,-83.3333333333333,4,1,85,50,0,0
36914,-100,4,2,85,50,0,0
47073,-100,4,2,85,60,0,0
57232,-100,4,2,86,55,0,0
58739,-100,4,2,86,20,0,0
58819,-100,4,2,86,55,0,0
59454,-100,4,2,85,60,0,0
59771,-100,4,2,85,65,0,0
61200,-100,4,1,0,65,0,0
61676,-125,4,1,0,65,0,0
62152,-166.666666666667,4,1,0,65,0,0
62628,-250,4,1,0,65,0,0
62946,-250,4,2,86,50,0,0
63184,-250,4,2,1,5,0,0
63263,-250,4,2,86,55,0,0
63501,-250,4,2,1,5,0,0
63581,-66.6666666666667,4,1,85,70,0,1
81359,-66.6666666666667,4,1,0,70,0,1
83263,-66.6666666666667,4,2,86,60,0,1
83581,-66.6666666666667,4,1,86,70,0,1
83898,-83.3333333333333,4,2,85,60,0,0
94057,-100,4,2,85,50,0,0
101835,-100,4,2,85,5,0,0
102152,-100,4,2,85,50,0,0
102232,-100,4,2,85,15,0,0
102628,-100,4,2,85,50,0,0
102946,-100,4,2,86,50,0,0
105380,-75.0018750468762,4,2,86,50,0,0
105803,-100,4,2,86,50,0,0
112999,-100,4,2,86,40,0,0
113316,-100,4,2,86,30,0,0
114057,-100,4,2,86,40,0,0
114374,-100,4,2,86,55,0,0
115882,-100,4,2,86,20,0,0
115962,-100,4,2,86,55,0,0
116597,-100,4,2,85,60,0,0
116914,-100,4,2,85,65,0,0
118343,-100,4,1,0,65,0,0
120089,-100,4,2,86,50,0,0
120327,-100,4,2,1,5,0,0
120406,-100,4,2,86,55,0,0
120644,-100,4,2,1,5,0,0
120724,-66.6666666666667,4,1,85,70,0,1
138501,-66.6666666666667,4,1,0,70,0,1
140406,-66.6666666666667,4,1,85,60,0,1
140962,-66.6666666666667,4,2,85,5,0,1
141041,-58.8235294117647,4,1,85,65,0,0
159295,-58.8235294117647,4,1,85,65,0,0
159771,-55.5555555555556,4,1,85,65,0,0
160247,-52.6315789473684,4,1,85,65,0,0
160724,-50,4,1,85,65,0,0
160882,-50,4,2,86,60,0,0
161041,-50,4,2,86,55,0,0
166041,-76.9230769230769,4,2,86,55,0,0
166120,-76.9230769230769,4,1,85,45,0,0
169612,-76.9230769230769,4,2,86,45,0,0
170247,-76.9230769230769,4,2,1,5,0,0
171993,-50,4,2,85,60,0,0
172311,-50,4,2,85,30,0,0
172946,-50,4,2,85,40,0,0
173263,-133.333333333333,4,2,86,35,0,0
173382,-133.333333333333,4,2,86,40,0,0
173620,-133.333333333333,4,2,86,5,0,0
173700,-133.333333333333,4,2,86,45,0,0
173978,-133.333333333333,4,2,86,5,0,0
174057,-55.5555555555556,4,1,85,70,0,1
177708,-66.6666666666667,4,1,85,70,0,1
177866,-55.5555555555556,4,1,85,70,0,1
188660,-76.9230769230769,4,1,85,70,0,1
189136,-55.5555555555556,4,1,85,70,0,1
190247,-62.5,4,1,85,70,0,1
191835,-76.9230769230769,4,1,0,70,0,1
195644,-62.5,4,1,0,70,0,1
196279,-50,4,1,0,70,0,1
196755,-76.9230769230769,4,1,0,70,0,1
197232,-100,4,2,85,60,0,0
197708,-100,4,2,86,50,0,0
198184,-100,4,1,85,65,0,0
207549,-166.666666666667,4,1,85,65,0,0

[Colours]
Combo1 : 255,77,77
Combo2 : 2,255,66
Combo3 : 15,135,255
Combo4 : 176,100,100

[HitObjects]
473,203,3787,6,0,L|483:213,2,8.75,0|0|0,0:0|0:0|0:0,0:0:0:0:
427,194,4186,1,0,0:0:0:0:
389,132,4505,1,0,0:0:0:0:
421,29,4824,1,2,0:2:0:0:
421,29,5143,6,0,P|397:41|372:46,1,52.5000020027161,8|0,0:3|0:0,0:0:0:0:
271,32,5622,1,0,0:0:0:0:
271,32,5702,2,0,L|251:22,2,13.125000500679,0|0|0,0:0|0:0|0:0,0:0:0:0:
117,151,6340,6,0,L|121:141,2,6.56250025033952,0|0|10,0:0|0:0|0:3,0:0:0:0:
131,176,6739,1,0,0:0:0:0:
155,259,7058,1,0,0:0:0:0:
139,296,7377,1,2,0:2:0:0:
38,178,7696,6,0,P|56:211|60:243,1,52.5000020027161,8|0,0:3|0:0,0:0:0:0:
125,162,8175,1,0,0:0:0:0:
133,149,8335,1,0,0:0:0:0:
59,64,8654,1,0,0:0:0:0:
218,9,8973,5,10,0:3:0:0:
274,62,9292,1,0,0:0:0:0:
283,94,9611,1,0,0:0:0:0:
259,199,9930,1,2,0:2:0:0:
309,301,10249,6,0,P|314:275|325:251,1,52.5000020027161,8|0,0:3|0:0,0:0:0:0:
433,236,10728,1,0,0:0:0:0:
448,246,10888,1,2,0:0:0:0:
371,365,11207,2,0,L|378:339,1,26.2500010013581,0|0,0:0|0:0,0:0:0:0:
271,308,11486,6,0,L|265:310,1,6.56250025033952,0|10,0:0|0:3,0:0:0:0:
229,322,11845,1,0,0:0:0:0:
155,303,12164,1,2,0:2:0:0:
121,195,12484,1,2,0:1:0:0:
198,98,12803,6,0,L|186:154,1,52.5000020027161,8|2,0:3|0:2,0:0:0:0:
127,46,13228,1,0,0:0:0:0:
113,28,13335,1,0,0:0:0:0:
97,18,13441,2,0,L|109:74,1,52.5000020027161,2|0,0:1|0:0,0:0:0:0:
358,42,13999,6,0,L|369:38,2,6.56250025033952,0|0|10,0:0|0:0|0:3,0:0:0:0:
340,60,14398,1,0,0:0:0:0:
326,141,14718,1,0,0:0:0:0:
406,234,15037,1,2,0:0:0:0:
414,243,15196,1,0,0:0:0:0:
271,331,15356,5,8,0:3:0:0:
260,337,15675,2,0,L|234:332,1,26.2500010013581,2|0,0:0|0:0,0:0:0:0:
112,287,15994,2,0,L|87:292,1,26.2500010013581,2|0,0:1|0:0,0:0:0:0:
310,198,16553,6,0,L|319:194,2,6.56250025033952,0|0|10,0:0|0:0|0:3,0:0:0:0:
263,198,16952,1,0,0:0:0:0:
220,132,17271,1,2,0:0:0:0:
241,30,17590,1,0,0:0:0:0:
108,61,17869,5,0,0:0:0:0:
108,61,17909,2,0,L|125:120,1,52.5000020027161,10|0,0:3|0:0,0:0:0:0:
53,182,18388,1,0,0:0:0:0:
40,199,18547,2,0,L|25:249,1,52.5000020027161,2|0,0:0|0:0,0:0:0:0:
134,348,19186,5,10,0:3:0:0:
185,338,19505,1,0,0:0:0:0:
259,275,19824,1,2,0:0:0:0:
274,130,20143,1,2,0:1:0:0:
155,20,20462,2,0,P|166:70|176:90,1,52.5000020027161,8|0,0:3|0:0,0:0:0:0:
315,0,20942,1,0,0:0:0:0:
335,27,21101,2,0,P|296:33|261:51,1,78.7500030040742,2|0,0:1|0:0,0:0:0:0:
186,228,21739,5,4,0:0:0:0:
256,192,21898,12,0,24292,0:0:0:0:
459,289,25486,5,2,0:1:0:0:
180,298,25962,1,2,0:0:0:0:
207,288,26041,1,2,0:0:0:0:
232,287,26120,1,2,0:1:0:0:
339,343,26279,1,0,0:0:0:0:
460,346,26438,1,6,0:0:0:0:
512,242,26597,1,0,0:0:0:0:
389,125,26755,6,0,L|404:207,1,83.9999974365235,14|0,0:1|0:0,0:0:0:0:
349,316,26993,1,0,0:0:0:0:
323,349,27073,2,0,L|338:266,1,83.9999974365235,8|2,0:2|0:2,0:0:0:0:
283,62,27390,2,0,P|297:109|298:144,1,83.9999974365235,8|2,0:1|0:0,0:0:0:0:
240,252,27628,1,0,0:0:0:0:
215,284,27708,2,0,P|229:246|230:201,1,83.9999974365235,8|2,0:2|0:0,0:0:0:0:
166,0,28025,6,0,P|195:31|212:68,1,83.9999974365235,0|0,0:0|0:0,0:0:0:0:
150,233,28343,2,0,P|124:266|90:290,1,83.9999974365235,8|2,0:2|0:2,0:0:0:0:
157,131,28660,1,8,0:2:0:0:
329,372,28872,5,0,0:0:0:0:
296,304,28978,1,8,0:2:0:0:
262,339,29083,1,0,0:0:0:0:
256,384,29189,1,0,0:0:0:0:
227,349,29295,6,0,P|225:307|212:267,1,83.9999974365235,10|0,0:1|0:0,0:0:0:0:
155,161,29612,2,0,P|124:132|86:113,1,83.9999974365235,8|2,0:2|0:0,0:0:0:0:
334,170,29930,2,0,P|292:171|252:184,1,83.9999974365235,8|2,0:0|0:0,0:0:0:0:
146,328,30247,2,0,P|184:343|226:348,1,83.9999974365235,8|0,0:2|0:0,0:0:0:0:
409,206,30565,5,10,0:0:0:0:
388,312,30724,1,0,0:0:0:0:
286,195,30882,1,10,0:2:0:0:
282,80,31041,1,0,0:0:0:0:
153,195,31200,1,10,0:0:0:0:
132,301,31359,1,10,0:1:0:0:
30,161,31517,1,8,0:2:0:0:
206,14,31676,5,0,0:0:0:0:
231,16,31755,1,0,0:0:0:0:
252,22,31835,2,0,P|268:61|273:126,1,83.9999974365235,14|0,0:0|0:0,0:0:0:0:
278,205,32152,2,0,P|261:243|219:293,1,83.9999974365235,8|2,0:2|0:0,0:0:0:0:
473,43,32470,2,0,P|456:81|414:131,1,83.9999974365235,10|0,0:1|0:0,0:0:0:0:
358,182,32787,2,0,P|319:198|253:203,1,83.9999974365235,10|0,0:0|0:0,0:0:0:0:
75,111,33105,5,10,0:0:0:0:
75,111,33184,1,0,0:0:0:0:
75,111,33263,1,0,0:0:0:0:
178,140,33422,2,0,P|220:138|281:115,1,83.9999974365235,8|2,0:2|0:0,0:0:0:0:
350,24,33660,1,2,0:0:0:0:
338,0,33739,6,0,P|327:51|339:113,1,83.9999974365235,8|0,0:1|0:0,0:0:0:0:
369,212,34057,2,0,P|397:255|449:291,1,83.9999974365235,10|0,0:2|0:0,0:0:0:0:
512,91,34374,6,0,B|457:75|405:101|405:101|410:73|397:44,1,167.999994873047,10|10,0:0|0:2,0:0:0:0:
203,169,34851,1,0,0:0:0:0:
306,141,35009,1,10,0:1:0:0:
306,141,35089,1,0,0:0:0:0:
306,141,35168,1,2,0:0:0:0:
153,99,35327,1,8,0:2:0:0:
272,231,35485,5,4,1:2:0:0:
227,165,35644,1,0,0:0:0:0:
170,148,35803,1,0,0:0:0:0:
115,152,35962,1,0,0:0:0:0:
91,166,36120,1,0,0:0:0:0:
298,28,36438,1,0,0:0:0:0:
306,35,36914,5,14,2:1:0:0:
305,120,37073,1,0,0:0:0:0:
380,59,37232,1,0,2:1:0:0:
286,137,37390,2,0,L|299:205,1,70,2|0,2:1|0:0,0:0:0:0:
375,257,37708,1,0,2:1:0:0:
385,177,37866,1,10,2:1:0:0:
413,277,38025,2,0,L|399:208,1,70,2|0,2:1|0:0,0:0:0:0:
512,263,38343,2,0,L|498:331,1,70,0|0,2:1|0:0,0:0:0:0:
411,374,38660,1,2,2:1:0:0:
125,311,39136,5,10,2:1:0:0:
24,368,39295,1,2,2:1:0:0:
119,337,39454,2,0,L|26:351,1,70,10|0,2:1|0:0,0:0:0:0:
135,255,39771,1,8,2:1:0:0:
203,311,39930,2,0,P|212:353|215:379,1,70,2|0,2:1|0:0,0:0:0:0:
137,244,40247,2,0,P|128:286|125:312,1,70,0|0,2:1|0:0,0:0:0:0:
37,197,40565,1,2,2:1:0:0:
114,253,40724,1,0,0:0:0:0:
104,165,40882,1,0,2:1:0:0:
61,239,41041,1,10,2:1:0:0:
37,100,41200,1,2,2:1:0:0:
250,26,41517,1,0,0:0:0:0:
254,45,41993,6,0,L|157:40,1,70,10|0,2:1|0:0,0:0:0:0:
55,64,42311,1,8,2:1:0:0:
135,96,42470,1,2,2:1:0:0:
69,38,42628,1,10,2:1:0:0:
69,155,42787,1,0,0:0:0:0:
170,187,42946,1,8,2:1:0:0:
144,97,43105,1,2,2:1:0:0:
145,200,43263,1,0,0:0:0:0:
215,126,43422,1,2,2:1:0:0:
228,41,43581,1,0,0:0:0:0:
292,98,43739,1,2,2:1:0:0:
314,174,43898,1,0,0:0:0:0:
460,135,44057,5,2,2:1:0:0:
377,120,44216,1,8,2:1:0:0:
405,201,44374,1,0,2:1:0:0:
459,108,44533,2,0,L|444:32,1,70,10|0,2:1|0:0,0:0:0:0:
327,210,45009,1,2,2:1:0:0:
414,189,45168,1,0,0:0:0:0:
338,238,45327,1,0,2:1:0:0:
357,132,45485,1,10,2:1:0:0:
346,266,45644,2,0,P|330:321|326:355,1,70,2|0,2:1|0:0,0:0:0:0:
143,334,46279,6,0,L|128:338,2,8.75,2|0|0,2:1|0:0|0:0,0:0:0:0:
137,325,46359,2,0,L|121:326,2,8.75,0|0|0,0:0|0:0|0:0,0:0:0:0:
129,315,46438,2,0,L|118:316,4,8.75,0|0|0|0|0,2:1|0:0|0:0|0:0|0:0,0:0:0:0:
160,242,46597,6,0,B|215:186|200:143|200:143|165:121|171:75,1,175,2|2,2:1|2:1,0:0:0:0:
93,57,47073,1,14,0:1:0:0:
14,102,47231,1,0,0:0:0:0:
172,193,47390,1,10,0:0:0:0:
172,102,47549,1,0,0:0:0:0:
14,193,47707,1,10,0:1:0:0:
93,239,47866,1,8,0:1:0:0:
94,145,48025,5,8,0:0:0:0:
182,326,48184,2,0,P|258:317|334:323,1,140,2|0,0:0|0:0,0:0:0:0:
493,283,48660,1,10,0:0:0:0:
431,344,48819,1,0,0:0:0:0:
245,354,48978,1,10,0:1:0:0:
341,339,49136,1,8,0:1:0:0:
365,244,49295,1,8,0:0:0:0:
263,135,49454,6,0,P|241:61|245:-15,1,140,2|0,0:0|0:0,0:0:0:0:
350,115,49930,1,10,0:0:0:0:
351,205,50089,1,0,0:0:0:0:
172,194,50247,1,10,0:1:0:0:
264,155,50406,1,0,0:1:0:0:
317,311,50565,1,8,0:0:0:0:
253,240,50724,1,2,0:0:0:0:
398,318,50882,6,0,P|435:325|482:324,1,70,10|0,0:1|0:0,0:0:0:0:
268,256,51200,2,0,P|231:265|189:286,1,70,10|0,0:0|0:0,0:0:0:0:
311,363,51517,5,10,0:1:0:0:
360,234,51676,1,8,0:1:0:0:
402,102,51835,1,8,0:0:0:0:
404,93,52073,1,2,0:0:0:0:
404,89,52152,2,0,L|405:35,1,35,8|0,0:1|0:0,0:0:0:0:
407,200,52311,5,2,0:0:0:0:
246,163,52470,1,10,0:0:0:0:
317,220,52628,1,0,0:0:0:0:
317,15,52787,1,10,0:1:0:0:
246,72,52946,1,0,0:0:0:0:
445,118,53105,1,10,0:0:0:0:
406,36,53263,1,2,0:2:0:0:
331,126,53422,5,10,0:1:0:0:
167,81,53581,1,0,0:0:0:0:
143,72,53660,1,0,0:0:0:0:
118,62,53739,2,0,L|41:37,1,70,8|0,0:0|0:0,0:0:0:0:
161,192,54057,5,10,0:1:0:0:
82,162,54216,1,0,0:0:0:0:
97,288,54374,1,10,0:0:0:0:
263,245,54533,2,0,P|238:176|233:103,1,140,2|2,0:0|0:0,0:0:0:0:
230,65,54930,5,0,0:0:0:0:
238,15,55009,1,10,0:1:0:0:
51,132,55168,1,2,0:0:0:0:
216,97,55327,5,10,0:1:0:0:
75,155,55485,1,2,0:0:0:0:
6,58,55644,1,8,0:0:0:0:
160,192,55803,5,2,0:0:0:0:
98,253,55962,2,0,P|72:300|57:334,1,70,10|8,0:1|0:1,0:0:0:0:
224,384,56279,2,0,P|208:352|191:322,1,70,10|0,0:0|0:0,0:0:0:0:
264,267,56597,1,10,0:1:0:0:
290,266,56676,1,0,0:0:0:0:
308,267,56755,1,8,0:1:0:0:
334,273,56835,1,0,0:0:0:0:
349,280,56914,2,0,P|360:316|356:357,1,70,10|8,0:0|0:0,0:0:0:0:
215,192,57232,5,14,1:1:0:0:
240,177,57390,1,8,0:3:0:0:
240,177,57470,1,2,0:0:0:0:
240,177,57549,1,2,0:0:0:0:
299,0,57708,1,2,0:0:0:0:
319,3,57946,5,0,0:0:0:0:
319,3,58025,1,2,0:0:0:0:
325,131,58184,1,0,0:0:0:0:
126,174,58343,1,2,0:1:0:0:
79,97,58501,5,8,0:2:0:0:
187,107,58660,1,0,0:0:0:0:
187,107,58739,1,2,0:0:0:0:
187,107,58819,1,8,0:2:0:0:
211,197,58978,1,8,0:2:0:0:
13,325,59136,5,8,0:1:0:0:
88,272,59295,2,0,L|149:281,1,35,8|2,0:1|0:0,0:0:0:0:
219,353,59454,1,10,2:2:0:0:
232,212,59612,2,0,L|194:238,1,35,10|2,2:2|0:0,0:0:0:0:
142,308,59771,5,14,0:1:0:0:
278,279,59930,1,0,0:0:0:0:
101,225,60089,1,0,0:0:0:0:
161,345,60247,1,10,0:2:0:0:
172,178,60406,2,0,L|157:98,1,70,8|2,0:1|0:0,0:0:0:0:
115,36,60644,1,0,0:0:0:0:
115,36,60724,1,10,0:0:0:0:
0,147,60882,1,2,0:0:0:0:
0,157,61200,5,2,0:1:0:0:
174,94,61359,2,0,P|184:60|193:26,1,70,2|0,0:1|0:0,0:0:0:0:
72,138,61676,5,2,0:1:0:0:
220,264,61835,2,0,P|224:291|226:319,1,56,2|0,0:1|0:0,0:0:0:0:
155,173,62152,5,2,0:1:0:0:
367,187,62311,2,0,P|377:164|392:137,1,41.9999987182618,2|0,0:1|0:0,0:0:0:0:
244,185,62628,5,2,0:1:0:0:
383,294,62787,2,0,P|382:308|381:322,1,28,2|12,0:1|0:2,0:0:0:0:
319,384,63105,1,0,0:0:0:0:
319,384,63263,5,8,0:2:0:0:
276,334,63369,1,0,0:0:0:0:
254,245,63475,1,0,0:0:0:0:
202,172,63581,6,0,B|155:159|116:166|121:201|69:199|17:182,1,157.500006008148,14|0,0:1|0:0,0:0:0:0:
76,110,63898,2,0,P|101:60|119:5,1,105.000004005432,8|2,0:2|0:0,0:0:0:0:
180,94,64136,1,0,0:0:0:0:
180,94,64216,1,10,0:1:0:0:
348,39,64374,1,0,0:0:0:0:
240,10,64533,5,10,0:2:0:0:
283,150,64692,1,0,0:0:0:0:
321,281,64851,2,0,P|270:274|218:281,1,105.000004005432,10|0,0:1|0:0,0:0:0:0:
164,338,65089,1,0,0:0:0:0:
164,338,65168,1,8,0:2:0:0:
5,234,65327,1,2,0:0:0:0:
100,281,65485,1,10,0:1:0:0:
9,354,65644,1,8,0:1:0:0:
81,196,65803,1,10,0:2:0:0:
163,27,65962,1,0,0:0:0:0:
89,55,66120,6,0,P|139:69|184:96,1,105.000004005432,6|0,0:1|0:0,0:0:0:0:
324,45,66438,1,8,0:2:0:0:
223,166,66597,2,0,P|213:191|208:217,1,52.5000020027161,2|0,0:0|0:0,0:0:0:0:
377,137,66755,1,8,0:1:0:0:
205,92,66914,1,2,0:0:0:0:
310,237,67073,2,0,P|321:283|330:325,1,52.5000020027161,8|2,0:2|0:0,0:0:0:0:
297,75,67232,1,2,0:0:0:0:
174,227,67390,5,0,0:0:0:0:
338,151,67549,2,0,P|368:147|421:150,1,52.5000020027161,0|2,0:0|0:1,0:0:0:0:
136,148,67708,1,10,0:2:0:0:
293,262,67866,1,2,0:1:0:0:
251,116,68025,2,0,P|243:62|243:29,1,52.5000020027161,8|0,0:1|0:0,0:0:0:0:
387,278,68184,1,0,0:0:0:0:
413,44,68343,2,0,P|393:96|386:125,1,52.5000020027161,8|2,0:2|0:0,0:0:0:0:
333,148,68501,2,0,P|353:200|360:229,1,52.5000020027161,2|2,0:0|0:0,0:0:0:0:
456,328,68660,6,0,P|381:304|302:306,1,157.500006008148,14|0,0:1|0:0,0:0:0:0:
241,341,68978,2,0,P|179:331|129:305,1,105.000004005432,8|0,0:2|0:0,0:0:0:0:
61,174,69295,1,10,0:1:0:0:
160,220,69454,1,8,0:1:0:0:
52,200,69612,1,8,0:2:0:0:
223,168,69771,2,0,P|231:202|262:287,1,105.000004005432,2|0,0:0|0:0,0:0:0:0:
377,107,70089,2,0,P|369:141|338:226,1,105.000004005432,2|8,0:0|0:2,0:0:0:0:
462,328,70406,1,0,0:0:0:0:
378,328,70565,2,0,P|412:260|487:248,1,157.500006008148,10|0,0:1|0:0,0:0:0:0:
501,260,70882,1,10,0:2:0:0:
300,360,71041,1,0,0:0:0:0:
218,330,71200,5,14,0:1:0:0:
281,255,71359,1,0,0:0:0:0:
281,255,71438,1,2,0:0:0:0:
281,255,71517,1,8,0:2:0:0:
226,151,71676,1,2,0:0:0:0:
50,113,71835,5,8,0:1:0:0:
127,188,71993,1,10,0:1:0:0:
127,188,72073,1,10,0:1:0:0:
127,188,72152,1,10,0:2:0:0:
228,159,72311,1,10,0:2:0:0:
280,0,72470,6,0,P|261:19|247:40,1,52.5000020027161,14|2,0:0|0:0,0:0:0:0:
230,169,72628,1,2,0:0:0:0:
388,96,72787,2,0,P|361:96|336:101,1,52.5000020027161,10|2,0:2|0:0,0:0:0:0:
233,180,72945,1,2,0:0:0:0:
423,225,73105,6,0,P|403:206|382:192,1,52.5000020027161,10|2,0:1|0:0,0:0:0:0:
350,333,73263,2,0,P|350:307|345:281,1,52.5000020027161,10|10,0:1|0:1,0:0:0:0:
284,160,73422,2,0,P|283:186|278:211,1,52.5000020027161,10|2,0:2|0:0,0:0:0:0:
156,134,73580,2,0,P|174:153|188:174,1,52.5000020027161,8|0,0:2|0:0,0:0:0:0:
0,324,73739,6,0,B|52:289|105:306|105:306|97:337|115:365,1,157.500006008148,14|0,0:0|0:0,0:0:0:0:
174,323,74057,2,0,P|187:273|209:226,1,105.000004005432,8|2,0:2|0:0,0:0:0:0:
291,205,74295,1,0,0:0:0:0:
291,205,74374,1,10,0:1:0:0:
361,89,74533,1,0,0:0:0:0:
275,114,74692,1,10,0:2:0:0:
380,187,74851,1,2,0:0:0:0:
493,281,75009,6,0,B|460:236|462:182|462:182|510:186|533:147,1,157.500006008148,10|0,0:1|0:0,0:0:0:0:
474,105,75327,2,0,P|453:48|456:-15,1,105.000004005432,8|2,0:2|0:0,0:0:0:0:
375,18,75565,1,0,0:0:0:0:
375,18,75644,1,10,0:1:0:0:
257,94,75803,1,0,0:0:0:0:
285,8,75962,1,10,0:2:0:0:
349,109,76120,1,0,0:0:0:0:
422,212,76279,6,0,B|350:203|350:203|314:232|316:277,1,157.500006008148,14|0,0:1|0:0,0:0:0:0:
359,357,76597,2,0,P|338:322|302:300,1,52.5000020027161,8|0,0:2|0:0,0:0:0:0:
201,278,76755,2,0,B|145:267|145:267|115:306|50:309,1,157.500006008148,2|0,0:0|0:0,0:0:0:0:
5,271,77073,2,0,P|44:292|72:334,1,52.5000020027161,0|0,0:0|0:0,0:0:0:0:
122,379,77232,1,10,0:2:0:0:
134,363,77390,1,2,0:0:0:0:
118,181,77549,5,10,0:1:0:0:
179,266,77708,1,8,0:1:0:0:
179,266,77787,1,0,0:0:0:0:
179,266,77866,1,10,0:2:0:0:
277,253,78025,1,8,0:2:0:0:
351,103,78184,2,0,P|342:169|366:267,1,157.500006008148,10|0,0:1|0:0,0:0:0:0:
467,206,78501,2,0,P|420:142|355:99,1,157.500006008148,8|2,0:2|0:0,0:0:0:0:
252,104,78819,5,14,0:0:0:0:
227,119,78898,1,0,0:0:0:0:
92,116,79057,1,2,0:0:0:0:
68,106,79136,1,2,0:0:0:0:
171,63,79295,1,2,1:2:0:0:
183,45,79374,1,2,1:2:0:0:
187,20,79454,1,2,1:2:0:0:
158,177,79612,1,2,0:0:0:0:
162,202,79692,1,2,0:0:0:0:
174,220,79771,1,10,0:2:0:0:
273,258,79930,1,0,0:0:0:0:
137,317,80089,5,10,0:0:0:0:
106,316,80168,1,2,0:0:0:0:
77,309,80247,1,2,0:0:0:0:
200,247,80406,1,10,0:2:0:0:
217,270,80485,1,2,0:0:0:0:
229,298,80565,1,2,0:0:0:0:
230,327,80644,1,0,0:0:0:0:
220,358,80724,1,10,0:1:0:0:
392,326,80962,5,0,0:0:0:0:
370,335,81041,1,10,0:2:0:0:
363,234,81200,1,0,0:0:0:0:
363,234,81359,5,2,0:1:0:0:
154,172,81517,1,2,0:1:0:0:
145,190,81676,1,0,0:0:0:0:
231,209,81835,5,2,0:1:0:0:
333,55,81993,1,2,0:1:0:0:
306,52,82152,1,0,0:0:0:0:
304,129,82311,5,2,0:1:0:0:
391,281,82470,1,2,0:1:0:0:
370,293,82628,1,0,0:0:0:0:
331,219,82787,5,2,0:1:0:0:
280,377,82946,1,2,0:1:0:0:
116,360,83105,1,0,0:0:0:0:
87,227,83263,1,2,0:1:0:0:
242,216,83422,1,2,0:2:0:0:
248,239,83501,1,2,0:2:0:0:
244,264,83581,1,4,2:2:0:0:
235,284,83898,6,0,P|249:234|241:151,1,125.999996154785,14|0,2:1|0:0,0:0:0:0:
203,72,84216,2,0,P|174:41|136:23,1,83.9999974365235,8|0,0:0|0:0,0:0:0:0:
19,126,84533,1,8,0:1:0:0:
147,191,84692,1,0,0:0:0:0:
282,45,84851,1,8,0:0:0:0:
107,103,85009,2,0,L|74:289,1,167.999994873047,0|0,0:0|0:0,0:0:0:0:
202,365,85485,1,8,0:0:0:0:
52,352,85644,1,0,0:0:0:0:
254,280,85803,5,8,0:1:0:0:
299,289,85909,1,8,0:1:0:0:
340,316,86015,1,8,0:1:0:0:
380,340,86120,5,8,0:0:0:0:
421,340,86226,1,8,0:1:0:0:
459,323,86332,1,8,0:1:0:0:
490,297,86438,6,0,L|499:146,1,125.999996154785,10|0,2:1|0:0,0:0:0:0:
377,72,86755,2,0,P|388:113|413:146,1,83.9999974365235,8|0,0:0|0:0,0:0:0:0:
487,184,87073,1,8,0:1:0:0:
487,184,87232,1,0,0:0:0:0:
472,364,87390,2,0,P|413:347|376:297,1,125.999996154785,8|0,0:0|0:0,0:0:0:0:
345,310,87708,5,10,2:1:0:0:
212,337,87866,1,0,0:0:0:0:
101,296,88025,5,8,0:0:0:0:
212,319,88184,1,0,0:0:0:0:
350,264,88343,5,8,0:1:0:0:
211,298,88501,1,0,0:0:0:0:
89,255,88660,5,8,0:0:0:0:
210,279,88819,1,0,0:0:0:0:
220,272,88898,1,0,0:0:0:0:
230,256,88978,2,0,B|242:221|242:221|208:191|210:140,1,125.999996154785,8|0,0:0|0:0,0:0:0:0:
258,82,89295,6,0,L|324:87,3,41.9999987182618,8|0|0|0,0:0|0:0|0:0|0:0,0:0:0:0:
352,22,89612,2,0,L|400:55,1,41.9999987182618,8|0,0:1|0:0,0:0:0:0:
469,37,89771,2,0,L|464:104,1,41.9999987182618,2|0,0:0|0:0,0:0:0:0:
475,188,89930,6,0,L|461:246,2,41.9999987182618,8|0|0,0:0|0:0|0:0,0:0:0:0:
372,293,90168,1,0,0:0:0:0:
372,293,90247,6,0,L|308:285,3,41.9999987182618,10|0|0|0,0:1|0:0|0:0|0:0,0:0:0:0:
236,358,90565,2,0,L|175:358,1,41.9999987182618,8|0,0:0|0:0,0:0:0:0:
119,277,90724,2,0,L|63:245,1,41.9999987182618,0|0,0:0|0:0,0:0:0:0:
35,179,90882,1,8,0:1:0:0:
43,167,91120,5,0,0:0:0:0:
43,167,91200,1,8,0:0:0:0:
19,22,91359,1,0,0:0:0:0:
230,76,91517,2,0,B|166:81|138:110|138:110|66:86,1,167.999994873047,8|8,0:1|0:0,0:0:0:0:
214,172,91993,1,0,0:0:0:0:
302,8,92152,1,8,0:1:0:0:
302,8,92232,1,0,0:0:0:0:
302,8,92311,1,0,0:0:0:0:
142,33,92470,5,8,0:0:0:0:
316,144,92628,1,0,0:0:0:0:
129,56,92787,5,8,0:1:0:0:
220,190,92946,5,0,0:0:0:0:
120,274,93105,5,8,0:0:0:0:
172,374,93263,6,0,L|164:267,1,83.9999974365235,0|8,0:0|0:0,0:0:0:0:
94,206,93501,1,8,0:0:0:0:
85,180,93581,1,8,0:0:0:0:
77,159,93660,1,8,0:0:0:0:
67,137,93739,1,8,0:0:0:0:
122,36,93898,5,8,0:0:0:0:
150,42,93978,1,8,0:0:0:0:
181,48,94057,2,0,L|249:36,1,70,14|0,2:1|0:0,0:0:0:0:
296,94,94374,2,0,L|364:106,2,70,8|2|8,2:1|2:1|0:1,0:0:0:0:
487,52,94851,1,0,2:1:0:0:
374,78,95009,1,10,2:1:0:0:
465,64,95168,2,0,L|396:52,1,70,2|8,2:1|2:1,0:0:0:0:
480,185,95485,2,0,L|422:145,1,70,0|8,2:1|2:1,0:0:0:0:
303,143,95803,2,0,P|386:171|363:280,1,210,2|10,2:1|2:1,0:0:0:0:
367,293,96438,1,10,2:1:0:0:
156,359,96597,6,0,P|218:331|286:342,1,140,10|8,2:1|2:1,0:0:0:0:
111,291,97073,2,0,L|41:301,1,70,2|8,2:1|0:1,0:0:0:0:
162,246,97390,2,0,L|92:256,1,70,0|8,2:1|0:1,0:0:0:0:
178,147,97708,2,0,P|187:214|238:260,1,140,2|0,2:1|2:1,0:0:0:0:
263,263,98184,1,2,2:1:0:0:
277,81,98343,2,0,B|228:62|167:83|196:133|115:134|77:106,1,210,2|8,2:1|0:1,0:0:0:0:
75,121,98978,1,8,0:1:0:0:
199,40,99136,6,0,P|266:56|336:50,1,140,2|8,2:1|2:1,0:0:0:0:
419,11,99612,1,2,2:1:0:0:
356,85,99771,1,8,0:1:0:0:
432,29,99930,1,0,2:1:0:0:
432,138,100089,1,10,2:1:0:0:
295,155,100247,2,0,P|248:142|201:137,1,70,2|8,2:1|0:1,0:0:0:0:
113,230,100565,2,0,P|160:217|207:212,1,70,2|8,2:1|0:1,0:0:0:0:
328,256,100882,2,0,P|395:266|428:324,1,140,2|10,2:1|2:1,0:0:0:0:
333,348,101359,1,0,2:1:0:0:
218,331,101517,1,0,2:1:0:0:
119,356,101676,1,2,2:1:0:0:
97,346,102152,5,2,2:1:0:0:
136,326,102311,1,0,0:0:0:0:
107,379,102470,1,0,0:0:0:0:
96,305,102628,1,2,2:1:0:0:
142,378,102787,1,0,0:0:0:0:
15,297,102946,5,4,0:0:0:0:
26,251,103052,1,0,0:0:0:0:
56,221,103157,1,0,0:0:0:0:
104,203,103263,5,2,0:0:0:0:
126,168,103369,1,0,0:0:0:0:
125,119,103475,1,0,0:0:0:0:
84,71,103581,5,2,0:1:0:0:
78,144,103687,1,0,0:0:0:0:
147,111,103792,1,0,0:0:0:0:
72,80,103898,5,2,2:2:0:0:
92,151,104004,1,0,0:0:0:0:
146,101,104109,1,0,0:0:0:0:
65,157,104216,6,0,L|78:287,1,93.3333333333333,14|0,0:1|0:0,0:0:0:0:
160,249,104533,2,0,L|147:379,1,93.3333333333333,2|0,0:0|0:0,0:0:0:0:
76,377,104851,1,8,1:2:0:0:
236,284,105062,1,0,0:0:0:0:
257,288,105168,2,0,P|283:298|336:296,1,46.6666666666667,2|0,0:0|0:0,0:0:0:0:
486,290,105380,6,0,B|430:269|386:308|403:309|345:343|291:309,1,186.666666666667,0|0,0:0|0:0,0:0:0:0:
243,261,105803,2,0,P|254:197|257:145,1,93.3333333333333,2|0,0:0|0:0,0:0:0:0:
138,168,106120,2,0,P|127:104|124:52,1,93.3333333333333,8|0,1:2|0:0,0:0:0:0:
184,17,106438,1,2,0:0:0:0:
395,61,106650,2,0,P|377:127|315:152,1,140,0|0,0:0|0:0,0:0:0:0:
261,211,107073,2,0,P|215:209|171:223,1,93.3333333333333,2|0,0:0|0:0,0:0:0:0:
116,284,107390,1,8,1:2:0:0:
60,124,107602,1,0,0:0:0:0:
101,147,107708,1,2,0:0:0:0:
220,45,107919,1,0,0:0:0:0:
241,95,108025,6,0,P|233:162|206:212,1,93.3333333333333,10|0,0:1|0:0,0:0:0:0:
126,328,108343,2,0,P|188:301|244:299,1,93.3333333333333,2|0,0:0|0:0,0:0:0:0:
295,260,108660,2,0,P|342:260|387:271,1,93.3333333333333,8|0,1:2|0:0,0:0:0:0:
461,350,108978,5,0,3:0:0:0:
407,274,109083,1,0,3:0:0:0:
467,183,109189,1,0,3:0:0:0:
407,88,109295,1,14,0:1:0:0:
392,75,109507,5,0,0:0:0:0:
383,70,109612,2,0,P|308:85|264:81,1,93.3333333333333,2|0,0:0|0:0,0:0:0:0:
192,55,109930,1,8,1:2:0:0:
192,32,110142,1,0,0:0:0:0:
165,141,110247,2,0,L|154:209,1,46.6666666666667,0|0,0:0|0:0,0:0:0:0:
103,364,110459,6,0,P|50:328|57:229,1,140,0|0,0:0|0:0,0:0:0:0:
199,339,110882,2,0,L|314:353,1,93.3333333333333,8|0,2:1|0:0,0:0:0:0:
367,308,111200,2,0,L|351:239,1,46.6666666666667,8|0,1:2|0:0,0:0:0:0:
330,167,111411,1,0,0:0:0:0:
301,61,111517,2,0,L|285:-8,1,46.6666666666667,2|0,0:0|0:0,0:0:0:0:
84,66,111729,2,0,P|138:47|196:85,1,93.3333333333333,0|0,0:0|0:0,0:0:0:0:
224,172,112046,1,0,0:0:0:0:
213,190,112152,6,0,P|187:274|196:307,1,93.3333333333333,2|0,0:0|0:0,0:0:0:0:
239,162,112470,1,8,1:2:0:0:
215,172,112575,1,0,0:0:0:0:
186,177,112681,2,0,P|129:181|72:165,1,93.3333333333333,0|0,0:0|0:0,0:0:0:0:
298,58,112999,2,0,B|369:29|356:87|471:56,1,140,4|0,0:0|0:0,0:0:0:0:
452,187,113422,2,0,L|416:288,1,93.3333333333333,0|0,0:0|0:0,0:0:0:0:
316,328,113739,2,0,L|348:241,1,93.3333333333333,0|0,0:0|0:0,0:0:0:0:
241,262,114057,2,0,L|205:363,1,93.3333333333333,8|0,0:0|0:0,0:0:0:0:
120,364,114374,5,14,1:1:0:0:
11,263,114533,1,8,0:3:0:0:
11,263,114612,1,0,0:0:0:0:
11,263,114692,1,0,0:0:0:0:
180,241,114851,2,0,P|112:232|68:179,1,140,2|2,0:0|0:0,0:0:0:0:
156,79,115327,1,0,0:0:0:0:
189,253,115485,2,0,P|128:284|62:266,1,140,2|0,0:1|0:0,0:0:0:0:
38,235,115882,2,0,P|46:203|48:176,1,35,0|8,0:0|0:2,0:0:0:0:
38,27,116120,1,8,0:2:0:0:
200,132,116279,1,8,0:1:0:0:
49,122,116438,1,8,0:1:0:0:
49,122,116517,1,0,0:0:0:0:
49,122,116597,1,10,2:2:0:0:
162,197,116755,1,10,2:2:0:0:
322,144,116914,6,0,P|309:211|317:312,1,140,14|0,0:1|0:0,0:0:0:0:
452,361,117390,1,10,0:2:0:0:
476,222,117549,1,8,0:1:0:0:
476,222,117708,1,2,0:0:0:0:
327,307,117866,1,10,0:0:0:0:
369,186,118025,2,0,P|314:210|243:204,1,105,2|0,0:0|0:0,0:0:0:0:
244,205,118343,5,2,0:1:0:0:
33,150,118501,2,0,P|86:152|147:172,1,105,2|0,0:1|0:0,0:0:0:0:
244,205,118819,5,2,0:1:0:0:
30,144,118978,2,0,P|109:113|151:120,1,105,2|0,0:1|0:0,0:0:0:0:
244,205,119295,5,2,0:1:0:0:
28,137,119454,2,0,P|63:71|102:50,1,105,2|0,0:1|0:0,0:0:0:0:
244,205,119771,5,2,0:1:0:0:
19,137,119930,6,0,P|10:103|11:68,1,70,2|12,0:1|0:2,0:0:0:0:
111,10,120247,1,0,0:0:0:0:
111,10,120406,5,8,0:2:0:0:
158,47,120512,1,0,0:0:0:0:
247,43,120618,1,0,0:0:0:0:
362,0,120724,6,0,B|349:54|349:54|371:104|371:104|360:150,1,157.500006008148,14|0,0:0|0:0,0:0:0:0:
397,211,121041,2,0,P|413:276|394:337,1,105.000004005432,8|2,0:2|0:0,0:0:0:0:
322,297,121279,1,0,0:0:0:0:
333,288,121359,1,10,0:1:0:0:
269,378,121517,1,0,0:0:0:0:
114,310,121676,2,0,L|229:294,1,105.000004005432,10|0,0:2|0:0,0:0:0:0:
445,202,121993,6,0,P|360:220|276:159,1,157.500006008148,10|0,0:0|0:0,0:0:0:0:
301,115,122311,2,0,P|314:72|311:5,1,105.000004005432,8|2,0:2|0:0,0:0:0:0:
198,35,122549,1,2,0:0:0:0:
208,49,122628,1,10,0:1:0:0:
310,93,122787,1,8,0:0:0:0:
186,168,122946,1,10,0:2:0:0:
79,71,123105,1,0,0:0:0:0:
194,188,123263,6,0,P|205:263|191:329,1,105.000004005432,10|0,0:0|0:0,0:0:0:0:
92,373,123581,1,8,0:2:0:0:
110,178,123739,2,0,L|130:259,1,52.5000020027161,2|2,0:0|0:0,0:0:0:0:
153,354,123898,1,8,0:0:0:0:
27,243,124057,1,2,0:0:0:0:
218,162,124216,1,8,0:2:0:0:
68,303,124374,1,2,0:0:0:0:
63,114,124533,1,0,0:0:0:0:
202,261,124692,2,0,L|285:261,1,52.5000020027161,0|2,0:0|0:0,0:0:0:0:
36,221,124851,1,10,0:2:0:0:
170,105,125009,1,2,0:2:0:0:
176,255,125168,2,0,L|159:331,1,52.5000020027161,10|2,0:0|0:0,0:0:0:0:
88,124,125327,2,0,L|76:72,1,52.5000020027161,2|2,0:0|0:0,0:0:0:0:
232,173,125485,1,8,0:2:0:0:
73,225,125644,1,2,0:0:0:0:
239,52,125803,6,0,B|302:42|344:89|344:89|362:57|407:33,1,157.500006008148,14|0,0:0|0:0,0:0:0:0:
431,122,126120,2,0,P|402:176|409:264,1,105.000004005432,8|2,0:2|0:0,0:0:0:0:
422,256,126359,2,0,P|454:291|469:335,1,52.5000020027161,0|0,0:0|0:0,0:0:0:0:
356,367,126597,1,0,0:0:0:0:
238,355,126755,1,8,0:2:0:0:
162,294,126914,2,0,B|202:291|257:303|224:331|275:344|320:335,1,157.500006008148,2|0,0:0|0:0,0:0:0:0:
344,331,127232,5,2,0:0:0:0:
211,265,127390,1,10,0:2:0:0:
88,336,127549,1,0,0:0:0:0:
153,161,127708,2,0,P|188:211|196:281,1,105.000004005432,10|0,0:1|0:0,0:0:0:0:
0,207,128025,1,10,0:2:0:0:
92,243,128184,1,0,0:0:0:0:
246,141,128343,5,14,0:0:0:0:
282,57,128501,1,2,0:0:0:0:
282,57,128581,1,2,0:0:0:0:
282,57,128660,1,8,0:2:0:0:
166,98,128819,1,2,0:0:0:0:
246,141,128978,5,2,0:0:0:0:
201,15,129136,1,10,0:1:0:0:
201,15,129216,1,2,0:0:0:0:
201,15,129295,1,10,0:2:0:0:
113,196,129454,1,2,0:0:0:0:
200,358,129612,6,0,L|190:290,1,52.5000020027161,14|2,0:0|0:0,0:0:0:0:
132,186,129771,1,2,0:0:0:0:
288,257,129930,6,0,L|240:207,1,52.5000020027161,10|0,0:2|0:0,0:0:0:0:
153,180,130089,1,2,0:0:0:0:
1,228,130247,6,0,P|63:240|89:232,1,52.5000020027161,10|2,0:1|0:0,0:0:0:0:
105,170,130406,2,0,P|162:144|179:122,1,52.5000020027161,8|8,0:1|0:1,0:0:0:0:
178,9,130565,6,0,P|168:62|181:103,1,52.5000020027161,10|0,0:2|0:0,0:0:0:0:
234,122,130724,2,0,P|256:171|290:197,1,52.5000020027161,10|0,0:2|0:0,0:0:0:0:
467,204,130882,6,0,P|392:183|322:216,1,157.500006008148,14|0,0:0|0:0,0:0:0:0:
273,277,131200,2,0,P|307:319|317:391,1,105.000004005432,8|2,0:2|0:0,0:0:0:0:
174,319,131438,1,0,0:0:0:0:
173,295,131517,1,10,0:0:0:0:
218,177,131676,1,0,0:0:0:0:
266,288,131835,1,10,0:2:0:0:
137,220,131993,1,0,0:0:0:0:
14,150,132152,6,0,B|67:128|115:142|115:142|112:105|136:66,1,157.500006008148,10|0,0:0|0:0,0:0:0:0:
259,48,132470,2,0,P|217:77|191:123,1,105.000004005432,8|2,0:2|0:0,0:0:0:0:
233,231,132708,1,0,0:0:0:0:
221,212,132787,1,10,0:1:0:0:
113,250,132946,1,0,0:0:0:0:
141,151,133105,1,10,0:2:0:0:
181,302,133263,1,0,0:0:0:0:
319,343,133422,6,0,B|379:305|430:378|490:323,1,157.500006008148,14|0,0:0|0:0,0:0:0:0:
478,326,133739,2,0,P|449:335|407:328,1,52.5000020027161,8|0,0:2|0:0,0:0:0:0:
274,249,133898,2,0,P|314:211|296:91,1,157.500006008148,2|0,0:0|0:0,0:0:0:0:
318,105,134216,2,0,P|330:129|336:156,1,52.5000020027161,0|0,0:0|0:0,0:0:0:0:
249,285,134374,1,10,0:2:0:0:
89,274,134533,1,2,0:0:0:0:
174,103,134692,5,10,0:1:0:0:
121,200,134851,1,8,0:1:0:0:
169,323,135009,1,10,0:2:0:0:
222,210,135168,1,8,0:2:0:0:
94,97,135327,2,0,P|46:91|-4:55,1,105.000004005432,10|0,0:1|0:0,0:0:0:0:
224,276,135644,2,0,P|286:263|407:281,1,157.500006008148,8|0,0:2|0:0,0:0:0:0:
385,284,135962,5,10,0:0:0:0:
388,300,136041,1,2,0:0:0:0:
496,200,136200,1,2,0:0:0:0:
491,190,136279,1,10,0:2:0:0:
392,102,136438,1,2,0:0:0:0:
396,72,136517,1,2,0:0:0:0:
422,51,136597,1,10,0:1:0:0:
246,25,136755,1,10,0:1:0:0:
264,51,136835,1,2,0:0:0:0:
262,92,136914,1,10,0:2:0:0:
262,92,137073,1,2,0:0:0:0:
23,121,137232,5,10,0:1:0:0:
46,117,137311,1,2,0:0:0:0:
63,119,137390,1,2,0:0:0:0:
97,147,137470,1,2,0:0:0:0:
102,192,137549,1,10,0:2:0:0:
65,303,137708,1,2,0:0:0:0:
57,328,137787,1,2,0:0:0:0:
192,282,137946,1,10,0:2:0:0:
184,253,138025,1,2,0:0:0:0:
145,369,138184,1,10,0:2:0:0:
291,324,138343,1,10,0:0:0:0:
291,324,138501,5,2,0:0:0:0:
156,155,138660,1,2,0:0:0:0:
161,178,138819,1,0,0:0:0:0:
231,226,138978,5,2,0:0:0:0:
374,71,139136,1,2,0:0:0:0:
353,76,139295,1,0,0:0:0:0:
389,155,139454,5,2,0:0:0:0:
198,47,139612,1,2,0:0:0:0:
213,60,139771,1,0,0:0:0:0:
270,233,139930,5,2,0:0:0:0:
270,233,140009,1,0,0:0:0:0:
270,233,140089,1,2,0:0:0:0:
183,303,140247,1,0,0:0:0:0:
70,277,140406,1,10,1:1:0:0:
126,83,140565,2,0,P|110:209|0:271,1,262.500010013581,0|0,1:0|0:0,0:0:0:0:
25,86,141041,6,0,B|91:54|195:74|142:105|231:134|343:138|407:89|415:44|396:20|369:12|329:-5|292:13|291:37|313:74|332:108|365:147|388:207|378:263,1,654.500012483597,14|0,0:0|0:0,0:0:0:0:
303,359,141993,6,0,B|356:271|476:283|476:283|514:244|500:194,1,297.500005674362,10|0,0:2|0:0,0:0:0:0:
465,128,142470,6,0,P|391:143|339:217,1,119.000002269745,0|8,0:0|0:2,0:0:0:0:
277,121,142787,2,0,P|245:184|250:264,1,119.000002269745,2|8,0:0|0:0,0:0:0:0:
156,277,143105,2,0,P|184:341|231:367,1,119.000002269745,2|10,0:0|0:2,0:0:0:0:
336,303,143422,1,0,0:0:0:0:
141,182,143581,5,14,0:0:0:0:
255,202,143739,2,0,P|214:148|254:-11,1,238.00000453949,0|0,0:0|0:0,0:0:0:0:
253,80,144136,1,2,0:0:0:0:
233,89,144216,1,10,0:1:0:0:
41,56,144374,1,0,0:0:0:0:
154,113,144533,1,8,0:2:0:0:
318,43,144692,1,0,0:0:0:0:
462,18,144851,2,0,B|428:84|428:84|433:117|433:117|391:227|360:212|360:212|418:286|402:345,1,357.000006809235,10|2,0:0|0:0,0:0:0:0:
402,335,145406,1,2,0:0:0:0:
395,350,145485,1,10,0:1:0:0:
244,351,145644,1,0,0:0:0:0:
126,257,145803,1,10,0:2:0:0:
31,314,145962,1,0,0:0:0:0:
250,367,146120,5,14,0:0:0:0:
163,338,146279,1,2,0:0:0:0:
126,257,146438,1,10,0:2:0:0:
196,164,146597,2,0,P|206:105|193:48,1,119.000002269745,2|10,0:0|0:1,0:0:0:0:
2,149,146914,1,2,0:0:0:0:
96,113,147073,1,8,0:2:0:0:
1,131,147232,1,0,0:0:0:0:
234,174,147390,6,0,B|252:184|273:176|273:176|277:179|277:179|274:172|274:172|278:177|278:177|277:170|277:170|281:180|281:180|279:166|279:166|315:182|401:150,1,178.500003404617,10|2,0:0|0:0,0:0:0:0:
364,162,147708,1,10,0:2:0:0:
274,344,147866,2,0,P|276:276|131:159,1,238.00000453949,2|2,0:0|0:0,0:0:0:0:
191,233,148263,1,2,0:0:0:0:
216,252,148343,1,10,0:2:0:0:
367,270,148501,1,0,0:0:0:0:
460,154,148660,2,0,P|456:76|406:12,1,119.000002269745,14|0,0:0|0:0,0:0:0:0:
319,319,148978,2,0,P|317:259|340:205,1,119.000002269745,10|2,0:2|0:0,0:0:0:0:
451,70,149295,1,10,0:1:0:0:
499,288,149454,2,0,P|488:230|452:183,1,119.000002269745,0|10,0:0|0:2,0:0:0:0:
254,55,149771,6,0,B|219:44|219:44|220:54|220:54|210:38|210:38|212:57|212:57|201:43|201:43|203:54|203:54|122:32|122:32|83:45,1,238.00000453949,10|8,0:0|0:1,0:0:0:0:
16,95,150168,1,2,0:0:0:0:
23,111,150247,1,8,0:2:0:0:
188,321,150406,2,0,P|157:227|29:185,1,238.00000453949,2|0,0:0|0:0,0:0:0:0:
117,363,150882,1,10,0:2:0:0:
136,193,151041,1,2,0:0:0:0:
200,370,151200,5,14,0:0:0:0:
92,327,151359,1,0,0:0:0:0:
229,355,151517,1,10,0:2:0:0:
74,292,151676,1,0,0:0:0:0:
259,342,151835,5,10,0:0:0:0:
86,273,151993,1,0,0:0:0:0:
53,82,152152,1,10,0:2:0:0:
198,269,152311,6,0,B|252:241|335:260|305:280|367:307|458:276,1,238.00000453949,0|0,0:0|0:0,0:0:0:0:
408,156,152787,1,10,0:2:0:0:
451,288,152946,1,0,0:0:0:0:
359,150,153105,1,10,0:0:0:0:
469,305,153263,6,0,B|404:280|331:301|388:331|291:352|205:309,1,238.00000453949,0|0,0:0|0:0,0:0:0:0:
30,224,153739,1,14,0:0:0:0:
30,224,153898,2,0,P|108:238|159:301,1,119.000002269745,8|10,0:1|0:2,0:0:0:0:
125,23,154216,1,0,0:0:0:0:
125,23,154375,2,0,P|158:94|135:172,1,119.000002269745,10|0,0:0|0:0,0:0:0:0:
333,0,154692,1,10,0:2:0:0:
333,0,154851,2,0,P|293:68|216:94,1,119.000002269745,0|10,0:0|0:1,0:0:0:0:
48,112,155168,1,0,0:0:0:0:
48,112,155247,1,0,0:0:0:0:
48,112,155327,1,8,0:2:0:0:
239,193,155485,2,0,B|354:202|275:335|426:348,1,238.00000453949,0|2,0:0|0:0,0:0:0:0:
460,350,155882,2,0,P|446:276|461:210,1,119.000002269745,0|0,0:0|0:0,0:0:0:0:
487,211,156120,2,0,P|483:171|457:127,1,59.5000011348725,10|0,0:2|0:0,0:0:0:0:
407,75,156279,6,0,P|365:102|349:142,1,59.5000011348725,14|2,0:1|0:0,0:0:0:0:
319,192,156438,1,2,0:0:0:0:
338,288,156597,1,10,0:2:0:0:
272,88,156755,6,0,P|280:151|304:182,1,59.5000011348725,2|2,0:0|0:0,0:0:0:0:
375,223,156914,1,10,0:1:0:0:
484,223,157073,1,2,0:0:0:0:
241,252,157232,6,0,P|300:238|336:205,1,59.5000011348725,10|0,0:2|0:0,0:0:0:0:
377,165,157390,1,10,0:2:0:0:
382,60,157549,1,14,0:0:0:0:
431,344,157708,6,0,P|423:315|410:288,1,59.5000011348725,2|0,0:0|0:0,0:0:0:0:
348,182,157866,1,10,0:2:0:0:
244,148,158025,2,0,P|196:145|160:162,1,59.5000011348725,2|2,0:0|0:0,0:0:0:0:
65,307,158184,5,10,0:0:0:0:
193,228,158343,1,2,0:0:0:0:
87,342,158501,1,8,0:2:0:0:
169,214,158660,1,10,0:2:0:0:
330,365,158819,6,0,B|424:326|426:227|426:227|334:253,1,238.00000453949,10|0,0:0|0:0,0:0:0:0:
29,268,159295,2,0,B|120:247|195:271|150:304|227:315|311:289,1,238.00000453949,10|0,0:1|0:0,0:0:0:0:
343,131,159771,2,0,P|257:185|311:82,1,251.999992309571,10|0,0:1|0:0,0:0:0:0:
456,17,160247,2,0,B|430:2|430:2|504:132|455:227,1,265.999992897034,10|0,0:1|0:0,0:0:0:0:
325,349,160724,2,0,B|217:271|79:364|79:364|86:272|-4:227|-4:227|104:192|117:108,1,560,10|4,0:2|0:2,0:0:0:0:
167,42,166120,6,0,L|174:61,8,11.3749994792938,10|0|0|0|0|0|0|0|0,0:0|0:0|0:0|0:0|0:0|0:0|0:0|0:0|0:0,0:0:0:0:
230,144,166359,2,0,L|237:166,1,22.7499989585877,2|0,0:0|0:0,0:0:0:0:
221,151,166438,2,0,P|170:147|112:160,1,90.9999958343508,10|0,0:0|0:0,0:0:0:0:
28,264,166755,2,0,P|115:253|181:279,1,136.499993751526,10|0,0:2|0:0,0:0:0:0:
209,324,167073,1,10,0:0:0:0:
232,342,167152,1,0,0:0:0:0:
271,351,167232,1,0,0:0:0:0:
392,282,167390,2,0,L|401:253,1,22.7499989585877,0|0,0:0|0:0,0:0:0:0:
426,313,167470,2,0,L|434:345,1,22.7499989585877,0|0,0:0|0:0,0:0:0:0:
461,297,167549,1,0,0:0:0:0:
287,246,167708,1,10,0:0:0:0:
274,217,167787,1,2,0:0:0:0:
275,187,167866,1,0,0:0:0:0:
289,162,167946,1,0,0:0:0:0:
310,138,168025,2,0,P|327:89|320:24,1,90.9999958343508,10|0,0:0|0:0,0:0:0:0:
218,42,168263,2,0,P|168:77|106:77,1,90.9999958343508,0|0,0:0|0:0,0:0:0:0:
31,115,168501,2,0,P|65:149|71:165,1,45.4999979171754,0|0,0:0|0:0,0:0:0:0:
102,231,168660,1,10,0:2:0:0:
210,353,168819,2,0,L|187:349,1,22.7499989585877,0|0,0:0|0:0,0:0:0:0:
221,332,168898,2,0,L|248:320,1,22.7499989585877,0|0,0:0|0:0,0:0:0:0:
213,315,168978,2,0,L|201:217,1,90.9999958343508,10|8,0:0|0:0,0:0:0:0:
267,162,169216,1,8,0:0:0:0:
267,162,169295,2,0,L|281:44,1,90.9999958343508,2|0,0:0|0:0,0:0:0:0:
370,31,169533,1,0,0:0:0:0:
387,61,169612,1,10,0:1:0:0:
419,90,169692,1,0,0:0:0:0:
452,101,169771,1,8,0:0:0:0:
476,82,169851,1,0,0:0:0:0:
468,57,169930,2,0,P|438:112|448:235,1,181.999991668702,8|0,1:2|0:0,0:0:0:0:
486,292,172311,6,0,B|468:281|468:281|470:290|470:290|464:282|464:282|466:292|466:292|459:283|459:283|462:293|462:293|454:284|454:284|459:293|459:293|450:284|450:284|455:294|455:294|447:284|447:284|452:295|452:295|444:283|444:283|448:296|448:296|440:283|440:283|444:297|444:297|437:282|437:282|440:298|440:298|434:282|434:282|438:300|438:300|431:282|431:282|433:301|433:301|428:281|428:281|429:302|429:302|424:280|424:280|426:304|426:304|423:292|423:292|234:287|376:176|143:169,1,700,0|0,0:0|0:0,0:0:0:0:
176,171,173263,5,8,0:0:0:0:
81,38,173422,1,0,0:0:0:0:
226,80,173581,1,0,0:0:0:0:
59,206,173739,1,0,0:0:0:0:
112,122,173898,1,0,0:0:0:0:
166,349,174057,6,0,P|247:302|340:309,1,188.999994232178,14|0,0:0|0:0,0:0:0:0:
403,361,174374,2,0,P|379:291|406:217,1,125.999996154785,8|2,0:2|0:0,0:0:0:0:
465,212,174612,1,0,0:0:0:0:
465,231,174692,1,10,0:1:0:0:
274,241,174851,1,0,0:0:0:0:
92,171,175009,2,0,B|156:141|235:164|206:191|269:216|323:193,1,188.999994232178,10|0,0:2|0:0,0:0:0:0:
184,136,175327,6,0,B|129:52|186:-50|281:-17|228:49,1,188.999994232178,10|0,0:0|0:0,0:0:0:0:
145,62,175644,2,0,P|73:57|16:12,1,125.999996154785,0|2,0:0|0:0,0:0:0:0:
70,110,175882,1,0,0:0:0:0:
78,125,175962,1,10,0:1:0:0:
31,259,176120,1,8,0:1:0:0:
7,172,176279,1,10,0:2:0:0:
95,320,176438,1,0,0:0:0:0:
252,233,176597,6,0,P|191:270|217:336,1,125.999996154785,14|0,0:0|0:0,0:0:0:0:
285,318,176835,1,0,0:0:0:0:
274,309,176914,1,8,0:2:0:0:
189,174,177073,2,0,L|122:200,1,62.9999980773926,2|0,0:0|0:0,0:0:0:0:
292,69,177232,1,8,0:1:0:0:
307,206,177390,1,2,0:0:0:0:
164,70,177549,2,0,L|86:69,1,62.9999980773926,8|0,0:2|0:0,0:0:0:0:
206,195,177708,1,2,0:0:0:0:
286,53,177866,2,0,L|350:17,1,62.9999980773926,10|0,0:1|0:0,0:0:0:0:
302,198,178025,1,0,0:0:0:0:
149,133,178184,1,8,0:2:0:0:
187,314,178343,1,2,0:0:0:0:
360,286,178501,1,10,0:1:0:0:
383,288,178581,1,2,0:0:0:0:
411,303,178660,1,2,0:0:0:0:
421,68,178819,1,10,0:2:0:0:
402,94,178898,1,2,0:0:0:0:
397,128,178978,1,2,0:0:0:0:
405,156,179057,1,2,0:0:0:0:
426,183,179136,6,0,B|491:112|440:21|345:50|381:115,1,188.999994232178,14|0,0:0|0:0,0:0:0:0:
316,131,179454,2,0,P|260:159|197:156,1,125.999996154785,8|2,0:2|0:0,0:0:0:0:
125,101,179692,1,0,0:0:0:0:
147,99,179771,1,10,0:1:0:0:
265,183,179930,1,8,0:1:0:0:
170,287,180089,1,10,0:2:0:0:
39,154,180247,2,0,L|62:277,1,125.999996154785,2|8,0:0|0:0,0:0:0:0:
205,348,180565,1,2,0:0:0:0:
51,321,180724,1,8,0:2:0:0:
23,171,180882,1,0,0:0:0:0:
149,245,181041,1,10,0:1:0:0:
127,58,181200,1,0,0:0:0:0:
103,51,181279,1,0,0:0:0:0:
74,42,181359,1,10,0:2:0:0:
171,151,181517,1,0,0:0:0:0:
381,26,181676,6,0,P|310:45|266:175,1,188.999994232178,14|0,0:0|0:0,0:0:0:0:
299,183,181993,2,0,P|336:243|330:318,1,125.999996154785,8|2,0:2|0:0,0:0:0:0:
280,356,182232,2,0,P|210:349|144:307,1,125.999996154785,0|0,0:0|0:0,0:0:0:0:
135,244,182470,2,0,P|173:294|174:334,1,62.9999980773926,0|2,0:0|0:0,0:0:0:0:
6,233,182628,1,10,0:2:0:0:
10,202,182708,1,0,0:0:0:0:
29,174,182787,1,2,0:1:0:0:
181,143,182946,6,0,P|209:100|214:29,1,62.9999980773926,14|0,0:0|0:0,0:0:0:0:
159,6,183105,1,0,0:0:0:0:
286,108,183263,6,0,P|284:56|247:-4,1,62.9999980773926,10|2,0:2|0:0,0:0:0:0:
189,8,183422,1,2,0:0:0:0:
296,136,183581,6,0,P|347:152|406:128,1,62.9999980773926,10|2,0:1|0:0,0:0:0:0:
363,72,183739,2,0,P|413:55|448:2,1,62.9999980773926,10|10,0:1|0:1,0:0:0:0:
208,109,183898,6,0,P|165:141|151:203,1,62.9999980773926,10|2,0:2|0:0,0:0:0:0:
221,200,184056,2,0,P|205:251|228:309,1,62.9999980773926,10|2,0:2|0:0,0:0:0:0:
446,284,184216,6,0,B|361:252|312:273|312:273|343:303|326:368,1,188.999994232178,14|0,0:0|0:0,0:0:0:0:
256,328,184533,2,0,P|165:342|117:367,1,125.999996154785,8|2,0:2|0:0,0:0:0:0:
62,317,184771,1,0,0:0:0:0:
58,336,184851,1,10,0:1:0:0:
34,188,185009,1,0,0:0:0:0:
0,270,185168,1,10,0:2:0:0:
117,200,185327,1,0,0:0:0:0:
222,149,185485,6,0,P|153:160|62:84,1,188.999994232178,10|0,0:0|0:0,0:0:0:0:
47,23,185803,2,0,P|98:67|118:133,1,125.999996154785,8|0,0:2|0:0,0:0:0:0:
163,206,186041,1,0,0:0:0:0:
174,229,186120,1,10,0:0:0:0:
226,335,186279,1,8,0:1:0:0:
133,296,186438,1,10,0:2:0:0:
275,262,186597,1,0,0:2:0:0:
404,324,186755,6,0,P|321:287|312:197,1,188.999994232178,14|0,0:0|0:0,0:0:0:0:
328,192,187073,2,0,P|312:232|267:276,1,62.9999980773926,8|0,0:2|0:0,0:0:0:0:
128,229,187232,2,0,P|64:199|72:81,1,188.999994232178,2|0,0:0|0:0,0:0:0:0:
78,79,187549,2,0,P|60:113|60:155,1,62.9999980773926,0|0,0:0|0:0,0:0:0:0:
141,243,187708,1,10,0:2:0:0:
285,87,187866,1,2,0:0:0:0:
170,152,188025,5,10,0:1:0:0:
241,252,188184,1,8,0:1:0:0:
190,341,188343,1,10,0:2:0:0:
66,264,188501,1,10,0:2:0:0:
291,263,188660,2,0,P|358:269|421:296,1,136.499993751526,10|0,0:1|0:0,0:0:0:0:
483,80,188978,2,0,P|446:135|431:214,1,136.499993751526,8|0,0:2|0:0,0:0:0:0:
498,258,189295,5,14,0:1:0:0:
356,140,189454,1,2,0:0:0:0:
425,229,189612,1,10,0:2:0:0:
401,64,189771,1,2,0:0:0:0:
401,21,189851,1,2,0:0:0:0:
414,2,189930,1,10,0:1:0:0:
288,81,190089,1,2,0:0:0:0:
259,118,190168,1,2,0:0:0:0:
240,117,190247,1,10,0:2:0:0:
81,33,190406,1,0,0:0:0:0:
206,291,190565,5,10,0:1:0:0:
133,197,190724,1,2,0:0:0:0:
104,189,190803,1,2,0:0:0:0:
74,196,190882,1,10,0:2:0:0:
97,354,191041,1,2,0:0:0:0:
132,347,191120,1,2,0:0:0:0:
171,318,191200,1,10,0:0:0:0:
216,288,191279,1,2,0:0:0:0:
278,290,191359,1,2,0:0:0:0:
332,334,191438,1,2,0:0:0:0:
396,353,191518,1,10,0:2:0:0:
439,345,191597,1,0,0:0:0:0:
451,333,191676,1,0,0:0:0:0:
456,326,191755,1,0,0:0:0:0:
460,317,191835,5,2,0:0:0:0:
202,215,191993,2,0,P|132:241|105:286,1,90.9999958343508,0|0,0:0|0:0,0:0:0:0:
462,302,192311,5,2,0:0:0:0:
185,318,192469,2,0,P|132:371|127:423,1,90.9999958343508,2|0,0:0|0:0,0:0:0:0:
460,288,192787,5,2,0:0:0:0:
307,56,192946,2,0,P|234:37|186:58,1,90.9999958343508,2|0,0:0|0:0,0:0:0:0:
450,283,193263,5,2,0:0:0:0:
129,160,193422,2,0,P|168:138|214:138,1,90.9999958343508,2|0,0:0|0:0,0:0:0:0:
23,346,193739,5,2,0:0:0:0:
222,170,193898,2,0,B|200:129|200:129|156:135,1,90.9999958343508,2|0,0:0|0:0,0:0:0:0:
51,355,194216,5,2,0:0:0:0:
186,111,194374,2,0,B|155:83|155:83|106:102,1,90.9999958343508,2|0,0:0|0:0,0:0:0:0:
90,365,194692,5,2,0:0:0:0:
362,302,194851,2,0,B|361:259|361:259|324:229,1,90.9999958343508,2|0,0:0|0:0,0:0:0:0:
97,377,195168,5,2,0:0:0:0:
251,170,195327,2,0,B|292:190|292:190|296:260,1,90.9999958343508,2|0,0:0|0:0,0:0:0:0:
178,353,195644,5,2,0:0:0:0:
123,249,195803,2,0,P|132:190|189:244,1,168,2|0,0:0|0:0,0:0:0:0:
180,359,196120,5,2,0:0:0:0:
269,208,196279,2,0,P|276:122|199:161,1,210,2|0,0:0|0:0,0:0:0:0:
181,365,196597,5,2,0:0:0:0:
99,168,196755,2,0,P|108:94|165:142,1,181.999991668702,2|0,0:0|0:0,0:0:0:0:
147,267,197232,5,0,0:0:0:0:
149,310,197390,1,0,0:0:0:0:
186,362,197549,1,0,0:0:0:0:
469,36,197708,6,0,L|463:66,1,17.5,2|0,0:1|0:0,0:0:0:0:
423,57,197866,2,0,L|430:86,1,17.5,2|0,0:1|0:0,0:0:0:0:
312,368,198184,5,14,0:0:0:0:
