osu file format v14

[General]
AudioFilename: Higurashi Moratorium.mp3
AudioLeadIn: 0
PreviewTime: 173188
Countdown: 0
SampleSet: Soft
StackLeniency: 0.7
Mode: 0
LetterboxInBreaks: 0
WidescreenStoryboard: 1

[Editor]
DistanceSpacing: 1.3
BeatDivisor: 4
GridSize: 4
TimelineZoom: 2.3

[Metadata]
Title:Higurashi Moratorium
TitleUnicode:茅蜩モラトリアム
Artist:Amatsuki
ArtistUnicode:天月
Creator:Nevo
Version:Obligation
Source:
Tags:TOTAL OBJECTION Vocaloid Megpoid GUMI xchorse yukiyo lasse airincat
BeatmapID:1945754
BeatmapSetID:931886

[Difficulty]
HPDrainRate:6
CircleSize:4
OverallDifficulty:9
ApproachRate:9.3
SliderMultiplier:1.9
SliderTickRate:1

[Events]
//Background and Video events
0,0,"BG.jpg",0,0
Video,0,"PV.avi"
//Break Periods
2,84098,93503
2,161558,165566
2,170447,171757
//Storyboard Layer 0 (Background)
//Storyboard Layer 1 (Fail)
//Storyboard Layer 2 (Pass)
//Storyboard Layer 3 (Foreground)
//Storyboard Layer 4 (Overlay)
//Storyboard Sound Samples

[TimingPoints]
3867,638.297872340426,4,2,86,40,1,0
3867,-133.333333333333,4,2,86,40,0,0
25486,317.460317460317,4,2,86,50,1,0
26676,-100,4,2,1,5,0,0
26755,-100,4,1,85,65,0,0
35485,-100,4,1,86,50,0,0
36597,-100,4,1,85,50,0,0
36914,-100,4,2,85,50,0,0
47073,-100,4,2,85,60,0,0
57232,-100,4,2,86,55,0,0
58739,-100,4,2,86,20,0,0
58819,-100,4,2,86,55,0,0
59454,-100,4,2,85,60,0,0
59771,-100,4,2,85,65,0,0
61200,-100,4,1,0,65,0,0
62946,-100,4,2,86,50,0,0
63184,-100,4,2,1,5,0,0
63263,-100,4,2,86,55,0,0
63501,-100,4,2,1,5,0,0
63581,-76.9230769230769,4,1,85,70,0,1
81359,-76.9230769230769,4,1,0,70,0,1
83263,-76.9230769230769,4,2,86,60,0,1
83581,-76.9230769230769,4,1,86,70,0,1
83898,-100,4,2,85,60,0,0
94057,-133.333333333333,4,2,85,50,0,0
101835,-133.333333333333,4,2,85,5,0,0
102152,-133.333333333333,4,2,85,50,0,0
102232,-133.333333333333,4,2,85,15,0,0
102628,-133.333333333333,4,2,85,50,0,0
102946,-133.333333333333,4,2,86,50,0,0
112999,-133.333333333333,4,2,86,40,0,0
113316,-133.333333333333,4,2,86,30,0,0
114057,-133.333333333333,4,2,86,40,0,0
114374,-133.333333333333,4,2,86,55,0,0
115882,-133.333333333333,4,2,86,20,0,0
115962,-133.333333333333,4,2,86,55,0,0
116597,-133.333333333333,4,2,85,60,0,0
116914,-100,4,2,85,65,0,0
118343,-100,4,1,0,65,0,0
120089,-100,4,2,86,50,0,0
120327,-100,4,2,1,5,0,0
120406,-100,4,2,86,55,0,0
120644,-100,4,2,1,5,0,0
120724,-66.6666666666667,4,1,85,70,0,1
138501,-66.6666666666667,4,1,0,70,0,1
140406,-66.6666666666667,4,1,85,60,0,1
140962,-66.6666666666667,4,2,85,5,0,1
141041,-100,4,1,85,65,0,0
160882,-100,4,2,86,60,0,0
161041,-100,4,2,86,55,0,0
166120,-100,4,1,85,45,0,0
169612,-100,4,2,86,45,0,0
170247,-100,4,2,1,20,0,0
171993,-100,4,2,85,60,0,0
172311,-100,4,2,85,30,0,0
172946,-100,4,2,85,40,0,0
173263,-133.333333333333,4,2,86,35,0,0
173382,-133.333333333333,4,2,86,40,0,0
173620,-133.333333333333,4,2,86,5,0,0
173700,-133.333333333333,4,2,86,45,0,0
173978,-133.333333333333,4,2,86,5,0,0
174057,-55.5555555555556,4,1,85,70,0,1
177708,-66.6666666666667,4,1,85,70,0,1
177866,-55.5555555555556,4,1,85,70,0,1
182946,-83.3333333333333,4,1,85,70,0,1
188660,-76.9230769230769,4,1,85,70,0,1
189136,-55.5555555555556,4,1,85,70,0,1
190247,-76.9230769230769,4,1,85,70,0,1
191835,-76.9230769230769,4,1,0,70,0,1
197232,-100,4,2,85,60,0,0
197708,-100,4,2,86,50,0,0
198184,-100,4,1,85,65,0,0
207549,-166.666666666667,4,1,85,65,0,0

[Colours]
Combo1 : 255,77,77
Combo2 : 2,255,66
Combo3 : 15,135,255
Combo4 : 176,100,100

[HitObjects]
96,286,3787,5,0,0:0:0:0:
96,286,3867,2,0,B|158:253|222:278|222:278|212:289,1,142.500005435944,10|0,0:3|0:0,0:0:0:0:
294,358,4824,1,2,0:2:0:0:
417,298,5143,6,0,B|371:273|325:292|325:292|332:300,1,71.2500027179719,8|0,0:3|0:0,0:0:0:0:
509,282,5781,2,0,B|494:233|448:213|448:213|447:223,1,71.2500027179719,0|0,0:0|0:0,0:0:0:0:
301,143,6340,1,0,0:0:0:0:
301,143,6420,6,0,B|329:199|385:213|385:213|360:174,1,142.500005435944,10|0,0:3|0:0,0:0:0:0:
437,144,7377,1,2,0:2:0:0:
504,48,7696,2,0,P|468:60|424:60,1,71.2500027179719,8|0,0:3|0:0,0:0:0:0:
261,15,8335,2,0,P|225:16|191:28,1,71.2500027179719,0|0,0:0|0:0,0:0:0:0:
65,129,8973,5,10,0:3:0:0:
252,168,9292,1,0,0:0:0:0:
129,287,9611,1,0,0:0:0:0:
147,193,9930,1,2,0:2:0:0:
241,358,10249,2,0,P|294:340|320:344,1,71.2500027179719,8|0,0:3|0:0,0:0:0:0:
402,278,10888,2,0,P|366:276|334:261,1,71.2500027179719,2|0,0:0|0:0,0:0:0:0:
255,115,11446,1,0,0:0:0:0:
255,115,11526,5,10,0:3:0:0:
363,143,11845,1,0,0:0:0:0:
198,205,12164,1,2,0:2:0:0:
357,235,12484,1,2,0:1:0:0:
266,272,12803,1,8,0:3:0:0:
255,115,13122,2,0,P|257:83|246:33,1,71.2500027179719,2|2,0:2|0:1,0:0:0:0:
26,111,13920,1,0,0:0:0:0:
26,111,13999,1,0,0:0:0:0:
26,111,14079,6,0,P|91:84|167:93,1,142.500005435944,10|0,0:3|0:0,0:0:0:0:
241,170,15037,1,2,0:0:0:0:
30,132,15356,2,0,P|67:113|101:105,1,71.2500027179719,8|2,0:3|0:0,0:0:0:0:
72,258,15994,2,0,P|84:218|103:188,1,71.2500027179719,2|0,0:1|0:0,0:0:0:0:
210,85,16553,1,0,0:0:0:0:
210,85,16632,5,10,0:3:0:0:
330,153,16952,1,0,0:0:0:0:
241,170,17271,1,2,0:0:0:0:
299,61,17590,1,0,0:0:0:0:
396,219,17829,1,0,0:0:0:0:
396,219,17909,6,0,P|380:284|371:337,1,106.875004076958,10|0,0:3|0:0,0:0:0:0:
287,384,18547,2,0,P|271:319|262:266,1,106.875004076958,2|0,0:0|0:0,0:0:0:0:
178,219,19186,2,0,P|162:284|153:337,1,106.875004076958,10|0,0:3|0:0,0:0:0:0:
71,381,19824,1,2,0:0:0:0:
54,352,20143,1,2,0:1:0:0:
64,260,20462,1,8,0:3:0:0:
158,276,20781,1,0,0:0:0:0:
217,209,21101,2,0,P|280:192|331:210,1,106.875004076958,2|0,0:1|0:0,0:0:0:0:
421,266,21739,5,4,0:0:0:0:
434,278,21819,1,0,0:0:0:0:
116,143,25486,5,2,0:1:0:0:
205,336,25962,1,2,0:0:0:0:
205,336,26041,1,2,0:0:0:0:
205,336,26120,1,2,0:1:0:0:
301,352,26279,1,0,0:0:0:0:
382,295,26438,1,6,0:0:0:0:
392,199,26597,1,0,0:0:0:0:
299,61,26755,6,0,P|293:121|308:193,1,95,14|0,0:1|0:0,0:0:0:0:
205,336,27073,2,0,P|211:276|196:204,1,95,8|2,0:2|0:2,0:0:0:0:
365,89,27390,2,0,P|318:127|278:188,1,95,8|2,0:1|0:0,0:0:0:0:
138,307,27708,2,0,P|184:268|224:207,1,95,8|2,0:2|0:0,0:0:0:0:
122,59,28025,5,0,0:0:0:0:
36,135,28184,1,0,0:0:0:0:
251,184,28343,1,8,0:2:0:0:
214,83,28501,1,2,0:2:0:0:
48,230,28660,2,0,P|97:214|177:213,1,95,8|10,0:2|0:1,0:0:0:0:
385,340,28978,2,0,P|337:334|292:319,1,95,8|0,0:2|0:0,0:0:0:0:
359,146,29295,6,0,B|376:183|376:183|362:258,1,95,10|0,0:1|0:0,0:0:0:0:
120,384,29612,2,0,B|103:347|103:347|117:272,1,95,8|2,0:2|0:0,0:0:0:0:
424,167,29930,2,0,B|409:205|409:205|346:248,1,95,8|2,0:0|0:0,0:0:0:0:
54,362,30247,2,0,B|68:323|68:323|131:280,1,95,8|0,0:2|0:0,0:0:0:0:
248,368,30565,5,10,0:0:0:0:
259,273,30724,1,0,0:0:0:0:
208,188,30882,1,10,0:2:0:0:
112,171,31041,1,0,0:0:0:0:
268,377,31200,5,10,0:0:0:0:
280,268,31359,1,10,0:1:0:0:
222,172,31517,1,8,0:2:0:0:
112,152,31676,1,0,0:0:0:0:
284,384,31835,6,0,P|342:372|396:369,1,95,14|0,0:0|0:0,0:0:0:0:
105,141,32152,2,0,P|57:136|11:126,1,95,8|2,0:2|0:0,0:0:0:0:
300,313,32470,2,0,P|349:345|389:381,1,95,10|0,0:1|0:0,0:0:0:0:
67,202,32787,2,0,P|36:165|11:125,1,95,10|0,0:0|0:0,0:0:0:0:
237,27,33105,5,10,0:0:0:0:
275,100,33263,1,0,0:0:0:0:
231,247,33422,1,8,0:2:0:0:
283,325,33581,1,2,0:0:0:0:
283,325,33660,1,2,0:0:0:0:
283,325,33739,2,0,L|391:305,1,95,8|0,0:1|0:0,0:0:0:0:
206,157,34057,2,0,L|98:136,1,95,10|0,0:2|0:0,0:0:0:0:
355,49,34374,6,0,P|369:105|355:166,1,95,10|2,0:0|0:2,0:0:0:0:
186,287,34692,2,0,P|227:246|287:228,1,95,10|0,0:2|0:0,0:0:0:0:
423,69,35009,2,0,P|393:118|340:151,1,95,10|2,0:1|0:0,0:0:0:0:
169,217,35327,2,0,P|226:217|282:247,1,95,8|4,0:2|1:2,0:0:0:0:
456,280,35644,5,0,0:0:0:0:
477,161,35803,1,0,0:0:0:0:
423,69,35962,1,0,0:0:0:0:
341,39,36120,1,0,0:0:0:0:
234,289,36438,1,0,0:0:0:0:
274,196,36597,1,2,0:0:0:0:
293,205,36676,1,2,0:0:0:0:
311,219,36755,1,2,0:0:0:0:
324,241,36835,1,2,0:0:0:0:
329,259,36914,6,0,L|315:363,1,95,14|0,2:1|0:0,0:0:0:0:
99,163,37232,2,0,L|113:267,1,95,0|2,2:1|2:1,0:0:0:0:
340,272,37549,2,0,L|326:376,1,95,0|0,0:0|2:1,0:0:0:0:
110,176,37867,2,0,L|124:280,1,95,10|2,2:1|2:1,0:0:0:0:
311,149,38184,6,0,B|267:118|267:118|201:113,1,95,0|0,0:0|2:1,0:0:0:0:
63,50,38501,2,0,B|107:81|107:81|173:86,1,95,0|2,0:0|2:1,0:0:0:0:
261,199,38819,2,0,B|251:145|251:145|208:95,1,95,0|0,0:0|2:1,0:0:0:0:
113,0,39136,2,0,B|122:53|122:53|165:103,1,95,10|2,2:1|2:1,0:0:0:0:
310,24,39454,6,0,L|200:17,1,95,10|0,2:1|0:0,0:0:0:0:
353,115,39771,2,0,L|243:108,1,95,8|2,2:1|2:1,0:0:0:0:
396,206,40089,2,0,L|286:199,1,95,0|0,0:0|2:1,0:0:0:0:
439,297,40406,2,0,L|329:290,1,95,0|2,0:0|2:1,0:0:0:0:
202,360,40724,6,0,L|312:367,1,95,0|0,0:0|2:1,0:0:0:0:
159,269,41041,1,10,2:1:0:0:
159,269,41200,2,0,L|269:276,1,95,2|0,2:1|0:0,0:0:0:0:
63,50,41676,2,0,B|47:85|47:85|58:163,1,95,0|0,0:0|0:0,0:0:0:0:
264,122,41993,6,0,P|218:85|141:104,1,142.5,10|0,2:1|0:0,0:0:0:0:
195,163,42311,2,0,L|300:165,1,95,8|2,2:1|2:1,0:0:0:0:
427,112,42628,1,10,2:1:0:0:
508,170,42787,1,0,0:0:0:0:
365,195,42946,1,8,2:1:0:0:
449,254,43105,1,2,2:1:0:0:
449,254,43184,1,2,2:1:0:0:
449,254,43263,6,0,P|399:243|340:256,1,95,0|2,0:0|2:1,0:0:0:0:
216,325,43581,2,0,P|262:331|308:320,1,95,0|2,0:0|2:1,0:0:0:0:
121,234,43898,2,0,L|135:347,1,95,0|2,0:0|2:1,0:0:0:0:
36,203,44216,2,0,L|50:316,1,95,8|0,2:1|2:1,0:0:0:0:
211,209,44533,6,0,L|225:96,1,95,10|0,2:1|0:0,0:0:0:0:
121,38,44851,2,0,L|135:151,1,95,8|2,2:1|2:1,0:0:0:0:
291,270,45168,2,0,L|305:157,1,95,0|0,0:0|2:1,0:0:0:0:
370,64,45485,1,10,2:1:0:0:
452,170,45644,1,2,2:1:0:0:
452,170,45724,1,2,2:1:0:0:
452,170,45803,5,0,0:0:0:0:
384,272,45962,1,0,2:1:0:0:
302,175,46120,1,0,0:0:0:0:
479,254,46279,2,0,P|475:299|453:351,1,95,2|0,2:1|2:1,0:0:0:0:
284,325,46597,1,2,2:1:0:0:
251,305,46676,1,2,2:1:0:0:
215,295,46755,1,2,2:1:0:0:
177,293,46835,1,2,2:1:0:0:
140,302,46914,1,2,2:1:0:0:
106,319,46993,1,2,2:1:0:0:
78,345,47073,6,0,L|56:231,1,95,14|0,0:1|0:0,0:0:0:0:
0,123,47390,1,10,0:0:0:0:
86,70,47549,1,0,0:0:0:0:
217,172,47708,1,10,0:1:0:0:
120,154,47867,1,8,0:1:0:0:
252,78,48025,1,8,0:0:0:0:
280,94,48104,1,2,0:0:0:0:
303,118,48184,1,2,0:0:0:0:
315,149,48263,1,2,0:0:0:0:
317,182,48343,6,0,L|308:302,1,95,0|0,0:0|0:0,0:0:0:0:
461,356,48660,2,0,L|451:236,1,95,10|0,0:0|0:0,0:0:0:0:
396,81,48978,1,10,0:1:0:0:
217,172,49136,1,8,0:1:0:0:
443,173,49295,1,8,0:0:0:0:
252,78,49454,1,2,0:0:0:0:
252,78,49533,1,2,0:0:0:0:
252,78,49612,6,0,P|183:65|126:79,1,95,0|0,0:0|0:0,0:0:0:0:
69,224,49930,2,0,P|108:166|158:135,1,95,10|0,0:0|0:0,0:0:0:0:
294,212,50247,2,0,P|225:199|168:213,1,95,10|0,0:1|0:1,0:0:0:0:
111,358,50565,2,0,P|150:300|200:269,1,95,8|2,0:0|0:0,0:0:0:0:
378,268,50882,6,0,L|370:382,1,95,10|0,0:1|0:0,0:0:0:0:
201,202,51200,2,0,L|193:88,1,95,10|0,0:0|0:0,0:0:0:0:
436,196,51517,1,10,0:1:0:0:
293,250,51676,1,8,0:1:0:0:
391,113,51835,1,8,0:0:0:0:
422,103,51914,1,2,0:0:0:0:
455,105,51993,1,2,0:0:0:0:
486,118,52073,1,2,0:0:0:0:
511,140,52153,6,0,L|502:37,1,95,8|2,0:1|0:0,0:0:0:0:
285,101,52470,1,10,0:0:0:0:
436,196,52628,1,0,0:0:0:0:
323,295,52787,2,0,L|331:192,1,95,10|0,0:1|0:0,0:0:0:0:
193,72,53105,1,10,0:0:0:0:
134,250,53263,1,2,0:2:0:0:
134,250,53343,1,2,0:2:0:0:
134,250,53422,6,0,P|195:225|249:231,1,95,10|0,0:1|0:0,0:0:0:0:
412,319,53739,2,0,P|351:294|297:300,1,95,8|0,0:0|0:0,0:0:0:0:
68,384,54057,2,0,L|53:261,1,95,10|0,0:1|0:0,0:0:0:0:
246,139,54374,1,10,0:0:0:0:
223,225,54533,1,2,0:0:0:0:
177,71,54692,5,8,0:1:0:0:
327,125,54851,1,2,0:0:0:0:
156,162,55009,1,10,0:1:0:0:
140,170,55089,1,0,0:0:0:0:
124,178,55168,1,2,0:0:0:0:
6,34,55327,1,10,0:1:0:0:
177,71,55485,1,2,0:0:0:0:
193,79,55565,1,2,0:1:0:0:
209,87,55644,1,8,0:0:0:0:
435,8,55803,1,2,0:0:0:0:
294,24,55962,5,10,0:1:0:0:
512,117,56120,1,8,0:1:0:0:
268,189,56279,1,10,0:0:0:0:
465,186,56438,1,0,0:0:0:0:
325,316,56597,1,10,0:1:0:0:
435,260,56755,1,8,0:1:0:0:
411,344,56914,1,10,0:0:0:0:
246,274,57073,1,8,0:0:0:0:
246,274,57152,1,8,0:1:0:0:
246,274,57232,6,0,L|174:263,1,47.5,14|0,1:1|0:0,0:0:0:0:
112,222,57390,1,8,0:3:0:0:
84,183,57469,1,2,0:0:0:0:
77,137,57548,1,2,0:0:0:0:
91,92,57628,1,2,0:0:0:0:
124,58,57708,2,0,L|230:82,1,95,2|0,0:0|0:0,0:0:0:0:
369,118,58025,1,2,0:0:0:0:
244,235,58184,1,0,0:0:0:0:
295,55,58343,5,2,0:1:0:0:
295,55,58422,1,2,0:1:0:0:
295,55,58501,1,8,0:2:0:0:
445,240,58660,1,0,0:0:0:0:
424,259,58739,1,2,0:0:0:0:
397,269,58819,1,8,0:2:0:0:
152,224,58978,1,8,0:2:0:0:
311,153,59136,1,8,0:1:0:0:
216,310,59295,1,8,0:1:0:0:
173,330,59374,1,2,0:0:0:0:
126,330,59453,1,10,2:2:0:0:
83,310,59533,1,2,0:0:0:0:
52,275,59612,1,10,2:2:0:0:
39,229,59691,1,2,0:0:0:0:
47,183,59771,6,0,L|56:61,1,95,14|0,0:1|0:0,0:0:0:0:
176,8,60089,1,0,0:0:0:0:
237,162,60247,2,0,P|193:149|132:153,1,95,10|8,0:2|0:1,0:0:0:0:
296,265,60565,1,2,0:0:0:0:
298,92,60724,1,10,0:0:0:0:
185,252,60882,2,0,L|193:374,1,95,2|0,0:0|0:0,0:0:0:0:
427,254,61200,5,2,0:1:0:0:
137,178,61359,1,2,0:1:0:0:
124,198,61676,5,2,0:1:0:0:
414,122,61835,1,2,0:1:0:0:
418,139,62152,5,2,0:1:0:0:
128,63,62311,1,2,0:1:0:0:
117,76,62628,5,2,0:1:0:0:
407,0,62787,1,2,0:1:0:0:
329,82,62946,1,12,0:2:0:0:
435,147,63105,1,0,0:0:0:0:
317,256,63263,1,8,0:2:0:0:
465,339,63422,1,0,0:0:0:0:
350,166,63581,6,0,B|301:158|301:158|253:179|253:179|131:162,1,185.249991519928,14|0,0:1|0:0,0:0:0:0:
120,75,63898,2,0,L|258:98,1,123.499994346619,8|2,0:2|0:0,0:0:0:0:
85,322,64216,1,10,0:1:0:0:
31,240,64374,1,0,0:0:0:0:
42,137,64533,1,10,0:2:0:0:
120,75,64692,1,0,0:0:0:0:
286,239,64851,6,0,B|224:197|148:212|148:212|189:260,1,185.249991519928,10|0,0:1|0:0,0:0:0:0:
293,340,65168,2,0,P|347:315|426:313,1,123.499994346619,8|2,0:2|0:0,0:0:0:0:
334,55,65485,1,10,0:1:0:0:
254,134,65644,1,8,0:1:0:0:
230,245,65803,1,10,0:2:0:0:
291,362,65961,1,0,0:0:0:0:
440,211,66120,6,0,B|306:204,1,123.499994346619,6|0,0:1|0:0,0:0:0:0:
130,140,66438,2,0,B|264:133,1,123.499994346619,8|2,0:2|0:0,0:0:0:0:
51,92,66755,2,0,P|38:155|77:222,1,123.499994346619,8|2,0:1|0:0,0:0:0:0:
206,356,67073,1,8,0:2:0:0:
250,373,67152,1,2,0:0:0:0:
299,375,67231,1,2,0:0:0:0:
346,361,67311,1,2,0:0:0:0:
387,332,67390,6,0,L|378:179,1,123.499994346619,0|0,0:0|0:0,0:0:0:0:
312,140,67628,1,2,0:1:0:0:
312,140,67708,2,0,P|234:132|177:156,1,123.499994346619,10|2,0:2|0:1,0:0:0:0:
123,232,67945,1,2,0:1:0:0:
123,231,68025,2,0,P|183:220|242:237,1,123.499994346619,8|0,0:1|0:0,0:0:0:0:
79,330,68343,1,8,0:2:0:0:
37,285,68422,1,2,0:0:0:0:
23,226,68501,1,2,0:0:0:0:
41,167,68581,1,2,0:0:0:0:
86,126,68660,6,0,B|150:116|150:116|217:135|217:135|287:130,1,185.249991519928,14|0,0:1|0:0,0:0:0:0:
385,87,68978,2,0,P|351:150|373:217,1,123.499994346619,8|0,0:2|0:0,0:0:0:0:
463,329,69295,1,10,0:1:0:0:
490,230,69454,1,8,0:1:0:0:
459,139,69612,1,8,0:2:0:0:
252,257,69771,6,0,L|390:237,1,123.499994346619,2|0,0:0|0:0,0:0:0:0:
226,58,70089,1,2,0:0:0:0:
226,58,70168,1,2,0:0:0:0:
226,58,70247,2,0,L|88:38,1,123.499994346619,8|0,0:2|0:0,0:0:0:0:
35,101,70485,1,2,0:0:0:0:
35,101,70565,2,0,P|32:173|58:229,1,123.499994346619,10|0,0:1|0:0,0:0:0:0:
244,349,70882,2,0,P|241:277|267:221,1,123.499994346619,10|0,0:2|0:0,0:0:0:0:
409,109,71200,5,14,0:1:0:0:
447,203,71359,1,0,0:0:0:0:
447,203,71438,1,2,0:0:0:0:
447,203,71517,1,8,0:2:0:0:
312,44,71676,1,2,0:0:0:0:
176,202,71835,1,8,0:1:0:0:
176,202,71914,1,2,0:0:0:0:
176,202,71993,1,10,0:1:0:0:
176,202,72073,1,10,0:1:0:0:
176,202,72152,1,10,0:2:0:0:
138,223,72231,1,2,0:0:0:0:
96,228,72310,1,10,0:2:0:0:
55,216,72390,1,2,0:0:0:0:
19,177,72470,5,14,0:0:0:0:
50,134,72549,1,2,0:0:0:0:
95,107,72628,1,2,0:0:0:0:
147,100,72708,1,2,0:0:0:0:
198,114,72787,1,10,0:2:0:0:
234,151,72867,1,2,0:0:0:0:
281,176,72946,1,2,0:0:0:0:
333,180,73026,1,2,0:0:0:0:
384,167,73105,1,10,0:1:0:0:
421,134,73184,1,2,0:0:0:0:
408,80,73263,5,10,0:1:0:0:
366,127,73342,1,10,0:1:0:0:
358,189,73421,1,10,0:2:0:0:
373,250,73501,1,2,0:0:0:0:
423,290,73581,2,0,L|491:275,1,61.7499971733095,8|0,0:2|0:0,0:0:0:0:
257,365,73739,6,0,B|203:335|138:374|138:374|101:354|101:314,1,185.249991519928,14|0,0:0|0:0,0:0:0:0:
44,190,74057,1,8,0:2:0:0:
186,257,74216,1,2,0:0:0:0:
209,121,74374,1,10,0:1:0:0:
84,57,74533,1,0,0:0:0:0:
104,291,74692,1,10,0:2:0:0:
140,330,74771,1,2,0:0:0:0:
193,345,74850,1,2,0:0:0:0:
244,330,74930,1,2,0:0:0:0:
284,295,75009,6,0,B|327:285|327:285|369:308|369:308|464:295,1,185.249991519928,10|0,0:1|0:0,0:0:0:0:
512,206,75327,2,0,L|382:224,1,123.499994346619,8|2,0:2|0:0,0:0:0:0:
108,73,75644,1,10,0:1:0:0:
224,79,75803,1,0,0:0:0:0:
307,184,75962,1,10,0:2:0:0:
284,295,76120,1,0,0:0:0:0:
20,188,76279,6,0,B|76:161|142:171|112:196|184:219|236:193,1,185.249991519928,14|0,0:1|0:0,0:0:0:0:
180,120,76597,2,0,B|160:153|160:153|173:264,1,123.499994346619,8|2,0:2|0:0,0:0:0:0:
384,358,76914,2,0,B|404:325|404:325|391:214,1,123.499994346619,0|0,0:0|0:0,0:0:0:0:
273,84,77232,1,10,0:2:0:0:
246,187,77390,1,2,0:0:0:0:
337,24,77549,5,10,0:1:0:0:
392,231,77708,1,8,0:1:0:0:
180,120,77866,1,10,0:2:0:0:
180,120,77946,1,2,0:0:0:0:
180,120,78025,1,8,0:2:0:0:
444,134,78184,1,10,0:1:0:0:
225,268,78343,1,0,0:0:0:0:
456,317,78501,1,8,0:2:0:0:
477,271,78581,1,2,0:0:0:0:
487,221,78660,1,2,0:0:0:0:
474,175,78739,1,2,0:0:0:0:
444,134,78819,6,0,L|422:63,1,61.7499971733095,14|0,0:0|0:0,0:0:0:0:
352,3,78978,2,0,L|330:74,1,61.7499971733095,2|2,0:0|0:0,0:0:0:0:
260,134,79136,2,0,L|238:63,1,61.7499971733095,2|0,0:0|0:0,0:0:0:0:
168,3,79295,2,0,L|146:74,1,61.7499971733095,2|2,1:2|1:2,0:0:0:0:
76,134,79454,2,0,L|54:63,1,61.7499971733095,2|0,1:2|0:0,0:0:0:0:
240,192,79612,1,2,0:0:0:0:
240,192,79692,1,2,0:0:0:0:
240,192,79771,6,0,L|259:134,1,61.7499971733095,10|0,0:2|0:0,0:0:0:0:
444,134,79930,2,0,L|426:76,1,61.7499971733095,0|0,0:0|0:0,0:0:0:0:
158,251,80089,5,10,0:0:0:0:
209,284,80168,1,2,0:0:0:0:
270,283,80247,1,2,0:0:0:0:
318,246,80327,1,2,0:0:0:0:
335,188,80406,2,0,L|353:276,1,61.7499971733095,10|2,0:2|0:0,0:0:0:0:
427,340,80565,2,0,L|446:252,1,61.7499971733095,2|0,0:0|0:0,0:0:0:0:
226,131,80724,2,0,L|245:218,1,61.7499971733095,10|2,0:1|0:0,0:0:0:0:
424,198,80883,2,0,L|443:110,1,61.7499971733095,2|0,0:0|0:0,0:0:0:0:
282,344,81041,6,0,L|264:256,1,61.7499971733095,10|0,0:2|0:0,0:0:0:0:
84,231,81200,2,0,L|103:143,1,61.7499971733095,0|0,0:0|0:0,0:0:0:0:
284,13,81359,5,2,0:1:0:0:
9,86,81517,1,2,0:1:0:0:
0,106,81835,5,2,0:1:0:0:
351,142,81993,1,2,0:1:0:0:
361,155,82312,5,2,0:1:0:0:
71,226,82470,1,2,0:1:0:0:
56,248,82787,5,2,0:1:0:0:
407,312,82946,1,2,0:1:0:0:
197,136,83105,1,0,0:0:0:0:
203,377,83263,1,2,0:1:0:0:
274,247,83422,1,2,0:2:0:0:
274,247,83501,1,2,0:2:0:0:
274,247,83581,1,4,2:2:0:0:
34,32,83898,5,14,2:1:0:0:
84,228,94057,6,0,P|126:206|175:205,1,71.2500027179719,14|0,2:1|0:0,0:0:0:0:
150,114,94374,2,0,P|195:128|230:162,1,71.2500027179719,8|2,2:1|2:1,0:0:0:0:
277,80,94692,2,0,P|299:122|300:171,1,71.2500027179719,8|0,0:1|2:1,0:0:0:0:
390,145,95009,2,0,P|375:190|341:225,1,71.2500027179719,10|2,2:1|2:1,0:0:0:0:
290,274,95327,6,0,L|218:269,1,71.2500027179719,8|0,2:1|2:1,0:0:0:0:
91,204,95644,2,0,L|162:199,1,71.2500027179719,8|2,2:1|2:1,0:0:0:0:
288,146,95962,2,0,L|216:141,1,71.2500027179719,8|0,2:1|2:1,0:0:0:0:
74,73,96279,5,10,2:1:0:0:
154,53,96438,1,10,2:1:0:0:
234,33,96597,1,10,2:1:0:0:
156,217,96914,2,0,L|135:133,1,71.2500027179719,8|2,2:1|2:1,0:0:0:0:
345,278,97232,2,0,L|366:194,1,71.2500027179719,8|0,0:1|2:1,0:0:0:0:
85,269,97549,2,0,L|64:185,1,71.2500027179719,8|2,0:1|2:1,0:0:0:0:
248,289,97866,6,0,P|212:294|178:287,1,71.2500027179719,8|0,2:1|2:1,0:0:0:0:
311,216,98184,2,0,P|333:243|344:277,1,71.2500027179719,2|2,2:1|2:1,0:0:0:0:
217,198,98501,2,0,P|230:165|253:138,1,71.2500027179719,8|0,0:1|2:1,0:0:0:0:
393,90,98819,5,8,0:1:0:0:
313,70,98978,1,8,0:1:0:0:
233,50,99136,1,2,2:1:0:0:
20,140,99454,2,0,L|111:122,1,71.2500027179719,8|2,2:1|2:1,0:0:0:0:
153,197,99771,2,0,L|83:210,1,71.2500027179719,8|0,0:1|2:1,0:0:0:0:
46,303,100089,2,0,L|115:289,1,71.2500027179719,10|2,2:1|2:1,0:0:0:0:
239,205,100406,6,0,P|282:204|322:220,1,71.2500027179719,8|2,0:1|2:1,0:0:0:0:
448,252,100724,2,0,P|413:261|378:259,1,71.2500027179719,8|2,0:1|2:1,0:0:0:0:
331,128,101041,1,0,0:1:0:0:
407,177,101200,1,10,2:1:0:0:
362,46,101359,2,0,P|316:39|280:52,1,71.2500027179719,0|0,2:1|2:1,0:0:0:0:
87,156,101676,5,2,2:1:0:0:
358,255,102152,1,2,2:1:0:0:
304,316,102311,2,0,L|215:314,1,71.2500027179719
174,246,102628,1,2,2:1:0:0:
254,200,102787,1,0,0:0:0:0:
81,133,102946,5,4,0:0:0:0:
57,189,103051,1,0,0:0:0:0:
61,249,103157,1,0,0:0:0:0:
92,300,103263,5,2,0:0:0:0:
134,276,103369,1,0,0:0:0:0:
181,272,103474,1,0,0:0:0:0:
222,296,103580,5,2,0:1:0:0:
254,312,103686,1,0,0:0:0:0:
292,310,103792,1,0,0:0:0:0:
317,300,103898,6,0,L|391:293,1,47.5000018119813,2|0,2:2|0:0,0:0:0:0:
470,303,104110,5,0,0:0:0:0:
470,303,104216,2,0,L|483:209,1,95.0000036239625,14|0,0:1|0:0,0:0:0:0:
402,201,104533,2,0,L|392:107,1,95.0000036239625,2|0,0:0|0:0,0:0:0:0:
456,48,104851,2,0,P|430:29|365:22,1,95.0000036239625,8|0,1:2|0:0,0:0:0:0:
315,87,105168,2,0,L|209:79,1,95.0000036239625,2|0,0:0|0:0,0:0:0:0:
158,29,105485,2,0,L|56:37,1,95.0000036239625,10|0,0:1|0:0,0:0:0:0:
3,97,105803,2,0,P|-1:145|24:203,1,95.0000036239625,2|0,0:0|0:0,0:0:0:0:
90,233,106120,2,0,P|105:277|100:324,1,95.0000036239625,8|0,1:2|0:0,0:0:0:0:
38,380,106438,1,2,0:0:0:0:
203,290,106650,1,0,0:0:0:0:
203,290,106755,6,0,P|257:271|353:301,1,142.500005435944,10|2,0:1|0:0,0:0:0:0:
481,195,107390,2,0,P|427:176|331:206,1,142.500005435944,8|2,1:2|0:0,0:0:0:0:
120,99,108025,6,0,B|143:133|143:133|136:212,1,95.0000036239625,10|0,0:1|0:0,0:0:0:0:
222,164,108343,2,0,B|227:111|227:111|204:77,1,95.0000036239625,2|0,0:0|0:0,0:0:0:0:
288,55,108660,2,0,B|311:89|311:89|304:168,1,95.0000036239625,8|0,1:2|0:0,0:0:0:0:
389,119,108978,5,0,3:0:0:0:
422,114,109083,1,0,3:0:0:0:
455,110,109189,1,0,3:0:0:0:
488,107,109295,1,14,0:1:0:0:
288,55,109507,5,0,0:0:0:0:
288,55,109612,2,0,P|206:36|162:40,1,95.0000036239625,2|0,0:0|0:0,0:0:0:0:
143,94,109930,2,0,L|156:169,1,47.5000018119813,8|0,1:2|0:0,0:0:0:0:
128,230,110142,5,0,0:0:0:0:
128,230,110247,2,0,P|210:211|254:215,1,95.0000036239625,0|0,0:0|0:0,0:0:0:0:
273,269,110565,2,0,L|260:344,1,47.5000018119813,6|0,3:0|0:0,0:0:0:0:
75,345,110882,5,8,2:1:0:0:
220,211,111200,1,8,1:2:0:0:
114,135,111411,5,0,0:0:0:0:
114,135,111517,2,0,L|129:243,1,95.0000036239625,2|0,0:0|0:0,0:0:0:0:
206,305,111835,2,0,L|219:210,1,95.0000036239625,10|0,0:1|0:0,0:0:0:0:
298,135,112152,2,0,L|311:229,1,95.0000036239625,2|0,0:0|0:0,0:0:0:0:
383,287,112470,6,0,P|430:287|474:302,1,95.0000036239625,8|0,1:2|0:0,0:0:0:0:
331,358,112787,2,0,P|283:358|256:371,1,47.5000018119813,2|0,0:0|0:0,0:0:0:0:
187,375,112999,6,0,P|197:304|156:202,1,142.500005435944,4|0,0:0|0:0,0:0:0:0:
101,195,113422,2,0,L|105:96,1,95.0000036239625,0|0,0:0|0:0,0:0:0:0:
164,38,113739,2,0,P|227:22|287:30,1,95.0000036239625,0|0,0:0|0:0,0:0:0:0:
322,85,114057,2,0,L|326:184,1,95.0000036239625,8|0,0:0|0:0,0:0:0:0:
389,244,114374,5,14,1:1:0:0:
233,121,114533,1,8,0:3:0:0:
409,55,114692,1,0,0:0:0:0:
409,55,114771,1,2,0:0:0:0:
409,55,114851,2,0,L|412:155,1,71.2500027179719,2|0,0:0|0:0,0:0:0:0:
315,315,115168,5,2,0:0:0:0:
471,192,115327,1,0,0:0:0:0:
295,126,115486,1,2,0:1:0:0:
283,104,115565,1,2,0:1:0:0:
271,82,115644,1,8,0:2:0:0:
227,198,115803,1,0,0:0:0:0:
215,176,115882,1,0,0:0:0:0:
203,154,115961,1,8,0:2:0:0:
166,266,116120,1,8,0:2:0:0:
258,314,116279,1,8,0:1:0:0:
365,288,116438,1,8,0:1:0:0:
365,288,116517,1,0,0:0:0:0:
365,288,116597,1,10,2:2:0:0:
401,184,116755,1,10,2:2:0:0:
271,82,116914,6,0,L|320:188,1,95,14|0,0:1|0:0,0:0:0:0:
465,266,117232,1,0,0:0:0:0:
505,163,117390,1,10,0:2:0:0:
442,95,117549,1,8,0:1:0:0:
317,192,117708,1,2,0:0:0:0:
353,109,117866,1,10,0:0:0:0:
374,281,118025,6,0,P|316:254|209:267,1,142.5,2|0,0:0|0:0,0:0:0:0:
176,306,118343,5,2,0:1:0:0:
433,189,118501,1,2,0:1:0:0:
441,207,118820,5,2,0:1:0:0:
129,145,118978,1,2,0:1:0:0:
112,168,119295,5,2,0:1:0:0:
411,56,119454,1,2,0:1:0:0:
419,73,119771,5,2,0:1:0:0:
89,24,119930,1,2,0:1:0:0:
185,81,120089,1,12,0:2:0:0:
36,160,120247,1,0,0:0:0:0:
223,252,120406,1,8,0:2:0:0:
12,324,120565,1,0,0:0:0:0:
176,172,120724,6,0,B|222:165|222:165|247:148|247:148|283:193|283:193|308:178|308:178|375:171,1,213.750008153916,14|0,0:0|0:0,0:0:0:0:
444,197,121041,2,0,P|383:127|402:41,1,142.500005435944,8|2,0:2|0:0,0:0:0:0:
512,244,121359,2,0,L|486:410,1,142.500005435944,10|0,0:1|0:0,0:0:0:0:
263,350,121676,1,10,0:2:0:0:
395,301,121835,1,0,0:0:0:0:
279,115,121993,6,0,L|305:281,1,142.500005435944,10|0,0:0|0:0,0:0:0:0:
368,57,122311,1,8,0:2:0:0:
185,144,122470,1,2,0:0:0:0:
185,144,122549,1,2,0:0:0:0:
185,144,122628,1,10,0:1:0:0:
436,181,122787,1,8,0:0:0:0:
152,58,122946,1,10,0:2:0:0:
446,19,123105,1,0,0:0:0:0:
338,209,123263,6,0,B|290:238|242:215|242:215|192:238,1,142.500005435944,10|0,0:0|0:0,0:0:0:0:
85,296,123581,1,8,0:2:0:0:
311,339,123739,1,2,0:0:0:0:
311,339,123819,1,2,0:0:0:0:
311,339,123898,1,8,0:0:0:0:
36,198,124057,1,2,0:0:0:0:
289,134,124216,1,8,0:2:0:0:
113,52,124374,1,2,0:0:0:0:
113,52,124454,1,2,0:0:0:0:
113,52,124533,6,0,B|100:99|100:99|101:140|124:206,1,142.500005435944,0|0,0:0|0:0,0:0:0:0:
179,288,124771,1,2,0:0:0:0:
232,299,124850,1,10,0:2:0:0:
282,281,124929,1,2,0:0:0:0:
321,246,125009,1,2,0:2:0:0:
331,200,125088,1,2,0:2:0:0:
311,156,125168,1,10,0:0:0:0:
319,107,125247,1,2,0:0:0:0:
347,68,125326,1,2,0:0:0:0:
395,55,125406,1,2,0:0:0:0:
439,78,125485,2,0,L|424:219,1,142.500005435944,8|2,0:2|0:0,0:0:0:0:
85,224,125803,6,0,P|162:181|238:189,1,142.500005435944,14|0,0:0|0:0,0:0:0:0:
335,321,126120,1,8,0:2:0:0:
177,279,126279,1,2,0:0:0:0:
153,101,126437,1,10,0:1:0:0:
255,196,126597,1,0,0:0:0:0:
23,164,126755,1,8,0:2:0:0:
340,35,126914,6,0,L|355:192,1,142.500005435944,2|0,0:0|0:0,0:0:0:0:
319,329,127232,1,2,0:0:0:0:
319,329,127311,1,2,0:0:0:0:
319,329,127390,1,10,0:2:0:0:
430,268,127549,1,0,0:0:0:0:
255,196,127708,1,10,0:1:0:0:
483,169,127866,1,0,0:0:0:0:
239,281,128025,1,10,0:2:0:0:
206,61,128184,1,0,0:0:0:0:
387,163,128343,5,14,0:0:0:0:
399,196,128422,1,2,0:0:0:0:
402,231,128501,1,2,0:0:0:0:
394,266,128581,1,2,0:0:0:0:
377,297,128660,2,0,B|278:272|278:272|227:283,1,142.500005435944,8|2,0:2|0:0,0:0:0:0:
115,298,128898,1,2,0:0:0:0:
89,273,128977,1,2,0:0:0:0:
75,240,129056,1,2,0:0:0:0:
74,205,129136,1,10,0:1:0:0:
87,172,129216,1,2,0:0:0:0:
112,147,129295,1,10,0:2:0:0:
126,114,129374,1,2,0:0:0:0:
127,79,129454,1,2,0:0:0:0:
114,46,129533,1,2,0:0:0:0:
83,23,129612,5,14,0:0:0:0:
32,47,129692,1,2,0:0:0:0:
0,94,129770,1,2,0:0:0:0:
0,150,129850,1,2,0:0:0:0:
20,200,129929,1,10,0:2:0:0:
67,232,130008,1,2,0:0:0:0:
123,237,130088,1,2,0:0:0:0:
174,212,130167,1,2,0:0:0:0:
210,172,130247,1,10,0:1:0:0:
256,145,130326,1,2,0:0:0:0:
307,156,130406,2,0,L|326:236,1,71.2500027179719,8|8,0:1|0:1,0:0:0:0:
388,339,130565,2,0,L|404:269,1,71.2500027179719,10|0,0:2|0:0,0:0:0:0:
472,141,130724,2,0,L|491:221,1,71.2500027179719,10|0,0:2|0:0,0:0:0:0:
275,358,130882,6,0,B|223:366|194:340|194:340|144:374|144:374|123:330|160:252,1,213.750008153916,14|0,0:0|0:0,0:0:0:0:
196,204,131200,2,0,P|208:273|193:343,1,142.500005435944,8|2,0:2|0:0,0:0:0:0:
11,175,131517,1,10,0:0:0:0:
144,77,131676,1,0,0:0:0:0:
306,100,131835,1,10,0:2:0:0:
403,223,131993,1,0,0:0:0:0:
98,200,132152,6,0,P|196:160|260:155,1,142.500005435944,10|0,0:0|0:0,0:0:0:0:
454,298,132470,2,0,P|356:258|292:253,1,142.500005435944,8|2,0:2|0:0,0:0:0:0:
81,358,132787,1,10,0:1:0:0:
232,351,132946,1,0,0:0:0:0:
320,253,133105,1,10,0:2:0:0:
292,119,133263,1,0,0:0:0:0:
101,201,133422,6,0,B|145:216|145:216|256:199,1,142.500005435944,14|0,0:0|0:0,0:0:0:0:
424,72,133739,5,8,0:2:0:0:
269,33,133898,1,2,0:0:0:0:
401,254,134057,1,0,0:0:0:0:
464,202,134216,1,0,0:0:0:0:
251,167,134374,5,10,0:2:0:0:
351,338,134533,1,2,0:0:0:0:
385,167,134692,1,10,0:1:0:0:
322,109,134851,1,8,0:1:0:0:
155,253,135009,5,10,0:2:0:0:
315,230,135168,1,8,0:2:0:0:
74,104,135327,2,0,B|40:211|84:336|84:336,1,213.750008153916,10|0,0:1|0:0,0:0:0:0:
146,369,135644,2,0,L|229:355,1,71.2500027179719,8|0,0:2|0:0,0:0:0:0:
346,294,135803,2,0,L|263:280,1,71.2500027179719,0|0,0:0|0:0,0:0:0:0:
415,380,135962,5,10,0:0:0:0:
438,336,136041,1,2,0:0:0:0:
443,286,136120,1,2,0:0:0:0:
430,239,136200,1,2,0:0:0:0:
403,202,136279,1,10,0:2:0:0:
390,155,136359,1,2,0:0:0:0:
395,105,136438,1,2,0:0:0:0:
418,61,136517,1,2,0:0:0:0:
459,38,136597,1,10,0:1:0:0:
420,19,136676,1,2,0:0:0:0:
378,11,136755,1,10,0:1:0:0:
336,12,136835,1,2,0:0:0:0:
301,42,136914,6,0,L|289:135,1,71.2500027179719,10|0,0:2|0:0,0:0:0:0:
245,327,137073,2,0,L|231:257,1,71.2500027179719,2|0,0:0|0:0,0:0:0:0:
36,100,137232,5,10,0:1:0:0:
29,157,137311,1,2,0:0:0:0:
48,209,137390,1,2,0:0:0:0:
90,248,137470,1,2,0:0:0:0:
141,266,137549,1,10,0:2:0:0:
188,237,137628,1,2,0:0:0:0:
236,218,137707,1,2,0:0:0:0:
288,224,137787,1,2,0:0:0:0:
329,252,137866,1,10,0:1:0:0:
368,291,137945,1,10,0:2:0:0:
421,301,138024,1,2,0:0:0:0:
474,286,138104,1,10,0:1:0:0:
502,246,138184,6,0,L|512:175,1,71.2500027179719,10|0,0:2|0:0,0:0:0:0:
382,52,138343,2,0,L|392:122,1,71.2500027179719,10|0,0:0|0:0,0:0:0:0:
245,327,138501,5,2,0:0:0:0:
170,81,138660,1,2,0:0:0:0:
154,69,138977,5,2,0:0:0:0:
416,183,139136,1,2,0:0:0:0:
285,205,139295,1,0,0:0:0:0:
451,92,139454,5,2,0:0:0:0:
411,320,139612,1,2,0:0:0:0:
424,340,139930,5,2,0:0:0:0:
226,302,140089,1,2,0:0:0:0:
337,249,140247,1,0,0:0:0:0:
162,220,140406,1,10,1:1:0:0:
264,120,140565,2,0,B|269:159|269:159|261:207,1,71.2500027179719,0|0,1:0|1:0,0:0:0:0:
157,361,140724,2,0,P|233:319|363:375,1,213.750008153916,10|0,0:2|0:0,0:0:0:0:
414,304,141041,6,0,P|347:254|297:234,1,95,14|0,0:0|0:0,0:0:0:0:
468,371,141359,2,0,P|455:288|434:238,1,95,8|0,0:2|0:0,0:0:0:0:
237,144,141676,2,0,P|249:226|270:276,1,95,8|2,0:0|0:0,0:0:0:0:
246,58,141994,2,0,P|196:125|176:174,1,95,10|0,0:2|0:0,0:0:0:0:
492,102,142311,5,10,0:1:0:0:
401,55,142470,1,0,0:0:0:0:
322,191,142628,1,8,0:2:0:0:
413,144,142787,1,2,0:0:0:0:
224,160,142946,1,8,0:0:0:0:
69,75,143105,1,2,0:0:0:0:
69,75,143184,1,2,0:0:0:0:
69,75,143263,2,0,P|93:137|103:208,1,95,10|0,0:2|0:0,0:0:0:0:
158,345,143581,6,0,P|169:298|187:255,1,95,14|0,0:0|0:0,0:0:0:0:
290,87,143898,1,8,0:2:0:0:
462,148,144057,1,0,0:0:0:0:
474,176,144136,1,2,0:0:0:0:
483,203,144216,1,10,0:1:0:0:
367,381,144374,1,0,0:0:0:0:
379,353,144454,1,2,0:0:0:0:
388,326,144533,1,8,0:2:0:0:
238,209,144692,1,0,0:0:0:0:
250,237,144771,1,2,0:0:0:0:
258,264,144851,6,0,L|223:362,1,95,10|0,0:0|0:0,0:0:0:0:
163,273,145089,1,2,0:0:0:0:
163,273,145168,2,0,L|131:183,1,95,8|2,0:2|0:0,0:0:0:0:
70,261,145406,1,2,0:0:0:0:
70,261,145485,2,0,L|38:350,1,95,10|0,0:1|0:0,0:0:0:0:
289,353,145803,2,0,L|257:263,1,95,10|0,0:2|0:0,0:0:0:0:
177,88,146120,5,14,0:0:0:0:
142,61,146199,1,2,0:0:0:0:
97,79,146278,1,2,0:0:0:0:
77,116,146358,1,2,0:0:0:0:
89,161,146437,1,10,0:2:0:0:
119,185,146517,1,2,0:0:0:0:
171,193,146596,1,2,0:0:0:0:
217,185,146675,1,2,0:0:0:0:
254,155,146755,1,10,0:1:0:0:
301,144,146834,1,2,0:0:0:0:
347,152,146913,1,2,0:0:0:0:
384,182,146993,1,2,0:0:0:0:
403,226,147073,2,0,L|391:349,1,95,8|0,0:2|0:0,0:0:0:0:
107,337,147390,5,10,0:0:0:0:
90,296,147469,1,2,0:0:0:0:
89,255,147548,1,2,0:0:0:0:
101,216,147628,1,2,0:0:0:0:
127,184,147708,1,10,0:2:0:0:
161,154,147787,1,2,0:0:0:0:
182,120,147866,1,2,0:0:0:0:
180,79,147946,1,2,0:0:0:0:
154,40,148025,1,2,0:0:0:0:
110,25,148104,1,2,0:0:0:0:
65,38,148184,1,2,0:0:0:0:
35,74,148263,1,2,0:0:0:0:
30,120,148343,2,0,L|44:174,1,47.5,10|0,0:2|0:0,0:0:0:0:
49,271,148501,2,0,L|95:299,1,47.5,0|0,0:0|0:0,0:0:0:0:
168,364,148660,6,0,B|262:338|262:338|309:309,1,142.5,14|8,0:0|0:1,0:0:0:0:
387,207,148977,1,10,0:2:0:0:
428,218,149056,1,2,0:0:0:0:
465,242,149136,1,2,0:0:0:0:
493,275,149215,1,2,0:0:0:0:
512,317,149295,6,0,B|502:212|502:212|471:162,1,142.5,10|0,0:1|0:0,0:0:0:0:
382,111,149612,1,10,0:2:0:0:
339,111,149691,1,2,0:0:0:0:
297,125,149771,1,10,0:0:0:0:
261,150,149850,1,2,0:0:0:0:
232,184,149930,6,0,L|243:51,1,95,0|8,0:0|0:1,0:0:0:0:
159,36,150168,1,2,0:0:0:0:
159,36,150247,2,0,L|150:130,1,95,8|2,0:2|0:0,0:0:0:0:
61,163,150485,1,2,0:0:0:0:
61,163,150565,2,0,L|69:68,1,95,10|0,0:1|0:0,0:0:0:0:
231,183,150882,5,10,0:2:0:0:
227,230,150961,1,2,0:0:0:0:
223,278,151040,1,2,0:0:0:0:
218,325,151120,1,2,0:0:0:0:
214,371,151200,6,0,L|129:357,1,47.5,14|0,0:0|0:0,0:0:0:0:
92,276,151359,2,0,L|138:283,1,47.5,0|0,0:0|0:0,0:0:0:0:
269,285,151517,6,0,L|184:271,1,47.5,10|0,0:2|0:0,0:0:0:0:
147,190,151676,2,0,L|193:197,1,47.5,0|0,0:0|0:0,0:0:0:0:
324,199,151834,6,0,L|239:185,1,47.5,10|0,0:0|0:0,0:0:0:0:
202,104,151993,2,0,L|248:111,1,47.5,0|0,0:0|0:0,0:0:0:0:
379,113,152152,6,0,L|294:99,1,47.5,10|0,0:2|0:0,0:0:0:0:
257,18,152311,2,0,L|303:25,1,47.5,0|0,0:0|0:0,0:0:0:0:
464,208,152470,6,0,B|382:191|382:191|316:200,1,142.5,10|0,0:0|0:0,0:0:0:0:
275,291,152787,2,0,L|402:273,1,95,10|0,0:2|0:0,0:0:0:0:
158,119,153105,2,0,B|138:163|146:201|146:201|179:232|188:286,1,142.5,10|0,0:0|0:0,0:0:0:0:
86,278,153422,1,10,0:2:0:0:
242,163,153581,1,0,0:0:0:0:
61,37,153739,6,0,B|45:77|45:77|60:151,1,95,14|8,0:0|0:1,0:0:0:0:
177,249,154057,1,10,0:2:0:0:
248,64,154216,1,0,0:0:0:0:
327,304,154374,2,0,B|343:264|343:264|328:190,1,95,10|0,0:0|0:0,0:0:0:0:
95,208,154692,2,0,B|84:258|84:258|100:298,1,95,10|0,0:2|0:0,0:0:0:0:
377,137,155009,6,0,B|326:126|326:126|286:142,1,95,10|0,0:1|0:0,0:0:0:0:
50,370,155327,2,0,B|90:386|90:386|164:371,1,95,8|0,0:2|0:0,0:0:0:0:
332,213,155644,1,10,0:1:0:0:
100,298,155803,1,2,0:0:0:0:
268,104,155962,1,10,0:2:0:0:
259,324,156120,1,10,0:2:0:0:
9,139,156279,5,14,0:1:0:0:
51,118,156358,1,2,0:0:0:0:
98,114,156437,1,2,0:0:0:0:
144,126,156517,1,2,0:0:0:0:
183,152,156596,1,10,0:2:0:0:
225,172,156676,1,2,0:0:0:0:
272,176,156755,1,2,0:0:0:0:
318,164,156835,1,2,0:0:0:0:
357,138,156914,1,10,0:1:0:0:
388,103,156993,1,2,0:0:0:0:
388,56,157072,1,2,0:0:0:0:
357,21,157152,1,2,0:0:0:0:
311,16,157232,2,0,L|235:25,1,47.5,10|0,0:2|0:0,0:0:0:0:
138,90,157390,2,0,L|214:99,1,47.5,10|0,0:2|0:0,0:0:0:0:
272,176,157549,5,14,0:0:0:0:
310,226,157628,1,2,0:0:0:0:
321,278,157707,1,2,0:0:0:0:
299,333,157786,1,2,0:0:0:0:
264,368,157866,1,10,0:2:0:0:
220,384,157945,1,2,0:0:0:0:
173,383,158024,1,2,0:0:0:0:
134,358,158104,1,2,0:0:0:0:
113,315,158183,1,10,0:0:0:0:
117,269,158262,1,2,0:0:0:0:
144,231,158342,1,2,0:0:0:0:
184,204,158421,1,2,0:0:0:0:
225,202,158501,2,0,L|242:255,1,47.5,8|0,0:2|0:0,0:0:0:0:
391,311,158660,2,0,L|403:245,1,47.5,10|0,0:2|0:0,0:0:0:0:
418,107,158819,5,10,0:0:0:0:
111,138,158978,1,0,0:0:0:0:
104,151,159295,5,10,0:1:0:0:
343,52,159454,1,8,0:1:0:0:
354,37,159771,5,10,0:1:0:0:
249,273,159930,1,8,0:1:0:0:
238,292,160247,5,10,0:1:0:0:
155,71,160406,1,8,0:2:0:0:
143,53,160724,5,10,0:2:0:0:
371,130,160882,2,0,L|434:122,1,47.5,8|8,0:0|0:0,0:0:0:0:
317,215,161041,1,2,0:1:0:0:
276,211,161120,1,0,0:0:0:0:
235,208,161199,1,0,0:0:0:0:
194,205,161279,1,0,0:0:0:0:
154,201,161358,1,4,0:2:0:0:
185,231,166120,6,0,L|158:237,4,23.75,10|0|0|0|0,0:0|0:0|0:0|0:0|0:0,0:0:0:0:
249,174,166359,1,2,0:0:0:0:
249,174,166438,2,0,L|308:178,1,47.5,10|0,0:0|0:0,0:0:0:0:
299,254,166597,2,0,L|346:257,1,47.5,0|0,0:0|0:0,0:0:0:0:
349,334,166755,2,0,L|454:341,1,95,10|0,0:2|0:0,0:0:0:0:
489,273,166993,5,0,0:0:0:0:
489,273,167073,2,0,L|512:275,4,23.75,10|0|0|0|0,0:0|0:0|0:0|0:0|0:0,0:0:0:0:
418,213,167311,2,0,B|364:203|364:203|344:210|344:210|328:197|328:197|276:187,1,142.5,2|0,0:0|0:0,0:0:0:0:
102,332,167708,5,10,0:0:0:0:
146,348,167787,1,2,0:0:0:0:
192,344,167866,1,0,0:0:0:0:
232,319,167946,1,0,0:0:0:0:
257,279,168025,2,0,L|271:330,1,47.5,10|8,0:0|0:2,0:0:0:0:
165,252,168184,2,0,L|178:201,1,47.5,0|0,0:0|0:0,0:0:0:0:
265,148,168343,2,0,L|249:47,1,95,10|0,0:0|0:0,0:0:0:0:
112,135,168660,2,0,L|201:123,1,47.5,10|0,0:2|0:0,0:0:0:0:
88,58,168819,2,0,L|40:64,1,47.5,0|0,0:0|0:0,0:0:0:0:
60,231,168978,5,10,0:0:0:0:
60,231,169057,1,0,0:0:0:0:
60,231,169136,2,0,L|141:218,1,47.5,8|8,0:0|0:0,0:0:0:0:
173,278,169295,2,0,L|254:265,1,47.5,2|0,0:0|0:0,0:0:0:0:
310,208,169454,1,0,0:0:0:0:
310,208,169533,1,0,0:0:0:0:
310,208,169612,2,0,L|225:193,1,47.5,10|0,0:1|0:0,0:0:0:0:
197,111,169771,1,8,0:0:0:0:
372,71,169930,1,8,1:2:0:0:
268,4,170089,1,4,0:2:0:0:
273,28,170168,1,0,0:0:0:0:
278,59,170247,1,0,0:0:0:0:
73,229,172311,6,0,P|87:79|181:223,1,427.5,0|0,0:0|0:0,0:0:0:0:
131,164,173105,1,0,0:0:0:0:
131,164,173184,1,0,0:0:0:0:
131,164,173263,2,0,L|192:152,1,35.625001358986,8|0,0:0|0:0,0:0:0:0:
232,98,173422,1,0,0:0:0:0:
383,151,173581,1,0,0:0:0:0:
218,229,173739,1,0,0:0:0:0:
420,315,173898,1,0,0:0:0:0:
104,316,174057,6,0,B|181:307|181:307|196:323|224:333|224:333|250:320|267:297|267:297|368:287,1,256.499992172241,14|0,0:0|0:0,0:0:0:0:
446,193,174374,2,0,B|320:206|320:206|282:182,1,170.999994781494,8|2,0:2|0:0,0:0:0:0:
151,55,174692,1,10,0:1:0:0:
341,0,174851,1,0,0:0:0:0:
481,89,175009,1,10,0:2:0:0:
457,261,175168,1,0,0:0:0:0:
157,200,175327,6,0,L|334:186,1,170.999994781494,10|0,0:0|0:0,0:0:0:0:
93,300,175644,2,0,P|47:208|70:117,1,170.999994781494,0|2,0:0|0:0,0:0:0:0:
302,94,175962,1,10,0:1:0:0:
274,306,176120,1,8,0:1:0:0:
104,12,176279,1,10,0:2:0:0:
157,200,176438,1,0,0:0:0:0:
395,61,176597,6,0,P|329:3|234:17,1,170.999994781494,14|0,0:0|0:0,0:0:0:0:
43,163,176914,1,8,0:2:0:0:
281,273,177073,1,2,0:0:0:0:
323,278,177152,1,0,0:0:0:0:
366,283,177231,1,8,0:1:0:0:
282,110,177390,1,2,0:0:0:0:
240,115,177469,1,0,0:0:0:0:
197,120,177548,1,8,0:2:0:0:
73,296,177708,1,2,0:0:0:0:
251,340,177866,5,10,0:1:0:0:
76,136,178025,1,0,0:0:0:0:
76,136,178105,1,0,0:0:0:0:
76,136,178184,1,8,0:2:0:0:
350,213,178343,1,2,0:0:0:0:
249,10,178501,1,10,0:1:0:0:
218,39,178580,1,2,0:0:0:0:
200,78,178659,1,2,0:0:0:0:
197,120,178739,1,2,0:0:0:0:
210,161,178819,1,10,0:2:0:0:
240,190,178898,1,2,0:0:0:0:
258,229,178977,1,2,0:0:0:0:
261,271,179057,1,2,0:0:0:0:
247,311,179136,6,0,B|75:298|75:298|123:295|176:246,1,256.499992172241,14|0,0:0|0:0,0:0:0:0:
75,200,179454,2,0,P|-8:247|-11:356,1,170.999994781494,8|2,0:2|0:0,0:0:0:0:
247,311,179771,1,10,0:1:0:0:
241,176,179930,1,8,0:1:0:0:
164,96,180089,1,10,0:2:0:0:
23,107,180247,1,2,0:0:0:0:
151,266,180406,6,0,L|337:244,1,170.999994781494,8|2,0:0|0:0,0:0:0:0:
500,113,180724,1,8,0:2:0:0:
265,45,180882,1,0,0:0:0:0:
387,304,181041,1,10,0:1:0:0:
472,219,181200,1,0,0:0:0:0:
193,145,181359,1,10,0:2:0:0:
251,368,181517,1,0,0:0:0:0:
363,163,181676,6,0,L|178:143,1,170.999994781494,14|0,0:0|0:0,0:0:0:0:
18,306,181993,1,8,0:2:0:0:
266,263,182152,1,2,0:0:0:0:
266,263,182232,1,0,0:0:0:0:
266,263,182311,1,10,0:1:0:0:
11,189,182470,1,0,0:0:0:0:
11,189,182549,1,2,0:0:0:0:
11,189,182628,1,10,0:2:0:0:
242,47,182787,1,2,0:1:0:0:
170,150,182946,6,0,L|182:205,3,56.9999982604981,14|0|0|0,0:0|0:0|0:0|0:0,0:0:0:0:
252,280,183263,1,10,0:2:0:0:
228,327,183342,1,2,0:0:0:0:
188,358,183422,1,2,0:0:0:0:
139,372,183501,1,2,0:0:0:0:
91,364,183580,1,10,0:1:0:0:
48,339,183660,1,2,0:0:0:0:
14,302,183739,1,10,0:1:0:0:
0,253,183818,1,10,0:1:0:0:
7,209,183898,1,10,0:2:0:0:
34,163,183977,1,2,0:0:0:0:
67,127,184056,1,10,0:2:0:0:
80,78,184136,1,2,0:0:0:0:
65,28,184216,6,0,L|247:19,1,170.999994781494,14|0,0:0|0:0,0:0:0:0:
454,106,184533,1,8,0:2:0:0:
187,241,184692,1,2,0:0:0:0:
187,241,184771,1,0,0:0:0:0:
187,241,184851,1,10,0:1:0:0:
330,52,185009,1,0,0:0:0:0:
386,292,185168,1,10,0:2:0:0:
221,150,185326,1,0,0:0:0:0:
467,213,185485,6,0,B|380:196|380:196|296:221,1,170.999994781494,10|0,0:0|0:0,0:0:0:0:
82,350,185803,2,0,B|171:336|171:336|252:358,1,170.999994781494,8|0,0:2|0:0,0:0:0:0:
0,285,186120,1,10,0:0:0:0:
23,175,186279,1,8,0:1:0:0:
121,118,186438,1,10,0:2:0:0:
242,146,186597,1,0,0:2:0:0:
116,384,186755,6,0,B|94:335|94:335|123:181,1,170.999994781494,14|0,0:0|0:0,0:0:0:0:
194,49,187073,1,8,0:2:0:0:
375,334,187232,2,0,B|397:285|397:285|368:131,1,170.999994781494,2|0,0:0|0:0,0:0:0:0:
313,0,187549,1,0,0:0:0:0:
179,250,187708,1,10,0:2:0:0:
83,112,187866,1,2,0:0:0:0:
301,231,188025,5,10,0:1:0:0:
267,313,188184,1,8,0:1:0:0:
209,125,188343,1,10,0:2:0:0:
388,167,188501,1,10,0:2:0:0:
166,350,188660,2,0,P|137:261|159:126,1,185.249991519928,10|0,0:1|0:0,0:0:0:0:
209,125,188978,2,0,L|56:111,1,123.499994346619,8|0,0:2|0:0,0:0:0:0:
260,24,189295,5,14,0:1:0:0:
290,53,189374,1,2,0:0:0:0:
309,91,189453,1,2,0:0:0:0:
313,133,189533,1,2,0:0:0:0:
301,174,189612,1,10,0:2:0:0:
289,214,189692,1,2,0:0:0:0:
293,257,189771,1,2,0:0:0:0:
311,295,189851,1,2,0:0:0:0:
342,324,189930,1,10,0:1:0:0:
393,331,190009,1,2,0:0:0:0:
438,309,190088,1,2,0:0:0:0:
465,267,190168,1,2,0:0:0:0:
466,216,190247,6,0,L|394:221,1,61.7499971733095,10|0,0:2|0:0,0:0:0:0:
145,111,190406,2,0,L|206:115,1,61.7499971733095,0|0,0:0|0:0,0:0:0:0:
191,357,190565,5,10,0:1:0:0:
139,380,190644,1,2,0:0:0:0:
86,372,190723,1,2,0:0:0:0:
42,339,190803,1,2,0:0:0:0:
23,288,190882,1,10,0:2:0:0:
35,234,190961,1,2,0:0:0:0:
73,194,191041,1,2,0:0:0:0:
127,184,191120,1,2,0:0:0:0:
177,186,191200,1,10,0:0:0:0:
222,212,191279,1,2,0:0:0:0:
275,213,191358,1,2,0:0:0:0:
325,194,191438,1,2,0:0:0:0:
367,162,191517,6,0,L|357:81,1,61.7499971733095,10|0,0:2|0:0,0:0:0:0:
79,6,191676,2,0,L|70:83,1,61.7499971733095,0|0,0:0|0:0,0:0:0:0:
126,292,191835,5,2,0:0:0:0:
462,229,191993,1,0,0:0:0:0:
477,249,192311,5,2,0:0:0:0:
161,142,192470,1,2,0:0:0:0:
144,161,192787,5,2,0:0:0:0:
418,76,192946,1,2,0:0:0:0:
429,94,193263,5,2,0:0:0:0:
260,42,193422,1,2,0:0:0:0:
252,58,193739,5,2,0:0:0:0:
377,320,193898,1,2,0:0:0:0:
379,336,194216,5,2,0:0:0:0:
80,264,194374,1,2,0:0:0:0:
66,284,194692,5,2,0:0:0:0:
307,207,194851,1,2,0:0:0:0:
315,227,195168,5,2,0:0:0:0:
146,166,195327,1,2,0:0:0:0:
138,182,195644,5,2,0:0:0:0:
490,100,195803,1,2,0:0:0:0:
499,121,196120,5,2,0:0:0:0:
221,50,196279,1,2,0:0:0:0:
211,66,196597,5,2,0:0:0:0:
405,32,196755,1,2,0:0:0:0:
420,50,197073,5,0,0:0:0:0:
314,0,197232,2,0,P|305:40|320:120,1,95,0|0,0:0|0:0,0:0:0:0:
376,194,197549,1,0,0:0:0:0:
214,289,197708,1,2,0:1:0:0:
444,349,197866,1,2,0:1:0:0:
319,31,198184,6,0,P|300:89|321:155,1,95,14|0,0:0|0:0,0:0:0:0:
214,289,198501,2,0,P|216:241|199:198,1,95,8|2,0:2|0:0,0:0:0:0:
378,67,198819,2,0,P|323:94|291:156,1,95,8|2,0:0|0:0,0:0:0:0:
145,272,199136,2,0,P|180:240|198:197,1,95,8|2,0:2|0:0,0:0:0:0:
171,0,199454,5,0,0:0:0:0:
96,39,199612,1,0,0:0:0:0:
74,115,199771,1,10,0:2:0:0:
108,185,199930,1,2,0:0:0:0:
270,115,200089,2,0,L|158:99,1,95,0|8,0:0|0:1,0:0:0:0:
243,28,200327,1,8,0:1:0:0:
243,28,200406,2,0,L|337:41,1,95,10|0,0:2|0:0,0:0:0:0:
468,157,200724,5,10,0:0:0:0:
275,198,200882,1,0,0:0:0:0:
374,326,201041,2,0,P|385:254|368:197,1,95,8|2,0:2|0:0,0:0:0:0:
305,101,201359,1,8,0:1:0:0:
194,259,201517,1,2,0:0:0:0:
381,232,201676,1,8,0:2:0:0:
188,142,201835,1,2,0:0:0:0:
104,292,201993,6,0,L|236:243,1,95,10|0,0:0|0:0,0:0:0:0:
394,134,202311,2,0,L|262:85,1,95,10|0,0:2|0:0,0:0:0:0:
153,345,202628,2,0,L|211:217,1,95,10|8,0:0|0:1,0:0:0:0:
391,61,202946,2,0,L|263:119,1,95,8|0,0:2|0:0,0:0:0:0:
414,348,203263,6,0,P|438:287|386:181,1,190,6|8,0:0|0:2,0:0:0:0:
205,179,203739,1,2,0:0:0:0:
334,278,203898,1,8,0:0:0:0:
114,309,204057,1,0,0:0:0:0:
193,265,204216,1,8,0:2:0:0:
327,367,204374,1,0,0:0:0:0:
407,217,204533,6,0,P|346:186|292:193,1,95,10|0,0:1|0:0,0:0:0:0:
135,122,204851,2,0,P|196:91|250:98,1,95,8|2,0:2|0:0,0:0:0:0:
249,270,205168,1,10,0:1:0:0:
209,186,205327,1,0,0:0:0:0:
40,120,205485,1,10,0:2:0:0:
0,36,205644,1,0,0:0:0:0:
132,220,205803,6,0,L|-2:208,1,95,10|0,0:0|0:0,0:0:0:0:
273,129,206120,2,0,L|407:117,1,95,8|0,0:2|0:0,0:0:0:0:
202,0,206438,1,10,0:1:0:0:
196,42,206517,1,2,0:0:0:0:
192,85,206597,1,2,0:2:0:0:
312,249,206755,5,8,0:2:0:0:
59,312,206914,1,4,1:2:0:0:
61,156,207073,2,0,P|102:159|158:190,1,95,0|0,0:0|0:0,0:0:0:0:
276,328,207390,1,0,0:0:0:0:
378,102,207549,2,0,P|398:150|401:209,1,85.4999973907472,0|0,0:0|0:0,0:0:0:0:
393,265,207866,5,0,0:0:0:0:
