osu file format v14

[General]
AudioFilename: Higurashi Moratorium.mp3
AudioLeadIn: 0
PreviewTime: 173188
Countdown: 0
SampleSet: Normal
StackLeniency: 0.5
Mode: 0
LetterboxInBreaks: 0
WidescreenStoryboard: 1

[Editor]
DistanceSpacing: 0.4
BeatDivisor: 4
GridSize: 32
TimelineZoom: 2.399999

[Metadata]
Title:Higurashi Moratorium
TitleUnicode:茅蜩モラトリアム
Artist:Amatsuki
ArtistUnicode:天月
Creator:Nevo
Version:Lasse's Insane
Source:
Tags:TOTAL OBJECTION Vocaloid Megpoid GUMI xchorse yukiyo lasse airincat
BeatmapID:1950095
BeatmapSetID:931886

[Difficulty]
HPDrainRate:6
CircleSize:4
OverallDifficulty:8
ApproachRate:9
SliderMultiplier:1.6
SliderTickRate:1

[Events]
//Background and Video events
0,0,"BG.jpg",0,0
Video,0,"PV.avi"
//Break Periods
2,84098,93457
2,161558,165520
//Storyboard Layer 0 (Background)
//Storyboard Layer 1 (Fail)
//Storyboard Layer 2 (Pass)
//Storyboard Layer 3 (Foreground)
//Storyboard Sound Samples

[TimingPoints]
3867,638.297872340426,4,2,86,40,1,0
3867,-100,4,2,86,40,0,0
25486,317.460317460317,4,2,86,50,1,0
25486,-111.111111111111,4,2,86,50,0,0
26438,-142.857142857143,4,2,86,50,0,0
26676,-142.857142857143,4,2,1,5,0,0
26755,-100,4,1,85,65,0,0
35485,-100,4,1,86,50,0,0
36914,-125,4,2,85,50,0,0
47073,-111.111111111111,4,2,85,60,0,0
57232,-111.111111111111,4,2,86,55,0,0
58739,-111.111111111111,4,2,86,20,0,0
58819,-111.111111111111,4,2,86,55,0,0
59454,-111.111111111111,4,2,85,60,0,0
59771,-100,4,2,85,65,0,0
61200,-100,4,1,0,65,0,0
62946,-166.666666666667,4,2,86,50,0,0
63184,-166.666666666667,4,2,1,5,0,0
63263,-125,4,2,86,55,0,0
63501,-125,4,2,1,5,0,0
63581,-83.3333333333333,4,1,85,70,0,1
81359,-83.3333333333333,4,1,0,70,0,1
83263,-83.3333333333333,4,2,86,60,0,1
83581,-166.666666666667,4,1,86,70,0,1
83898,-100,4,2,85,60,0,0
94057,-125,4,2,85,50,0,0
101676,-166.666666666667,4,2,85,50,0,0
101835,-166.666666666667,4,2,85,5,0,0
102152,-166.666666666667,4,2,85,50,0,0
102232,-166.666666666667,4,2,85,5,0,0
102628,-166.666666666667,4,2,85,50,0,0
102946,-142.857142857143,4,2,86,50,0,0
103263,-153.846153846154,4,2,86,50,0,0
103581,-166.666666666667,4,2,86,50,0,0
103898,-181.818181818182,4,2,86,50,0,0
104216,-153.846153846154,4,2,86,50,0,0
112999,-181.818181818182,4,2,86,40,0,0
113316,-181.818181818182,4,2,86,30,0,0
114057,-181.818181818182,4,2,86,40,0,0
114374,-111.111111111111,4,2,86,55,0,0
115882,-111.111111111111,4,2,86,20,0,0
115962,-111.111111111111,4,2,86,55,0,0
116597,-111.111111111111,4,2,85,60,0,0
116914,-100,4,2,85,65,0,0
118343,-100,4,1,0,65,0,0
120089,-166.666666666667,4,2,86,50,0,0
120327,-166.666666666667,4,2,1,5,0,0
120406,-125,4,2,86,55,0,0
120644,-125,4,2,1,5,0,0
120724,-83.3333333333333,4,1,85,70,0,1
138501,-83.3333333333333,4,1,0,70,0,1
140406,-83.3333333333333,4,1,85,60,0,1
140724,-125,4,1,85,60,0,1
140962,-125,4,2,85,5,0,1
141041,-90.9090909090909,4,1,85,65,0,0
160882,-90.9090909090909,4,2,86,60,0,0
161041,-153.846153846154,4,2,86,55,0,0
166120,-76.9230769230769,4,1,85,45,0,0
169612,-76.9230769230769,4,2,86,45,0,0
170089,-111.111111111111,4,2,86,45,0,0
170247,-111.111111111111,4,2,1,5,0,0
171993,-71.4285714285714,4,2,85,60,0,0
172311,-71.4285714285714,4,2,85,30,0,0
172946,-71.4285714285714,4,2,85,40,0,0
173263,-133.333333333333,4,2,86,35,0,0
173382,-166.666666666667,4,2,86,40,0,0
173620,-166.666666666667,4,2,86,5,0,0
173700,-125,4,2,86,45,0,0
173978,-125,4,2,86,5,0,0
174057,-83.3333333333333,4,1,85,70,0,1
191835,-83.3333333333333,4,1,0,70,0,1
197232,-100,4,2,85,60,0,0
197708,-58.8235294117647,4,2,86,50,0,0
198184,-100,4,1,85,65,0,0

[Colours]
Combo1 : 255,77,77
Combo2 : 2,255,66
Combo3 : 15,135,255
Combo4 : 176,100,100

[HitObjects]
125,149,3787,5,0,0:0:0:0:
125,149,3867,2,0,B|224:140|184:197|271:195,1,160,10|0,0:3|0:0,0:0:0:0:
356,149,4824,1,2,0:2:0:0:
369,227,5143,2,0,B|355:142,1,80,8|0,0:3|0:0,0:0:0:0:
434,93,5781,2,0,B|448:178,1,80,0|0,0:0|0:0,0:0:0:0:
512,271,6340,5,0,0:0:0:0:
512,271,6420,2,0,B|413:262|453:319|366:317,1,160,10|0,0:3|0:0,0:0:0:0:
281,270,7377,1,2,0:2:0:0:
331,188,7696,2,0,P|345:157|336:106,1,80,8|0,0:3|0:0,0:0:0:0:
280,36,8335,2,0,P|249:22|198:31,1,80,0|0,0:0|0:0,0:0:0:0:
112,100,8973,6,0,L|100:13,2,80,10|0|0,0:3|0:0|0:0,0:0:0:0:
189,156,9930,2,0,L|201:69,2,80,2|8|0,0:2|0:3|0:0,0:0:0:0:
116,219,10888,2,0,P|80:201|37:205,1,80,2|0,0:0|0:0,0:0:0:0:
20,303,11446,5,0,0:0:0:0:
20,303,11526,2,0,P|56:321|99:317,1,80,10|0,0:3|0:0,0:0:0:0:
170,258,12164,1,2,0:2:0:0:
256,300,12484,2,0,P|295:302|330:284,1,80,2|8,0:1|0:3,0:0:0:0:
383,204,13122,2,0,L|390:109,1,80,2|2,0:2|0:1,0:0:0:0:
512,80,13920,5,0,0:0:0:0:
512,80,13999,1,0,0:0:0:0:
512,80,14079,2,0,B|454:103|406:75|406:75|398:50|373:26,1,160,10|0,0:3|0:0,0:0:0:0:
314,103,15037,2,0,L|301:189,1,80,2|8,0:0|0:3,0:0:0:0:
210,209,15675,1,2,0:0:0:0:
210,209,15994,2,0,L|221:129,1,80,2|0,0:1|0:0,0:0:0:0:
175,39,16553,5,0,0:0:0:0:
175,39,16632,2,0,P|139:19|86:29,1,80,10|0,0:3|0:0,0:0:0:0:
25,80,17271,2,0,L|14:160,1,80,2|0,0:0|0:0,0:0:0:0:
69,246,17829,5,0,0:0:0:0:
69,246,17909,2,0,B|163:238|123:300|211:301,1,160,10|2,0:3|0:0,0:0:0:0:
386,380,19186,2,0,L|391:285,1,80,10|0,0:3|0:0,0:0:0:0:
472,250,19824,1,2,0:0:0:0:
472,250,20143,2,0,L|476:170,2,80,2|8|0,0:1|0:3|0:0,0:0:0:0:
390,300,21101,2,0,B|349:295|351:315|311:307,1,80,2|0,0:1|0:0,0:0:0:0:
256,192,21739,5,4,0:0:0:0:
0,192,25486,5,2,0:1:0:0:
137,112,25962,1,2,0:0:0:0:
137,112,26041,1,2,0:0:0:0:
137,112,26120,2,0,P|99:101|70:84,1,71.9999978027344,2|0,0:1|0:0,0:0:0:0:
216,190,26438,2,0,P|176:202|143:228,1,83.9999974365235,6|0,0:0|0:0,0:0:0:0:
148,243,26755,6,0,P|213:199|292:199,1,160,14|8,0:1|0:2,0:0:0:0:
413,327,27232,2,0,L|424:381,2,40,2|0|8,0:2|0:0|0:1,0:0:0:0:
470,200,27549,2,0,P|438:220|374:232,1,80,2|8,0:0|0:2,0:0:0:0:
332,101,27866,6,0,P|290:40|204:28,1,160,2|0,0:0|0:0,0:0:0:0:
163,157,28343,1,8,0:2:0:0:
63,84,28501,2,0,L|147:72,1,80,2|8,0:2|0:2,0:0:0:0:
142,239,28819,1,10,0:1:0:0:
142,239,28898,1,8,0:1:0:0:
142,239,28978,2,0,L|63:228,1,80,8|0,0:2|0:0,0:0:0:0:
196,153,29295,6,0,B|287:143|256:207|341:203,1,160,10|8,0:1|0:2,0:0:0:0:
432,259,29771,1,2,0:0:0:0:
432,259,29851,1,2,0:0:0:0:
432,259,29930,1,8,0:0:0:0:
352,121,30089,2,0,P|377:90|413:72,1,80,2|8,0:0|0:2,0:0:0:0:
352,121,30406,1,0,0:0:0:0:
264,52,30565,6,0,P|224:25|167:19,1,80,10|0,0:0|0:0,0:0:0:0:
69,122,30882,2,0,P|109:95|166:89,1,80,10|0,0:2|0:0,0:0:0:0:
280,186,31200,1,10,0:0:0:0:
196,244,31359,1,10,0:1:0:0:
196,244,31438,1,8,0:1:0:0:
196,244,31517,2,0,L|183:160,1,80,8|0,0:2|0:0,0:0:0:0:
392,116,31835,6,0,B|371:283,1,160,14|8,0:0|0:2,0:0:0:0:
360,371,32311,1,2,0:0:0:0:
208,323,32470,2,0,L|195:239,1,80,10|0,0:1|0:0,0:0:0:0:
117,121,32787,2,0,P|82:105|45:117,1,80,10|0,0:0|0:0,0:0:0:0:
31,127,33025,1,10,0:2:0:0:
19,137,33105,6,0,P|17:62|96:34,1,160,10|8,0:0|0:2,0:0:0:0:
227,92,33581,1,2,0:0:0:0:
227,92,33660,1,2,0:0:0:0:
227,92,33739,2,0,P|239:132|239:171,1,80,8|0,0:1|0:0,0:0:0:0:
298,11,34057,2,0,P|333:30|372:39,1,80,10|0,0:2|0:0,0:0:0:0:
344,189,34374,6,0,P|370:159|404:139,1,80,10|2,0:0|0:2,0:0:0:0:
420,138,34612,1,8,0:1:0:0:
436,139,34692,2,0,P|466:162|489:193,1,80,10|0,0:2|0:0,0:0:0:0:
491,195,35009,1,10,0:1:0:0:
353,72,35168,2,0,P|310:54|262:50,1,80,2|8,0:0|0:2,0:0:0:0:
474,7,35485,5,4,1:2:0:0:
512,320,36914,6,0,L|384:320,1,128,14|0,2:1|2:1,0:0:0:0:
323,253,37390,2,0,P|344:195|320:133,1,128,2|0,2:1|2:1,0:0:0:0:
256,80,37866,1,10,2:1:0:0:
189,135,38025,2,0,P|168:193|189:253,1,128,2|0,2:1|2:1,0:0:0:0:
323,253,38660,2,0,P|344:195|320:133,1,128,2|0,2:1|2:1,0:0:0:0:
256,80,39136,1,10,2:1:0:0:
322,135,39295,1,2,2:1:0:0:
189,135,39454,6,0,B|145:123|145:123|109:136|109:136|66:126,1,128,10|8,2:1|2:1,0:0:0:0:
8,195,39930,2,0,L|24:324,1,128,2|0,2:1|2:1,0:0:0:0:
195,374,40565,2,0,L|210:246,1,128,2|0,2:1|2:1,0:0:0:0:
256,176,41041,1,10,2:1:0:0:
301,246,41200,2,0,L|317:374,1,128,2|0,2:1|2:1,0:0:0:0:
496,208,41993,6,0,P|510:123|482:81,1,128,10|8,2:1|2:1,0:0:0:0:
432,21,42470,1,2,2:1:0:0:
359,72,42628,2,0,B|310:72|310:72|285:80|285:80|232:80,1,128,10|8,2:1|2:1,0:0:0:0:
163,21,43105,1,2,2:1:0:0:
9,112,43422,1,2,2:1:0:0:
160,192,43739,1,2,2:1:0:0:
9,272,44057,6,0,P|5:230|19:199,2,64,2|8|0,2:1|2:1|2:1,0:0:0:0:
72,335,44533,2,0,L|216:335,1,128,10|8,2:1|2:1,0:0:0:0:
256,265,45009,2,0,B|264:204|244:204|255:137,1,128,2|0,2:1|2:1,0:0:0:0:
318,74,45485,1,10,2:1:0:0:
381,137,45644,2,0,B|392:204|372:204|380:265,1,128,2|0,2:1|2:1,0:0:0:0:
472,384,46279,6,0,L|472:320,1,64,2|0,2:1|2:1,0:0:0:0:
512,168,46597,5,2,2:1:0:0:
344,203,46755,5,2,2:1:0:0:
472,320,46914,5,2,2:1:0:0:
512,168,47073,6,0,P|517:133|511:98,1,71.9999978027344,14|0,0:1|0:0,0:0:0:0:
344,203,47390,2,0,P|360:235|384:261,1,71.9999978027344,10|0,0:0|0:0,0:0:0:0:
294,36,47708,1,10,0:1:0:0:
214,97,47866,1,8,0:1:0:0:
147,21,48025,1,8,0:0:0:0:
29,86,48184,6,0,B|25:136|25:136|20:145|20:145|21:158|21:158|14:245,1,143.999995605469,2|0,0:0|0:0,0:0:0:0:
169,364,48660,2,0,P|197:349|181:321,1,71.9999978027344,10|0,0:0|0:0,0:0:0:0:
71,327,48978,2,0,L|-4:333,2,71.9999978027344,10|8|8,0:1|0:1|0:0,0:0:0:0:
238,232,49454,6,0,B|282:195|345:210|345:210|319:193,1,143.999995605469,2|0,0:0|0:0,0:0:0:0:
243,94,49930,2,0,P|228:52|249:8,1,71.9999978027344,10|0,0:0|0:0,0:0:0:0:
346,210,50247,2,0,P|352:244|337:277,2,71.9999978027344,10|0|8,0:1|0:1|0:0,0:0:0:0:
243,94,50724,5,2,0:0:0:0:
356,95,50882,2,0,P|400:84|424:50,1,71.9999978027344,10|0,0:1|0:0,0:0:0:0:
136,25,51200,2,0,P|92:36|68:70,1,71.9999978027344,10|0,0:0|0:0,0:0:0:0:
0,189,51517,1,10,0:1:0:0:
88,140,51676,1,8,0:1:0:0:
169,199,51835,2,0,P|185:232|179:288,2,71.9999978027344,8|0|8,0:0|0:0|0:1,0:0:0:0:
79,58,52311,5,2,0:0:0:0:
79,58,52470,2,0,P|42:53|15:33,1,71.9999978027344,10|0,0:0|0:0,0:0:0:0:
256,16,52787,2,0,P|293:21|320:41,1,71.9999978027344,10|0,0:1|0:0,0:0:0:0:
418,184,53105,1,10,0:0:0:0:
506,86,53263,5,2,0:2:0:0:
506,86,53343,1,2,0:2:0:0:
506,86,53422,2,0,B|453:82|453:82|421:106|421:106|370:103,1,143.999995605469,10|8,0:1|0:0,0:0:0:0:
216,241,54057,6,0,P|259:231|298:231,1,71.9999978027344,10|0,0:1|0:0,0:0:0:0:
358,283,54374,1,10,0:0:0:0:
229,151,54533,2,0,P|186:141|147:141,1,71.9999978027344,2|8,0:0|0:1,0:0:0:0:
0,156,54851,5,2,0:0:0:0:
159,168,55009,2,0,P|194:162|228:150,1,71.9999978027344,10|0,0:1|0:0,0:0:0:0:
0,179,55327,5,10,0:1:0:0:
173,196,55485,2,0,P|202:174|227:150,1,71.9999978027344,2|8,0:0|0:0,0:0:0:0:
164,292,55803,5,2,0:0:0:0:
228,150,55962,2,0,P|267:125|312:114,1,71.9999978027344,10|8,0:1|0:1,0:0:0:0:
81,107,56279,2,0,P|41:82|-4:71,1,71.9999978027344,10|0,0:0|0:0,0:0:0:0:
234,53,56597,2,0,P|265:18|305:-3,1,71.9999978027344,10|8,0:1|0:1,0:0:0:0:
368,96,56914,1,10,0:0:0:0:
450,19,57073,1,8,0:0:0:0:
475,199,57232,6,0,P|442:181|407:173,1,71.9999978027344,14|8,1:1|0:3,0:0:0:0:
256,256,57549,1,0,0:0:0:0:
343,305,57708,2,0,L|350:217,1,71.9999978027344,2|0,0:0|0:0,0:0:0:0:
169,305,58025,2,0,L|162:217,1,71.9999978027344,2|0,0:0|0:0,0:0:0:0:
94,106,58343,5,2,0:1:0:0:
94,106,58422,1,2,0:1:0:0:
94,106,58501,2,0,P|57:80|1:128,1,107.999996704102,8|0,0:2|0:0,0:0:0:0:
6,106,58819,1,8,0:2:0:0:
184,71,58978,2,0,L|191:-17,2,71.9999978027344,8|8|8,0:2|0:1|0:1,0:0:0:0:
163,233,59454,5,10,2:2:0:0:
94,106,59612,1,10,2:2:0:0:
49,303,59771,6,0,B|103:293|103:293|136:319|136:319|199:311,1,160,14|0,0:1|0:0,0:0:0:0:
297,380,60247,2,0,L|310:281,1,80,10|8,0:2|0:1,0:0:0:0:
512,144,60565,5,2,0:0:0:0:
441,231,60724,1,10,0:0:0:0:
396,76,60882,1,2,0:0:0:0:
477,59,61200,5,2,0:1:0:0:
309,0,61359,1,2,0:1:0:0:
228,17,61676,5,2,0:1:0:0:
396,76,61835,1,2,0:1:0:0:
425,153,62152,5,2,0:1:0:0:
257,94,62311,1,2,0:1:0:0:
185,136,62628,5,2,0:1:0:0:
353,195,62787,1,2,0:1:0:0:
402,271,62946,6,0,P|406:306|389:337,1,71.9999978027344,12|0,0:2|0:0,0:0:0:0:
404,353,63263,6,0,P|424:311|418:264,1,96,8|0,0:2|0:0,0:0:0:0:
353,195,63581,6,0,B|317:189|287:170|287:170|245:186|245:186|206:174|160:175,1,191.999994140625,14|8,0:1|0:2,0:0:0:0:
52,200,64057,1,2,0:0:0:0:
48,78,64216,1,10,0:1:0:0:
167,54,64374,1,0,0:0:0:0:
170,174,64533,1,10,0:2:0:0:
259,256,64692,1,0,0:0:0:0:
372,149,64851,6,0,P|381:59|469:38,1,191.999994140625,10|8,0:1|0:2,0:0:0:0:
511,155,65327,1,2,0:0:0:0:
477,276,65485,1,10,0:1:0:0:
378,353,65644,1,8,0:1:0:0:
252,357,65803,1,10,0:2:0:0:
147,286,65962,1,0,0:0:0:0:
256,192,66120,6,0,P|304:112|256:32,1,191.999994140625,6|8,0:1|0:2,0:0:0:0:
15,81,66597,2,0,L|110:70,1,95.9999970703126,2|8,0:0|0:1,0:0:0:0:
256,192,66914,2,0,L|351:202,1,95.9999970703126,2|8,0:0|0:2,0:0:0:0:
512,75,67232,6,0,B|419:53|435:136|330:108,1,191.999994140625,2|0,0:0|0:0,0:0:0:0:
256,192,67708,1,10,0:2:0:0:
202,64,67866,1,2,0:1:0:0:
202,64,67946,1,2,0:1:0:0:
202,64,68025,2,0,P|166:23|7:40,1,191.999994140625,8|8,0:1|0:2,0:0:0:0:
36,16,68501,1,2,0:0:0:0:
138,118,68660,6,0,L|330:108,1,191.999994140625,14|8,0:1|0:2,0:0:0:0:
439,46,69136,1,0,0:0:0:0:
502,153,69295,1,10,0:1:0:0:
393,215,69454,1,8,0:1:0:0:
330,108,69612,1,8,0:2:0:0:
512,173,69771,6,0,P|522:243|489:307,1,143.999995605469,2|0,0:0|0:0,0:0:0:0:
459,320,70089,2,0,P|419:300|362:297,1,95.9999970703126,2|8,0:0|0:2,0:0:0:0:
256,352,70406,1,0,0:0:0:0:
144,296,70565,1,10,0:1:0:0:
256,240,70724,1,0,0:0:0:0:
368,296,70882,1,10,0:2:0:0:
256,352,71041,1,0,0:0:0:0:
256,222,71200,6,0,B|253:146|253:146|256:128|256:128|251:25,1,191.999994140625,14|8,0:1|0:2,0:0:0:0:
159,121,71676,1,2,0:0:0:0:
347,158,71835,2,0,L|452:142,1,95.9999970703126,8|8,0:1|0:1,0:0:0:0:
441,143,72073,1,8,0:1:0:0:
441,143,72152,1,10,0:2:0:0:
512,62,72311,1,10,0:2:0:0:
506,260,72470,6,0,P|433:197|346:157,1,191.999994140625,14|8,0:0|0:2,0:0:0:0:
230,112,72946,1,2,0:0:0:0:
328,34,73105,1,10,0:1:0:0:
354,164,73263,1,8,0:1:0:0:
354,164,73343,1,8,0:1:0:0:
354,164,73422,1,10,0:2:0:0:
253,238,73581,1,8,0:2:0:0:
218,93,73739,6,0,B|170:8|170:8|104:76,1,191.999994140625,14|8,0:0|0:2,0:0:0:0:
15,163,74216,1,2,0:0:0:0:
134,200,74374,1,10,0:1:0:0:
97,318,74533,1,0,0:0:0:0:
215,354,74692,1,10,0:2:0:0:
253,238,74851,1,0,0:0:0:0:
371,347,75009,6,0,P|461:345|484:259,1,191.999994140625,10|8,0:1|0:2,0:0:0:0:
437,144,75485,1,2,0:0:0:0:
369,249,75644,1,10,0:1:0:0:
320,133,75803,1,0,0:0:0:0:
253,238,75962,1,10,0:2:0:0:
203,122,76120,1,0,0:0:0:0:
106,254,76279,6,0,P|17:244|13:151,1,191.999994140625,14|8,0:1|0:2,0:0:0:0:
165,22,76755,2,0,B|202:30|231:28|231:28|260:50|260:50|308:53|348:65,1,191.999994140625,2|0,0:0|0:0,0:0:0:0:
434,156,77232,5,10,0:2:0:0:
468,36,77390,1,2,0:0:0:0:
347,64,77549,1,10,0:1:0:0:
441,163,77708,1,8,0:1:0:0:
441,163,77787,1,8,0:1:0:0:
441,163,77866,1,10,0:2:0:0:
468,36,78025,1,8,0:2:0:0:
333,163,78184,6,0,P|281:180|219:77,1,191.999994140625,10|8,0:1|0:2,0:0:0:0:
217,81,78819,5,14,0:0:0:0:
124,156,78978,5,2,0:0:0:0:
109,156,79057,1,2,0:0:0:0:
97,147,79136,1,2,0:0:0:0:
212,219,79295,5,2,1:2:0:0:
226,216,79374,1,2,1:2:0:0:
238,208,79454,1,2,1:2:0:0:
116,287,79612,5,2,0:0:0:0:
108,274,79692,1,2,0:0:0:0:
96,265,79771,2,0,P|47:250|5:273,1,95.9999970703126,10|0,0:2|0:0,0:0:0:0:
177,357,80089,5,10,0:0:0:0:
183,344,80168,1,2,0:0:0:0:
193,334,80247,1,2,0:0:0:0:
300,293,80406,5,10,0:2:0:0:
308,304,80485,1,2,0:0:0:0:
319,312,80565,1,2,0:0:0:0:
418,243,80724,5,10,0:1:0:0:
407,233,80803,1,2,0:0:0:0:
403,219,80882,1,2,0:0:0:0:
487,76,81041,6,0,P|512:119|495:163,1,95.9999970703126,10|0,0:2|0:0,0:0:0:0:
256,0,81359,5,2,0:1:0:0:
303,157,81517,1,2,0:1:0:0:
246,234,81835,5,2,0:1:0:0:
199,77,81993,1,2,0:1:0:0:
111,37,82311,5,2,0:1:0:0:
158,194,82469,1,2,0:1:0:0:
95,266,82787,5,2,0:1:0:0:
48,109,82946,2,0,L|20:11,1,95.9999970703126,2|0,0:1|0:0,0:0:0:0:
21,16,83263,5,2,0:1:0:0:
206,84,83422,1,2,0:2:0:0:
206,84,83501,1,2,0:2:0:0:
206,84,83581,2,0,L|298:42,1,95.9999970703126,4|14,2:2|2:1,0:0:0:0:
0,309,94057,6,0,L|24:166,1,128,14|8,2:1|2:1,0:0:0:0:
71,116,94533,2,0,P|129:86|209:116,1,128,2|0,2:1|2:1,0:0:0:0:
257,144,95009,1,10,2:1:0:0:
325,191,95168,2,0,P|380:220|441:208,1,128,2|0,2:1|2:1,0:0:0:0:
512,56,95803,2,0,P|456:26|395:38,1,128,2|0,2:1|2:1,0:0:0:0:
321,77,96279,1,10,2:1:0:0:
256,24,96438,1,10,2:1:0:0:
182,100,96597,6,0,B|173:153|173:153|177:170|177:170|167:234,1,128,10|8,2:1|2:1,0:0:0:0:
107,282,97073,2,0,B|166:258|166:258|230:291,1,128,2|0,2:1|2:1,0:0:0:0:
367,371,97708,2,0,B|376:318|376:318|372:301|372:301|380:244,1,128,2|0,2:1|2:1,0:0:0:0:
445,192,98184,1,10,2:1:0:0:
380,139,98343,2,0,B|372:83|372:83|376:66|376:66|367:13,1,128,2|0,2:1|2:1,0:0:0:0:
145,13,99136,6,0,B|136:66|136:66|140:83|140:83|131:139,1,128,10|8,2:1|2:1,0:0:0:0:
53,168,99612,2,0,B|44:221|44:221|48:238|48:238|39:294,1,128,2|0,2:1|2:1,0:0:0:0:
95,356,100089,1,10,2:1:0:0:
172,325,100247,1,2,2:1:0:0:
256,180,100565,1,2,2:1:0:0:
340,325,100882,1,2,2:1:0:0:
496,228,101200,6,0,L|500:152,2,64,10|0|0,2:1|2:1|2:1,0:0:0:0:
414,288,101676,2,0,B|343:262|348:311|270:284,2,143.999995605469,2|2|2,2:1|2:1|2:1,0:0:0:0:
499,164,102946,5,4,0:0:0:0:
490,160,103052,2,0,P|480:140|474:106,1,37.3333321940105,0|0,0:0|0:0,0:0:0:0:
405,84,103263,5,2,0:0:0:0:
400,76,103369,2,0,P|385:66|362:58,1,34.6666650797527,0|0,0:0|0:0,0:0:0:0:
290,94,103581,5,2,0:1:0:0:
283,99,103687,2,0,P|265:96|239:82,1,31.9999990234375,0|0,0:0|0:0,0:0:0:0:
185,43,103898,5,2,2:2:0:0:
180,37,104004,2,0,P|160:27|133:21,1,29.3333342285157,0|0,0:0|0:0,0:0:0:0:
77,54,104216,6,0,L|68:127,1,69.3333301595054,14|0,0:1|0:0,0:0:0:0:
12,179,104533,2,0,L|27:252,1,69.3333301595054,2|0,0:0|0:0,0:0:0:0:
88,297,104851,2,0,P|123:283|175:295,1,69.3333301595054,8|0,1:2|0:0,0:0:0:0:
212,339,105168,2,0,P|247:353|299:341,1,69.3333301595054,2|0,0:0|0:0,0:0:0:0:
355,290,105485,6,0,L|363:212,1,69.3333301595054,10|0,0:1|0:0,0:0:0:0:
282,231,105803,2,0,L|274:153,1,69.3333301595054,2|0,0:0|0:0,0:0:0:0:
332,106,106120,1,8,1:2:0:0:
253,6,106332,1,0,0:0:0:0:
253,6,106438,1,2,0:0:0:0:
147,84,106650,5,0,0:0:0:0:
147,84,106755,2,0,B|116:77|116:77|108:78|108:78|78:73,1,69.3333301595054,10|0,0:1|0:0,0:0:0:0:
17,125,107073,2,0,L|16:223,1,69.3333301595054,2|0,0:0|0:0,0:0:0:0:
78,245,107390,2,0,B|107:240|107:240|115:241|115:241|146:234,1,69.3333301595054,8|0,1:2|0:0,0:0:0:0:
220,202,107708,2,0,B|249:206|249:206|257:205|257:205|288:212,1,69.3333301595054,2|0,0:0|0:0,0:0:0:0:
361,296,108025,6,0,P|363:333|392:366,1,69.3333301595054,10|0,0:1|0:0,0:0:0:0:
461,361,108343,2,0,P|480:332|481:298,1,69.3333301595054,2|0,0:0|0:0,0:0:0:0:
423,242,108660,2,0,P|411:209|419:176,1,69.3333301595054,8|0,1:2|0:0,0:0:0:0:
475,117,108978,5,0,3:0:0:0:
485,80,109083,1,0,3:0:0:0:
474,43,109189,1,0,3:0:0:0:
405,86,109295,5,14,0:1:0:0:
281,19,109507,1,0,0:0:0:0:
281,19,109612,2,0,P|314:10|357:21,1,69.3333301595054,2|0,0:0|0:0,0:0:0:0:
318,93,109930,2,0,P|285:102|211:56,1,103.999995239258,8|0,1:2|0:0,0:0:0:0:
139,5,110406,5,2,0:0:0:0:
139,5,110565,2,0,L|124:121,1,103.999995239258,6|8,3:0|2:1,0:0:0:0:
125,108,111200,6,0,L|136:185,1,69.3333301595054,8|0,1:2|0:0,0:0:0:0:
203,217,111517,2,0,L|193:285,1,69.3333301595054,2|0,0:0|0:0,0:0:0:0:
138,344,111835,1,10,0:1:0:0:
27,295,112046,1,0,0:0:0:0:
27,295,112152,2,0,L|17:226,1,69.3333301595054,2|0,0:0|0:0,0:0:0:0:
19,146,112470,1,8,1:2:0:0:
79,44,112681,1,0,0:0:0:0:
79,44,112787,1,2,0:0:0:0:
178,121,112999,6,0,P|230:121|268:86,1,88.000002685547,4|0,0:0|0:0,0:0:0:0:
299,40,113422,2,0,P|324:24|356:20,1,58.6666684570313,0|0,0:0|0:0,0:0:0:0:
417,54,113739,2,0,B|431:85|431:85|436:92|436:92|437:101|437:101|453:143,1,88.000002685547,0|8,0:0|0:0,0:0:0:0:
505,312,114374,6,0,L|410:287,1,71.9999978027344,14|8,1:1|0:3,0:0:0:0:
256,282,114691,1,0,0:0:0:0:
341,379,114851,2,0,P|349:342|340:293,1,71.9999978027344,2|0,0:0|0:0,0:0:0:0:
166,308,115168,2,0,P|163:344|170:378,1,71.9999978027344,2|0,0:0|0:0,0:0:0:0:
256,186,115485,5,2,0:1:0:0:
256,186,115564,1,2,0:1:0:0:
256,186,115643,2,0,P|211:158|138:152,1,107.999996704102,8|0,0:2|0:0,0:0:0:0:
157,149,115961,1,8,0:2:0:0:
30,85,116120,2,0,L|17:14,2,71.9999978027344,8|8|8,0:2|0:1|0:1,0:0:0:0:
48,222,116596,5,10,2:2:0:0:
138,50,116754,1,10,2:2:0:0:
256,186,116914,6,0,B|346:185|314:249|408:251,1,160,14|0,0:1|0:0,0:0:0:0:
485,344,117390,2,0,L|498:245,1,80,10|8,0:2|0:1,0:0:0:0:
488,90,117707,5,2,0:0:0:0:
396,250,117866,1,10,0:0:0:0:
379,74,118024,1,2,0:0:0:0:
263,58,118342,5,2,0:1:0:0:
423,146,118501,1,2,0:1:0:0:
463,215,118819,5,2,0:1:0:0:
303,127,118978,1,2,0:1:0:0:
231,162,119295,5,2,0:1:0:0:
391,250,119454,1,2,0:1:0:0:
415,326,119771,5,2,0:1:0:0:
256,238,119930,1,2,0:1:0:0:
164,297,120089,6,0,L|119:366,1,71.9999978027344,12|0,0:2|0:0,0:0:0:0:
111,360,120406,6,0,L|165:273,1,96,8|0,0:2|0:0,0:0:0:0:
256,238,120724,6,0,B|372:238|305:317|420:327,1,191.999994140625,14|8,0:0|0:2,0:0:0:0:
512,249,121200,1,2,0:0:0:0:
512,124,121359,1,10,0:1:0:0:
412,49,121517,1,0,0:0:0:0:
291,81,121676,1,10,0:2:0:0:
191,5,121835,1,0,0:0:0:0:
67,76,121993,6,0,B|58:155|58:155|59:163|59:163|56:169|56:169|45:266,1,191.999994140625,10|8,0:0|0:2,0:0:0:0:
115,370,122470,1,2,0:0:0:0:
189,270,122628,1,10,0:1:0:0:
256,376,122787,1,8,0:0:0:0:
323,270,122946,1,10,0:2:0:0:
397,370,123105,1,0,0:0:0:0:
490,278,123263,6,0,B|501:181|501:181|504:175|504:175|503:167|503:167|512:88,1,191.999994140625,10|8,0:0|0:2,0:0:0:0:
331,13,123740,2,0,P|373:28|439:18,1,95.9999970703126,2|8,0:0|0:0,0:0:0:0:
254,95,124057,2,0,P|212:80|146:90,1,95.9999970703126,2|8,0:0|0:2,0:0:0:0:
69,225,124374,6,0,P|83:133|162:84,1,191.999994140625,2|0,0:0|0:0,0:0:0:0:
305,155,124851,1,10,0:2:0:0:
224,293,125009,1,2,0:2:0:0:
224,293,125089,1,2,0:2:0:0:
224,293,125168,2,0,P|130:294|68:225,1,191.999994140625,10|8,0:0|0:2,0:0:0:0:
68,225,125644,1,2,0:0:0:0:
162,83,125803,6,0,L|390:63,1,191.999994140625,14|8,0:0|0:2,0:0:0:0:
477,50,126279,1,2,0:0:0:0:
351,49,126438,2,0,L|159:65,1,191.999994140625,10|8,0:1|0:2,0:0:0:0:
0,197,126914,6,0,L|192:181,1,191.999994140625,2|2,0:0|0:0,0:0:0:0:
199,192,127311,1,2,0:0:0:0:
207,203,127390,2,0,L|302:195,1,95.9999970703126,10|0,0:2|0:0,0:0:0:0:
373,90,127708,1,10,0:1:0:0:
493,125,127866,1,0,0:0:0:0:
496,249,128025,1,10,0:2:0:0:
378,290,128184,1,0,0:0:0:0:
284,196,128343,6,0,B|199:192|199:192|188:195|188:195|85:191,1,191.999994140625,14|8,0:0|0:2,0:0:0:0:
0,99,128819,1,2,0:0:0:0:
0,99,128898,1,2,0:0:0:0:
0,99,128978,2,0,L|105:75,1,95.9999970703126,0|8,0:0|0:1,0:0:0:0:
195,221,129295,1,10,0:2:0:0:
92,192,129454,1,2,0:0:0:0:
205,41,129612,6,0,B|308:38|269:108|376:119,1,191.999994140625,14|8,0:0|0:2,0:0:0:0:
469,38,130089,1,2,0:0:0:0:
508,156,130248,1,10,0:1:0:0:
411,236,130406,1,8,0:1:0:0:
411,236,130486,1,8,0:1:0:0:
411,236,130565,1,10,0:2:0:0:
372,118,130724,1,10,0:2:0:0:
288,238,130882,6,0,B|255:349|255:349|203:360|184:321,1,191.999994140625,14|8,0:0|0:2,0:0:0:0:
149,207,131359,1,2,0:0:0:0:
36,259,131517,1,10,0:0:0:0:
74,379,131676,1,0,0:0:0:0:
187,327,131835,1,10,0:2:0:0:
303,370,131993,1,0,0:0:0:0:
427,292,132152,6,0,P|467:210|408:142,1,191.999994140625,10|8,0:0|0:2,0:0:0:0:
286,118,132628,1,2,0:0:0:0:
368,24,132787,1,10,0:1:0:0:
408,142,132946,1,0,0:0:0:0:
326,236,133105,1,10,0:2:0:0:
203,211,133263,1,0,0:0:0:0:
114,99,133422,6,0,P|92:8|10:39,1,191.999994140625,14|8,0:0|0:2,0:0:0:0:
69,238,133898,2,0,B|107:246|136:242|136:242|164:265|164:265|205:265|253:279,1,191.999994140625,2|0,0:0|0:0,0:0:0:0:
354,350,134375,5,10,0:2:0:0:
365,226,134533,1,2,0:0:0:0:
251,278,134692,1,10,0:1:0:0:
361,357,134851,1,8,0:1:0:0:
361,357,134930,1,8,0:1:0:0:
361,357,135009,1,10,0:2:0:0:
365,226,135168,1,8,0:2:0:0:
233,291,135327,6,0,P|177:298|133:181,1,191.999994140625,10|8,0:1|0:2,0:0:0:0:
256,0,135962,5,10,0:0:0:0:
260,13,136041,1,2,0:0:0:0:
264,26,136120,1,2,0:0:0:0:
268,40,136200,1,2,0:0:0:0:
272,53,136279,1,10,0:2:0:0:
358,111,136438,5,2,0:0:0:0:
368,101,136517,1,2,0:0:0:0:
378,91,136597,2,0,P|427:64|476:62,1,95.9999970703126,10|8,0:1|0:1,0:0:0:0:
459,182,136914,5,10,0:2:0:0:
466,60,137073,1,2,0:0:0:0:
512,251,137232,5,10,0:1:0:0:
360,199,137390,5,2,0:0:0:0:
365,212,137470,1,2,0:0:0:0:
370,225,137549,1,10,0:2:0:0:
376,238,137628,1,2,0:0:0:0:
381,251,137708,1,2,0:0:0:0:
329,340,137867,5,10,0:1:0:0:
320,328,137946,2,0,P|281:307|222:304,1,95.9999970703126,10|8,0:2|0:1,0:0:0:0:
218,311,138184,5,10,0:2:0:0:
128,192,138343,1,10,0:0:0:0:
16,259,138501,5,2,0:0:0:0:
6,164,138660,2,0,L|16:265,1,95.9999970703126,2|0,0:0|0:0,0:0:0:0:
138,96,138978,5,2,0:0:0:0:
128,192,139136,2,0,L|138:96,1,95.9999970703126,2|0,0:0|0:0,0:0:0:0:
260,249,139454,5,2,0:0:0:0:
250,153,139612,2,0,L|260:248,1,95.9999970703126,2|0,0:0|0:0,0:0:0:0:
388,94,139930,5,2,0:0:0:0:
378,190,140088,2,0,L|388:94,1,95.9999970703126,2|0,0:0|0:0,0:0:0:0:
388,94,140406,5,10,1:1:0:0:
512,192,140565,1,0,1:0:0:0:
512,192,140644,1,0,1:0:0:0:
512,192,140724,2,0,L|501:287,1,95.9999970703126,10|0,0:2|0:0,0:0:0:0:
495,326,141041,6,0,B|408:309|414:376|326:360,2,176.000005371094,14|8|8,0:0|0:2|0:0,0:0:0:0:
495,326,141835,1,2,0:0:0:0:
394,202,141993,2,0,P|375:158|381:101,1,88.000002685547,10|0,0:2|0:0,0:0:0:0:
449,5,142311,6,0,P|429:49|308:62,1,176.000005371094,10|8,0:1|0:2,0:0:0:0:
223,142,142787,2,0,L|209:53,1,88.000002685547,2|8,0:0|0:0,0:0:0:0:
223,142,143105,1,2,0:0:0:0:
81,93,143263,2,0,L|95:4,1,88.000002685547,10|0,0:2|0:0,0:0:0:0:
0,200,143581,6,0,P|45:174|103:184,1,88.000002685547,14|0,0:0|0:0,0:0:0:0:
89,183,143819,1,2,0:1:0:0:
99,190,143898,2,0,L|116:295,1,88.000002685547,8|0,0:2|0:0,0:0:0:0:
218,374,144216,2,0,L|232:287,1,88.000002685547,10|0,0:1|0:0,0:0:0:0:
238,275,144454,1,2,0:0:0:0:
247,265,144533,2,0,P|283:241|326:239,1,88.000002685547,8|0,0:2|0:0,0:0:0:0:
500,199,144851,6,0,B|527:169|527:169|482:27,1,176.000005371094,10|8,0:0|0:2,0:0:0:0:
397,128,145327,1,2,0:0:0:0:
298,61,145485,2,0,B|315:10|315:10|331:57,1,88.000002685547,10|0,0:1|0:0,0:0:0:0:
354,220,145803,2,0,B|336:270|336:270|321:224,1,88.000002685547,10|0,0:2|0:0,0:0:0:0:
217,98,146120,6,0,P|179:38|74:42,1,176.000005371094,14|8,0:0|0:2,0:0:0:0:
0,124,146597,1,2,0:0:0:0:
104,215,146755,2,0,L|199:196,1,88.000002685547,10|0,0:1|0:0,0:0:0:0:
200,206,146993,1,2,0:0:0:0:
210,214,147073,2,0,B|222:242|222:242|225:268|225:268|244:317,1,88.000002685547,8|0,0:2|0:0,0:0:0:0:
391,384,147390,6,0,B|400:302|400:302|404:293|404:293|404:288|404:288|417:189,1,176.000005371094,10|8,0:0|0:2,0:0:0:0:
512,87,147866,2,0,B|428:124|428:124|357:65,1,176.000005371094,2|0,0:0|0:0,0:0:0:0:
203,24,148343,2,0,L|309:14,1,88.000002685547,10|0,0:2|0:0,0:0:0:0:
200,153,148660,5,14,0:0:0:0:
109,69,148819,1,8,0:1:0:0:
109,69,148898,1,8,0:1:0:0:
109,69,148978,2,0,B|98:43|93:17|93:17|79:57,1,88.000002685547,10|0,0:2|0:0,0:0:0:0:
28,188,149295,1,10,0:1:0:0:
28,188,149454,2,0,B|17:214|12:240|12:240|1:209,1,88.000002685547,10|8,0:1|0:2,0:0:0:0:
200,153,149771,6,0,B|261:168|261:168|283:203|283:203|356:232,1,176.000005371094,10|8,0:0|0:1,0:0:0:0:
430,319,150247,1,8,0:2:0:0:
502,227,150406,1,2,0:0:0:0:
502,227,150485,1,2,0:0:0:0:
502,227,150565,2,0,B|515:183|515:183|494:126,1,88.000002685547,10|0,0:1|0:0,0:0:0:0:
405,24,150882,2,0,B|404:66|404:66|376:102,1,88.000002685547,10|0,0:2|0:0,0:0:0:0:
220,186,151200,6,0,L|108:171,1,88.000002685547,14|0,0:0|0:0,0:0:0:0:
289,90,151517,2,0,L|376:101,1,88.000002685547,10|0,0:2|0:0,0:0:0:0:
209,205,151835,6,0,L|97:190,1,88.000002685547,10|0,0:0|0:0,0:0:0:0:
278,109,152152,2,0,L|365:120,1,88.000002685547,10|0,0:2|0:0,0:0:0:0:
128,276,152470,6,0,P|114:243|138:169,1,88.000002685547,10|0,0:0|0:0,0:0:0:0:
333,269,152787,2,0,P|340:311|325:352,1,88.000002685547,10|0,0:2|0:0,0:0:0:0:
106,290,153105,6,0,P|92:257|116:183,1,88.000002685547,10|0,0:0|0:0,0:0:0:0:
311,283,153422,2,0,P|318:325|303:366,1,88.000002685547,10|0,0:2|0:0,0:0:0:0:
181,133,153739,5,14,0:0:0:0:
298,182,153898,1,8,0:1:0:0:
298,182,153978,1,8,0:1:0:0:
298,182,154057,2,0,P|334:125|318:74,1,88.000002685547,10|0,0:2|0:0,0:0:0:0:
201,34,154374,6,0,B|169:27|169:27|151:33|151:33|99:26,1,88.000002685547,10|0,0:0|0:0,0:0:0:0:
298,182,154692,2,0,B|329:188|329:188|348:183|348:183|400:190,1,88.000002685547,10|0,0:2|0:0,0:0:0:0:
186,308,155009,6,0,B|154:301|154:301|136:307|136:307|99:302,1,88.000002685547,10|0,0:1|0:0,0:0:0:0:
89,310,155247,1,2,0:0:0:0:
79,318,155327,2,0,L|52:201,1,88.000002685547,8|0,0:2|0:0,0:0:0:0:
0,73,155644,5,10,0:1:0:0:
116,142,155803,1,2,0:0:0:0:
243,96,155962,2,0,L|256:7,1,88.000002685547,10|10,0:2|0:2,0:0:0:0:
512,125,156279,5,14,0:1:0:0:
431,160,156438,1,0,0:0:0:0:
350,195,156597,1,8,0:2:0:0:
372,20,156755,5,2,0:0:0:0:
361,107,156914,1,8,0:1:0:0:
350,195,157073,1,0,0:0:0:0:
210,89,157232,5,10,0:2:0:0:
279,142,157391,1,0,0:0:0:0:
350,195,157550,1,8,0:1:0:0:
188,263,157708,5,2,0:0:0:0:
269,230,157867,1,8,0:2:0:0:
350,195,158026,1,0,0:0:0:0:
330,369,158184,5,10,0:0:0:0:
340,282,158343,1,0,0:0:0:0:
350,195,158502,1,8,0:2:0:0:
491,300,158660,5,2,0:0:0:0:
350,195,158819,2,0,L|279:141,1,88.000002685547,10|0,0:0|0:0,0:0:0:0:
372,377,159136,5,10,0:2:0:0:
302,215,159295,2,0,L|267:133,1,88.000002685547,10|8,0:1|0:1,0:0:0:0:
230,384,159612,5,10,0:2:0:0:
250,208,159771,2,0,L|261:119,1,88.000002685547,10|8,0:1|0:1,0:0:0:0:
102,320,160089,5,2,0:0:0:0:
207,177,160247,2,0,L|261:106,1,88.000002685547,10|8,0:1|0:2,0:0:0:0:
23,202,160565,5,2,0:0:0:0:
185,130,160724,2,0,L|267:95,1,88.000002685547,10|8,0:2|0:0,0:0:0:0:
278,90,160962,1,8,0:0:0:0:
290,85,161041,6,0,P|324:49|299:3,1,103.999995239258,2|4,0:1|0:2,0:0:0:0:
25,161,166120,6,0,L|-3:158,2,25.9999988098145,10|0|0,0:0|0:0|0:0,0:0:0:0:
132,260,166359,1,2,0:0:0:0:
132,260,166438,2,0,B|169:255|169:255|169:251|169:251|169:255|169:255|233:249,1,103.999995239258,10|0,0:0|0:0,0:0:0:0:
288,80,166755,2,0,B|250:75|250:75|251:71|251:71|250:75|250:75|194:70,1,103.999995239258,10|0,0:2|0:0,0:0:0:0:
33,46,167073,6,0,L|21:24,2,25.9999988098145,10|0|0,0:0|0:0|0:0,0:0:0:0:
174,170,167311,1,2,0:0:0:0:
174,170,167390,2,0,B|211:165|211:165|211:161|211:161|211:165|211:165|267:160,1,103.999995239258,2|0,0:0|0:0,0:0:0:0:
451,270,167708,5,10,0:0:0:0:
451,270,167787,2,0,B|453:256|466:243|466:243|460:236|460:236|448:211|452:159,1,103.999995239258,2|0,0:0|0:0,0:0:0:0:
416,107,168025,1,10,0:0:0:0:
416,107,168105,2,0,B|407:95|407:77|407:77|398:76|398:76|372:67|338:27,1,103.999995239258,8|0,0:2|0:0,0:0:0:0:
273,37,168343,2,0,B|259:34|246:21|246:21|239:28|239:28|213:40|176:36,1,103.999995239258,10|0,0:0|0:0,0:0:0:0:
12,73,168660,2,0,B|26:70|38:60|38:60|46:64|46:64|71:76|113:74,1,103.999995239258,10|0,0:2|0:0,0:0:0:0:
273,37,168978,5,10,0:0:0:0:
169,153,169136,1,8,0:0:0:0:
169,153,169216,1,8,0:0:0:0:
169,153,169295,2,0,B|161:130|149:128|149:128|147:110|147:110|123:99|100:58,1,103.999995239258,2|0,0:0|0:0,0:0:0:0:
0,170,169612,5,10,0:1:0:0:
109,74,169771,1,8,0:0:0:0:
70,251,169930,5,8,1:2:0:0:
229,238,170089,2,0,L|254:160,1,71.9999978027344,4|0,0:2|0:0,0:0:0:0:
0,144,172311,6,0,B|219:105|112:356|364:349,1,447.999986328125,0|8,0:0|0:1,0:0:0:0:
512,164,173263,5,8,0:0:0:0:
507,236,173382,6,0,B|509:206|509:206|511:199|511:199|513:164,1,71.9999978027344,12|0,0:0|0:0,0:0:0:0:
500,142,173700,6,0,B|496:195|496:195|493:207|493:207|489:253,1,112,8|0,0:0|0:0,0:0:0:0:
423,309,174057,6,0,B|365:287|365:287|317:319|317:319|243:295,1,191.999994140625,14|8,0:0|0:2,0:0:0:0:
134,350,174533,1,2,0:0:0:0:
32,280,174692,1,10,0:1:0:0:
41,155,174851,1,0,0:0:0:0:
154,101,175009,1,10,0:2:0:0:
256,172,175168,1,0,0:0:0:0:
376,53,175327,6,0,B|302:-11|302:-11|275:86,1,191.999994140625,10|0,0:0|0:0,0:0:0:0:
251,201,175803,1,2,0:0:0:0:
149,130,175961,1,10,0:1:0:0:
96,254,176120,1,8,0:1:0:0:
198,325,176278,1,10,0:2:0:0:
251,201,176438,1,0,0:0:0:0:
353,313,176596,6,0,P|420:345|434:237,1,191.999994140625,14|8,0:0|0:2,0:0:0:0:
251,201,177073,2,0,L|155:178,1,95.9999970703126,2|8,0:0|0:1,0:0:0:0:
417,115,177390,2,0,L|512:105,1,95.9999970703126,2|8,0:0|0:2,0:0:0:0:
304,10,177708,5,2,0:0:0:0:
215,109,177866,1,10,0:1:0:0:
100,38,178025,1,0,0:0:0:0:
11,137,178183,1,8,0:2:0:0:
126,208,178343,1,2,0:0:0:0:
126,208,178422,1,2,0:0:0:0:
126,208,178501,2,0,B|194:232|194:232|206:242|206:242|307:281,1,191.999994140625,10|8,0:1|0:2,0:0:0:0:
303,279,178977,1,2,0:0:0:0:
512,258,179136,6,0,B|444:234|444:234|432:224|432:224|331:185,1,191.999994140625,14|8,0:0|0:2,0:0:0:0:
235,110,179612,1,2,0:0:0:0:
351,63,179771,1,10,0:1:0:0:
342,194,179930,1,8,0:1:0:0:
342,194,180009,1,8,0:1:0:0:
342,194,180088,1,10,0:2:0:0:
236,90,180247,6,0,P|203:49|144:36,1,95.9999970703126,2|8,0:0|0:0,0:0:0:0:
42,71,180565,1,2,0:0:0:0:
154,127,180724,1,8,0:2:0:0:
33,163,180882,1,0,0:0:0:0:
145,219,181041,1,10,0:1:0:0:
24,255,181200,1,0,0:0:0:0:
136,311,181359,1,10,0:2:0:0:
15,347,181517,1,0,0:0:0:0:
155,304,181676,6,0,B|231:301|231:301|243:303|243:303|353:301,1,191.999994140625,14|8,0:0|0:2,0:0:0:0:
454,363,182152,1,2,0:0:0:0:
475,239,182311,2,0,B|470:206|470:206|473:186|473:186|465:133,1,95.9999970703126,10|0,0:1|0:0,0:0:0:0:
466,144,182549,1,2,0:0:0:0:
466,144,182628,1,10,0:2:0:0:
512,34,182787,1,2,0:1:0:0:
355,71,182946,6,0,B|315:68|282:55|282:55|257:64|257:64|209:56|166:67,1,191.999994140625,14|8,0:0|0:2,0:0:0:0:
69,144,183422,1,2,0:0:0:0:
50,20,183581,1,10,0:1:0:0:
175,74,183739,1,8,0:1:0:0:
175,74,183819,1,8,0:1:0:0:
175,74,183898,1,10,0:2:0:0:
69,144,184057,1,8,0:2:0:0:
185,227,184216,6,0,B|225:224|258:211|258:211|283:220|283:220|331:212|372:222,1,191.999994140625,14|8,0:0|0:2,0:0:0:0:
491,267,184692,1,2,0:0:0:0:
470,143,184850,1,10,0:1:0:0:
352,98,185009,1,0,0:0:0:0:
372,222,185168,1,10,0:2:0:0:
275,301,185327,1,0,0:0:0:0:
208,184,185485,6,0,B|183:138|201:89|201:89|180:38|122:56,1,191.999994140625,10|8,0:0|0:2,0:0:0:0:
13,113,185961,1,2,0:0:0:0:
117,182,186120,1,10,0:0:0:0:
10,237,186279,1,8,0:1:0:0:
10,237,186359,1,8,0:1:0:0:
10,237,186438,1,10,0:2:0:0:
13,113,186596,1,0,0:2:0:0:
135,183,186755,6,0,B|251:192|184:252|299:266,1,191.999994140625,14|8,0:0|0:2,0:0:0:0:
512,105,187232,2,0,B|395:114|462:174|347:188,1,191.999994140625,2|0,0:0|0:0,0:0:0:0:
256,9,187708,5,10,0:2:0:0:
350,89,187866,1,2,0:0:0:0:
256,172,188025,1,10,0:1:0:0:
162,89,188184,1,8,0:1:0:0:
162,89,188263,1,8,0:1:0:0:
162,89,188342,1,10,0:2:0:0:
256,9,188501,1,10,0:2:0:0:
370,101,188660,6,0,P|422:111|444:-7,1,191.999994140625,10|8,0:1|0:2,0:0:0:0:
454,2,189295,5,14,0:1:0:0:
370,101,189454,5,2,0:0:0:0:
360,90,189533,1,2,0:0:0:0:
351,78,189612,1,10,0:2:0:0:
279,148,189771,5,2,0:0:0:0:
265,142,189850,1,2,0:0:0:0:
251,135,189930,1,10,0:1:0:0:
209,224,190088,5,2,0:0:0:0:
196,230,190168,1,2,0:0:0:0:
183,237,190247,2,0,B|143:221|143:221|130:208|130:208|76:186,1,95.9999970703126,10|0,0:2|0:0,0:0:0:0:
0,85,190565,5,10,0:1:0:0:
13,80,190644,1,2,0:0:0:0:
26,75,190723,1,2,0:0:0:0:
115,6,190882,5,10,0:2:0:0:
120,19,190961,1,2,0:0:0:0:
125,32,191041,1,2,0:0:0:0:
210,91,191200,5,10,0:0:0:0:
221,82,191279,1,2,0:0:0:0:
232,73,191358,1,2,0:0:0:0:
244,64,191438,1,2,0:0:0:0:
256,56,191517,2,0,P|300:38|349:40,1,95.9999970703126,10|0,0:2|0:0,0:0:0:0:
512,192,191835,5,2,0:0:0:0:
502,97,191994,2,0,L|512:198,1,95.9999970703126,0|0,0:0|0:0,0:0:0:0:
379,146,192312,5,2,0:0:0:0:
369,242,192470,2,0,L|379:146,1,95.9999970703126,2|0,0:0|0:0,0:0:0:0:
246,192,192788,5,2,0:0:0:0:
236,96,192946,2,0,L|246:191,1,95.9999970703126,2|0,0:0|0:0,0:0:0:0:
115,157,193264,5,2,0:0:0:0:
105,253,193422,2,0,L|115:157,1,95.9999970703126,2|0,0:0|0:0,0:0:0:0:
0,73,193739,5,2,0:0:0:0:
10,168,193898,2,0,L|0:67,1,95.9999970703126,2|0,0:0|0:0,0:0:0:0:
179,96,194216,5,2,0:0:0:0:
189,0,194374,2,0,L|179:96,1,95.9999970703126,2|0,0:0|0:0,0:0:0:0:
327,99,194692,5,2,0:0:0:0:
337,195,194850,2,0,L|327:100,1,95.9999970703126,2|0,0:0|0:0,0:0:0:0:
483,98,195168,5,2,0:0:0:0:
493,2,195326,2,0,L|483:98,1,95.9999970703126,2|0,0:0|0:0,0:0:0:0:
417,244,195644,5,2,0:0:0:0:
507,262,195803,2,0,P|471:243|399:251,1,95.9999970703126,2|0,0:0|0:0,0:0:0:0:
210,320,196120,5,2,0:0:0:0:
300,302,196279,2,0,P|264:321|192:313,1,95.9999970703126,2|0,0:0|0:0,0:0:0:0:
79,185,196597,5,2,0:0:0:0:
169,203,196756,2,0,P|133:184|61:192,1,95.9999970703126,2|0,0:0|0:0,0:0:0:0:
506,128,197708,6,0,P|430:123|486:76,1,136.000002593994,2|2,0:1|0:1,0:0:0:0:
506,128,198184,6,0,L|323:104,1,160,14|8,0:0|0:2,0:0:0:0:
227,46,198661,2,0,L|197:5,2,40,2|0|8,0:0|0:0|0:0,0:0:0:0:
276,184,198978,2,0,P|262:234|223:270,1,80,2|8,0:0|0:2,0:0:0:0:
85,275,199295,6,0,L|268:251,1,160,2|0,0:0|0:0,0:0:0:0:
421,303,199772,1,10,0:2:0:0:
349,361,199930,2,0,P|327:317|337:267,1,80,2|0,0:0|0:0,0:0:0:0:
492,244,200248,1,8,0:1:0:0:
492,244,200327,1,8,0:1:0:0:
492,244,200406,2,0,P|513:287|503:337,1,80,10|0,0:2|0:0,0:0:0:0:
386,195,200724,6,0,B|372:134|372:134|367:125|367:125|365:110|365:110|345:31,1,160,10|8,0:0|0:2,0:0:0:0:
164,40,201200,1,2,0:0:0:0:
164,40,201280,1,2,0:0:0:0:
164,40,201359,1,8,0:1:0:0:
144,117,201518,2,0,L|164:40,1,80,2|8,0:0|0:2,0:0:0:0:
256,192,201835,1,2,0:0:0:0:
123,259,201994,6,0,L|32:243,1,80,10|0,0:0|0:0,0:0:0:0:
256,192,202311,2,0,L|347:208,1,80,10|0,0:2|0:0,0:0:0:0:
334,205,202629,1,10,0:0:0:0:
151,124,202788,1,8,0:1:0:0:
151,124,202867,1,8,0:1:0:0:
151,124,202946,2,0,L|60:108,1,80,8|0,0:2|0:0,0:0:0:0:
304,19,203264,6,0,B|356:27|356:27|386:52|386:52|461:64,1,160,6|8,0:0|0:2,0:0:0:0:
512,172,203740,1,2,0:0:0:0:
433,270,203899,2,0,L|420:164,1,80,8|0,0:0|0:0,0:0:0:0:
256,256,204216,2,0,L|246:335,1,80,8|0,0:2|0:0,0:0:0:0:
233,345,204454,1,10,0:2:0:0:
220,354,204533,6,0,B|160:334|160:334|131:351|131:351|62:333,1,160,10|8,0:1|0:2,0:0:0:0:
0,173,205010,1,2,0:0:0:0:
0,173,205089,1,2,0:0:0:0:
0,173,205168,2,0,L|84:150,1,80,10|0,0:1|0:0,0:0:0:0:
220,44,205485,2,0,L|142:22,1,80,10|0,0:2|0:0,0:0:0:0:
248,220,205803,6,0,P|250:180|278:137,1,80,10|0,0:0|0:0,0:0:0:0:
283,138,206041,1,2,0:0:0:0:
298,134,206120,2,0,P|338:136|381:164,1,80,8|0,0:2|0:0,0:0:0:0:
372,155,206438,1,10,0:1:0:0:
220,44,206597,2,0,P|184:25|133:28,1,80,2|8,0:2|0:2,0:0:0:0:
425,0,206914,5,4,1:2:0:0:
