osu file format v14

[General]
AudioFilename: Higurashi Moratorium.mp3
AudioLeadIn: 0
PreviewTime: 173188
Countdown: 0
SampleSet: Normal
StackLeniency: 0.5
Mode: 0
LetterboxInBreaks: 0
WidescreenStoryboard: 1

[Editor]
Bookmarks: 21739,25486,35644,78819,94057,104216,135962,161041,172470,172999,174057,189295
DistanceSpacing: 1.3
BeatDivisor: 4
GridSize: 32
TimelineZoom: 2.299999

[Metadata]
Title:Higurashi Moratorium
TitleUnicode:茅蜩モラトリアム
Artist:Amatsuki
ArtistUnicode:天月
Creator:Nevo
Version:Airin's Hard
Source:
Tags:TOTAL OBJECTION Vocaloid Megpoid GUMI xchorse yukiyo lasse airincat
BeatmapID:1975297
BeatmapSetID:931886

[Difficulty]
HPDrainRate:5
CircleSize:3.8
OverallDifficulty:6
ApproachRate:8
SliderMultiplier:1.5
SliderTickRate:1

[Events]
//Background and Video events
0,0,"BG.jpg",0,0
Video,0,"PV.avi"
//Break Periods
2,21939,24736
2,161359,171720
//Storyboard Layer 0 (Background)
//Storyboard Layer 1 (Fail)
//Storyboard Layer 2 (Pass)
//Storyboard Layer 3 (Foreground)
//Storyboard Sound Samples

[TimingPoints]
3867,638.297872340426,4,2,86,40,1,0
3867,-100,4,2,86,40,0,0
25486,317.460317460317,4,2,86,50,1,0
25486,-125,4,2,86,50,0,0
26279,-142.857142857143,4,2,86,50,0,0
26676,-142.857142857143,4,2,1,5,0,0
26755,-111.111111111111,4,1,85,65,0,0
35485,-111.111111111111,4,1,86,50,0,0
36597,-111.111111111111,4,1,85,50,0,0
36914,-142.857142857143,4,2,85,50,0,0
46279,-166.666666666667,4,2,85,50,0,0
47073,-111.111111111111,4,2,85,60,0,0
57232,-142.857142857143,4,2,86,55,0,0
58739,-142.857142857143,4,2,86,20,0,0
58819,-142.857142857143,4,2,86,55,0,0
59454,-142.857142857143,4,2,85,60,0,0
59771,-100,4,2,85,65,0,0
61200,-100,4,1,0,65,0,0
62946,-166.666666666667,4,2,86,50,0,0
63184,-166.666666666667,4,2,1,5,0,0
63263,-125,4,2,86,55,0,0
63501,-125,4,2,1,5,0,0
63581,-100,4,1,85,70,0,1
71200,-105.263157894737,4,1,85,70,0,1
73739,-100,4,1,85,70,0,1
81359,-100,4,1,0,70,0,1
83263,-100,4,2,86,60,0,1
83581,-166.666666666667,4,1,86,70,0,1
83898,-111.111111111111,4,2,85,60,0,0
94057,-142.857142857143,4,2,85,50,0,0
101676,-166.666666666667,4,2,85,50,0,0
101835,-166.666666666667,4,2,85,5,0,0
102152,-166.666666666667,4,2,85,50,0,0
102232,-166.666666666667,4,2,85,5,0,0
102628,-166.666666666667,4,2,85,50,0,0
102946,-142.857142857143,4,2,86,50,0,0
104216,-125,4,2,86,50,0,0
112999,-181.818181818182,4,2,86,40,0,0
113316,-181.818181818182,4,2,86,30,0,0
114057,-181.818181818182,4,2,86,40,0,0
114374,-111.111111111111,4,2,86,55,0,0
115882,-111.111111111111,4,2,86,20,0,0
115962,-111.111111111111,4,2,86,55,0,0
116597,-111.111111111111,4,2,85,60,0,0
116914,-100,4,2,85,65,0,0
118343,-100,4,1,0,65,0,0
120089,-166.666666666667,4,2,86,50,0,0
120327,-166.666666666667,4,2,1,5,0,0
120406,-125,4,2,86,55,0,0
120644,-125,4,2,1,5,0,0
120724,-95.2380952380952,4,1,85,70,0,1
128343,-100,4,1,85,70,0,1
130882,-95.2380952380952,4,1,85,70,0,1
138501,-105.263157894737,4,1,0,70,0,1
140406,-105.263157894737,4,1,85,60,0,1
140962,-105.263157894737,4,2,85,5,0,1
141041,-105.263157894737,4,1,85,65,0,0
160882,-105.263157894737,4,2,86,60,0,0
161041,-153.846153846154,4,2,86,55,0,0
166120,-76.9230769230769,4,1,85,45,0,0
169612,-76.9230769230769,4,2,86,45,0,0
170089,-111.111111111111,4,2,86,45,0,0
170247,-111.111111111111,4,2,1,5,0,0
171993,-100,4,2,85,60,0,0
172311,-100,4,2,85,30,0,0
172946,-100,4,2,85,40,0,0
173263,-133.333333333333,4,2,86,35,0,0
173382,-166.666666666667,4,2,86,40,0,0
173620,-166.666666666667,4,2,86,5,0,0
173700,-111.111111111111,4,2,86,45,0,0
173978,-111.111111111111,4,2,86,5,0,0
174057,-95.2380952380952,4,1,85,70,0,1
181676,-100,4,1,85,70,0,1
184216,-95.2380952380952,4,1,85,70,0,1
191835,-95.2380952380952,4,1,0,70,0,1
197232,-100,4,2,85,60,0,0
197708,-100,4,2,86,50,0,0
198184,-117.647058823529,4,1,85,65,0,0
207549,-166.666666666667,4,1,85,65,0,0

[Colours]
Combo1 : 130,130,130
Combo2 : 205,190,150
Combo3 : 196,150,94
Combo4 : 190,126,126

[HitObjects]
57,170,3867,6,0,P|68:205|74:242,2,75,10|0|0,0:3|0:0|0:0,0:0:0:0:
118,86,4824,1,2,0:2:0:0:
118,86,5143,2,0,B|202:68|180:131|292:106,1,150,8|0,0:3|0:0,0:0:0:0:
358,89,6101,1,0,0:0:0:0:
441,175,6420,6,0,P|451:133|470:101,2,75,10|0|0,0:3|0:0|0:0,0:0:0:0:
435,289,7377,1,2,0:2:0:0:
435,289,7696,2,0,B|344:280|380:341|288:325,1,150,8|0,0:3|0:0,0:0:0:0:
189,290,8654,1,0,0:0:0:0:
25,337,8973,6,0,P|13:291|-3:258,2,75,10|0|0,0:3|0:0|0:0,0:0:0:0:
99,255,9930,2,0,P|109:209|124:178,1,75,2|8,0:2|0:3,0:0:0:0:
170,95,10569,2,0,L|157:50,2,37.5,0|0|2,0:0|0:0|0:0,0:0:0:0:
253,144,11207,1,0,0:0:0:0:
317,39,11526,6,0,P|365:24|390:5,2,75,10|0|2,0:3|0:0|0:2,0:0:0:0:
397,114,12484,2,0,P|434:123|467:141,1,75,2|8,0:1|0:3,0:0:0:0:
512,232,13122,2,0,L|508:277,2,37.5,2|0|2,0:2|0:0|0:1,0:0:0:0:
100,382,14079,6,0,P|92:340|72:305,1,75,10|0,0:3|0:0,0:0:0:0:
15,232,14718,1,0,0:0:0:0:
117,202,15037,2,0,P|155:197|195:207,1,75,2|8,0:0|0:3,0:0:0:0:
287,228,15675,1,2,0:0:0:0:
322,129,15994,2,0,L|310:84,2,37.5,2|0|0,0:1|0:0|0:0,0:0:0:0:
404,252,16632,6,0,P|412:204|425:178,1,75,10|0,0:3|0:0,0:0:0:0:
478,85,17271,1,2,0:0:0:0:
390,36,17590,1,0,0:0:0:0:
322,129,17909,2,0,B|294:128|272:118|272:118|233:133|233:133|210:127|159:125,1,150,10|2,0:3|0:0,0:0:0:0:
88,73,18867,1,0,0:0:0:0:
37,162,19186,6,0,B|47:225|47:225|40:242|40:242|51:319,1,150,10|2,0:3|0:0,0:0:0:0:
158,343,20143,1,2,0:1:0:0:
228,260,20462,2,0,L|306:266,1,75,8|0,0:3|0:0,0:0:0:0:
385,324,21101,2,0,L|474:312,1,75,2|0,0:1|0:0,0:0:0:0:
506,222,21739,5,4,0:0:0:0:
83,238,25486,5,2,0:1:0:0:
83,238,25962,2,0,L|41:235,2,30,2|2|2,0:0|0:0|0:1,0:0:0:0:
175,246,26279,2,0,L|292:254,1,104.999996795654,0|0,0:0|0:0,0:0:0:0:
325,317,26755,6,0,B|309:266|309:266|320:216|371:185,1,134.999995880127,14|8,0:1|0:2,0:0:0:0:
419,139,27232,1,2,0:2:0:0:
373,69,27390,2,0,L|281:74,1,67.4999979400635,8|2,0:1|0:0,0:0:0:0:
282,83,27628,1,0,0:0:0:0:
260,91,27708,2,0,L|185:88,1,67.4999979400635,8|2,0:2|0:0,0:0:0:0:
106,52,28025,6,0,P|44:61|24:151,1,134.999995880127,0|8,0:0|0:2,0:0:0:0:
32,203,28501,1,2,0:2:0:0:
118,208,28660,2,0,L|202:213,1,67.4999979400635,8|10,0:2|0:1,0:0:0:0:
208,221,28898,1,0,0:0:0:0:
229,231,28978,2,0,L|307:228,1,67.4999979400635,8|0,0:2|0:0,0:0:0:0:
358,172,29295,6,0,B|387:145|387:145|443:151|452:213,1,134.999995880127,10|8,0:1|0:2,0:0:0:0:
478,287,29771,1,2,0:0:0:0:
416,342,29930,2,0,P|378:339|343:327,1,67.4999979400635,8|2,0:0|0:0,0:0:0:0:
261,313,30247,2,0,P|223:316|184:332,1,67.4999979400635,8|0,0:2|0:0,0:0:0:0:
90,383,30565,6,0,P|89:330|52:239,1,134.999995880127,10|10,0:0|0:2,0:0:0:0:
0,187,31041,1,0,0:0:0:0:
61,126,31200,1,10,0:0:0:0:
61,126,31359,1,10,0:1:0:0:
128,187,31517,2,0,L|204:192,1,67.4999979400635,8|0,0:2|0:0,0:0:0:0:
286,140,31835,6,0,P|280:68|269:3,2,134.999995880127,14|8|10,0:0|0:2|0:1,0:0:0:0:
297,229,32628,1,0,0:0:0:0:
380,255,32787,2,0,P|416:256|453:253,1,67.4999979400635,10|0,0:0|0:0,0:0:0:0:
366,345,33105,6,0,P|325:335|232:325,2,134.999995880127,10|8|8,0:0|0:2|0:1,0:0:0:0:
461,345,33898,1,0,0:0:0:0:
447,253,34057,2,0,P|445:214|453:176,1,67.4999979400635,10|0,0:2|0:0,0:0:0:0:
457,72,34374,6,0,P|407:93|324:69,1,134.999995880127,10|10,0:0|0:2,0:0:0:0:
279,8,34851,1,0,0:0:0:0:
198,50,35009,2,0,L|205:123,1,67.4999979400635,10|2,0:1|0:0,0:0:0:0:
228,203,35327,5,8,0:2:0:0:
305,150,35485,1,4,1:2:0:0:
305,150,36914,6,0,P|343:186|404:198,1,104.999996795654,14|0,2:1|2:1,0:0:0:0:
474,203,37390,1,2,2:1:0:0:
413,348,37708,1,0,2:1:0:0:
340,318,37866,1,10,2:1:0:0:
279,369,38025,2,0,P|264:345|259:319,1,52.4999983978272,2|0,2:1|0:0,0:0:0:0:
182,339,38343,2,0,P|181:312|189:287,1,52.4999983978272,0|0,2:1|0:0,0:0:0:0:
112,264,38660,2,0,P|124:241|143:224,1,52.4999983978272,2|0,2:1|0:0,0:0:0:0:
143,223,39136,2,0,L|85:218,1,52.4999983978272,10|2,2:1|2:1,0:0:0:0:
241,220,39454,6,0,L|355:227,1,104.999996795654,10|8,2:1|2:1,0:0:0:0:
413,186,39930,2,0,P|419:160|415:134,1,52.4999983978272,2|0,2:1|0:0,0:0:0:0:
367,72,40247,1,0,2:1:0:0:
252,178,40565,2,0,P|195:185|148:159,1,104.999996795654,2|0,2:1|2:1,0:0:0:0:
212,104,41041,1,10,2:1:0:0:
212,104,41200,2,0,L|216:48,1,52.4999983978272,2|0,2:1|0:0,0:0:0:0:
216,52,41676,2,0,L|158:49,1,52.4999983978272,0|0,0:0|0:0,0:0:0:0:
298,74,41993,6,0,P|347:57|410:66,1,104.999996795654,10|8,2:1|2:1,0:0:0:0:
476,102,42470,1,2,2:1:0:0:
476,102,42628,2,0,P|485:126|488:152,1,52.4999983978272,10|0,2:1|0:0,0:0:0:0:
478,235,42946,1,8,2:1:0:0:
399,244,43105,2,0,P|370:243|346:250,1,52.4999983978272,2|0,2:1|0:0,0:0:0:0:
277,288,43422,2,0,P|251:301|234:319,1,52.4999983978272,2|0,2:1|0:0,0:0:0:0:
181,376,43739,1,2,2:1:0:0:
146,227,44057,1,2,2:1:0:0:
146,227,44216,2,0,L|87:225,1,52.4999983978272,8|0,2:1|2:1,0:0:0:0:
36,276,44533,6,0,P|49:226|30:171,1,104.999996795654,10|8,2:1|2:1,0:0:0:0:
1,98,45009,2,0,P|-6:72|-7:46,2,52.4999983978272,2|0|0,2:1|0:0|2:1,0:0:0:0:
87,118,45485,1,10,2:1:0:0:
87,118,45644,2,0,P|150:95|231:150,1,157.499995193482,2|0,2:1|0:0,0:0:0:0:
307,180,46279,6,0,B|304:167|304:167|310:157|310:157|307:142|307:142|310:127|310:127|305:112|305:112|307:87,1,89.9999972534181,2|2,2:1|2:1,0:0:0:0:
306,93,47073,6,0,L|389:93,1,67.4999979400635,14|0,0:1|0:0,0:0:0:0:
446,145,47390,2,0,L|446:217,1,67.4999979400635,10|0,0:0|0:0,0:0:0:0:
364,224,47708,2,0,L|447:224,1,67.4999979400635,10|8,0:1|0:1,0:0:0:0:
512,270,48025,1,8,0:0:0:0:
458,335,48184,2,0,B|408:333|408:333|384:362|384:362|322:362,1,134.999995880127,2|0,0:0|0:0,0:0:0:0:
257,323,48660,2,0,P|249:277|256:252,1,67.4999979400635,10|0,0:0|0:0,0:0:0:0:
195,189,48978,2,0,P|174:215|164:247,1,67.4999979400635,10|8,0:1|0:1,0:0:0:0:
254,257,49295,1,8,0:0:0:0:
274,146,49454,6,0,P|224:101|158:106,1,134.999995880127,2|0,0:0|0:0,0:0:0:0:
77,146,49930,2,0,P|56:172|46:204,1,67.4999979400635,10|0,0:0|0:0,0:0:0:0:
47,56,50247,2,0,P|110:57|160:107,1,134.999995880127,10|8,0:1|0:0,0:0:0:0:
195,189,50724,1,2,0:0:0:0:
260,111,50882,6,0,P|270:71|287:46,1,67.4999979400635,10|0,0:1|0:0,0:0:0:0:
348,113,51200,2,0,P|376:83|403:70,1,67.4999979400635,10|0,0:0|0:0,0:0:0:0:
432,160,51517,1,10,0:1:0:0:
432,160,51676,1,8,0:1:0:0:
373,227,51835,2,0,L|379:364,1,134.999995880127,8|8,0:0|0:1,0:0:0:0:
292,361,52311,5,2,0:0:0:0:
292,361,52470,2,0,L|287:285,1,67.4999979400635,10|0,0:0|0:0,0:0:0:0:
223,225,52787,2,0,P|190:223|158:232,1,67.4999979400635,10|0,0:1|0:0,0:0:0:0:
83,281,53105,1,10,0:0:0:0:
139,355,53263,2,0,P|167:315|157:232,1,134.999995880127,2|0,0:2|0:0,0:0:0:0:
115,156,53739,2,0,P|110:122|116:87,1,67.4999979400635,8|0,0:0|0:0,0:0:0:0:
179,35,54057,2,0,L|249:42,1,67.4999979400635,10|0,0:1|0:0,0:0:0:0:
332,58,54374,1,10,0:0:0:0:
267,131,54533,2,0,L|200:122,1,67.4999979400635,2|8,0:0|0:1,0:0:0:0:
300,222,54851,5,2,0:0:0:0:
300,222,55009,2,0,L|233:213,1,67.4999979400635,10|2,0:1|0:0,0:0:0:0:
330,319,55327,1,10,0:1:0:0:
330,319,55485,2,0,L|263:310,1,67.4999979400635,2|8,0:0|0:0,0:0:0:0:
178,295,55803,1,2,0:0:0:0:
93,346,55962,6,0,P|84:313|83:279,1,67.4999979400635,10|8,0:1|0:1,0:0:0:0:
12,225,56279,2,0,P|18:191|18:158,1,67.4999979400635,10|0,0:0|0:0,0:0:0:0:
103,130,56597,2,0,P|94:88|97:57,1,67.4999979400635,10|8,0:1|0:1,0:0:0:0:
174,10,56914,2,0,P|214:23|240:41,1,67.4999979400635,10|8,0:0|0:0,0:0:0:0:
251,55,57152,1,8,0:1:0:0:
266,66,57232,6,0,L|332:60,2,52.4999983978272,14|8|0,1:1|0:3|0:0,0:0:0:0:
216,154,57708,1,2,0:0:0:0:
216,154,58025,2,0,L|221:220,1,52.4999983978272,2|0,0:0|0:0,0:0:0:0:
229,304,58343,1,2,0:1:0:0:
229,304,59136,2,0,L|167:303,1,52.4999983978272,8|8,0:1|0:1,0:0:0:0:
302,364,59454,1,10,2:2:0:0:
302,364,59612,1,10,2:2:0:0:
399,330,59771,6,0,B|402:278|402:278|377:247|377:247|385:175,1,150,14|0,0:1|0:0,0:0:0:0:
438,114,60247,2,0,L|517:107,1,75,10|8,0:2|0:1,0:0:0:0:
374,44,60565,1,2,0:0:0:0:
329,127,60724,1,10,0:0:0:0:
329,127,60882,2,0,L|232:133,1,75,2|0,0:0|0:0,0:0:0:0:
174,109,61200,5,2,0:1:0:0:
130,184,61359,1,2,0:1:0:0:
44,34,61676,5,2,0:1:0:0:
130,34,61835,1,2,0:1:0:0:
44,184,62152,5,2,0:1:0:0:
0,109,62311,1,2,0:1:0:0:
174,109,62628,5,2,0:1:0:0:
130,184,62787,1,2,0:1:0:0:
130,184,63581,6,0,B|176:207|223:186|223:186|227:215|256:245,1,150,14|8,0:1|0:2,0:0:0:0:
314,291,64057,1,2,0:0:0:0:
397,274,64216,2,0,L|478:275,1,75,10|0,0:1|0:0,0:0:0:0:
512,187,64533,2,0,L|433:186,1,75,10|0,0:2|0:0,0:0:0:0:
351,139,64851,6,0,P|341:86|402:15,1,150,10|8,0:1|0:2,0:0:0:0:
431,100,65327,1,2,0:0:0:0:
342,155,65485,2,0,L|266:154,1,75,10|8,0:1|0:1,0:0:0:0:
199,91,65803,2,0,L|123:90,1,75,10|0,0:2|0:0,0:0:0:0:
101,186,66120,6,0,B|71:136|8:138|8:138|12:182,1,150,6|8,0:1|0:2,0:0:0:0:
26,283,66597,2,0,L|33:363,1,75,2|8,0:0|0:1,0:0:0:0:
133,378,66914,2,0,L|142:301,1,75,2|8,0:0|0:2,0:0:0:0:
223,213,67232,6,0,P|273:199|380:208,1,150,2|0,0:0|0:0,0:0:0:0:
440,252,67708,1,10,0:2:0:0:
380,185,67866,2,0,B|360:103|421:119|401:35,1,150,2|0,0:1|0:0,0:0:0:0:
314,7,68343,2,0,L|237:15,1,75,8|2,0:2|0:0,0:0:0:0:
127,96,68660,6,0,B|181:86|181:86|215:108|215:108|290:99,1,150,14|8,0:1|0:2,0:0:0:0:
345,142,69136,1,0,0:0:0:0:
294,216,69295,2,0,P|286:252|291:291,1,75,10|8,0:1|0:1,0:0:0:0:
379,254,69612,1,8,0:2:0:0:
278,204,69771,6,0,L|197:206,1,75,2|0,0:0|0:0,0:0:0:0:
146,278,70089,2,0,L|69:278,1,75,2|8,0:0|0:2,0:0:0:0:
13,221,70406,1,0,0:0:0:0:
47,135,70565,2,0,P|78:157|98:189,1,75,10|0,0:1|0:0,0:0:0:0:
166,125,70882,2,0,P|185:93|215:71,1,75,10|0,0:2|0:0,0:0:0:0:
256,148,71200,6,0,B|288:183|288:183|356:196|383:161,1,142.49999619484,14|8,0:1|0:2,0:0:0:0:
426,93,71676,1,2,0:0:0:0:
466,166,71835,2,0,L|467:252,1,71.2499980974198,8|10,0:1|0:1,0:0:0:0:
467,322,72152,1,10,0:2:0:0:
377,290,72311,5,10,0:2:0:0:
377,290,72470,2,0,B|337:277|337:277|296:281|296:281|276:299|276:299|218:303,1,142.49999619484,14|10,0:0|0:2,0:0:0:0:
162,311,72946,1,2,0:0:0:0:
116,244,73105,2,0,L|60:250,3,35.6249990487099,10|2|10|0,0:1|0:0|0:1|0:0,0:0:0:0:
58,236,73422,2,0,L|57:150,1,71.2499980974198,10|8,0:2|0:2,0:0:0:0:
10,86,73739,6,0,P|64:138|122:97,1,150,14|8,0:0|0:2,0:0:0:0:
150,25,74216,1,2,0:0:0:0:
230,64,74374,2,0,L|228:146,1,75,10|0,0:1|0:0,0:0:0:0:
310,194,74692,2,0,L|313:268,1,75,10|2,0:2|0:0,0:0:0:0:
275,348,75009,6,0,P|319:294|381:326,1,150,10|8,0:1|0:2,0:0:0:0:
446,384,75485,1,2,0:0:0:0:
494,317,75644,2,0,L|483:239,1,75,10|0,0:1|0:0,0:0:0:0:
403,199,75962,2,0,L|411:119,1,75,10|0,0:2|0:0,0:0:0:0:
454,32,76279,6,0,B|400:25|400:25|361:46|361:46|309:41,1,150,14|8,0:1|0:2,0:0:0:0:
228,110,76755,2,0,P|298:109|301:29,1,150,2|0,0:0|0:0,0:0:0:0:
224,23,77232,1,10,0:2:0:0:
224,23,77390,1,2,0:0:0:0:
146,81,77549,6,0,L|151:156,1,75,10|8,0:1|0:1,0:0:0:0:
141,176,77787,1,0,0:0:0:0:
133,193,77866,2,0,L|140:281,1,75,10|8,0:2|0:2,0:0:0:0:
204,329,78184,2,0,P|149:295|97:357,1,150,10|8,0:1|0:2,0:0:0:0:
97,348,78819,6,0,L|56:281,1,75,14|2,0:0|0:0,0:0:0:0:
2,203,79136,1,2,0:0:0:0:
75,128,79295,2,0,L|42:73,2,37.5,2|2|2,1:2|1:2|1:2,0:0:0:0:
181,175,79612,1,2,0:0:0:0:
181,175,79692,1,2,0:0:0:0:
181,175,79771,2,0,L|246:134,1,75,10|0,0:2|0:0,0:0:0:0:
277,42,80089,6,0,L|251:-2,2,37.5,10|2|2,0:0|0:0|0:0,0:0:0:0:
375,69,80406,2,0,L|413:45,2,37.5,10|2|2,0:2|0:0|0:0,0:0:0:0:
340,161,80724,2,0,L|360:195,2,37.5,10|2|2,0:1|0:0|0:0,0:0:0:0:
251,140,81041,1,10,0:2:0:0:
251,140,81200,1,0,0:0:0:0:
196,220,81359,5,2,0:1:0:0:
196,220,81517,1,2,0:1:0:0:
354,275,81835,5,2,0:1:0:0:
354,275,81993,1,2,0:1:0:0:
250,373,82311,5,2,0:1:0:0:
250,373,82470,1,2,0:1:0:0:
102,340,82787,5,2,0:1:0:0:
102,340,82946,1,2,0:1:0:0:
59,210,83263,5,2,0:1:0:0:
59,210,83898,6,0,P|89:162|77:83,1,134.999995880127,14|8,2:1|0:0,0:0:0:0:
73,6,84374,1,0,0:0:0:0:
153,26,84533,2,0,L|233:16,1,67.4999979400635,8|0,0:1|0:0,0:0:0:0:
243,27,84771,1,2,0:0:0:0:
263,35,84851,2,0,L|335:29,1,67.4999979400635,8|0,0:0|0:0,0:0:0:0:
428,34,85168,6,0,P|473:73|480:149,1,134.999995880127,8|8,0:1|0:0,0:0:0:0:
442,217,85644,1,0,0:0:0:0:
361,199,85803,2,0,L|288:210,1,67.4999979400635,8|0,0:1|0:0,0:0:0:0:
283,226,86041,1,2,0:0:0:0:
269,241,86120,2,0,L|198:240,1,67.4999979400635,8|0,0:0|0:0,0:0:0:0:
155,163,86438,6,0,B|108:136|108:136|65:147|12:177,1,134.999995880127,10|8,2:1|0:0,0:0:0:0:
12,243,86914,1,0,0:0:0:0:
81,284,87073,2,0,P|106:320|117:354,1,67.4999979400635,8|0,0:1|0:0,0:0:0:0:
201,383,87390,2,0,P|207:342|218:312,1,67.4999979400635,8|0,0:0|0:0,0:0:0:0:
292,263,87708,6,0,L|372:253,1,67.4999979400635,8|0,0:1|0:0,0:0:0:0:
436,306,88025,2,0,L|516:316,1,67.4999979400635,8|0,0:0|0:0,0:0:0:0:
512,228,88343,2,0,L|432:218,1,67.4999979400635,8|0,0:1|0:0,0:0:0:0:
383,164,88660,2,0,L|303:174,1,67.4999979400635,8|0,0:0|0:0,0:0:0:0:
181,141,88978,6,0,P|120:110|54:100,2,134.999995880127,14|8|8,2:1|0:0|0:1,0:0:0:0:
238,206,89771,1,0,0:0:0:0:
179,268,89930,2,0,P|142:277|107:275,1,67.4999979400635,8|0,0:0|0:0,0:0:0:0:
234,331,90247,6,0,P|282:307|366:301,2,134.999995880127,10|8|8,2:1|0:0|0:1,0:0:0:0:
151,353,91041,1,0,0:0:0:0:
112,275,91200,2,0,P|106:241|108:208,1,67.4999979400635,8|0,0:0|0:0,0:0:0:0:
195,132,91517,6,0,P|207:50|194:-6,2,134.999995880127,8|8|8,0:1|0:0|0:1,0:0:0:0:
144,210,92311,1,0,0:0:0:0:
222,254,92470,1,8,0:0:0:0:
222,254,92628,1,0,0:0:0:0:
294,194,92787,6,0,P|356:167|420:192,1,134.999995880127,8|8,0:1|0:0,0:0:0:0:
472,249,93263,1,0,0:0:0:0:
418,314,93422,2,8,L|383:309,3,33.7499989700318
360,321,93739,2,0,L|280:322,1,67.4999979400635,8|0,0:1|0:0,0:0:0:0:
201,342,94057,6,0,P|153:320|86:323,1,104.999996795654,14|8,2:1|2:1,0:0:0:0:
20,330,94533,1,2,2:1:0:0:
112,201,94851,1,0,2:1:0:0:
84,127,95009,1,10,2:1:0:0:
139,70,95168,2,0,P|159:85|176:106,1,52.4999983978272,2|8,2:1|2:1,0:0:0:0:
241,59,95485,2,0,P|250:83|254:109,1,52.4999983978272,2|8,2:1|2:1,0:0:0:0:
332,103,95803,2,0,P|328:128|319:153,1,52.4999983978272,2|8,2:1|2:1,0:0:0:0:
318,153,96279,2,0,L|390:156,1,52.4999983978272,10|10,2:1|2:1,0:0:0:0:
317,245,96597,6,0,L|208:242,1,104.999996795654,10|8,2:1|2:1,0:0:0:0:
179,320,97073,2,0,L|238:323,1,52.4999983978272,2|8,2:1|0:1,0:0:0:0:
300,365,97390,1,0,2:1:0:0:
411,288,97708,2,0,P|422:228|404:180,1,104.999996795654,2|0,2:1|2:1,0:0:0:0:
374,104,98184,1,2,2:1:0:0:
374,104,98343,2,0,L|377:49,1,52.4999983978272,2|8,2:1|0:1,0:0:0:0:
376,51,98819,2,0,L|433:55,1,52.4999983978272,8|8,0:1|0:1,0:0:0:0:
288,92,99136,6,0,B|248:89|248:89|225:101|225:101|164:96,1,104.999996795654,2|8,2:1|2:1,0:0:0:0:
126,35,99612,1,2,2:1:0:0:
126,35,99771,2,0,L|62:33,1,52.4999983978272,8|0,0:1|2:1,0:0:0:0:
4,76,100089,1,10,2:1:0:0:
69,120,100247,2,0,P|86:137|99:162,1,52.4999983978272,2|8,2:1|0:1,0:0:0:0:
134,232,100565,2,0,P|140:255|141:287,1,52.4999983978272,2|8,2:1|0:1,0:0:0:0:
131,362,100882,1,2,2:1:0:0:
0,271,101200,1,10,2:1:0:0:
0,271,101359,2,0,L|71:271,1,52.4999983978272,0|0,2:1|2:1,0:0:0:0:
141,283,101676,5,2,2:1:0:0:
232,149,102152,1,2,2:1:0:0:
326,8,102628,1,2,2:1:0:0:
417,93,102946,6,0,L|459:70,2,34.9999989318848,4|0|0,0:0|0:0|0:0,0:0:0:0:
332,112,103263,2,0,L|288:96,2,34.9999989318848,2|0|0,0:0|0:0|0:0,0:0:0:0:
388,177,103581,2,0,L|396:229,2,34.9999989318848,2|0|0,0:1|0:0|0:0,0:0:0:0:
417,93,103898,5,2,2:2:0:0:
299,220,104216,2,0,L|210:215,1,80,14|0,0:1|0:0,0:0:0:0:
166,159,104533,2,0,L|77:163,1,80,2|0,0:0|0:0,0:0:0:0:
18,200,104851,2,0,P|9:150|24:114,2,80,8|0|0,1:2|0:0|0:0,0:0:0:0:
65,266,105380,6,0,P|115:265|186:296,1,120,2|0,0:0|0:0,0:0:0:0:
250,325,105803,1,2,0:0:0:0:
317,205,106120,2,0,P|343:253|353:329,1,120,8|2,1:2|0:0,0:0:0:0:
437,365,106650,6,0,P|438:306|464:240,1,120,0|0,0:0|0:0,0:0:0:0:
496,181,107073,1,2,0:0:0:0:
435,47,107390,1,8,1:2:0:0:
285,69,107708,1,2,0:0:0:0:
366,234,108025,6,0,P|360:167|372:106,1,120,10|2,0:1|0:0,0:0:0:0:
243,186,108660,1,8,1:2:0:0:
292,317,108978,2,0,L|351:318,2,40,0|0|0,3:0|3:0|3:0,0:0:0:0:
224,356,109295,5,14,0:1:0:0:
87,237,109612,2,0,L|88:157,1,80,2|0,0:0|0:0,0:0:0:0:
131,92,109930,2,0,P|92:80|49:90,2,80,8|0|0,1:2|0:0|0:0,0:0:0:0:
199,132,110459,2,0,B|255:147|297:117|297:117|353:124,1,160,0|8,0:0|2:1,0:0:0:0:
512,158,111200,2,0,P|460:158|401:209,1,120,8|2,1:2|0:0,0:0:0:0:
331,344,111835,6,0,L|327:259,1,80,10|0,0:1|0:0,0:0:0:0:
267,212,112152,2,0,P|220:206|185:215,1,80,2|0,0:0|0:0,0:0:0:0:
116,176,112470,2,0,P|110:128|89:85,2,80,8|0|0,1:2|0:0|0:0,0:0:0:0:
121,258,112999,5,4,0:0:0:0:
121,258,114374,6,0,L|46:258,2,67.4999979400635,14|8|0,1:1|0:3|0:0,0:0:0:0:
223,262,114851,1,2,0:0:0:0:
223,262,115168,2,0,L|220:188,1,67.4999979400635,2|0,0:0|0:0,0:0:0:0:
220,91,115485,1,2,0:1:0:0:
220,91,116279,2,0,L|143:93,1,67.4999979400635,8|8,0:1|0:1,0:0:0:0:
275,26,116597,1,10,2:2:0:0:
275,26,116755,1,10,2:2:0:0:
359,49,116914,6,0,B|368:87|368:87|349:122|349:122|341:145|355:192,1,150,14|0,0:1|0:0,0:0:0:0:
422,243,117390,2,0,L|501:243,1,75,10|8,0:2|0:1,0:0:0:0:
366,311,117708,1,2,0:0:0:0:
302,256,117866,1,10,0:0:0:0:
302,256,118025,2,0,L|224:261,1,75,2|0,0:0|0:0,0:0:0:0:
119,217,118343,5,2,0:1:0:0:
42,259,118501,1,2,0:1:0:0:
198,182,118819,5,2,0:1:0:0:
227,260,118977,1,2,0:1:0:0:
166,96,119295,5,2,0:1:0:0:
89,138,119453,1,2,0:1:0:0:
248,59,119771,5,2,0:1:0:0:
277,137,119929,1,2,0:1:0:0:
277,137,120724,6,0,B|240:152|240:152|209:219|262:256,1,157.499995193482,14|8,0:0|0:2,0:0:0:0:
343,275,121200,1,2,0:0:0:0:
403,215,121359,2,0,L|489:219,1,78.7499975967408,10|0,0:1|0:0,0:0:0:0:
477,120,121676,2,0,L|391:116,1,78.7499975967408,10|0,0:2|0:0,0:0:0:0:
301,161,121993,6,0,B|209:146|241:211|154:198,1,157.499995193482,10|8,0:0|0:2,0:0:0:0:
73,182,122470,1,2,0:0:0:0:
75,99,122628,2,0,L|79:11,1,78.7499975967408,10|8,0:1|0:0,0:0:0:0:
169,35,122946,2,0,L|165:123,1,78.7499975967408,10|0,0:2|0:0,0:0:0:0:
158,219,123263,6,0,B|233:196|233:196|281:196|289:257,1,157.499995193482,10|8,0:0|0:2,0:0:0:0:
339,313,123739,2,0,P|363:281|371:243,1,78.7499975967408,2|8,0:0|0:0,0:0:0:0:
352,163,124057,2,0,P|345:124|354:86,1,78.7499975967408,2|8,0:0|0:2,0:0:0:0:
420,39,124374,6,0,P|371:61|274:26,1,157.499995193482,2|0,0:0|0:0,0:0:0:0:
195,0,124851,1,10,0:2:0:0:
133,61,125009,2,0,B|144:114|144:114|128:145|128:145|120:176|137:214,1,157.499995193482,2|2,0:2|0:0,0:0:0:0:
201,264,125485,2,0,P|244:253|280:256,1,78.7499975967408,8|2,0:2|0:0,0:0:0:0:
194,346,125803,6,0,P|137:328|35:338,1,157.499995193482,14|8,0:0|0:2,0:0:0:0:
0,261,126279,1,2,0:0:0:0:
53,196,126438,2,0,P|64:150|58:109,1,78.7499975967408,10|0,0:1|0:0,0:0:0:0:
41,36,126755,1,8,0:2:0:0:
135,54,126914,6,0,B|195:49|195:49|229:65|229:65|310:61,1,157.499995193482,2|2,0:0|0:0,0:0:0:0:
366,32,127390,2,0,L|449:36,1,78.7499975967408,10|0,0:2|0:0,0:0:0:0:
477,119,127708,2,0,L|386:115,1,78.7499975967408,10|0,0:1|0:0,0:0:0:0:
366,195,128025,2,0,L|449:199,1,78.7499975967408,10|0,0:2|0:0,0:0:0:0:
345,279,128343,6,0,P|304:253|292:155,1,150,14|8,0:0|0:2,0:0:0:0:
337,83,128819,1,2,0:0:0:0:
269,37,128978,2,0,L|187:41,1,75,2|10,0:0|0:1,0:0:0:0:
102,42,129295,1,10,0:2:0:0:
132,128,129454,5,2,0:0:0:0:
132,128,129612,2,0,B|143:167|143:167|115:211|115:211|119:268,1,150,14|10,0:0|0:2,0:0:0:0:
136,348,130089,1,2,0:0:0:0:
216,323,130247,2,0,L|260:324,3,37.5,10|2|8|8,0:1|0:0|0:1|0:1,0:0:0:0:
278,333,130565,2,0,L|359:327,1,75,10|10,0:2|0:2,0:0:0:0:
423,379,130882,6,0,P|382:318|436:270,1,157.499995193482,14|8,0:0|0:2,0:0:0:0:
509,225,131359,1,2,0:0:0:0:
470,150,131517,2,0,L|386:155,1,78.7499975967408,10|0,0:0|0:0,0:0:0:0:
320,104,131835,2,0,L|238:110,1,78.7499975967408,10|0,0:2|0:0,0:0:0:0:
187,178,132152,6,0,P|215:110|153:72,1,157.499995193482,10|8,0:0|0:2,0:0:0:0:
103,149,132628,1,2,0:0:0:0:
115,241,132787,2,0,L|131:321,1,78.7499975967408,10|0,0:1|0:0,0:0:0:0:
33,367,133105,2,0,L|38:280,1,78.7499975967408,10|0,0:2|0:0,0:0:0:0:
130,318,133422,6,0,B|184:309|184:309|221:332|221:332|293:319,1,157.499995193482,14|8,0:0|0:2,0:0:0:0:
354,258,133898,2,0,P|284:250|308:336,1,157.499995193482,2|0,0:0|0:0,0:0:0:0:
365,350,134374,1,10,0:2:0:0:
365,350,134533,1,2,0:0:0:0:
443,292,134692,6,0,L|440:208,1,78.7499975967408,10|8,0:1|0:1,0:0:0:0:
425,195,134930,1,0,0:0:0:0:
410,177,135009,2,0,L|408:95,1,78.7499975967408,10|8,0:2|0:2,0:0:0:0:
471,39,135327,2,0,P|418:81|338:29,1,157.499995193482,10|8,0:1|0:2,0:0:0:0:
344,45,135962,6,0,L|372:12,2,39.3749987983704,10|2|2,0:0|0:0|0:0,0:0:0:0:
280,105,136279,1,10,0:2:0:0:
213,36,136438,1,2,0:0:0:0:
213,36,136517,1,2,0:0:0:0:
213,36,136597,2,0,L|153:90,1,78.7499975967408,10|10,0:1|0:1,0:0:0:0:
94,145,136914,1,10,0:2:0:0:
94,145,137073,1,2,0:0:0:0:
182,186,137232,6,0,L|248:258,1,78.7499975967408,10|2,0:1|0:0,0:0:0:0:
332,245,137549,2,0,L|368:215,2,39.3749987983704,10|2|2,0:2|0:0|0:0,0:0:0:0:
325,336,137866,2,0,L|358:375,2,39.3749987983704,10|10|2,0:1|0:2|0:0,0:0:0:0:
228,338,138184,1,10,0:2:0:0:
228,338,138343,1,10,0:0:0:0:
129,313,138501,5,2,0:0:0:0:
129,313,138660,2,0,L|47:316,1,71.2499980974198,2|0,0:0|0:0,0:0:0:0:
0,243,138978,1,2,0:0:0:0:
0,243,139136,2,0,L|-1:162,1,71.2499980974198,2|0,0:0|0:0,0:0:0:0:
74,110,139454,1,2,0:0:0:0:
74,110,139612,2,0,L|160:108,1,71.2499980974198,2|0,0:0|0:0,0:0:0:0:
222,181,139930,5,2,0:0:0:0:
222,181,140089,2,0,L|227:264,1,71.2499980974198,2|0,0:0|0:0,0:0:0:0:
316,314,140406,2,0,L|317:229,1,71.2499980974198,10|0,1:1|1:0,0:0:0:0:
395,209,140724,2,0,B|401:175|401:175|388:140,1,71.2499980974198,10|0,0:2|0:0,0:0:0:0:
339,80,141041,6,0,P|400:113|467:94,2,142.49999619484,14|8|8,0:0|0:2|0:0,0:0:0:0:
287,11,141835,1,2,0:0:0:0:
214,58,141993,2,0,P|204:87|201:130,1,71.2499980974198,10|0,0:2|0:0,0:0:0:0:
229,208,142311,2,0,B|201:221|165:208|165:208|139:191|139:191|93:192,1,142.49999619484,10|8,0:1|0:2,0:0:0:0:
40,280,142787,2,0,B|121:279,1,71.2499980974198,2|8,0:0|0:0,0:0:0:0:
186,336,143105,1,2,0:0:0:0:
186,336,143263,2,0,L|265:338,1,71.2499980974198,10|0,0:2|0:0,0:0:0:0:
343,236,143581,6,0,L|271:235,1,71.2499980974198,14|0,0:0|0:0,0:0:0:0:
200,193,143898,2,0,B|191:157|191:157|201:119,1,71.2499980974198,8|0,0:2|0:0,0:0:0:0:
268,73,144216,2,0,B|341:74,2,71.2499980974198,10|0|8,0:1|0:0|0:2,0:0:0:0:
199,123,144692,1,0,0:0:0:0:
135,63,144851,6,0,B|99:45|99:45|79:70|45:76|45:76|47:118,1,142.49999619484,10|8,0:0|0:2,0:0:0:0:
53,200,145327,1,2,0:0:0:0:
128,245,145485,2,0,P|167:243|200:229,1,71.2499980974198,10|0,0:1|0:0,0:0:0:0:
271,194,145803,2,0,P|307:189|350:200,1,71.2499980974198,10|0,0:2|0:0,0:0:0:0:
428,213,146120,6,0,P|367:219|325:286,1,142.49999619484,14|10,0:0|0:2,0:0:0:0:
275,358,146597,1,2,0:0:0:0:
275,358,146755,2,0,L|179:354,1,71.2499980974198,10|2,0:1|0:0,0:0:0:0:
130,308,147073,2,0,L|36:313,1,71.2499980974198,8|0,0:2|0:0,0:0:0:0:
17,228,147390,6,0,B|18:191|18:191|34:163|34:163|18:131|18:131|23:90,1,142.49999619484,10|10,0:0|0:2,0:0:0:0:
82,34,147866,2,0,B|118:27|118:27|156:37,1,71.2499980974198,2|2,0:0|0:0,0:0:0:0:
224,95,148184,1,2,0:0:0:0:
224,95,148343,2,0,L|311:98,1,71.2499980974198,10|0,0:2|0:0,0:0:0:0:
364,41,148660,6,0,B|438:40,1,71.2499980974198,14|0,0:0|0:0,0:0:0:0:
453,52,148898,1,8,0:1:0:0:
467,69,148978,2,0,L|476:153,1,71.2499980974198,10|2,0:2|0:0,0:0:0:0:
382,198,149295,2,0,L|381:112,1,71.2499980974198,10|0,0:1|0:0,0:0:0:0:
295,97,149612,1,10,0:2:0:0:
245,175,149771,6,0,B|209:210|150:199|150:199|116:150,1,142.49999619484,10|8,0:0|0:1,0:0:0:0:
80,94,150247,1,8,0:2:0:0:
31,167,150406,2,0,P|21:191|21:241,2,71.2499980974198,2|10|0,0:0|0:1|0:0,0:0:0:0:
127,166,150882,2,0,P|138:199|138:242,1,71.2499980974198,10|2,0:2|0:0,0:0:0:0:
182,321,151200,6,0,L|260:318,1,71.2499980974198,14|0,0:0|0:0,0:0:0:0:
294,242,151517,2,0,L|376:238,1,71.2499980974198,10|0,0:2|0:0,0:0:0:0:
322,152,151835,2,0,L|244:155,1,71.2499980974198,10|0,0:0|0:0,0:0:0:0:
210,231,152152,2,0,L|128:235,1,71.2499980974198,10|0,0:2|0:0,0:0:0:0:
46,263,152470,6,0,L|42:185,1,71.2499980974198,10|0,0:0|0:0,0:0:0:0:
114,143,152787,2,0,L|110:60,1,71.2499980974198,10|0,0:2|0:0,0:0:0:0:
206,114,153105,2,0,L|209:191,1,71.2499980974198,10|0,0:0|0:0,0:0:0:0:
138,234,153422,2,0,L|141:316,1,71.2499980974198,10|0,0:2|0:0,0:0:0:0:
219,356,153739,6,0,B|260:340|260:340|308:371|364:352,1,142.49999619484,14|10,0:0|0:2,0:0:0:0:
329,197,154374,1,10,0:0:0:0:
329,197,154533,2,0,L|324:279,1,71.2499980974198,0|10,0:0|0:2,0:0:0:0:
426,295,154851,1,0,0:0:0:0:
426,295,155009,6,0,L|428:213,1,71.2499980974198,10|0,0:1|0:0,0:0:0:0:
436,202,155247,1,0,0:0:0:0:
446,185,155327,2,0,L|447:110,1,71.2499980974198,8|0,0:2|0:0,0:0:0:0:
393,36,155644,2,0,L|289:42,1,71.2499980974198,10|2,0:1|0:0,0:0:0:0:
232,44,155962,1,10,0:2:0:0:
232,44,156279,6,0,L|155:47,1,71.2499980974198,14|2,0:1|0:0,0:0:0:0:
73,55,156597,1,10,0:2:0:0:
127,144,156755,1,2,0:0:0:0:
127,144,156835,1,2,0:0:0:0:
127,144,156914,2,0,L|212:140,1,71.2499980974198,10|2,0:1|0:0,0:0:0:0:
264,194,157232,2,0,L|340:190,1,71.2499980974198,10|10,0:2|0:2,0:0:0:0:
438,185,157549,5,14,0:0:0:0:
407,278,157708,1,2,0:0:0:0:
407,278,157787,1,2,0:0:0:0:
407,278,157866,2,0,L|330:279,1,71.2499980974198,10|2,0:2|0:0,0:0:0:0:
265,329,158184,2,0,L|190:328,1,71.2499980974198,10|2,0:0|0:0,0:0:0:0:
126,384,158501,1,8,0:2:0:0:
126,384,158660,1,10,0:2:0:0:
29,366,158819,6,0,L|19:274,1,71.2499980974198,10|0,0:0|0:0,0:0:0:0:
125,291,159136,1,0,0:0:0:0:
125,291,159295,2,0,L|135:199,1,71.2499980974198,10|8,0:1|0:1,0:0:0:0:
35,221,159612,1,0,0:0:0:0:
35,221,159771,2,0,L|25:129,1,71.2499980974198,10|8,0:1|0:1,0:0:0:0:
165,148,160089,5,0,0:0:0:0:
165,148,160247,2,0,L|173:72,1,71.2499980974198,10|8,0:1|0:2,0:0:0:0:
77,88,160565,1,0,0:0:0:0:
77,88,160724,2,0,L|71:6,1,71.2499980974198,10|8,0:2|0:0,0:0:0:0:
183,0,161041,5,2,0:1:0:0:
103,133,172470,6,0,B|122:133|122:133|138:128|138:128|154:136|154:136|173:128|173:128|204:147|245:122|245:122|276:179|352:162,1,262.5,0|0,0:0|0:0,0:0:0:0:
339,164,174057,6,0,P|343:78|412:39,1,157.499995193482,14|8,0:0|0:2,0:0:0:0:
428,129,174533,1,2,0:0:0:0:
333,188,174692,2,0,L|241:191,1,78.7499975967408,10|0,0:1|0:0,0:0:0:0:
198,275,175009,2,0,L|290:272,1,78.7499975967408,10|0,0:2|0:0,0:0:0:0:
399,317,175327,6,0,B|354:316|354:316|323:353|323:353|239:361,1,157.499995193482,10|0,0:0|0:0,0:0:0:0:
170,363,175803,1,2,0:0:0:0:
115,294,175962,2,0,L|118:212,1,78.7499975967408,10|8,0:1|0:1,0:0:0:0:
39,189,176279,2,0,L|44:102,1,78.7499975967408,10|0,0:2|0:0,0:0:0:0:
126,83,176597,6,0,B|57:99|21:46|21:46|48:12,1,157.499995193482,14|8,0:0|0:2,0:0:0:0:
158,4,177073,2,0,P|189:27|208:61,1,78.7499975967408,2|8,0:0|0:1,0:0:0:0:
216,146,177390,2,0,P|204:183|210:222,1,78.7499975967408,2|8,0:0|0:2,0:0:0:0:
277,297,177708,5,2,0:0:0:0:
277,297,177866,2,0,L|372:297,1,78.7499975967408,10|0,0:1|0:0,0:0:0:0:
449,290,178184,1,8,0:2:0:0:
448,194,178343,2,0,P|392:211|356:304,1,157.499995193482,2|0,0:0|0:0,0:0:0:0:
401,371,178819,2,0,P|444:383|488:378,1,78.7499975967408,10|2,0:2|0:0,0:0:0:0:
354,296,179136,6,0,B|262:285|296:359|185:342,1,157.499995193482,14|8,0:0|0:2,0:0:0:0:
129,337,179612,1,2,0:0:0:0:
68,277,179771,2,0,L|71:192,1,78.7499975967408,10|8,0:1|0:1,0:0:0:0:
62,102,180089,1,10,0:2:0:0:
147,149,180247,6,0,P|220:170|304:146,1,157.499995193482,2|2,0:0|0:0,0:0:0:0:
367,90,180724,2,0,P|404:81|442:89,1,78.7499975967408,8|0,0:2|0:0,0:0:0:0:
502,167,181041,2,0,P|490:203|464:232,1,78.7499975967408,10|0,0:1|0:0,0:0:0:0:
361,247,181359,2,0,P|335:218|322:181,1,78.7499975967408,10|0,0:2|0:0,0:0:0:0:
283,74,181676,6,0,B|249:45|249:45|182:38|157:101,1,150,14|8,0:0|0:2,0:0:0:0:
152,172,182152,1,2,0:0:0:0:
91,233,182311,2,0,L|8:228,1,75,10|0,0:1|0:0,0:0:0:0:
90,320,182628,1,10,0:2:0:0:
176,294,182787,5,2,0:1:0:0:
176,294,182946,2,0,B|235:294|235:294|256:325|256:325|326:326,1,150,14|10,0:0|0:2,0:0:0:0:
384,362,183422,1,2,0:0:0:0:
446,294,183581,2,0,L|445:248,3,37.5,10|2|10|0,0:1|0:0|0:1|0:0,0:0:0:0:
444,236,183898,2,0,L|447:161,1,75,10|10,0:2|0:2,0:0:0:0:
512,120,184216,6,0,B|473:120|444:158|444:158|426:121|386:109,1,157.499995193482,14|8,0:0|0:2,0:0:0:0:
305,60,184692,1,2,0:0:0:0:
232,107,184851,2,0,L|235:196,1,78.7499975967408,10|0,0:1|0:0,0:0:0:0:
149,223,185168,2,0,L|152:315,1,78.7499975967408,10|0,0:2|0:0,0:0:0:0:
94,353,185485,6,0,B|133:341|151:304|151:304|180:342|219:342,1,157.499995193482,10|8,0:0|0:2,0:0:0:0:
302,370,185962,1,0,0:0:0:0:
362,310,186120,2,0,L|356:231,1,78.7499975967408,10|8,0:0|0:1,0:0:0:0:
431,181,186438,2,0,L|421:98,1,78.7499975967408,10|0,0:2|0:2,0:0:0:0:
340,41,186755,6,0,B|285:37|285:37|264:67|264:67|227:79|180:58,1,157.499995193482,14|8,0:0|0:2,0:0:0:0:
115,25,187232,2,0,P|44:24|60:93,1,157.499995193482,2|0,0:0|0:0,0:0:0:0:
119,152,187708,1,10,0:2:0:0:
119,152,187866,1,2,0:0:0:0:
205,165,188025,6,0,L|292:165,1,78.7499975967408,10|8,0:1|0:1,0:0:0:0:
332,234,188343,2,0,L|415:233,1,78.7499975967408,10|10,0:2|0:2,0:0:0:0:
446,298,188660,2,0,B|442:257|409:232|409:232|452:211|459:173,1,157.499995193482,10|8,0:1|0:2,0:0:0:0:
460,174,189295,6,0,L|406:112,1,78.7499975967408,14|2,0:1|0:0,0:0:0:0:
343,48,189612,1,10,0:2:0:0:
320,150,189771,1,2,0:0:0:0:
320,150,189851,1,2,0:0:0:0:
320,150,189930,2,0,L|261:203,1,78.7499975967408,10|2,0:1|0:0,0:0:0:0:
198,268,190247,1,10,0:2:0:0:
198,268,190406,1,0,0:0:0:0:
175,177,190565,6,0,L|121:116,1,78.7499975967408,10|2,0:1|0:0,0:0:0:0:
129,31,190882,2,0,L|167:-6,2,39.3749987983704,10|2|2,0:2|0:0|0:0,0:0:0:0:
37,28,191200,2,0,L|0:-10,2,39.3749987983704,10|2|2,0:0|0:0|0:0,0:0:0:0:
38,119,191517,1,10,0:2:0:0:
38,119,191676,1,0,0:0:0:0:
89,206,191835,5,2,0:0:0:0:
89,206,191993,2,0,L|10:204,1,78.7499975967408,0|0,0:0|0:0,0:0:0:0:
60,295,192311,1,2,0:0:0:0:
60,295,192470,2,0,L|143:295,1,78.7499975967408,2|0,0:0|0:0,0:0:0:0:
178,222,192787,1,2,0:0:0:0:
178,222,192946,2,0,L|179:132,1,78.7499975967408,2|0,0:0|0:0,0:0:0:0:
262,92,193263,1,2,0:0:0:0:
262,92,193422,2,0,L|261:178,1,78.7499975967408,2|0,0:0|0:0,0:0:0:0:
432,206,193739,5,2,0:0:0:0:
432,206,193898,2,0,L|512:206,1,78.7499975967408,2|0,0:0|0:0,0:0:0:0:
480,290,194215,1,2,0:0:0:0:
480,290,194374,2,0,L|395:289,1,78.7499975967408,2|0,0:0|0:0,0:0:0:0:
344,222,194692,1,2,0:0:0:0:
344,222,194851,2,0,L|344:131,1,78.7499975967408,2|0,0:0|0:0,0:0:0:0:
258,92,195168,1,2,0:0:0:0:
258,92,195327,2,0,L|257:177,1,78.7499975967408,2|0,0:0|0:0,0:0:0:0:
258,293,195644,5,2,0:0:0:0:
258,293,195803,2,0,L|257:381,1,78.7499975967408,2|0,0:0|0:0,0:0:0:0:
190,226,196120,1,2,0:0:0:0:
190,226,196279,2,0,L|108:229,1,78.7499975967408,2|0,0:0|0:0,0:0:0:0:
322,230,196597,1,2,0:0:0:0:
322,230,196756,2,0,L|404:233,1,78.7499975967408,2|0,0:0|0:0,0:0:0:0:
400,232,197708,6,0,P|407:184|433:148,1,75,2|2,0:1|0:1,0:0:0:0:
420,161,198184,6,0,P|350:156|301:95,1,127.50000243187,14|8,0:0|0:2,0:0:0:0:
259,52,198660,1,2,0:0:0:0:
188,96,198819,2,0,L|192:175,1,63.7500012159348,8|2,0:0|0:0,0:0:0:0:
183,180,199057,1,0,0:0:0:0:
175,198,199136,2,0,L|175:265,1,63.7500012159348,8|2,0:2|0:0,0:0:0:0:
200,342,199454,6,0,B|154:347|154:347|124:331|124:331|58:341,1,127.50000243187,0|10,0:0|0:2,0:0:0:0:
3,308,199930,1,2,0:0:0:0:
44,236,200089,2,0,L|45:158,1,63.7500012159348,0|8,0:0|0:1,0:0:0:0:
55,153,200327,1,8,0:1:0:0:
69,135,200406,2,0,L|69:72,1,63.7500012159348,10|0,0:2|0:0,0:0:0:0:
144,17,200724,6,0,P|203:-8|279:13,1,127.50000243187,10|8,0:0|0:2,0:0:0:0:
340,37,201200,1,2,0:0:0:0:
284,96,201359,2,0,P|268:123|259:154,1,63.7500012159348,8|2,0:1|0:0,0:0:0:0:
266,239,201676,2,0,P|281:266|290:297,1,63.7500012159348,8|2,0:2|0:0,0:0:0:0:
367,360,201993,6,0,P|368:307|409:241,1,127.50000243187,10|10,0:0|0:2,0:0:0:0:
474,192,202470,1,0,0:0:0:0:
420,123,202628,1,10,0:0:0:0:
420,123,202787,1,8,0:1:0:0:
352,173,202946,2,0,L|278:168,1,63.7500012159348,8|0,0:2|0:0,0:0:0:0:
197,123,203263,6,0,B|177:51|222:59|202:-1,2,127.50000243187,6|8|8,0:0|0:2|0:0,0:0:0:0:
222,205,204057,1,0,0:0:0:0:
158,260,204216,2,0,P|124:257|92:244,1,63.7500012159348,8|0,0:2|0:0,0:0:0:0:
200,338,204533,6,0,P|238:317|323:309,2,127.50000243187,10|8|10,0:1|0:2|0:1,0:0:0:0:
126,384,205327,1,0,0:0:0:0:
88,309,205485,2,0,P|90:267|99:239,1,63.7500012159348,10|0,0:2|0:0,0:0:0:0:
150,147,205803,6,0,P|94:148|47:83,1,127.50000243187,10|8,0:0|0:2,0:0:0:0:
127,66,206279,1,0,0:0:0:0:
213,91,206438,2,0,P|227:118|233:178,1,63.7500012159348,10|2,0:1|0:2,0:0:0:0:
249,244,206755,5,8,0:2:0:0:
320,188,206914,1,4,1:2:0:0:
