osu file format v14

[General]
AudioFilename: Song.mp3
AudioLeadIn: 0
PreviewTime: 26755
Countdown: 0
SampleSet: Soft
StackLeniency: 0.7
Mode: 3
LetterboxInBreaks: 0
SpecialStyle: 0
WidescreenStoryboard: 0

[Editor]
Bookmarks: 52152,57232,59454,81359,161359,172946,174057,198184
DistanceSpacing: 1
BeatDivisor: 4
GridSize: 32
TimelineZoom: 2.199998

[Metadata]
Title:Higurashi Moratorium
TitleUnicode:茅蜩モラトリアム
Artist:Amatsuki
ArtistUnicode:天月
Creator:LinkTaylord
Version:Hitsounds
Source:
Tags:TOTAL OBJECTION Vocaloid Megpoid GUMI Nico Douga
BeatmapID:1068677
BeatmapSetID:502148

[Difficulty]
HPDrainRate:9.5
CircleSize:4
OverallDifficulty:8.5
ApproachRate:9
SliderMultiplier:1.9
SliderTickRate:2

[Events]
//Background and Video events
0,0,"BG Higu.jpg",0,0
//Break Periods
2,170447,171552
//Storyboard Layer 0 (Background)
//Storyboard Layer 1 (Fail)
//Storyboard Layer 2 (Pass)
//Storyboard Layer 3 (Foreground)
//Storyboard Sound Samples

[TimingPoints]
3867,319.148936170213,4,2,1,10,1,0
21898,-18.2149362477231,4,2,1,10,0,0
25170,-1000,4,2,1,30,0,0
25486,317.460317460317,4,2,1,30,1,0
25486,-100,4,2,1,30,0,0
25505,-40,4,2,1,30,0,0
25525,-18.1818181818182,4,2,1,30,0,0
25565,-1000,4,2,1,30,0,0
25962,-100,4,2,1,30,0,0
26755,-100,4,2,1,70,0,0
36597,-98.0392156862745,4,2,1,70,0,0
36676,-96.1538461538461,4,2,1,70,0,0
36755,-94.3396226415094,4,2,1,70,0,0
36835,-86.9565217391304,4,2,1,70,0,0
36914,-100,4,2,1,70,0,0
46120,-20,4,2,1,30,0,0
46140,-1000,4,2,1,30,0,0
46279,-166.666666666667,4,2,1,30,0,0
46306,-1000,4,2,1,30,0,0
46332,-166.666666666667,4,2,1,30,0,0
46359,-1000,4,2,1,30,0,0
46385,-166.666666666667,4,2,1,30,0,0
46411,-1000,4,2,1,30,0,0
46438,-25,4,2,1,30,0,0
46464,-1000,4,2,1,30,0,0
46491,-33.3333333333333,4,2,1,30,0,0
46517,-1000,4,2,1,30,0,0
46544,-40,4,2,1,30,0,0
46570,-250,4,2,1,30,0,0
46755,-71.4285714285714,4,2,1,30,0,0
46775,-250,4,2,1,30,0,0
46795,-71.4285714285714,4,2,1,30,0,0
46815,-250,4,2,1,30,0,0
46835,-71.4285714285714,4,2,1,30,0,0
46855,-250,4,2,1,30,0,0
46874,-71.4285714285714,4,2,1,30,0,0
46894,-250,4,2,1,30,0,0
46954,-142.857142857143,4,2,1,30,0,0
47073,-142.857142857143,4,2,1,30,0,0
47173,-100,4,2,1,30,0,0
61200,-50,4,2,1,30,0,0
61279,-200,4,2,1,30,0,0
61359,-50,4,2,1,30,0,0
61438,-200,4,2,1,30,0,0
61676,-50,4,2,1,30,0,0
61755,-200,4,2,1,30,0,0
61835,-50,4,2,1,30,0,0
61914,-200,4,2,1,30,0,0
62152,-50,4,2,1,30,0,0
62232,-200,4,2,1,30,0,0
62311,-50,4,2,1,30,0,0
62390,-200,4,2,1,30,0,0
62628,-50,4,2,1,30,0,0
62708,-200,4,2,1,30,0,0
62787,-50,4,2,1,30,0,0
62866,-200,4,2,1,30,0,0
63581,-100,4,2,1,30,0,1
81517,-50,4,2,1,30,0,1
81597,-200,4,2,1,30,0,1
81835,-100,4,2,1,30,0,1
81993,-50,4,2,1,30,0,1
82073,-200,4,2,1,30,0,1
82311,-100,4,2,1,30,0,1
82470,-50,4,2,1,30,0,1
82549,-200,4,2,1,30,0,1
82787,-100,4,2,1,30,0,1
83263,-100,4,2,1,30,0,0
94057,-111.111111111111,4,2,1,30,0,0
104216,-125,4,2,1,30,0,0
108978,-76.9230769230769,4,2,1,30,0,0
109030,-333.333333333333,4,2,1,30,0,0
109083,-76.9230769230769,4,2,1,30,0,0
109136,-333.333333333333,4,2,1,30,0,0
109189,-76.9230769230769,4,2,1,30,0,0
109242,-333.333333333333,4,2,1,30,0,0
109295,-125,4,2,1,30,0,0
113105,-166.666666666666,4,2,1,30,0,0
113263,-153.846153846154,4,2,1,30,0,0
113422,-142.857142857142,4,2,1,30,0,0
113581,-133.333333333333,4,2,1,30,0,0
113739,-125,4,2,1,30,0,0
113898,-117.647058823529,4,2,1,30,0,0
114057,-111.111111111111,4,2,1,30,0,0
114216,-105.263157894737,4,2,1,30,0,0
114374,-100,4,2,1,30,0,0
118343,-50,4,2,1,30,0,0
118382,-200,4,2,1,30,0,0
118501,-50,4,2,1,30,0,0
118541,-200,4,2,1,30,0,0
118819,-50,4,2,1,30,0,0
118859,-200,4,2,1,30,0,0
118978,-50,4,2,1,30,0,0
119017,-200,4,2,1,30,0,0
119295,-50,4,2,1,30,0,0
119335,-200,4,2,1,30,0,0
119454,-50,4,2,1,30,0,0
119493,-200,4,2,1,30,0,0
119771,-50,4,2,1,30,0,0
119811,-200,4,2,1,30,0,0
119930,-50,4,2,1,30,0,0
119970,-200,4,2,1,30,0,0
120724,-100,4,2,1,30,0,1
138660,-50,4,2,1,30,0,1
138739,-200,4,2,1,30,0,1
138978,-100,4,2,1,30,0,1
139136,-50,4,2,1,30,0,1
139216,-200,4,2,1,30,0,1
139454,-100,4,2,1,30,0,1
139612,-50,4,2,1,30,0,1
139692,-200,4,2,1,30,0,1
139930,-100,4,2,1,30,0,1
140406,-100,4,2,1,30,0,0
140565,-40,4,2,1,30,0,0
140647,-400,4,2,1,30,0,0
140882,-200,4,2,1,30,0,0
140962,-133.333333333333,4,2,1,30,0,0
141041,-100,4,2,1,20,0,0
161041,-111.111111111111,4,2,1,10,0,0
161120,-125,4,2,1,10,0,0
161200,-142.857142857143,4,2,1,10,0,0
161359,-133.333333333333,4,2,1,10,0,0
162628,-125,4,2,1,10,0,0
163898,-117.647058823529,4,2,1,10,0,0
165168,-111.111111111111,4,2,1,10,0,0
166438,-100,4,2,1,30,0,0
169930,-71.4285714285714,4,2,1,30,0,0
170009,-83.3333333333333,4,2,1,30,0,0
170089,-100,4,2,1,30,0,0
170247,-125,4,2,1,30,0,0
172152,-10,4,2,1,30,0,0
172192,-80,4,2,1,30,0,0
172232,-250,4,2,1,30,0,0
172271,-71.4285714285714,4,2,1,30,0,0
172311,-181.818181818182,4,2,1,30,0,0
172351,-64.5161290322581,4,2,1,30,0,0
172390,-142.857142857143,4,2,1,30,0,0
172430,-58.8235294117647,4,2,1,30,0,0
172470,-1000,4,2,1,30,0,0
172509,-90.9090909090909,4,2,1,30,0,0
172549,-222.222222222222,4,2,1,30,0,0
172589,-68.9655172413793,4,2,1,30,0,0
172628,-50,4,2,1,30,0,0
172668,-1000,4,2,1,30,0,0
172708,-50,4,2,1,30,0,0
172747,-62.5,4,2,1,30,0,0
172787,-166.666666666667,4,2,1,30,0,0
172827,-1000,4,2,1,30,0,0
172866,-30.3030303030303,4,2,1,30,0,0
172886,-133.333333333333,4,2,1,30,0,0
172906,-57.1428571428571,4,2,1,30,0,0
172946,-66.6666666666667,4,2,1,30,0,0
172966,-200,4,2,1,30,0,0
172985,-71.4285714285714,4,2,1,30,0,0
173005,-166.666666666667,4,2,1,30,0,0
173025,-76.9230769230769,4,2,1,30,0,0
173045,-142.857142857143,4,2,1,30,0,0
173065,-83.3333333333333,4,2,1,30,0,0
173085,-125,4,2,1,30,0,0
173105,-90.9090909090909,4,2,1,30,0,0
173124,-111.111111111111,4,2,1,30,0,0
173144,-100,4,2,1,30,0,0
174057,-100,4,2,1,30,0,1
196755,-166.666666666667,4,2,1,30,0,0
198184,-100,4,2,1,30,0,0

[Colours]
Combo1 : 255,77,77
Combo2 : 2,255,66
Combo3 : 15,135,255
Combo4 : 176,100,100

[HitObjects]
320,192,3760,5,0,0:0:0:0:
192,192,3813,1,0,0:0:0:0:
320,192,3867,1,0,0:0:0:0:
448,192,3867,1,0,0:0:0:0:
64,192,3867,1,0,0:0:0:0:
192,192,4026,1,0,0:0:0:0:
64,192,4186,1,0,0:0:0:0:
320,192,4186,1,0,0:0:0:0:
320,192,4345,1,0,0:0:0:0:
192,192,4505,1,0,0:0:0:0:
448,192,4505,1,0,0:0:0:0:
192,192,4664,1,0,0:0:0:0:
320,192,4824,1,0,0:0:0:0:
448,192,4824,1,0,0:0:0:0:
192,192,5143,1,0,0:0:0:0:
320,192,5143,1,0,0:0:0:0:
448,192,5143,1,0,0:0:0:0:
64,192,5303,1,0,0:0:0:0:
448,192,5462,1,0,0:0:0:0:
192,192,5462,1,0,0:0:0:0:
448,192,5622,1,0,0:0:0:0:
64,192,5728,1,0,0:0:0:0:
192,192,5781,1,0,0:0:0:0:
320,192,5835,1,0,0:0:0:0:
192,192,5994,1,0,0:0:0:0:
448,192,6101,1,0,0:0:0:0:
64,192,6101,1,0,0:0:0:0:
192,192,6313,1,0,0:0:0:0:
320,192,6367,1,0,0:0:0:0:
448,192,6420,1,0,0:0:0:0:
64,192,6420,1,0,0:0:0:0:
192,192,6420,1,0,0:0:0:0:
320,192,6579,1,0,0:0:0:0:
64,192,6739,1,0,0:0:0:0:
448,192,6739,1,0,0:0:0:0:
64,192,6898,1,0,0:0:0:0:
320,192,7058,1,0,0:0:0:0:
448,192,7058,1,0,0:0:0:0:
320,192,7218,1,0,0:0:0:0:
192,192,7377,1,0,0:0:0:0:
64,192,7377,1,0,0:0:0:0:
192,192,7696,1,0,0:0:0:0:
320,192,7696,1,0,0:0:0:0:
64,192,7696,1,0,0:0:0:0:
64,192,7856,1,0,0:0:0:0:
320,192,8015,1,0,0:0:0:0:
320,192,8175,1,0,0:0:0:0:
64,192,8335,1,0,0:0:0:0:
64,192,8494,1,0,0:0:0:0:
320,192,8654,1,0,0:0:0:0:
320,192,8813,1,0,0:0:0:0:
64,192,8973,1,0,0:0:0:0:
448,192,8973,1,0,0:0:0:0:
192,192,8973,1,0,0:0:0:0:
448,192,9132,1,0,0:0:0:0:
64,192,9292,1,0,0:0:0:0:
192,192,9292,1,0,0:0:0:0:
64,192,9452,1,0,0:0:0:0:
192,192,9611,1,0,0:0:0:0:
320,192,9611,1,0,0:0:0:0:
320,192,9771,1,0,0:0:0:0:
64,192,9930,1,0,0:0:0:0:
448,192,9930,1,0,0:0:0:0:
320,192,10249,1,0,0:0:0:0:
448,192,10249,1,0,0:0:0:0:
64,192,10249,1,0,0:0:0:0:
448,192,10569,1,0,0:0:0:0:
192,192,10569,1,0,0:0:0:0:
192,192,10728,1,0,0:0:0:0:
64,192,10835,1,0,0:0:0:0:
448,192,10888,1,0,0:0:0:0:
320,192,10888,1,0,0:0:0:0:
192,192,10941,1,0,0:0:0:0:
320,192,11101,1,0,0:0:0:0:
192,192,11207,1,0,0:0:0:0:
64,192,11207,1,0,0:0:0:0:
192,192,11473,1,0,0:0:0:0:
64,192,11526,1,0,0:0:0:0:
320,192,11526,1,0,0:0:0:0:
448,192,11526,1,0,0:0:0:0:
448,192,11686,1,0,0:0:0:0:
192,192,11845,1,0,0:0:0:0:
64,192,11845,1,0,0:0:0:0:
192,192,12005,1,0,0:0:0:0:
320,192,12164,1,0,0:0:0:0:
64,192,12164,1,0,0:0:0:0:
320,192,12324,1,0,0:0:0:0:
192,192,12484,1,0,0:0:0:0:
448,192,12484,1,0,0:0:0:0:
192,192,12643,1,0,0:0:0:0:
64,192,12803,1,0,0:0:0:0:
320,192,12803,1,0,0:0:0:0:
448,192,12803,1,0,0:0:0:0:
64,192,12962,1,0,0:0:0:0:
192,192,13122,1,0,0:0:0:0:
448,192,13122,1,0,0:0:0:0:
320,192,13281,1,0,0:0:0:0:
448,192,13441,1,0,0:0:0:0:
64,192,13441,1,0,0:0:0:0:
192,192,13601,1,0,0:0:0:0:
320,192,13760,1,0,0:0:0:0:
64,192,13920,1,0,0:0:0:0:
192,192,13999,1,0,0:0:0:0:
320,192,14079,1,0,0:0:0:0:
448,192,14079,1,0,0:0:0:0:
64,192,14079,1,0,0:0:0:0:
448,192,14398,1,0,0:0:0:0:
64,192,14398,1,0,0:0:0:0:
192,192,14718,1,0,0:0:0:0:
64,192,14718,1,0,0:0:0:0:
192,192,14877,1,0,0:0:0:0:
320,192,15037,1,0,0:0:0:0:
64,192,15037,1,0,0:0:0:0:
320,192,15196,1,0,0:0:0:0:
448,192,15356,1,0,0:0:0:0:
192,192,15356,1,0,0:0:0:0:
64,192,15356,1,0,0:0:0:0:
320,192,15515,1,0,0:0:0:0:
64,192,15675,1,0,0:0:0:0:
192,192,15675,1,0,0:0:0:0:
448,192,15994,1,0,0:0:0:0:
64,192,15994,1,0,0:0:0:0:
320,192,16154,1,0,0:0:0:0:
192,192,16313,1,0,0:0:0:0:
448,192,16313,1,0,0:0:0:0:
64,192,16473,1,0,0:0:0:0:
320,192,16553,1,0,0:0:0:0:
192,192,16593,1,0,0:0:0:0:
320,192,16632,1,0,0:0:0:0:
448,192,16632,1,0,0:0:0:0:
64,192,16632,1,0,0:0:0:0:
448,192,16792,1,0,0:0:0:0:
192,192,16952,1,0,0:0:0:0:
64,192,16952,1,0,0:0:0:0:
192,192,17111,1,0,0:0:0:0:
320,192,17271,1,0,0:0:0:0:
448,192,17271,1,0,0:0:0:0:
320,192,17430,1,0,0:0:0:0:
192,192,17590,1,0,0:0:0:0:
64,192,17590,1,0,0:0:0:0:
64,192,17749,1,0,0:0:0:0:
192,192,17909,1,0,0:0:0:0:
320,192,17909,1,0,0:0:0:0:
448,192,17909,1,0,0:0:0:0:
64,192,18069,1,0,0:0:0:0:
64,192,18228,1,0,0:0:0:0:
320,192,18228,1,0,0:0:0:0:
64,192,18388,1,0,0:0:0:0:
192,192,18547,1,0,0:0:0:0:
448,192,18547,1,0,0:0:0:0:
448,192,18707,1,0,0:0:0:0:
64,192,18867,1,0,0:0:0:0:
320,192,18867,1,0,0:0:0:0:
192,192,19186,1,0,0:0:0:0:
320,192,19186,1,0,0:0:0:0:
448,192,19186,1,0,0:0:0:0:
64,192,19345,1,0,0:0:0:0:
192,192,19505,1,0,0:0:0:0:
448,192,19505,1,0,0:0:0:0:
448,192,19664,1,0,0:0:0:0:
64,192,19824,1,0,0:0:0:0:
320,192,19824,1,0,0:0:0:0:
320,192,19984,1,0,0:0:0:0:
192,192,20143,1,0,0:0:0:0:
448,192,20143,1,0,0:0:0:0:
192,192,20303,1,0,0:0:0:0:
64,192,20462,1,0,0:0:0:0:
320,192,20462,1,0,0:0:0:0:
448,192,20462,1,0,0:0:0:0:
64,192,20622,1,0,0:0:0:0:
192,192,20781,1,0,0:0:0:0:
448,192,20781,1,0,0:0:0:0:
448,192,20941,1,0,0:0:0:0:
64,192,21101,1,0,0:0:0:0:
192,192,21101,1,0,0:0:0:0:
192,192,21260,1,0,0:0:0:0:
320,192,21420,1,0,0:0:0:0:
448,192,21420,1,0,0:0:0:0:
320,192,21579,1,0,0:0:0:0:
64,192,21712,1,0,0:0:0:0:
192,192,21739,1,0,0:0:0:0:
320,192,21765,1,0,0:0:0:0:
320,192,25486,5,0,0:0:0:70:normal-hitnormal.wav
448,192,25962,1,0,0:0:0:70:normal-hitnormal.wav
64,192,26041,1,0,0:0:0:70:normal-hitnormal.wav
320,192,26120,128,0,26279:0:0:0:70:normal-hitnormal.wav
448,192,26120,1,0,0:0:0:0:
192,192,26279,128,0,26438:0:0:0:70:normal-hitnormal.wav
448,192,26438,128,0,26597:0:0:0:10:normal-hitwhistle.wav
320,192,26597,128,0,26755:0:0:0:10:normal-hitwhistle.wav
192,192,26755,1,0,0:0:0:70:soft-hitnormal.wav
448,192,26755,1,0,0:0:0:70:soft-hitfinish2.wav
64,192,26755,1,0,0:0:0:70:normal-hitfinish.wav
320,192,26914,1,0,0:0:0:0:
192,192,26914,1,0,0:0:0:70:soft-hitnormal.wav
320,192,27073,1,0,0:0:0:70:soft-hitclap.wav
64,192,27073,1,0,0:0:0:70:soft-hitnormal.wav
448,192,27073,1,0,0:0:0:70:soft-hitclap.wav
192,192,27232,1,0,0:0:0:70:soft-hitnormal.wav
64,192,27232,1,0,0:0:0:0:
448,192,27390,1,0,0:0:0:70:soft-hitnormal.wav
320,192,27390,1,0,0:0:0:70:soft-hitnormal.wav
64,192,27549,1,0,0:0:0:0:
192,192,27549,1,0,0:0:0:70:soft-hitnormal.wav
320,192,27628,1,0,0:0:0:70:soft-hitnormal.wav
192,192,27708,1,0,0:0:0:70:soft-hitnormal.wav
64,192,27708,1,0,0:0:0:70:soft-hitclap.wav
448,192,27708,1,0,0:0:0:70:soft-hitclap.wav
192,192,27866,1,0,0:0:0:70:
320,192,27866,1,0,0:0:0:70:soft-hitnormal.wav
64,192,28025,1,0,0:0:0:70:soft-hitnormal.wav
320,192,28025,1,0,0:0:0:70:soft-hitnormal.wav
192,192,28184,1,0,0:0:0:70:
448,192,28184,1,0,0:0:0:70:soft-hitnormal.wav
64,192,28343,1,0,0:0:0:70:soft-hitclap.wav
320,192,28343,1,0,0:0:0:70:soft-hitclap.wav
448,192,28343,1,0,0:0:0:70:soft-hitnormal.wav
64,192,28501,1,0,0:0:0:70:soft-hitnormal.wav
192,192,28501,1,0,0:0:0:70:
192,192,28660,1,0,0:0:0:70:soft-hitnormal.wav
320,192,28660,1,0,0:0:0:70:soft-hitnormal.wav
448,192,28819,1,0,0:0:0:70:soft-hitnormal.wav
320,192,28819,1,0,0:0:0:70:
192,192,28898,1,0,0:0:0:70:soft-hitnormal.wav
320,192,28978,1,0,0:0:0:70:soft-hitclap.wav
448,192,28978,1,0,0:0:0:70:soft-hitclap.wav
64,192,28978,1,0,0:0:0:70:soft-hitnormal.wav
192,192,29136,1,0,0:0:0:0:
64,192,29136,1,0,0:0:0:70:soft-hitnormal.wav
448,192,29295,1,0,0:0:0:70:soft-hitnormal.wav
64,192,29295,1,0,0:0:0:70:soft-hitnormal.wav
320,192,29454,1,0,0:0:0:70:soft-hitnormal.wav
448,192,29454,1,0,0:0:0:0:
192,192,29612,1,0,0:0:0:70:soft-hitclap.wav
320,192,29612,1,0,0:0:0:70:soft-hitnormal.wav
64,192,29612,1,0,0:0:0:70:soft-hitclap.wav
448,192,29771,1,0,0:0:0:70:soft-hitnormal.wav
64,192,29771,1,0,0:0:0:0:
192,192,29930,1,0,0:0:0:70:soft-hitnormal.wav
320,192,29930,1,0,0:0:0:70:soft-hitnormal.wav
64,192,30089,1,0,0:0:0:0:
448,192,30089,1,0,0:0:0:70:soft-hitnormal.wav
320,192,30168,1,0,0:0:0:70:soft-hitnormal.wav
64,192,30247,1,0,0:0:0:70:soft-hitclap.wav
448,192,30247,1,0,0:0:0:70:soft-hitclap.wav
192,192,30247,1,0,0:0:0:70:soft-hitnormal.wav
192,192,30406,1,0,0:0:0:70:soft-hitnormal.wav
64,192,30406,1,0,0:0:0:0:
320,192,30565,1,0,0:0:0:70:soft-hitnormal.wav
448,192,30565,1,0,0:0:0:70:soft-hitnormal.wav
192,192,30724,1,0,0:0:0:70:soft-hitnormal.wav
64,192,30724,1,0,0:0:0:0:
320,192,30882,1,0,0:0:0:70:soft-hitclap.wav
448,192,30882,1,0,0:0:0:70:soft-hitclap.wav
64,192,30882,1,0,0:0:0:70:soft-hitnormal.wav
192,192,31041,1,0,0:0:0:0:
320,192,31041,1,0,0:0:0:70:soft-hitnormal.wav
448,192,31200,1,0,0:0:0:70:soft-hitnormal.wav
64,192,31200,1,0,0:0:0:70:soft-hitnormal.wav
64,192,31359,1,0,0:0:0:0:
320,192,31359,1,0,0:0:0:70:soft-hitnormal.wav
192,192,31438,1,0,0:0:0:70:soft-hitnormal.wav
448,192,31517,1,0,0:0:0:70:soft-hitnormal.wav
64,192,31517,1,0,0:0:0:70:soft-hitclap.wav
320,192,31517,1,0,0:0:0:70:soft-hitclap.wav
192,192,31676,1,0,0:0:0:70:soft-hitnormal.wav
64,192,31676,1,0,0:0:0:0:
448,192,31755,1,0,0:0:0:20:soft-hitfinash.wav
192,192,31835,1,0,0:0:0:70:normal-hitfinish.wav
320,192,31835,1,0,0:0:0:70:normal-hitfinish.wav
64,192,31835,1,0,0:0:0:70:soft-hitnormal.wav
192,192,31993,1,0,0:0:0:0:
448,192,31993,1,0,0:0:0:70:soft-hitnormal.wav
320,192,32152,1,0,0:0:0:70:soft-hitclap.wav
64,192,32152,1,0,0:0:0:70:soft-hitclap.wav
192,192,32152,1,0,0:0:0:70:soft-hitnormal.wav
448,192,32311,1,0,0:0:0:0:
320,192,32311,1,0,0:0:0:70:soft-hitnormal.wav
192,192,32470,1,0,0:0:0:70:soft-hitnormal.wav
64,192,32470,1,0,0:0:0:70:soft-hitnormal.wav
192,192,32628,1,0,0:0:0:0:
320,192,32628,1,0,0:0:0:70:soft-hitnormal.wav
64,192,32787,1,0,0:0:0:70:soft-hitclap.wav
448,192,32787,1,0,0:0:0:70:soft-hitclap.wav
320,192,32787,1,0,0:0:0:70:soft-hitnormal.wav
64,192,32946,1,0,0:0:0:0:
192,192,32946,1,0,0:0:0:70:soft-hitnormal.wav
448,192,33025,1,0,0:0:0:70:soft-hitfinash.wav
320,192,33105,1,0,0:0:0:70:soft-hitnormal.wav
192,192,33105,1,0,0:0:0:70:soft-hitnormal.wav
64,192,33184,1,0,0:0:0:0:
448,192,33263,1,0,0:0:0:0:
320,192,33263,1,0,0:0:0:70:soft-hitnormal.wav
192,192,33422,1,0,0:0:0:70:soft-hitnormal.wav
64,192,33422,1,0,0:0:0:70:soft-hitclap.wav
448,192,33422,1,0,0:0:0:70:soft-hitclap.wav
64,192,33581,1,0,0:0:0:0:
448,192,33581,1,0,0:0:0:70:soft-hitnormal.wav
192,192,33739,1,0,0:0:0:70:soft-hitnormal.wav
320,192,33739,1,0,0:0:0:70:soft-hitnormal.wav
448,192,33898,1,0,0:0:0:70:soft-hitnormal.wav
192,192,33898,1,0,0:0:0:0:
320,192,34057,1,0,0:0:0:70:soft-hitclap.wav
448,192,34057,1,0,0:0:0:70:soft-hitclap.wav
64,192,34057,1,0,0:0:0:70:soft-hitnormal.wav
192,192,34216,1,0,0:0:0:70:soft-hitnormal.wav
64,192,34216,1,0,0:0:0:0:
448,192,34295,1,0,0:0:0:70:soft-hitfinash.wav
192,192,34374,1,0,0:0:0:70:soft-hitnormal.wav
320,192,34374,1,0,0:0:0:70:soft-hitnormal.wav
320,192,34533,1,0,0:0:0:70:soft-hitnormal.wav
448,192,34533,1,0,0:0:0:0:
192,192,34692,1,0,0:0:0:70:soft-hitclap.wav
64,192,34692,1,0,0:0:0:70:soft-hitclap.wav
448,192,34692,1,0,0:0:0:70:soft-hitnormal.wav
320,192,34851,1,0,0:0:0:70:soft-hitnormal.wav
192,192,34851,1,0,0:0:0:0:
448,192,35009,1,0,0:0:0:70:soft-hitnormal.wav
64,192,35009,1,0,0:0:0:70:soft-hitnormal.wav
320,192,35168,1,0,0:0:0:70:soft-hitnormal.wav
192,192,35168,1,0,0:0:0:0:
320,192,35327,1,0,0:0:0:70:soft-hitclap.wav
64,192,35327,1,0,0:0:0:70:normal-hitwhistle.wav
448,192,35327,1,0,0:0:0:70:soft-hitclap.wav
192,192,35485,1,0,0:0:0:70:soft-hitclap.wav
64,192,35485,1,0,0:0:0:70:normal-hitwhistle.wav
448,192,35485,1,0,0:0:0:70:soft-hitclap.wav
320,192,35644,128,0,36120:0:0:0:70:normal-hitnormal.wav
192,192,35803,128,0,36438:0:0:0:70:normal-hitnormal.wav
64,192,35962,128,0,36755:0:0:0:70:normal-hitnormal.wav
448,192,36120,128,0,36914:0:0:0:60:normal-hitwhistle.wav
320,192,36438,128,0,36914:0:0:0:45:normal-hitwhistle.wav
64,192,36914,1,0,0:0:0:70:soft-hitfinish2.wav
192,192,36914,1,0,0:0:0:70:soft-hitnormal.wav
320,192,37073,1,0,0:0:0:0:
64,192,37232,1,0,0:0:0:70:soft-hitnormal.wav
192,192,37232,1,0,0:0:0:70:soft-hitnormal.wav
448,192,37390,1,0,0:0:0:0:
192,192,37549,1,0,0:0:0:70:soft-hitnormal.wav
320,192,37549,1,0,0:0:0:70:soft-hitnormal.wav
64,192,37708,1,0,0:0:0:0:
320,192,37866,1,0,0:0:0:70:soft-hitnormal.wav
448,192,37866,1,0,0:0:0:70:soft-hitnormal.wav
192,192,38025,1,0,0:0:0:0:
64,192,38184,1,0,0:0:0:70:soft-hitnormal.wav
448,192,38184,1,0,0:0:0:70:soft-hitnormal.wav
320,192,38343,1,0,0:0:0:0:
192,192,38501,1,0,0:0:0:70:soft-hitnormal.wav
64,192,38501,1,0,0:0:0:70:soft-hitnormal.wav
448,192,38660,1,0,0:0:0:0:
192,192,38819,1,0,0:0:0:70:soft-hitnormal.wav
320,192,38819,1,0,0:0:0:70:soft-hitnormal.wav
64,192,38978,1,0,0:0:0:0:
320,192,39136,1,0,0:0:0:70:soft-hitnormal.wav
448,192,39136,1,0,0:0:0:70:soft-hitnormal.wav
192,192,39295,1,0,0:0:0:0:
64,192,39454,1,0,0:0:0:70:soft-hitnormal.wav
448,192,39454,1,0,0:0:0:70:soft-hitnormal.wav
192,192,39612,1,0,0:0:0:0:
320,192,39771,1,0,0:0:0:70:soft-hitnormal.wav
448,192,39771,1,0,0:0:0:70:soft-hitnormal.wav
64,192,39930,1,0,0:0:0:0:
320,192,40089,1,0,0:0:0:70:soft-hitnormal.wav
192,192,40089,1,0,0:0:0:70:soft-hitnormal.wav
448,192,40247,1,0,0:0:0:0:
192,192,40406,1,0,0:0:0:70:soft-hitnormal.wav
64,192,40406,1,0,0:0:0:70:soft-hitnormal.wav
320,192,40565,1,0,0:0:0:0:
64,192,40724,1,0,0:0:0:70:soft-hitnormal.wav
448,192,40724,1,0,0:0:0:70:soft-hitnormal.wav
192,192,40882,1,0,0:0:0:0:
448,192,41041,1,0,0:0:0:70:soft-hitnormal.wav
320,192,41041,1,0,0:0:0:70:soft-hitnormal.wav
64,192,41200,1,0,0:0:0:0:
192,192,41359,1,0,0:0:0:70:soft-hitnormal.wav
320,192,41359,1,0,0:0:0:70:soft-hitnormal.wav
448,192,41517,1,0,0:0:0:0:
192,192,41676,1,0,0:0:0:70:soft-hitnormal.wav
64,192,41676,1,0,0:0:0:70:soft-hitnormal.wav
320,192,41835,1,0,0:0:0:0:
448,192,41993,1,0,0:0:0:70:soft-hitnormal.wav
64,192,41993,1,0,0:0:0:70:soft-hitnormal.wav
192,192,42152,1,0,0:0:0:0:
448,192,42311,1,0,0:0:0:70:soft-hitnormal.wav
320,192,42311,1,0,0:0:0:70:soft-hitnormal.wav
192,192,42470,1,0,0:0:0:0:
64,192,42628,1,0,0:0:0:70:soft-hitnormal.wav
448,192,42628,1,0,0:0:0:70:soft-hitnormal.wav
320,192,42787,1,0,0:0:0:0:
64,192,42946,1,0,0:0:0:70:soft-hitnormal.wav
192,192,42946,1,0,0:0:0:70:soft-hitnormal.wav
320,192,43105,1,0,0:0:0:0:
448,192,43263,1,0,0:0:0:70:soft-hitnormal.wav
64,192,43263,1,0,0:0:0:70:soft-hitnormal.wav
192,192,43422,1,0,0:0:0:0:
448,192,43581,1,0,0:0:0:70:soft-hitnormal.wav
320,192,43581,1,0,0:0:0:70:soft-hitnormal.wav
192,192,43739,1,0,0:0:0:0:
64,192,43898,1,0,0:0:0:70:soft-hitnormal.wav
448,192,43898,1,0,0:0:0:70:soft-hitnormal.wav
320,192,44057,1,0,0:0:0:0:
192,192,44216,1,0,0:0:0:70:soft-hitnormal.wav
64,192,44216,1,0,0:0:0:70:soft-hitnormal.wav
320,192,44374,1,0,0:0:0:0:
64,192,44533,1,0,0:0:0:70:soft-hitnormal.wav
448,192,44533,1,0,0:0:0:70:soft-hitnormal.wav
192,192,44692,1,0,0:0:0:0:
320,192,44851,1,0,0:0:0:70:soft-hitnormal.wav
448,192,44851,1,0,0:0:0:70:soft-hitnormal.wav
64,192,45009,1,0,0:0:0:0:
320,192,45168,1,0,0:0:0:70:soft-hitnormal.wav
448,192,45168,1,0,0:0:0:70:soft-hitnormal.wav
192,192,45327,1,0,0:0:0:0:
448,192,45485,1,0,0:0:0:70:soft-hitnormal.wav
64,192,45485,1,0,0:0:0:70:soft-hitnormal.wav
320,192,45644,1,0,0:0:0:0:
192,192,45803,1,0,0:0:0:70:soft-hitnormal.wav
64,192,45803,1,0,0:0:0:70:soft-hitnormal.wav
448,192,45962,1,0,0:0:0:0:
192,192,46120,1,0,0:0:0:70:soft-hitnormal.wav
64,192,46120,1,0,0:0:0:70:soft-hitnormal.wav
448,192,47073,1,0,0:0:0:70:soft-hitnormal.wav
192,192,47073,1,0,0:0:0:70:drum-hitnormal2.wav
64,192,47073,1,0,0:0:0:70:normal-hitfinish.wav
320,192,47232,1,0,0:0:0:70:soft-hitnormal.wav
448,192,47232,1,0,0:0:0:70:soft-hitnormal.wav
192,192,47390,1,0,0:0:0:70:soft-hitclap2.wav
448,192,47390,1,0,0:0:0:70:soft-hitnormal.wav
64,192,47390,1,0,0:0:0:70:soft-hitclap2.wav
320,192,47549,1,0,0:0:0:70:soft-hitnormal.wav
192,192,47549,1,0,0:0:0:70:soft-hitnormal.wav
64,192,47708,1,0,0:0:0:70:soft-hitnormal.wav
320,192,47708,1,0,0:0:0:70:soft-hitnormal.wav
64,192,47866,1,0,0:0:0:70:soft-hitnormal.wav
448,192,47866,1,0,0:0:0:70:soft-hitnormal.wav
192,192,48025,1,0,0:0:0:70:soft-hitclap2.wav
320,192,48025,1,0,0:0:0:70:soft-hitclap2.wav
448,192,48025,1,0,0:0:0:70:soft-hitnormal.wav
64,192,48184,1,0,0:0:0:70:soft-hitnormal.wav
320,192,48184,1,0,0:0:0:70:soft-hitnormal.wav
448,192,48343,1,0,0:0:0:70:soft-hitnormal.wav
192,192,48343,1,0,0:0:0:70:soft-hitnormal.wav
320,192,48501,1,0,0:0:0:70:soft-hitnormal.wav
448,192,48501,1,0,0:0:0:70:soft-hitnormal.wav
64,192,48660,1,0,0:0:0:70:soft-hitclap2.wav
192,192,48660,1,0,0:0:0:70:soft-hitclap2.wav
320,192,48660,1,0,0:0:0:70:soft-hitnormal.wav
64,192,48819,1,0,0:0:0:70:soft-hitnormal.wav
448,192,48819,1,0,0:0:0:70:soft-hitnormal.wav
192,192,48978,1,0,0:0:0:70:soft-hitnormal.wav
448,192,48978,1,0,0:0:0:70:soft-hitnormal.wav
320,192,49136,1,0,0:0:0:70:soft-hitnormal.wav
64,192,49136,1,0,0:0:0:70:soft-hitnormal.wav
192,192,49295,1,0,0:0:0:70:soft-hitnormal.wav
320,192,49295,1,0,0:0:0:70:soft-hitclap2.wav
448,192,49295,1,0,0:0:0:70:soft-hitclap2.wav
64,192,49454,1,0,0:0:0:70:soft-hitnormal.wav
448,192,49454,1,0,0:0:0:70:soft-hitnormal.wav
192,192,49612,1,0,0:0:0:70:soft-hitnormal.wav
320,192,49612,1,0,0:0:0:70:soft-hitnormal.wav
64,192,49771,1,0,0:0:0:70:soft-hitnormal.wav
448,192,49771,1,0,0:0:0:70:soft-hitnormal.wav
320,192,49930,1,0,0:0:0:70:soft-hitclap2.wav
192,192,49930,1,0,0:0:0:70:soft-hitclap2.wav
64,192,49930,1,0,0:0:0:70:soft-hitnormal.wav
448,192,50089,1,0,0:0:0:70:soft-hitnormal.wav
192,192,50089,1,0,0:0:0:70:soft-hitnormal.wav
320,192,50247,1,0,0:0:0:70:soft-hitnormal.wav
64,192,50247,1,0,0:0:0:70:soft-hitnormal.wav
192,192,50406,1,0,0:0:0:70:soft-hitnormal.wav
448,192,50406,1,0,0:0:0:70:soft-hitnormal.wav
320,192,50565,1,0,0:0:0:70:soft-hitclap2.wav
64,192,50565,1,0,0:0:0:70:soft-hitnormal.wav
448,192,50565,1,0,0:0:0:70:soft-hitclap2.wav
192,192,50724,1,0,0:0:0:70:soft-hitnormal.wav
64,192,50724,1,0,0:0:0:70:soft-hitnormal.wav
448,192,50882,1,0,0:0:0:70:soft-hitnormal.wav
320,192,50882,1,0,0:0:0:70:soft-hitnormal.wav
192,192,51041,1,0,0:0:0:70:soft-hitnormal.wav
320,192,51041,1,0,0:0:0:70:soft-hitnormal.wav
320,192,51200,1,0,0:0:0:70:soft-hitclap2.wav
448,192,51200,1,0,0:0:0:70:soft-hitclap2.wav
64,192,51200,1,0,0:0:0:70:soft-hitnormal.wav
64,192,51359,1,0,0:0:0:70:soft-hitnormal.wav
192,192,51359,1,0,0:0:0:70:soft-hitnormal.wav
320,192,51517,1,0,0:0:0:70:soft-hitnormal.wav
192,192,51517,1,0,0:0:0:70:soft-hitnormal.wav
448,192,51676,1,0,0:0:0:70:soft-hitnormal.wav
320,192,51676,1,0,0:0:0:70:soft-hitnormal.wav
64,192,51835,1,0,0:0:0:70:soft-hitclap2.wav
192,192,51835,1,0,0:0:0:70:drum-hitfinish.wav
448,192,51835,1,0,0:0:0:70:soft-hitnormal.wav
192,192,51993,1,0,0:0:0:70:soft-hitnormal.wav
320,192,51993,1,0,0:0:0:70:soft-hitnormal.wav
448,192,52152,1,0,0:0:0:100:soft-hitnormal.wav
64,192,52152,1,0,0:0:0:100:normal-hitfinish.wav
320,192,52152,1,0,0:0:0:100:normal-hitfinish.wav
192,192,52311,1,0,0:0:0:70:soft-hitnormal.wav
320,192,52311,1,0,0:0:0:70:soft-hitnormal.wav
448,192,52628,1,0,0:0:0:70:soft-hitnormal.wav
320,192,52628,1,0,0:0:0:70:soft-hitnormal.wav
448,192,52787,1,0,0:0:0:100:soft-hitnormal.wav
192,192,52787,1,0,0:0:0:70:soft-hitclap2.wav
64,192,52787,1,0,0:0:0:70:soft-hitclap2.wav
192,192,52946,1,0,0:0:0:100:soft-hitnormal.wav
320,192,52946,1,0,0:0:0:100:soft-hitnormal.wav
448,192,53105,1,0,0:0:0:70:soft-hitnormal.wav
320,192,53105,1,0,0:0:0:70:soft-hitnormal.wav
192,192,53263,1,0,0:0:0:70:soft-hitnormal.wav
320,192,53263,1,0,0:0:0:70:soft-hitnormal.wav
64,192,53422,1,0,0:0:0:70:soft-hitnormal.wav
192,192,53422,1,0,0:0:0:70:soft-hitnormal.wav
448,192,53581,1,0,0:0:0:70:soft-hitnormal.wav
320,192,53581,1,0,0:0:0:70:soft-hitnormal.wav
192,192,53898,1,0,0:0:0:70:soft-hitnormal.wav
320,192,53898,1,0,0:0:0:70:soft-hitnormal.wav
320,192,54057,1,0,0:0:0:70:soft-hitclap2.wav
64,192,54057,1,0,0:0:0:70:soft-hitclap2.wav
448,192,54057,1,0,0:0:0:70:soft-hitnormal.wav
320,192,54216,1,0,0:0:0:70:soft-hitnormal.wav
192,192,54216,1,0,0:0:0:70:soft-hitnormal.wav
192,192,54374,1,0,0:0:0:70:soft-hitnormal.wav
64,192,54374,1,0,0:0:0:70:soft-hitnormal.wav
320,192,54533,1,0,0:0:0:70:soft-hitnormal.wav
192,192,54533,1,0,0:0:0:70:soft-hitnormal.wav
320,192,54692,1,0,0:0:0:70:soft-hitnormal.wav
448,192,54692,1,0,0:0:0:70:soft-hitnormal.wav
320,192,54851,1,0,0:0:0:70:soft-hitnormal.wav
448,192,54851,1,0,0:0:0:70:soft-hitnormal.wav
192,192,55168,1,0,0:0:0:70:soft-hitnormal.wav
320,192,55168,1,0,0:0:0:70:soft-hitnormal.wav
192,192,55327,1,0,0:0:0:70:soft-hitclap2.wav
64,192,55327,1,0,0:0:0:70:soft-hitnormal.wav
448,192,55327,1,0,0:0:0:70:soft-hitclap2.wav
320,192,55485,1,0,0:0:0:70:soft-hitnormal.wav
448,192,55485,1,0,0:0:0:70:soft-hitnormal.wav
192,192,55644,1,0,0:0:0:70:soft-hitnormal.wav
320,192,55644,1,0,0:0:0:70:soft-hitnormal.wav
448,192,55803,1,0,0:0:0:70:soft-hitnormal.wav
64,192,55803,1,0,0:0:0:70:soft-hitnormal.wav
192,192,55962,1,0,0:0:0:70:soft-hitnormal.wav
320,192,55962,1,0,0:0:0:70:soft-hitnormal.wav
320,192,56120,1,0,0:0:0:70:soft-hitnormal.wav
64,192,56120,1,0,0:0:0:70:soft-hitnormal.wav
192,192,56279,1,0,0:0:0:70:soft-hitnormal.wav
64,192,56279,1,0,0:0:0:70:soft-hitnormal.wav
320,192,56438,1,0,0:0:0:70:soft-hitnormal.wav
448,192,56438,1,0,0:0:0:70:soft-hitnormal.wav
64,192,56597,1,0,0:0:0:70:soft-hitclap2.wav
192,192,56597,1,0,0:0:0:70:normal-hitnormal.wav
448,192,56597,1,0,0:0:0:70:soft-hitclap2.wav
320,192,56676,1,0,0:0:0:70:normal-hitnormal.wav
192,192,56755,1,0,0:0:0:70:normal-hitnormal.wav
448,192,56835,1,0,0:0:0:70:normal-hitnormal.wav
192,192,56914,1,0,0:0:0:70:normal-hitnormal.wav
64,192,56914,1,0,0:0:0:70:soft-hitclap2.wav
320,192,56993,1,0,0:0:0:70:normal-hitnormal.wav
448,192,57073,1,0,0:0:0:70:normal-hitnormal.wav
64,192,57152,1,0,0:0:0:70:normal-hitnormal.wav
320,192,57232,1,0,0:0:0:70:soft-hitnormal.wav
192,192,57232,1,0,0:0:0:70:soft-hitfinish2.wav
64,192,57390,1,0,0:0:0:70:normal-hitnormal.wav
192,192,57470,1,0,0:0:0:70:normal-hitnormal.wav
320,192,57549,1,0,0:0:0:70:soft-hitnormal.wav
448,192,57549,1,0,0:0:0:40:soft-hitnormal.wav
192,192,57708,1,0,0:0:0:70:soft-hitnormal.wav
64,192,57708,1,0,0:0:0:70:soft-hitnormal.wav
64,192,58025,1,0,0:0:0:70:soft-hitnormal.wav
192,192,58025,1,0,0:0:0:70:soft-hitnormal.wav
320,192,58184,1,0,0:0:0:0:
448,192,58184,1,0,0:0:0:70:soft-hitnormal.wav
192,192,58343,1,0,0:0:0:70:soft-hitnormal.wav
64,192,58343,1,0,0:0:0:70:soft-hitnormal.wav
320,192,58422,1,0,0:0:0:70:normal-hitnormal.wav
64,192,58501,1,0,0:0:0:70:normal-hitnormal.wav
448,192,58660,1,0,0:0:0:70:normal-hitnormal.wav
192,192,58739,1,0,0:0:0:70:normal-hitnormal.wav
448,192,58819,1,0,0:0:0:70:normal-hitnormal.wav
320,192,58978,1,0,0:0:0:70:normal-hitnormal.wav
64,192,59136,1,0,0:0:0:70:soft-hitnormal.wav
448,192,59136,1,0,0:0:0:70:soft-hitnormal.wav
192,192,59295,1,0,0:0:0:40:soft-hitnormal.wav
64,192,59295,1,0,0:0:0:70:soft-hitnormal.wav
448,192,59374,1,0,0:0:0:70:soft-hitnormal.wav
320,192,59374,1,0,0:0:0:70:soft-hitnormal.wav
192,192,59454,1,0,0:0:0:40:soft-hitnormal.wav
64,192,59454,1,0,0:0:0:70:soft-hitnormal.wav
192,192,59612,1,0,0:0:0:70:soft-hitnormal.wav
320,192,59612,1,0,0:0:0:70:soft-hitnormal.wav
192,192,59771,1,0,0:0:0:70:soft-hitclap2.wav
448,192,59771,1,0,0:0:0:100:normal-hitfinish.wav
64,192,59771,1,0,0:0:0:100:soft-hitclap2.wav
64,192,59930,1,0,0:0:0:70:soft-hitnormal.wav
320,192,59930,1,0,0:0:0:70:soft-hitnormal.wav
320,192,60089,1,0,0:0:0:70:soft-hitnormal.wav
448,192,60089,1,0,0:0:0:70:soft-hitnormal.wav
192,192,60247,1,0,0:0:0:70:soft-hitclap2.wav
64,192,60247,1,0,0:0:0:70:soft-hitclap2.wav
448,192,60247,1,0,0:0:0:70:soft-hitclap2.wav
320,192,60406,1,0,0:0:0:70:soft-hitnormal.wav
192,192,60406,1,0,0:0:0:70:soft-hitnormal.wav
64,192,60565,1,0,0:0:0:70:soft-hitnormal.wav
192,192,60565,1,0,0:0:0:70:soft-hitnormal.wav
64,192,60724,1,0,0:0:0:70:soft-hitclap2.wav
320,192,60724,1,0,0:0:0:70:soft-hitclap2.wav
448,192,60724,1,0,0:0:0:70:soft-hitclap2.wav
192,192,60882,1,0,0:0:0:40:soft-hitnormal.wav
320,192,60882,1,0,0:0:0:70:soft-hitnormal.wav
192,192,61200,1,0,0:0:0:70:soft-hitclap.wav
448,192,61200,1,0,0:0:0:70:normal-hitfinish.wav
320,192,61200,1,0,0:0:0:70:soft-hitclap2.wav
192,192,61359,1,0,0:0:0:70:soft-hitclap.wav
448,192,61359,1,0,0:0:0:70:soft-hitnormal.wav
320,192,61359,1,0,0:0:0:70:soft-hitclap2.wav
448,192,61676,1,0,0:0:0:70:soft-hitclap2.wav
320,192,61676,1,0,0:0:0:70:soft-hitclap.wav
64,192,61676,1,0,0:0:0:70:normal-hitfinish.wav
448,192,61835,1,0,0:0:0:70:soft-hitclap2.wav
320,192,61835,1,0,0:0:0:70:soft-hitclap.wav
64,192,61835,1,0,0:0:0:70:soft-hitnormal.wav
192,192,62152,1,0,0:0:0:70:soft-hitclap2.wav
64,192,62152,1,0,0:0:0:70:soft-hitclap.wav
448,192,62152,1,0,0:0:0:70:normal-hitfinish.wav
448,192,62311,1,0,0:0:0:70:soft-hitnormal.wav
192,192,62311,1,0,0:0:0:70:soft-hitclap2.wav
64,192,62311,1,0,0:0:0:70:soft-hitclap.wav
320,192,62628,1,0,0:0:0:70:normal-hitfinish.wav
192,192,62628,1,0,0:0:0:70:soft-hitclap.wav
64,192,62628,1,0,0:0:0:70:soft-hitclap2.wav
64,192,62787,1,0,0:0:0:70:soft-hitclap2.wav
192,192,62787,1,0,0:0:0:70:soft-hitclap.wav
320,192,62787,1,0,0:0:0:70:soft-hitnormal.wav
448,192,63581,1,0,0:0:0:100:soft-hitfinish2.wav
320,192,63581,1,0,0:0:0:70:normal-hitfinish.wav
192,192,63581,1,0,0:0:0:70:soft-hitclap.wav
64,192,63581,1,0,0:0:0:70:soft-hitwhistle.wav
192,192,63739,1,0,0:0:0:70:soft-hitnormal.wav
320,192,63739,1,0,0:0:0:70:
192,192,63898,1,0,0:0:0:70:soft-hitclap2.wav
448,192,63898,1,0,0:0:0:70:soft-hitnormal.wav
64,192,63898,1,0,0:0:0:70:soft-hitclap2.wav
320,192,64057,1,0,0:0:0:70:soft-hitnormal.wav
448,192,64057,1,0,0:0:0:70:
192,192,64216,1,0,0:0:0:70:soft-hitnormal.wav
64,192,64216,1,0,0:0:0:70:soft-hitnormal.wav
64,192,64374,1,0,0:0:0:70:soft-hitnormal.wav
448,192,64374,1,0,0:0:0:70:
320,192,64533,1,0,0:0:0:70:soft-hitclap2.wav
448,192,64533,1,0,0:0:0:70:soft-hitclap2.wav
192,192,64533,1,0,0:0:0:70:soft-hitnormal.wav
64,192,64692,1,0,0:0:0:70:soft-hitnormal.wav
320,192,64692,1,0,0:0:0:70:
192,192,64851,1,0,0:0:0:70:soft-hitnormal.wav
448,192,64851,1,0,0:0:0:70:soft-hitnormal.wav
448,192,65009,1,0,0:0:0:70:soft-hitnormal.wav
320,192,65009,1,0,0:0:0:70:
320,192,65168,1,0,0:0:0:70:soft-hitclap2.wav
192,192,65168,1,0,0:0:0:70:soft-hitclap2.wav
64,192,65168,1,0,0:0:0:70:soft-hitnormal.wav
448,192,65327,1,0,0:0:0:70:soft-hitnormal.wav
64,192,65327,1,0,0:0:0:70:
192,192,65485,1,0,0:0:0:70:soft-hitnormal.wav
320,192,65485,1,0,0:0:0:70:soft-hitnormal.wav
320,192,65644,1,0,0:0:0:70:soft-hitnormal.wav
64,192,65644,1,0,0:0:0:70:soft-hitnormal.wav
192,192,65803,1,0,0:0:0:70:soft-hitclap2.wav
64,192,65803,1,0,0:0:0:70:soft-hitnormal.wav
448,192,65803,1,0,0:0:0:70:soft-hitclap2.wav
448,192,65962,1,0,0:0:0:70:soft-hitnormal.wav
320,192,65962,1,0,0:0:0:70:soft-hitnormal.wav
64,192,66120,1,0,0:0:0:70:soft-hitnormal.wav
192,192,66120,1,0,0:0:0:70:soft-hitnormal.wav
448,192,66120,1,0,0:0:0:100:normal-hitfinish.wav
320,192,66120,1,0,0:0:0:0:
64,192,66279,1,0,0:0:0:70:soft-hitnormal.wav
192,192,66279,1,0,0:0:0:70:soft-hitnormal.wav
64,192,66438,1,0,0:0:0:70:soft-hitnormal.wav
320,192,66438,1,0,0:0:0:70:soft-hitclap2.wav
448,192,66438,1,0,0:0:0:70:soft-hitclap2.wav
192,192,66597,1,0,0:0:0:70:soft-hitnormal.wav
320,192,66597,1,0,0:0:0:70:
64,192,66755,1,0,0:0:0:70:soft-hitnormal.wav
448,192,66755,1,0,0:0:0:70:soft-hitnormal.wav
192,192,66914,1,0,0:0:0:70:soft-hitnormal.wav
320,192,66914,1,0,0:0:0:70:
192,192,67073,1,0,0:0:0:70:soft-hitnormal.wav
448,192,67073,1,0,0:0:0:70:soft-hitclap2.wav
64,192,67073,1,0,0:0:0:70:soft-hitclap2.wav
448,192,67232,1,0,0:0:0:70:soft-hitnormal.wav
320,192,67232,1,0,0:0:0:70:
320,192,67390,1,0,0:0:0:70:soft-hitnormal.wav
192,192,67390,1,0,0:0:0:70:soft-hitnormal.wav
192,192,67549,1,0,0:0:0:70:soft-hitnormal.wav
64,192,67549,1,0,0:0:0:70:soft-hitnormal.wav
64,192,67708,1,0,0:0:0:70:soft-hitclap2.wav
320,192,67708,1,0,0:0:0:70:soft-hitnormal.wav
448,192,67708,1,0,0:0:0:70:soft-hitclap2.wav
192,192,67866,1,0,0:0:0:70:soft-hitnormal.wav
320,192,67866,1,0,0:0:0:70:soft-hitnormal.wav
320,192,68025,1,0,0:0:0:70:soft-hitnormal.wav
448,192,68025,1,0,0:0:0:70:soft-hitnormal.wav
448,192,68184,1,0,0:0:0:70:soft-hitnormal.wav
64,192,68184,1,0,0:0:0:70:soft-hitnormal.wav
320,192,68343,1,0,0:0:0:70:soft-hitclap2.wav
192,192,68343,1,0,0:0:0:70:soft-hitclap2.wav
64,192,68343,1,0,0:0:0:70:soft-hitwhistle.wav
320,192,68501,1,0,0:0:0:70:soft-hitnormal.wav
192,192,68660,1,0,0:0:0:70:soft-hitnormal.wav
448,192,68660,1,0,0:0:0:70:normal-hitfinish.wav
320,192,68819,1,0,0:0:0:70:soft-hitnormal.wav
448,192,68819,1,0,0:0:0:70:soft-hitnormal.wav
320,192,68978,1,0,0:0:0:70:soft-hitnormal.wav
192,192,68978,1,0,0:0:0:70:soft-hitclap2.wav
64,192,68978,1,0,0:0:0:70:soft-hitclap2.wav
448,192,69136,1,0,0:0:0:70:soft-hitnormal.wav
64,192,69136,1,0,0:0:0:70:
192,192,69295,1,0,0:0:0:70:soft-hitnormal.wav
320,192,69295,1,0,0:0:0:70:soft-hitnormal.wav
448,192,69454,1,0,0:0:0:70:
64,192,69454,1,0,0:0:0:70:soft-hitnormal.wav
320,192,69612,1,0,0:0:0:70:soft-hitclap2.wav
448,192,69612,1,0,0:0:0:70:soft-hitclap2.wav
192,192,69612,1,0,0:0:0:70:soft-hitnormal.wav
192,192,69771,1,0,0:0:0:70:soft-hitnormal.wav
64,192,69771,1,0,0:0:0:70:soft-hitnormal.wav
320,192,69930,1,0,0:0:0:70:soft-hitnormal.wav
448,192,69930,1,0,0:0:0:70:soft-hitnormal.wav
64,192,70089,1,0,0:0:0:70:soft-hitnormal.wav
192,192,70089,1,0,0:0:0:70:soft-hitnormal.wav
192,192,70247,1,0,0:0:0:70:soft-hitnormal.wav
320,192,70247,1,0,0:0:0:70:soft-hitclap2.wav
448,192,70247,1,0,0:0:0:70:soft-hitclap2.wav
64,192,70406,1,0,0:0:0:70:soft-hitnormal.wav
320,192,70406,1,0,0:0:0:70:soft-hitnormal.wav
192,192,70565,1,0,0:0:0:70:soft-hitnormal.wav
448,192,70565,1,0,0:0:0:70:soft-hitnormal.wav
320,192,70724,1,0,0:0:0:70:soft-hitnormal.wav
64,192,70724,1,0,0:0:0:70:
64,192,70882,1,0,0:0:0:70:soft-hitclap2.wav
192,192,70882,1,0,0:0:0:70:soft-hitclap2.wav
448,192,70882,1,0,0:0:0:70:soft-hitclap.wav
448,192,71041,1,0,0:0:0:70:soft-hitnormal.wav
320,192,71041,1,0,0:0:0:60:soft-hitnormal.wav
320,192,71200,1,0,0:0:0:60:soft-hitnormal.wav
448,192,71200,1,0,0:0:0:60:soft-hitnormal.wav
64,192,71200,1,0,0:0:0:70:normal-hitfinish.wav
320,192,71359,1,0,0:0:0:30:soft-hitnormal.wav
448,192,71359,1,0,0:0:0:30:soft-hitnormal.wav
320,192,71517,1,0,0:0:0:70:soft-hitclap2.wav
448,192,71517,1,0,0:0:0:70:soft-hitclap2.wav
192,192,71517,1,0,0:0:0:70:soft-hitnormal.wav
192,192,71676,1,0,0:0:0:35:soft-hitnormal.wav
320,192,71676,1,0,0:0:0:35:soft-hitnormal.wav
320,192,71835,1,0,0:0:0:40:soft-hitnormal.wav
192,192,71835,1,0,0:0:0:40:soft-hitnormal.wav
192,192,71993,1,0,0:0:0:50:soft-hitnormal.wav
320,192,71993,1,0,0:0:0:50:soft-hitnormal.wav
192,192,72152,1,0,0:0:0:70:soft-hitclap2.wav
64,192,72152,1,0,0:0:0:70:soft-hitnormal.wav
320,192,72152,1,0,0:0:0:70:soft-hitclap2.wav
192,192,72311,1,0,0:0:0:55:soft-hitnormal.wav
64,192,72311,1,0,0:0:0:55:soft-hitnormal.wav
64,192,72470,1,0,0:0:0:60:soft-hitnormal.wav
192,192,72470,1,0,0:0:0:60:soft-hitnormal.wav
64,192,72628,1,0,0:0:0:65:soft-hitnormal.wav
192,192,72628,1,0,0:0:0:65:soft-hitnormal.wav
320,192,72787,1,0,0:0:0:70:soft-hitnormal.wav
192,192,72787,1,0,0:0:0:70:soft-hitclap2.wav
448,192,72787,1,0,0:0:0:70:soft-hitclap2.wav
448,192,72946,1,0,0:0:0:70:soft-hitnormal.wav
320,192,72946,1,0,0:0:0:70:soft-hitnormal.wav
448,192,73105,1,0,0:0:0:75:soft-hitnormal.wav
320,192,73105,1,0,0:0:0:75:soft-hitnormal.wav
320,192,73263,1,0,0:0:0:80:soft-hitnormal.wav
448,192,73263,1,0,0:0:0:80:soft-hitnormal.wav
192,192,73422,1,0,0:0:0:60:soft-hitclap.wav
64,192,73422,1,0,0:0:0:40:soft-hitnormal.wav
320,192,73501,1,0,0:0:0:60:soft-hitclap.wav
448,192,73501,1,0,0:0:0:50:soft-hitnormal.wav
192,192,73581,1,0,0:0:0:60:soft-hitclap.wav
64,192,73581,1,0,0:0:0:60:soft-hitnormal.wav
320,192,73660,1,0,0:0:0:60:soft-hitclap.wav
448,192,73660,1,0,0:0:0:70:soft-hitnormal.wav
192,192,73739,1,0,0:0:0:60:soft-hitclap.wav
64,192,73739,1,0,0:0:0:70:soft-hitfinish2.wav
448,192,73898,1,0,0:0:0:70:soft-hitnormal.wav
320,192,73898,1,0,0:0:0:70:
64,192,74057,1,0,0:0:0:70:soft-hitclap2.wav
192,192,74057,1,0,0:0:0:70:soft-hitclap2.wav
448,192,74057,1,0,0:0:0:70:soft-hitnormal.wav
64,192,74216,1,0,0:0:0:70:soft-hitnormal.wav
320,192,74216,1,0,0:0:0:70:soft-hitnormal.wav
448,192,74374,1,0,0:0:0:70:soft-hitnormal.wav
192,192,74374,1,0,0:0:0:70:soft-hitnormal.wav
64,192,74533,1,0,0:0:0:70:soft-hitnormal.wav
320,192,74533,1,0,0:0:0:70:soft-hitnormal.wav
448,192,74692,1,0,0:0:0:70:soft-hitclap2.wav
320,192,74692,1,0,0:0:0:70:soft-hitclap2.wav
192,192,74692,1,0,0:0:0:70:soft-hitnormal.wav
192,192,74851,1,0,0:0:0:70:soft-hitnormal.wav
64,192,74851,1,0,0:0:0:70:soft-hitnormal.wav
448,192,75009,1,0,0:0:0:70:soft-hitnormal.wav
64,192,75009,1,0,0:0:0:70:soft-hitnormal.wav
192,192,75168,1,0,0:0:0:70:soft-hitnormal.wav
320,192,75168,1,0,0:0:0:70:soft-hitnormal.wav
192,192,75327,1,0,0:0:0:70:soft-hitnormal.wav
64,192,75327,1,0,0:0:0:70:soft-hitclap2.wav
448,192,75327,1,0,0:0:0:70:soft-hitclap2.wav
320,192,75485,1,0,0:0:0:70:soft-hitnormal.wav
448,192,75485,1,0,0:0:0:70:soft-hitnormal.wav
192,192,75644,1,0,0:0:0:70:soft-hitnormal.wav
320,192,75644,1,0,0:0:0:70:soft-hitnormal.wav
64,192,75803,1,0,0:0:0:70:soft-hitnormal.wav
192,192,75803,1,0,0:0:0:70:soft-hitnormal.wav
448,192,75962,1,0,0:0:0:70:soft-hitclap2.wav
320,192,75962,1,0,0:0:0:70:soft-hitnormal.wav
64,192,75962,1,0,0:0:0:70:soft-hitclap2.wav
320,192,76120,1,0,0:0:0:70:soft-hitnormal.wav
192,192,76120,1,0,0:0:0:70:soft-hitnormal.wav
64,192,76279,1,0,0:0:0:70:soft-hitnormal.wav
320,192,76279,1,0,0:0:0:70:soft-hitnormal.wav
448,192,76279,1,0,0:0:0:70:normal-hitfinish.wav
64,192,76438,1,0,0:0:0:70:soft-hitnormal.wav
192,192,76438,1,0,0:0:0:70:soft-hitnormal.wav
192,192,76597,1,0,0:0:0:70:soft-hitnormal.wav
320,192,76597,1,0,0:0:0:70:soft-hitclap2.wav
448,192,76597,1,0,0:0:0:70:soft-hitclap2.wav
64,192,76755,1,0,0:0:0:70:soft-hitnormal.wav
448,192,76755,1,0,0:0:0:70:soft-hitnormal.wav
192,192,76914,1,0,0:0:0:70:soft-hitnormal.wav
320,192,76914,1,0,0:0:0:70:soft-hitnormal.wav
448,192,77073,1,0,0:0:0:70:soft-hitnormal.wav
64,192,77073,1,0,0:0:0:70:soft-hitnormal.wav
320,192,77232,1,0,0:0:0:70:soft-hitnormal.wav
192,192,77232,1,0,0:0:0:70:soft-hitclap2.wav
64,192,77232,1,0,0:0:0:70:soft-hitclap2.wav
320,192,77390,1,0,0:0:0:70:soft-hitnormal.wav
448,192,77390,1,0,0:0:0:70:soft-hitnormal.wav
64,192,77549,1,0,0:0:0:70:soft-hitnormal.wav
192,192,77549,1,0,0:0:0:70:soft-hitnormal.wav
192,192,77708,1,0,0:0:0:70:soft-hitnormal.wav
320,192,77708,1,0,0:0:0:70:soft-hitnormal.wav
64,192,77866,1,0,0:0:0:70:soft-hitnormal.wav
320,192,77866,1,0,0:0:0:70:soft-hitclap2.wav
448,192,77866,1,0,0:0:0:70:soft-hitclap2.wav
192,192,78025,1,0,0:0:0:70:soft-hitnormal.wav
64,192,78025,1,0,0:0:0:70:soft-hitnormal.wav
320,192,78184,1,0,0:0:0:70:soft-hitnormal.wav
448,192,78184,1,0,0:0:0:70:soft-hitnormal.wav
192,192,78343,1,0,0:0:0:70:soft-hitnormal.wav
64,192,78343,1,0,0:0:0:70:soft-hitnormal.wav
320,192,78501,1,0,0:0:0:70:soft-hitclap.wav
448,192,78501,1,0,0:0:0:70:soft-hitclap2.wav
64,192,78501,128,0,78819:0:0:0:70:normal-hitfinish.wav
448,192,78819,1,0,0:0:0:70:normal-hitfinish.wav
320,192,78819,1,0,0:0:0:70:soft-hitnormal.wav
192,192,78898,1,0,0:0:0:70:soft-hitnormal.wav
320,192,78978,1,0,0:0:0:70:soft-hitnormal.wav
64,192,79057,1,0,0:0:0:70:soft-hitnormal.wav
448,192,79136,1,0,0:0:0:70:soft-hitnormal.wav
192,192,79216,1,0,0:0:0:70:soft-hitnormal.wav
320,192,79295,1,0,0:0:0:70:soft-hitnormal.wav
64,192,79374,1,0,0:0:0:70:soft-hitnormal.wav
448,192,79454,1,0,0:0:0:70:soft-hitnormal.wav
192,192,79533,1,0,0:0:0:70:soft-hitnormal.wav
320,192,79612,1,0,0:0:0:70:soft-hitnormal.wav
64,192,79692,1,0,0:0:0:70:soft-hitnormal.wav
320,192,79771,1,0,0:0:0:70:soft-hitclap.wav
448,192,79771,1,0,0:0:0:70:normal-hitfinish.wav
320,192,79930,1,0,0:0:0:70:soft-hitclap.wav
448,192,79930,1,0,0:0:0:70:soft-hitclap2.wav
320,192,80089,1,0,0:0:0:70:normal-hitfinish.wav
192,192,80168,1,0,0:0:0:70:soft-hitnormal.wav
448,192,80247,1,0,0:0:0:70:soft-hitnormal.wav
64,192,80327,1,0,0:0:0:70:soft-hitnormal.wav
320,192,80406,1,0,0:0:0:70:soft-hitnormal.wav
192,192,80485,1,0,0:0:0:70:soft-hitnormal.wav
448,192,80565,1,0,0:0:0:70:soft-hitnormal.wav
64,192,80644,1,0,0:0:0:70:soft-hitnormal.wav
320,192,80724,1,0,0:0:0:70:soft-hitnormal.wav
192,192,80803,1,0,0:0:0:70:soft-hitnormal.wav
448,192,80882,1,0,0:0:0:70:soft-hitnormal.wav
64,192,80962,1,0,0:0:0:70:soft-hitnormal.wav
448,192,81041,1,0,0:0:0:70:normal-hitfinish.wav
320,192,81041,1,0,0:0:0:70:soft-hitclap.wav
320,192,81200,1,0,0:0:0:70:soft-hitclap.wav
448,192,81200,1,0,0:0:0:70:soft-hitclap2.wav
448,192,81359,1,0,0:0:0:70:normal-hitfinish.wav
192,192,81359,1,0,0:0:0:70:soft-hitclap2.wav
64,192,81359,1,0,0:0:0:70:soft-hitclap.wav
192,192,81517,1,0,0:0:0:70:soft-hitclap2.wav
448,192,81517,1,0,0:0:0:70:soft-hitnormal.wav
64,192,81517,1,0,0:0:0:70:soft-hitclap.wav
64,192,81835,1,0,0:0:0:70:soft-hitclap.wav
192,192,81835,1,0,0:0:0:70:soft-hitclap2.wav
448,192,81835,1,0,0:0:0:70:normal-hitfinish.wav
448,192,81993,1,0,0:0:0:70:soft-hitnormal.wav
192,192,81993,1,0,0:0:0:70:soft-hitclap2.wav
64,192,81993,1,0,0:0:0:70:soft-hitclap.wav
320,192,82311,1,0,0:0:0:70:soft-hitclap.wav
448,192,82311,1,0,0:0:0:70:soft-hitclap2.wav
64,192,82311,1,0,0:0:0:70:normal-hitfinish.wav
448,192,82470,1,0,0:0:0:70:soft-hitclap2.wav
320,192,82470,1,0,0:0:0:70:soft-hitclap.wav
64,192,82470,1,0,0:0:0:70:soft-hitnormal.wav
320,192,82787,1,0,0:0:0:70:soft-hitclap.wav
192,192,82787,1,0,0:0:0:70:normal-hitfinish.wav
64,192,82787,1,0,0:0:0:70:soft-hitclap2.wav
448,192,82946,1,0,0:0:0:70:soft-hitclap.wav
192,192,82946,1,0,0:0:0:70:soft-hitnormal.wav
64,192,82946,1,0,0:0:0:70:soft-hitclap2.wav
448,192,83105,1,0,0:0:0:70:soft-hitclap.wav
320,192,83105,1,0,0:0:0:70:soft-hitnormal.wav
64,192,83105,1,0,0:0:0:70:soft-hitclap2.wav
320,192,83263,1,0,0:0:0:70:normal-hitfinish.wav
448,192,83263,1,0,0:0:0:70:soft-hitclap.wav
192,192,83263,1,0,0:0:0:70:soft-hitclap2.wav
64,192,83422,1,0,0:0:0:70:normal-hitnormal.wav
320,192,83501,1,0,0:0:0:70:normal-hitnormal.wav
64,192,83581,1,0,0:0:0:70:normal-hitnormal.wav
192,192,83898,1,0,0:0:0:70:soft-hitwhistle.wav
448,192,83898,1,0,0:0:0:70:normal-hitfinish.wav
64,192,83898,128,0,85168:0:0:0:70:soft-hitfinish2.wav
320,192,84057,1,0,0:0:0:0:
192,192,84216,1,0,0:0:0:70:soft-hitclap.wav
448,192,84216,1,0,0:0:0:70:soft-hitclap.wav
320,192,84374,1,0,0:0:0:0:
192,192,84533,1,0,0:0:0:70:soft-hitnormal.wav
448,192,84692,1,0,0:0:0:0:
192,192,84771,1,0,0:0:0:70:soft-hitnormal.wav
320,192,84851,1,0,0:0:0:70:soft-hitclap.wav
448,192,84851,1,0,0:0:0:70:soft-hitclap.wav
448,192,85009,1,0,0:0:0:0:
192,192,85168,128,0,86438:0:0:0:70:normal-hitnormal.wav
320,192,85168,1,0,0:0:0:70:soft-hitnormal.wav
448,192,85327,1,0,0:0:0:0:
64,192,85485,1,0,0:0:0:70:soft-hitclap.wav
320,192,85485,1,0,0:0:0:70:soft-hitclap.wav
448,192,85644,1,0,0:0:0:0:
64,192,85803,1,0,0:0:0:70:soft-hitnormal.wav
448,192,85962,1,0,0:0:0:0:
64,192,86041,1,0,0:0:0:70:soft-hitnormal.wav
448,192,86120,1,0,0:0:0:70:soft-hitclap.wav
320,192,86120,1,0,0:0:0:70:soft-hitclap.wav
320,192,86279,1,0,0:0:0:0:
448,192,86438,128,0,87073:0:0:0:70:normal-hitnormal.wav
64,192,86438,1,0,0:0:0:70:soft-hitnormal.wav
320,192,86597,1,0,0:0:0:0:
192,192,86755,1,0,0:0:0:70:soft-hitclap.wav
64,192,86755,1,0,0:0:0:70:soft-hitclap.wav
320,192,86914,1,0,0:0:0:0:
64,192,87073,128,0,87390:0:0:0:70:normal-hitnormal.wav
192,192,87073,1,0,0:0:0:70:soft-hitnormal.wav
320,192,87232,1,0,0:0:0:0:
192,192,87390,128,0,87708:0:0:0:70:soft-hitclap.wav
448,192,87390,1,0,0:0:0:70:soft-hitclap.wav
320,192,87549,1,0,0:0:0:0:
448,192,87708,128,0,88819:0:0:0:70:normal-hitnormal.wav
64,192,87708,1,0,0:0:0:70:soft-hitnormal.wav
320,192,87866,1,0,0:0:0:0:
64,192,88025,1,0,0:0:0:70:soft-hitclap.wav
192,192,88025,1,0,0:0:0:70:soft-hitclap.wav
320,192,88184,1,0,0:0:0:0:
64,192,88343,1,0,0:0:0:70:soft-hitnormal.wav
320,192,88501,1,0,0:0:0:0:
64,192,88660,1,0,0:0:0:70:soft-hitclap.wav
192,192,88660,1,0,0:0:0:70:soft-hitclap.wav
320,192,88819,1,0,0:0:0:70:normal-hitnormal.wav
64,192,88898,1,0,0:0:0:70:normal-hitnormal.wav
448,192,88978,128,0,90089:0:0:0:70:normal-hitfinish.wav
320,192,88978,1,0,0:0:0:70:normal-hitnormal.wav
192,192,89136,1,0,0:0:0:0:
64,192,89295,1,0,0:0:0:70:soft-hitclap.wav
320,192,89295,1,0,0:0:0:70:soft-hitclap.wav
192,192,89454,1,0,0:0:0:0:
320,192,89612,1,0,0:0:0:70:soft-hitnormal.wav
64,192,89771,1,0,0:0:0:0:
192,192,89930,1,0,0:0:0:70:soft-hitclap.wav
320,192,89930,1,0,0:0:0:70:soft-hitclap.wav
64,192,90089,1,0,0:0:0:70:normal-hitnormal.wav
320,192,90168,1,0,0:0:0:70:normal-hitnormal.wav
64,192,90247,128,0,91359:0:0:0:70:normal-hitnormal.wav
192,192,90247,1,0,0:0:0:70:soft-hitnormal.wav
448,192,90406,1,0,0:0:0:0:
192,192,90565,1,0,0:0:0:70:soft-hitclap.wav
320,192,90565,1,0,0:0:0:70:soft-hitclap.wav
448,192,90724,1,0,0:0:0:0:
192,192,90882,1,0,0:0:0:70:soft-hitnormal.wav
448,192,91041,1,0,0:0:0:0:
192,192,91200,1,0,0:0:0:70:soft-hitclap.wav
320,192,91200,1,0,0:0:0:70:soft-hitclap.wav
448,192,91359,1,0,0:0:0:70:normal-hitnormal.wav
192,192,91438,1,0,0:0:0:70:normal-hitnormal.wav
448,192,91517,128,0,92311:0:0:0:70:normal-hitnormal.wav
320,192,91517,1,0,0:0:0:70:soft-hitnormal.wav
64,192,91676,1,0,0:0:0:0:
320,192,91835,1,0,0:0:0:70:soft-hitclap.wav
192,192,91835,1,0,0:0:0:70:soft-hitclap.wav
64,192,91993,1,0,0:0:0:0:
192,192,92152,1,0,0:0:0:70:soft-hitnormal.wav
320,192,92311,128,0,92470:0:0:0:70:normal-hitnormal.wav
192,192,92470,1,0,0:0:0:100:soft-hitclap.wav
64,192,92470,128,0,92628:0:0:0:70:normal-hitnormal.wav
448,192,92628,128,0,92787:0:0:0:70:normal-hitnormal.wav
192,192,92787,128,0,92946:0:0:0:70:normal-hitnormal.wav
320,192,92946,128,0,93105:0:0:0:70:normal-hitnormal.wav
64,192,93105,128,0,93263:0:0:0:70:normal-hitnormal.wav
448,192,93105,1,0,0:0:0:100:soft-hitclap.wav
192,192,93263,128,0,93422:0:0:0:70:normal-hitnormal.wav
320,192,93422,1,0,0:0:0:70:soft-hitclap2.wav
448,192,93422,1,0,0:0:0:70:soft-hitnormal.wav
64,192,93501,1,0,0:0:0:70:soft-hitnormal.wav
192,192,93501,1,0,0:0:0:70:soft-hitclap2.wav
320,192,93581,1,0,0:0:0:70:soft-hitclap2.wav
448,192,93581,1,0,0:0:0:70:soft-hitnormal.wav
192,192,93660,1,0,0:0:0:70:soft-hitclap2.wav
64,192,93660,1,0,0:0:0:70:soft-hitnormal.wav
320,192,93739,1,0,0:0:0:70:soft-hitclap2.wav
448,192,93739,1,0,0:0:0:70:soft-hitnormal.wav
64,192,93898,1,0,0:0:0:70:soft-hitnormal.wav
192,192,93898,1,0,0:0:0:70:soft-hitclap2.wav
320,192,94057,1,0,0:0:0:70:soft-hitnormal.wav
448,192,94057,1,0,0:0:0:70:soft-hitnormal.wav
64,192,94216,1,0,0:0:0:70:
448,192,94374,1,0,0:0:0:70:soft-hitnormal.wav
320,192,94374,1,0,0:0:0:70:soft-hitnormal.wav
192,192,94533,1,0,0:0:0:70:
320,192,94692,1,0,0:0:0:70:soft-hitnormal.wav
448,192,94692,1,0,0:0:0:70:soft-hitnormal.wav
64,192,94851,1,0,0:0:0:70:
320,192,95009,1,0,0:0:0:70:soft-hitnormal.wav
448,192,95009,1,0,0:0:0:70:soft-hitnormal.wav
192,192,95168,1,0,0:0:0:70:
448,192,95327,1,0,0:0:0:70:soft-hitnormal.wav
320,192,95327,1,0,0:0:0:70:soft-hitnormal.wav
64,192,95485,1,0,0:0:0:70:
448,192,95644,1,0,0:0:0:70:soft-hitnormal.wav
320,192,95644,1,0,0:0:0:70:soft-hitnormal.wav
192,192,95803,1,0,0:0:0:70:
320,192,95962,1,0,0:0:0:70:soft-hitnormal.wav
448,192,95962,1,0,0:0:0:70:soft-hitnormal.wav
64,192,96120,1,0,0:0:0:70:
320,192,96279,1,0,0:0:0:70:soft-hitnormal.wav
448,192,96279,1,0,0:0:0:70:soft-hitnormal.wav
320,192,96438,1,0,0:0:0:70:soft-hitnormal.wav
192,192,96438,1,0,0:0:0:70:soft-hitnormal.wav
192,192,96597,1,0,0:0:0:70:soft-hitnormal.wav
64,192,96597,1,0,0:0:0:70:soft-hitnormal.wav
448,192,96755,1,0,0:0:0:70:
64,192,96914,1,0,0:0:0:70:soft-hitnormal.wav
192,192,96914,1,0,0:0:0:70:soft-hitnormal.wav
320,192,97073,1,0,0:0:0:70:
192,192,97232,1,0,0:0:0:70:soft-hitnormal.wav
64,192,97232,1,0,0:0:0:70:soft-hitnormal.wav
448,192,97390,1,0,0:0:0:70:
192,192,97549,1,0,0:0:0:70:soft-hitnormal.wav
64,192,97549,1,0,0:0:0:70:soft-hitnormal.wav
320,192,97708,1,0,0:0:0:70:
192,192,97866,1,0,0:0:0:70:soft-hitnormal.wav
64,192,97866,1,0,0:0:0:70:soft-hitnormal.wav
448,192,98025,1,0,0:0:0:70:
64,192,98184,1,0,0:0:0:70:soft-hitnormal.wav
192,192,98184,1,0,0:0:0:70:soft-hitnormal.wav
320,192,98343,1,0,0:0:0:70:
64,192,98501,1,0,0:0:0:70:soft-hitnormal.wav
192,192,98501,1,0,0:0:0:70:soft-hitnormal.wav
448,192,98660,1,0,0:0:0:70:
64,192,98819,1,0,0:0:0:70:soft-hitnormal.wav
192,192,98819,1,0,0:0:0:70:soft-hitnormal.wav
320,192,98978,1,0,0:0:0:70:soft-hitnormal.wav
192,192,98978,1,0,0:0:0:70:soft-hitnormal.wav
448,192,99136,1,0,0:0:0:70:soft-hitnormal.wav
64,192,99136,1,0,0:0:0:70:soft-hitnormal.wav
192,192,99295,1,0,0:0:0:70:
64,192,99454,1,0,0:0:0:70:soft-hitnormal.wav
448,192,99454,1,0,0:0:0:70:soft-hitnormal.wav
320,192,99612,1,0,0:0:0:70:
448,192,99771,1,0,0:0:0:70:soft-hitnormal.wav
64,192,99771,1,0,0:0:0:70:soft-hitnormal.wav
192,192,99930,1,0,0:0:0:70:
64,192,100089,1,0,0:0:0:70:soft-hitnormal.wav
448,192,100089,1,0,0:0:0:70:soft-hitnormal.wav
320,192,100247,1,0,0:0:0:70:
64,192,100406,1,0,0:0:0:70:soft-hitnormal.wav
448,192,100406,1,0,0:0:0:70:soft-hitnormal.wav
192,192,100565,1,0,0:0:0:70:
448,192,100724,1,0,0:0:0:70:soft-hitnormal.wav
64,192,100724,1,0,0:0:0:70:soft-hitnormal.wav
320,192,100882,1,0,0:0:0:0:
64,192,101041,1,0,0:0:0:70:soft-hitnormal.wav
448,192,101041,1,0,0:0:0:70:soft-hitnormal.wav
64,192,101200,1,0,0:0:0:70:soft-hitnormal.wav
448,192,101200,1,0,0:0:0:70:soft-hitnormal.wav
192,192,101359,1,0,0:0:0:70:
448,192,101676,1,0,0:0:0:70:
448,192,102152,1,0,0:0:0:70:
320,192,102311,1,0,0:0:0:70:
192,192,102470,1,0,0:0:0:70:
64,192,102628,128,0,104216:0:0:0:0:
320,192,102628,1,0,0:0:0:70:
448,192,102946,1,0,0:0:0:35:soft-hitnormal.wav
320,192,103052,1,0,0:0:0:0:
192,192,103157,1,0,0:0:0:70:soft-hitnormal.wav
320,192,103263,1,0,0:0:0:70:soft-hitnormal.wav
448,192,103263,1,0,0:0:0:70:soft-hitnormal.wav
192,192,103369,1,0,0:0:0:0:
448,192,103475,1,0,0:0:0:0:
192,192,103581,1,0,0:0:0:35:soft-hitnormal.wav
320,192,103581,1,0,0:0:0:0:
448,192,103687,1,0,0:0:0:0:
192,192,103792,1,0,0:0:0:0:
448,192,103898,1,0,0:0:0:70:soft-hitclap.wav
320,192,103898,1,0,0:0:0:35:soft-hitwhistle.wav
192,192,104004,1,0,0:0:0:0:
448,192,104110,1,0,0:0:0:0:
192,192,104189,1,0,0:0:0:0:
320,192,104216,1,0,0:0:0:70:normal-hitfinish.wav
448,192,104427,1,0,0:0:0:0:
192,192,104533,1,0,0:0:0:0:
64,192,104745,1,0,0:0:0:0:
192,192,104851,1,0,0:0:0:0:
320,192,104851,1,0,0:0:0:70:soft-hitclap2.wav
64,192,105062,1,0,0:0:0:0:
192,192,105168,1,0,0:0:0:0:
320,192,105274,1,0,0:0:0:0:
448,192,105380,1,0,0:0:0:0:
320,192,105485,1,0,0:0:0:0:
64,192,105485,1,0,0:0:0:0:
192,192,105697,1,0,0:0:0:0:
64,192,105803,1,0,0:0:0:0:
320,192,106015,1,0,0:0:0:0:
448,192,106120,1,0,0:0:0:0:
64,192,106120,1,0,0:0:0:70:soft-hitclap2.wav
192,192,106332,1,0,0:0:0:0:
320,192,106438,1,0,0:0:0:0:
448,192,106650,1,0,0:0:0:0:
64,192,106755,1,0,0:0:0:0:
320,192,106755,1,0,0:0:0:0:
192,192,106967,1,0,0:0:0:0:
448,192,107073,1,0,0:0:0:0:
448,192,107390,1,0,0:0:0:0:
320,192,107390,1,0,0:0:0:70:soft-hitclap2.wav
192,192,107602,1,0,0:0:0:0:
64,192,107708,1,0,0:0:0:0:
320,192,107919,1,0,0:0:0:0:
192,192,107946,1,0,0:0:0:0:
448,192,108237,1,0,0:0:0:0:
64,192,108554,1,0,0:0:0:0:
320,192,108554,1,0,0:0:0:0:
192,192,108660,1,0,0:0:0:70:soft-hitclap2.wav
448,192,108660,1,0,0:0:0:0:
64,192,108872,1,0,0:0:0:0:
192,192,108872,1,0,0:0:0:0:
448,192,108978,1,0,0:0:0:60:soft-hitclap2.wav
320,192,108978,1,0,0:0:0:0:
448,192,109083,1,0,0:0:0:60:soft-hitclap2.wav
320,192,109083,1,0,0:0:0:0:
320,192,109189,1,0,0:0:0:0:
448,192,109189,1,0,0:0:0:60:soft-hitclap2.wav
64,192,109295,1,0,0:0:0:70:normal-hitfinish.wav
192,192,109295,1,0,0:0:0:60:soft-hitclap2.wav
320,192,109507,1,0,0:0:0:0:
64,192,109612,1,0,0:0:0:0:
192,192,109824,1,0,0:0:0:0:
64,192,109930,1,0,0:0:0:70:soft-hitclap2.wav
448,192,109930,1,0,0:0:0:70:soft-hitclap2.wav
320,192,110247,1,0,0:0:0:0:
320,192,110459,1,0,0:0:0:0:
448,192,110565,1,0,0:0:0:0:
192,192,110882,1,0,0:0:0:0:
64,192,110988,1,0,0:0:0:0:
192,192,111094,1,0,0:0:0:0:
320,192,111094,1,0,0:0:0:0:
448,192,111200,1,0,0:0:0:70:soft-hitclap2.wav
64,192,111200,1,0,0:0:0:0:
320,192,111411,1,0,0:0:0:0:
192,192,111517,1,0,0:0:0:0:
192,192,111835,1,0,0:0:0:0:
448,192,111835,1,0,0:0:0:0:
448,192,112152,1,0,0:0:0:0:
320,192,112470,1,0,0:0:0:0:
64,192,112470,1,0,0:0:0:70:soft-hitclap2.wav
192,192,112575,1,0,0:0:0:0:
64,192,112681,1,0,0:0:0:0:
320,192,112787,1,0,0:0:0:0:
448,192,112893,1,0,0:0:0:0:
192,192,112999,128,0,114374:0:0:0:70:soft-hitnormal.wav
320,192,112999,128,0,113845:0:0:0:70:soft-hitwhistle.wav
448,192,113898,1,0,0:0:0:0:
64,192,113978,1,0,0:0:0:0:
320,192,114057,1,0,0:0:0:0:
448,192,114374,1,0,0:0:0:70:normal-hitfinish.wav
320,192,114374,1,0,0:0:0:70:soft-hitclap2.wav
64,192,114374,1,0,0:0:0:70:normal-hitnormal.wav
320,192,114533,1,0,0:0:0:70:normal-hitnormal.wav
192,192,114612,1,0,0:0:0:70:normal-hitnormal.wav
64,192,114692,1,0,0:0:0:70:soft-hitnormal.wav
448,192,114692,1,0,0:0:0:0:
320,192,114851,1,0,0:0:0:70:normal-hitnormal.wav
192,192,114851,1,0,0:0:0:70:soft-hitclap2.wav
192,192,115168,1,0,0:0:0:70:soft-hitnormal.wav
320,192,115168,1,0,0:0:0:70:soft-hitnormal.wav
64,192,115327,1,0,0:0:0:70:soft-hitnormal.wav
448,192,115327,1,0,0:0:0:70:soft-hitnormal.wav
320,192,115485,1,0,0:0:0:70:soft-hitnormal.wav
64,192,115644,1,0,0:0:0:70:normal-hitnormal.wav
192,192,115803,1,0,0:0:0:70:normal-hitnormal.wav
448,192,115882,1,0,0:0:0:70:normal-hitnormal.wav
192,192,115962,1,0,0:0:0:70:normal-hitnormal.wav
320,192,116120,1,0,0:0:0:70:normal-hitnormal.wav
448,192,116279,1,0,0:0:0:70:normal-hitnormal.wav
64,192,116438,1,0,0:0:0:70:soft-hitnormal.wav
192,192,116438,1,0,0:0:0:70:soft-hitnormal.wav
448,192,116597,1,0,0:0:0:70:soft-hitclap2.wav
320,192,116597,1,0,0:0:0:70:soft-hitclap2.wav
192,192,116755,1,0,0:0:0:70:soft-hitnormal.wav
320,192,116914,1,0,0:0:0:70:soft-hitclap.wav
64,192,116914,1,0,0:0:0:70:normal-hitfinish.wav
448,192,116914,1,0,0:0:0:70:soft-hitfinish2.wav
192,192,117073,1,0,0:0:0:70:soft-hitnormal.wav
64,192,117073,1,0,0:0:0:70:soft-hitnormal.wav
320,192,117232,1,0,0:0:0:70:soft-hitnormal.wav
448,192,117232,1,0,0:0:0:70:soft-hitnormal.wav
64,192,117390,1,0,0:0:0:70:soft-hitclap.wav
192,192,117390,1,0,0:0:0:70:soft-hitclap.wav
448,192,117390,1,0,0:0:0:0:
64,192,117549,1,0,0:0:0:70:soft-hitnormal.wav
320,192,117549,1,0,0:0:0:70:soft-hitnormal.wav
192,192,117708,1,0,0:0:0:70:soft-hitnormal.wav
448,192,117708,1,0,0:0:0:70:soft-hitnormal.wav
320,192,117866,1,0,0:0:0:70:soft-hitclap.wav
448,192,117866,1,0,0:0:0:70:soft-hitclap.wav
64,192,117866,1,0,0:0:0:0:
192,192,118025,1,0,0:0:0:70:soft-hitnormal.wav
64,192,118025,1,0,0:0:0:70:soft-hitnormal.wav
448,192,118343,1,0,0:0:0:70:soft-hitclap.wav
320,192,118343,1,0,0:0:0:70:soft-hitclap2.wav
64,192,118343,1,0,0:0:0:70:normal-hitfinish.wav
64,192,118501,1,0,0:0:0:70:soft-hitnormal.wav
320,192,118501,1,0,0:0:0:70:soft-hitclap2.wav
448,192,118501,1,0,0:0:0:70:soft-hitclap.wav
64,192,118819,1,0,0:0:0:70:soft-hitclap.wav
192,192,118819,1,0,0:0:0:70:soft-hitclap2.wav
448,192,118819,1,0,0:0:0:70:normal-hitfinish.wav
64,192,118978,1,0,0:0:0:70:soft-hitclap.wav
192,192,118978,1,0,0:0:0:70:soft-hitclap2.wav
448,192,118978,1,0,0:0:0:70:soft-hitnormal.wav
320,192,119295,1,0,0:0:0:70:soft-hitclap2.wav
192,192,119295,1,0,0:0:0:70:normal-hitfinish.wav
64,192,119295,1,0,0:0:0:70:soft-hitclap.wav
64,192,119454,1,0,0:0:0:70:soft-hitclap.wav
192,192,119454,1,0,0:0:0:70:soft-hitnormal.wav
320,192,119454,1,0,0:0:0:70:soft-hitclap2.wav
192,192,119771,1,0,0:0:0:70:soft-hitclap.wav
320,192,119771,1,0,0:0:0:70:normal-hitfinish.wav
448,192,119771,1,0,0:0:0:70:soft-hitclap2.wav
192,192,119930,1,0,0:0:0:70:soft-hitclap.wav
320,192,119930,1,0,0:0:0:70:soft-hitnormal.wav
448,192,119930,1,0,0:0:0:70:soft-hitclap2.wav
64,192,120724,1,0,0:0:0:70:soft-hitnormal.wav
192,192,120724,1,0,0:0:0:100:soft-hitfinish2.wav
320,192,120724,1,0,0:0:0:70:normal-hitfinish.wav
448,192,120724,1,0,0:0:0:70:soft-hitfinash.wav
320,192,120882,1,0,0:0:0:0:
64,192,120882,1,0,0:0:0:70:soft-hitnormal.wav
192,192,121041,1,0,0:0:0:70:soft-hitclap2.wav
64,192,121041,1,0,0:0:0:70:soft-hitclap2.wav
448,192,121041,1,0,0:0:0:70:soft-hitnormal.wav
320,192,121200,1,0,0:0:0:70:soft-hitnormal.wav
448,192,121200,1,0,0:0:0:0:
192,192,121359,1,0,0:0:0:70:soft-hitnormal.wav
64,192,121359,1,0,0:0:0:70:soft-hitnormal.wav
320,192,121517,1,0,0:0:0:0:
448,192,121517,1,0,0:0:0:70:soft-hitnormal.wav
192,192,121676,1,0,0:0:0:70:soft-hitclap2.wav
64,192,121676,1,0,0:0:0:70:soft-hitclap2.wav
448,192,121676,1,0,0:0:0:70:soft-hitnormal.wav
192,192,121835,1,0,0:0:0:70:soft-hitnormal.wav
320,192,121835,1,0,0:0:0:0:
448,192,121993,1,0,0:0:0:70:soft-hitnormal.wav
320,192,121993,1,0,0:0:0:70:soft-hitnormal.wav
192,192,122152,1,0,0:0:0:0:
64,192,122152,1,0,0:0:0:70:soft-hitnormal.wav
448,192,122311,1,0,0:0:0:70:soft-hitclap2.wav
320,192,122311,1,0,0:0:0:70:soft-hitclap2.wav
64,192,122311,1,0,0:0:0:70:soft-hitnormal.wav
320,192,122470,1,0,0:0:0:70:soft-hitnormal.wav
192,192,122470,1,0,0:0:0:0:
320,192,122628,1,0,0:0:0:70:soft-hitnormal.wav
64,192,122628,1,0,0:0:0:70:soft-hitnormal.wav
192,192,122787,1,0,0:0:0:70:soft-hitnormal.wav
448,192,122787,1,0,0:0:0:70:soft-hitnormal.wav
64,192,122946,1,0,0:0:0:70:soft-hitnormal.wav
448,192,122946,1,0,0:0:0:70:soft-hitclap2.wav
320,192,122946,1,0,0:0:0:70:soft-hitclap2.wav
192,192,123105,1,0,0:0:0:0:
320,192,123105,1,0,0:0:0:70:soft-hitnormal.wav
64,192,123263,1,0,0:0:0:100:normal-hitfinish.wav
448,192,123263,1,0,0:0:0:70:normal-hitfinish.wav
192,192,123263,1,0,0:0:0:70:soft-hitclap2.wav
448,192,123422,1,0,0:0:0:70:soft-hitnormal.wav
320,192,123422,1,0,0:0:0:0:
320,192,123581,1,0,0:0:0:70:soft-hitclap2.wav
192,192,123581,1,0,0:0:0:70:soft-hitnormal.wav
64,192,123581,1,0,0:0:0:70:soft-hitnormal.wav
64,192,123739,1,0,0:0:0:70:soft-hitnormal.wav
448,192,123739,1,0,0:0:0:0:
320,192,123898,1,0,0:0:0:70:soft-hitnormal.wav
192,192,123898,1,0,0:0:0:70:soft-hitnormal.wav
320,192,124057,1,0,0:0:0:0:
64,192,124057,1,0,0:0:0:70:soft-hitnormal.wav
64,192,124216,1,0,0:0:0:70:soft-hitclap2.wav
192,192,124216,1,0,0:0:0:70:soft-hitnormal.wav
448,192,124216,1,0,0:0:0:70:soft-hitclap2.wav
448,192,124374,1,0,0:0:0:70:soft-hitnormal.wav
320,192,124374,1,0,0:0:0:0:
320,192,124533,1,0,0:0:0:70:soft-hitnormal.wav
192,192,124533,1,0,0:0:0:70:soft-hitnormal.wav
64,192,124692,1,0,0:0:0:70:soft-hitnormal.wav
448,192,124692,1,0,0:0:0:70:soft-hitnormal.wav
320,192,124771,1,0,0:0:0:30:normal-hitnormal.wav
448,192,124851,1,0,0:0:0:70:soft-hitclap2.wav
64,192,124851,1,0,0:0:0:70:soft-hitclap2.wav
192,192,124851,1,0,0:0:0:70:soft-hitnormal.wav
320,192,125009,1,0,0:0:0:70:soft-hitnormal.wav
192,192,125009,1,0,0:0:0:70:soft-hitnormal.wav
320,192,125168,1,0,0:0:0:70:soft-hitnormal.wav
448,192,125168,1,0,0:0:0:70:soft-hitnormal.wav
64,192,125247,1,0,0:0:0:30:normal-hitnormal.wav
192,192,125327,1,0,0:0:0:70:soft-hitnormal.wav
320,192,125327,1,0,0:0:0:70:soft-hitnormal.wav
64,192,125485,1,0,0:0:0:70:soft-hitclap.wav
320,192,125485,1,0,0:0:0:70:soft-hitclap.wav
448,192,125485,128,0,125803:0:0:0:70:soft-hitwhistle.wav
192,192,125644,1,0,0:0:0:70:soft-hitnormal.wav
320,192,125803,1,0,0:0:0:70:normal-hitfinish.wav
64,192,125803,1,0,0:0:0:70:soft-hitnormal.wav
192,192,125962,1,0,0:0:0:70:soft-hitnormal.wav
448,192,125962,1,0,0:0:0:70:soft-hitnormal.wav
192,192,126120,1,0,0:0:0:70:soft-hitclap2.wav
64,192,126120,1,0,0:0:0:70:soft-hitclap2.wav
320,192,126120,1,0,0:0:0:70:soft-hitnormal.wav
64,192,126279,1,0,0:0:0:70:soft-hitnormal.wav
448,192,126279,1,0,0:0:0:70:soft-hitnormal.wav
320,192,126438,1,0,0:0:0:70:soft-hitnormal.wav
192,192,126438,1,0,0:0:0:70:soft-hitnormal.wav
64,192,126597,1,0,0:0:0:0:
320,192,126597,1,0,0:0:0:70:soft-hitnormal.wav
192,192,126755,1,0,0:0:0:70:soft-hitnormal.wav
448,192,126755,1,0,0:0:0:70:soft-hitclap2.wav
64,192,126755,1,0,0:0:0:70:soft-hitclap2.wav
192,192,126914,1,0,0:0:0:0:
320,192,126914,1,0,0:0:0:70:soft-hitnormal.wav
64,192,127073,1,0,0:0:0:70:soft-hitnormal.wav
192,192,127073,1,0,0:0:0:70:soft-hitnormal.wav
320,192,127232,1,0,0:0:0:0:
448,192,127232,1,0,0:0:0:70:soft-hitnormal.wav
64,192,127390,1,0,0:0:0:70:soft-hitclap2.wav
320,192,127390,1,0,0:0:0:70:soft-hitnormal.wav
192,192,127390,1,0,0:0:0:70:soft-hitclap2.wav
192,192,127549,1,0,0:0:0:70:soft-hitnormal.wav
448,192,127549,1,0,0:0:0:70:soft-hitnormal.wav
320,192,127708,1,0,0:0:0:70:soft-hitnormal.wav
64,192,127708,1,0,0:0:0:70:soft-hitnormal.wav
448,192,127866,1,0,0:0:0:70:soft-hitnormal.wav
320,192,127866,1,0,0:0:0:0:
192,192,128025,1,0,0:0:0:70:soft-hitclap2.wav
64,192,128025,1,0,0:0:0:70:soft-hitclap2.wav
448,192,128025,1,0,0:0:0:70:soft-hitnormal.wav
64,192,128184,1,0,0:0:0:60:soft-hitnormal.wav
192,192,128184,1,0,0:0:0:60:soft-hitnormal.wav
64,192,128343,1,0,0:0:0:70:normal-hitfinish.wav
192,192,128343,1,0,0:0:0:60:soft-hitnormal.wav
448,192,128343,1,0,0:0:0:60:soft-hitnormal.wav
192,192,128501,1,0,0:0:0:60:soft-hitnormal.wav
64,192,128501,1,0,0:0:0:60:soft-hitnormal.wav
192,192,128660,1,0,0:0:0:70:soft-hitclap2.wav
320,192,128660,1,0,0:0:0:70:soft-hitclap2.wav
64,192,128660,1,0,0:0:0:70:soft-hitnormal.wav
192,192,128819,1,0,0:0:0:75:soft-hitnormal.wav
320,192,128819,1,0,0:0:0:75:soft-hitnormal.wav
320,192,128978,1,0,0:0:0:75:soft-hitnormal.wav
192,192,128978,1,0,0:0:0:75:soft-hitnormal.wav
320,192,129136,1,0,0:0:0:75:soft-hitnormal.wav
192,192,129136,1,0,0:0:0:75:soft-hitnormal.wav
320,192,129295,1,0,0:0:0:70:soft-hitclap2.wav
448,192,129295,1,0,0:0:0:70:soft-hitnormal.wav
192,192,129295,1,0,0:0:0:70:soft-hitclap2.wav
320,192,129454,1,0,0:0:0:85:soft-hitnormal.wav
448,192,129454,1,0,0:0:0:85:soft-hitnormal.wav
448,192,129612,1,0,0:0:0:85:soft-hitnormal.wav
320,192,129612,1,0,0:0:0:85:soft-hitnormal.wav
448,192,129771,1,0,0:0:0:85:soft-hitnormal.wav
320,192,129771,1,0,0:0:0:85:soft-hitnormal.wav
192,192,129930,1,0,0:0:0:70:soft-hitclap2.wav
448,192,129930,1,0,0:0:0:70:soft-hitnormal.wav
64,192,129930,1,0,0:0:0:70:soft-hitclap2.wav
192,192,130089,1,0,0:0:0:95:soft-hitnormal.wav
64,192,130089,1,0,0:0:0:95:soft-hitnormal.wav
192,192,130247,1,0,0:0:0:95:soft-hitnormal.wav
64,192,130247,1,0,0:0:0:95:soft-hitnormal.wav
192,192,130406,1,0,0:0:0:95:soft-hitnormal.wav
64,192,130406,1,0,0:0:0:95:soft-hitnormal.wav
448,192,130565,1,0,0:0:0:40:soft-hitnormal.wav
320,192,130565,1,0,0:0:0:60:soft-hitclap.wav
192,192,130644,1,0,0:0:0:60:soft-hitclap.wav
64,192,130644,1,0,0:0:0:50:soft-hitnormal.wav
320,192,130724,1,0,0:0:0:60:soft-hitclap.wav
448,192,130724,1,0,0:0:0:60:soft-hitnormal.wav
192,192,130803,1,0,0:0:0:60:soft-hitclap.wav
64,192,130803,1,0,0:0:0:70:soft-hitnormal.wav
320,192,130882,1,0,0:0:0:60:soft-hitclap.wav
448,192,130882,1,0,0:0:0:70:soft-hitfinish2.wav
192,192,131041,1,0,0:0:0:70:
64,192,131041,1,0,0:0:0:70:soft-hitnormal.wav
320,192,131200,1,0,0:0:0:70:soft-hitclap2.wav
448,192,131200,1,0,0:0:0:70:soft-hitnormal.wav
64,192,131200,1,0,0:0:0:70:soft-hitclap2.wav
320,192,131359,1,0,0:0:0:70:soft-hitnormal.wav
192,192,131359,1,0,0:0:0:70:soft-hitnormal.wav
448,192,131517,1,0,0:0:0:70:soft-hitnormal.wav
320,192,131517,1,0,0:0:0:70:soft-hitnormal.wav
192,192,131676,1,0,0:0:0:70:soft-hitnormal.wav
64,192,131676,1,0,0:0:0:70:soft-hitnormal.wav
448,192,131835,1,0,0:0:0:70:soft-hitclap2.wav
320,192,131835,1,0,0:0:0:70:soft-hitclap2.wav
64,192,131835,1,0,0:0:0:70:soft-hitnormal.wav
192,192,131993,1,0,0:0:0:70:soft-hitnormal.wav
320,192,131993,1,0,0:0:0:70:soft-hitnormal.wav
64,192,132152,1,0,0:0:0:70:soft-hitnormal.wav
448,192,132152,1,0,0:0:0:70:soft-hitnormal.wav
320,192,132311,1,0,0:0:0:70:soft-hitnormal.wav
192,192,132311,1,0,0:0:0:70:soft-hitnormal.wav
320,192,132470,1,0,0:0:0:70:soft-hitnormal.wav
64,192,132470,1,0,0:0:0:70:soft-hitclap2.wav
448,192,132470,1,0,0:0:0:70:soft-hitclap2.wav
64,192,132628,1,0,0:0:0:70:soft-hitnormal.wav
192,192,132628,1,0,0:0:0:70:soft-hitnormal.wav
320,192,132787,1,0,0:0:0:70:soft-hitnormal.wav
192,192,132787,1,0,0:0:0:70:soft-hitnormal.wav
320,192,132946,1,0,0:0:0:70:soft-hitnormal.wav
448,192,132946,1,0,0:0:0:70:soft-hitnormal.wav
448,192,133105,1,0,0:0:0:70:soft-hitclap2.wav
192,192,133105,1,0,0:0:0:70:soft-hitnormal.wav
64,192,133105,1,0,0:0:0:70:soft-hitclap2.wav
192,192,133263,1,0,0:0:0:70:soft-hitnormal.wav
320,192,133263,1,0,0:0:0:70:soft-hitnormal.wav
448,192,133422,1,0,0:0:0:70:normal-hitfinish.wav
64,192,133422,1,0,0:0:0:70:soft-hitnormal.wav
320,192,133422,1,0,0:0:0:70:soft-hitnormal.wav
64,192,133581,1,0,0:0:0:70:soft-hitnormal.wav
192,192,133581,1,0,0:0:0:70:soft-hitnormal.wav
192,192,133739,1,0,0:0:0:70:soft-hitnormal.wav
320,192,133739,1,0,0:0:0:70:soft-hitclap2.wav
448,192,133739,1,0,0:0:0:70:soft-hitclap2.wav
448,192,133898,1,0,0:0:0:70:soft-hitnormal.wav
64,192,133898,1,0,0:0:0:70:soft-hitnormal.wav
320,192,134057,1,0,0:0:0:70:soft-hitnormal.wav
192,192,134057,1,0,0:0:0:70:soft-hitnormal.wav
64,192,134216,1,0,0:0:0:70:soft-hitnormal.wav
448,192,134216,1,0,0:0:0:70:soft-hitnormal.wav
192,192,134374,1,0,0:0:0:70:soft-hitclap2.wav
320,192,134374,1,0,0:0:0:70:soft-hitnormal.wav
64,192,134374,1,0,0:0:0:70:soft-hitclap2.wav
192,192,134533,1,0,0:0:0:70:soft-hitnormal.wav
448,192,134533,1,0,0:0:0:70:soft-hitnormal.wav
320,192,134692,1,0,0:0:0:70:soft-hitnormal.wav
64,192,134692,1,0,0:0:0:70:soft-hitnormal.wav
448,192,134851,1,0,0:0:0:70:soft-hitnormal.wav
192,192,134851,1,0,0:0:0:70:soft-hitnormal.wav
320,192,134930,1,0,0:0:0:30:normal-hitnormal.wav
64,192,135009,1,0,0:0:0:70:soft-hitnormal.wav
448,192,135009,1,0,0:0:0:70:soft-hitclap2.wav
192,192,135009,1,0,0:0:0:70:soft-hitclap2.wav
320,192,135168,1,0,0:0:0:70:soft-hitnormal.wav
448,192,135168,1,0,0:0:0:70:soft-hitnormal.wav
192,192,135327,1,0,0:0:0:70:soft-hitnormal.wav
64,192,135327,1,0,0:0:0:70:soft-hitnormal.wav
320,192,135485,1,0,0:0:0:70:soft-hitnormal.wav
192,192,135485,1,0,0:0:0:70:soft-hitnormal.wav
320,192,135644,1,0,0:0:0:70:soft-hitclap.wav
64,192,135644,1,0,0:0:0:70:soft-hitclap2.wav
448,192,135644,128,0,135962:0:0:0:70:normal-hitfinish.wav
64,192,135962,1,0,0:0:0:70:soft-hitnormal.wav
320,192,135962,1,0,0:0:0:70:normal-hitfinish.wav
192,192,136041,1,0,0:0:0:70:soft-hitnormal.wav
448,192,136120,1,0,0:0:0:70:soft-hitnormal.wav
64,192,136200,1,0,0:0:0:70:soft-hitnormal.wav
320,192,136279,1,0,0:0:0:70:soft-hitnormal.wav
192,192,136438,1,0,0:0:0:70:soft-hitnormal.wav
448,192,136517,1,0,0:0:0:70:soft-hitnormal.wav
64,192,136597,1,0,0:0:0:70:soft-hitnormal.wav
320,192,136676,1,0,0:0:0:70:soft-hitnormal.wav
192,192,136755,1,0,0:0:0:70:soft-hitnormal.wav
64,192,136835,1,0,0:0:0:70:soft-hitnormal.wav
448,192,136914,1,0,0:0:0:70:soft-hitclap.wav
320,192,136914,1,0,0:0:0:70:normal-hitfinish.wav
320,192,137073,1,0,0:0:0:70:soft-hitclap.wav
448,192,137073,1,0,0:0:0:70:soft-hitclap2.wav
448,192,137232,1,0,0:0:0:70:normal-hitfinish.wav
192,192,137311,1,0,0:0:0:70:soft-hitnormal.wav
448,192,137390,1,0,0:0:0:70:soft-hitnormal.wav
64,192,137470,1,0,0:0:0:70:soft-hitnormal.wav
320,192,137549,1,0,0:0:0:70:soft-hitnormal.wav
64,192,137628,1,0,0:0:0:70:soft-hitnormal.wav
448,192,137708,1,0,0:0:0:70:soft-hitnormal.wav
192,192,137787,1,0,0:0:0:70:soft-hitnormal.wav
448,192,137866,1,0,0:0:0:70:soft-hitnormal.wav
64,192,137946,1,0,0:0:0:70:soft-hitnormal.wav
320,192,138025,1,0,0:0:0:70:soft-hitnormal.wav
64,192,138105,1,0,0:0:0:70:soft-hitnormal.wav
320,192,138184,1,0,0:0:0:70:soft-hitclap.wav
448,192,138184,1,0,0:0:0:70:normal-hitfinish.wav
320,192,138343,1,0,0:0:0:70:soft-hitclap.wav
448,192,138343,1,0,0:0:0:70:soft-hitclap2.wav
192,192,138501,1,0,0:0:0:70:soft-hitclap2.wav
64,192,138501,1,0,0:0:0:70:soft-hitclap.wav
448,192,138501,1,0,0:0:0:70:normal-hitfinish.wav
192,192,138660,1,0,0:0:0:70:soft-hitclap2.wav
64,192,138660,1,0,0:0:0:70:soft-hitclap.wav
448,192,138660,1,0,0:0:0:70:soft-hitnormal.wav
448,192,138978,1,0,0:0:0:70:normal-hitfinish.wav
64,192,138978,1,0,0:0:0:70:soft-hitclap.wav
192,192,138978,1,0,0:0:0:70:soft-hitclap2.wav
64,192,139136,1,0,0:0:0:70:soft-hitclap.wav
448,192,139136,1,0,0:0:0:70:soft-hitnormal.wav
192,192,139136,1,0,0:0:0:70:soft-hitclap2.wav
320,192,139454,1,0,0:0:0:70:soft-hitclap.wav
64,192,139454,1,0,0:0:0:70:normal-hitfinish.wav
448,192,139454,1,0,0:0:0:70:soft-hitclap2.wav
64,192,139612,1,0,0:0:0:70:soft-hitnormal.wav
320,192,139612,1,0,0:0:0:70:soft-hitclap.wav
448,192,139612,1,0,0:0:0:70:soft-hitclap2.wav
192,192,139930,1,0,0:0:0:70:normal-hitfinish.wav
448,192,139930,1,0,0:0:0:70:soft-hitclap.wav
320,192,139930,1,0,0:0:0:70:soft-hitclap2.wav
320,192,140089,1,0,0:0:0:70:soft-hitnormal.wav
448,192,140089,1,0,0:0:0:70:soft-hitclap.wav
64,192,140089,1,0,0:0:0:70:soft-hitclap2.wav
448,192,140247,1,0,0:0:0:70:soft-hitclap.wav
64,192,140247,1,0,0:0:0:70:soft-hitclap2.wav
192,192,140247,1,0,0:0:0:70:soft-hitnormal.wav
192,192,140406,1,0,0:0:0:70:soft-hitnormal.wav
320,192,140406,1,0,0:0:0:70:soft-hitclap.wav
64,192,140406,1,0,0:0:0:70:soft-hitclap2.wav
448,192,140565,128,0,141041:0:0:0:0:
64,192,141041,128,0,141993:0:0:0:70:soft-hitfinish2.wav
192,192,141041,1,0,0:0:0:70:soft-hitnormal.wav
320,192,141041,1,0,0:0:0:70:soft-hitwhistle.wav
320,192,141200,1,0,0:0:0:0:
448,192,141359,1,0,0:0:0:70:soft-hitclap2.wav
192,192,141359,1,0,0:0:0:70:soft-hitnormal.wav
320,192,141517,1,0,0:0:0:0:
448,192,141676,1,0,0:0:0:70:soft-hitnormal.wav
192,192,141835,1,0,0:0:0:0:
448,192,141993,1,0,0:0:0:70:soft-hitclap2.wav
320,192,141993,128,0,142311:0:0:0:70:soft-hitnormal.wav
64,192,142152,1,0,0:0:0:0:
192,192,142311,128,0,142787:0:0:0:0:
448,192,142311,1,0,0:0:0:70:soft-hitnormal.wav
64,192,142470,1,0,0:0:0:0:
320,192,142628,1,0,0:0:0:70:soft-hitnormal.wav
448,192,142628,1,0,0:0:0:70:soft-hitclap2.wav
64,192,142787,128,0,143263:0:0:0:0:
320,192,142787,1,0,0:0:0:0:
192,192,142946,1,0,0:0:0:70:soft-hitnormal.wav
448,192,143105,1,0,0:0:0:0:
320,192,143263,128,0,143581:0:0:0:70:soft-hitnormal.wav
192,192,143263,1,0,0:0:0:70:soft-hitclap2.wav
448,192,143422,1,0,0:0:0:0:
192,192,143581,128,0,144533:0:0:0:70:soft-hitnormal.wav
448,192,143581,1,0,0:0:0:70:normal-hitfinish.wav
64,192,143581,1,0,0:0:0:70:normal-hitfinish.wav
320,192,143739,1,0,0:0:0:0:
64,192,143898,1,0,0:0:0:70:soft-hitnormal.wav
448,192,143898,1,0,0:0:0:70:soft-hitclap2.wav
320,192,144057,1,0,0:0:0:0:
448,192,144216,128,0,144374:0:0:0:0:
64,192,144216,1,0,0:0:0:70:soft-hitnormal.wav
320,192,144374,128,0,144533:0:0:0:0:
64,192,144533,128,0,144692:0:0:0:70:soft-hitnormal.wav
448,192,144533,1,0,0:0:0:70:soft-hitclap2.wav
448,192,144692,128,0,145327:0:0:0:0:
320,192,144851,1,0,0:0:0:70:soft-hitnormal.wav
64,192,145009,1,0,0:0:0:0:
320,192,145168,1,0,0:0:0:70:soft-hitnormal.wav
192,192,145168,1,0,0:0:0:70:soft-hitclap2.wav
64,192,145327,128,0,145485:0:0:0:0:
192,192,145485,128,0,145644:0:0:0:0:
320,192,145485,1,0,0:0:0:70:soft-hitnormal.wav
448,192,145644,128,0,145803:0:0:0:0:
64,192,145803,128,0,145962:0:0:0:70:soft-hitclap2.wav
320,192,145803,1,0,0:0:0:70:soft-hitnormal.wav
320,192,145962,128,0,146120:0:0:0:0:
448,192,146120,128,0,146755:0:0:0:70:normal-hitfinish.wav
192,192,146120,1,0,0:0:0:70:soft-hitnormal.wav
64,192,146120,1,0,0:0:0:70:normal-hitfinish.wav
64,192,146279,1,0,0:0:0:0:
320,192,146438,1,0,0:0:0:70:soft-hitclap2.wav
192,192,146438,1,0,0:0:0:70:soft-hitnormal.wav
192,192,146597,1,0,0:0:0:0:
320,192,146755,128,0,146835:0:0:0:20:
64,192,146755,1,0,0:0:0:70:soft-hitnormal.wav
192,192,146835,128,0,146914:0:0:0:20:
64,192,146914,128,0,146993:0:0:0:20:
448,192,146993,128,0,147073:0:0:0:20:
320,192,147073,128,0,147152:0:0:0:70:soft-hitclap2.wav
192,192,147152,128,0,147232:0:0:0:20:
320,192,147232,128,0,147311:0:0:0:20:
448,192,147311,128,0,147390:0:0:0:20:
64,192,147390,128,0,148025:0:0:0:0:
192,192,147390,128,0,147708:0:0:0:70:soft-hitnormal.wav
320,192,147549,1,0,0:0:0:0:
448,192,147708,1,0,0:0:0:70:soft-hitclap2.wav
320,192,147708,1,0,0:0:0:70:soft-hitnormal.wav
192,192,147866,1,0,0:0:0:0:
448,192,148025,128,0,148343:0:0:0:0:
320,192,148025,1,0,0:0:0:70:soft-hitnormal.wav
192,192,148184,1,0,0:0:0:0:
320,192,148343,128,0,148660:0:0:0:70:soft-hitclap2.wav
64,192,148343,1,0,0:0:0:70:soft-hitnormal.wav
448,192,148501,1,0,0:0:0:0:
192,192,148660,128,0,149454:0:0:0:35:normal-hitfinish.wav
64,192,148660,1,0,0:0:0:70:soft-hitnormal.wav
448,192,148819,1,0,0:0:0:70:soft-hitnormal.wav
64,192,148978,1,0,0:0:0:70:soft-hitnormal.wav
320,192,148978,1,0,0:0:0:70:soft-hitclap2.wav
448,192,149136,1,0,0:0:0:70:soft-hitnormal.wav
320,192,149295,1,0,0:0:0:70:soft-hitnormal.wav
64,192,149454,128,0,149612:0:0:0:70:soft-hitnormal.wav
192,192,149612,128,0,149771:0:0:0:70:soft-hitnormal.wav
448,192,149612,1,0,0:0:0:70:soft-hitclap2.wav
320,192,149771,128,0,149930:0:0:0:70:soft-hitnormal.wav
448,192,149930,128,0,150089:0:0:0:0:
64,192,149930,128,0,150089:0:0:0:70:soft-hitnormal.wav
192,192,150089,128,0,150247:0:0:0:70:soft-hitnormal.wav
320,192,150247,128,0,150406:0:0:0:70:soft-hitnormal.wav
64,192,150247,1,0,0:0:0:70:soft-hitclap2.wav
448,192,150406,128,0,150724:0:0:0:70:soft-hitnormal.wav
64,192,150565,128,0,151200:0:0:0:0:
192,192,150565,1,0,0:0:0:70:soft-hitnormal.wav
320,192,150724,128,0,150882:0:0:0:70:soft-hitnormal.wav
448,192,150882,128,0,151041:0:0:0:70:soft-hitclap2.wav
192,192,150882,1,0,0:0:0:70:soft-hitnormal.wav
192,192,151041,128,0,151200:0:0:0:70:soft-hitnormal.wav
320,192,151200,128,0,151359:0:0:0:0:
448,192,151200,1,0,0:0:0:70:soft-hitnormal.wav
448,192,151359,128,0,151517:0:0:0:0:
192,192,151517,128,0,151676:0:0:0:70:soft-hitnormal.wav
64,192,151517,1,0,0:0:0:70:soft-hitclap2.wav
320,192,151676,128,0,151835:0:0:0:0:
64,192,151835,128,0,151993:0:0:0:0:
448,192,151835,1,0,0:0:0:70:soft-hitnormal.wav
192,192,151993,128,0,152152:0:0:0:0:
64,192,152152,128,0,152311:0:0:0:70:soft-hitnormal.wav
320,192,152152,1,0,0:0:0:70:soft-hitclap2.wav
448,192,152311,128,0,152628:0:0:0:0:
192,192,152470,1,0,0:0:0:70:soft-hitnormal.wav
64,192,152470,1,0,0:0:0:0:
320,192,152628,128,0,152787:0:0:0:0:
192,192,152787,128,0,152946:0:0:0:70:soft-hitnormal.wav
448,192,152787,1,0,0:0:0:70:soft-hitclap2.wav
64,192,152946,128,0,153105:0:0:0:0:
448,192,153105,128,0,153422:0:0:0:0:
320,192,153105,1,0,0:0:0:70:soft-hitnormal.wav
192,192,153263,128,0,153422:0:0:0:0:
320,192,153422,128,0,153581:0:0:0:70:soft-hitclap2.wav
64,192,153422,1,0,0:0:0:70:soft-hitnormal.wav
192,192,153581,128,0,153739:0:0:0:0:
64,192,153739,128,0,153898:0:0:0:70:normal-hitfinish.wav
448,192,153739,1,0,0:0:0:70:soft-hitnormal.wav
320,192,153739,1,0,0:0:0:70:normal-hitfinish.wav
448,192,153898,128,0,154057:0:0:0:0:
64,192,154057,128,0,154216:0:0:0:70:soft-hitclap2.wav
192,192,154057,1,0,0:0:0:70:soft-hitnormal.wav
448,192,154216,128,0,154374:0:0:0:0:
192,192,154374,128,0,154692:0:0:0:0:
320,192,154374,1,0,0:0:0:70:soft-hitnormal.wav
64,192,154533,128,0,154692:0:0:0:0:
448,192,154692,128,0,154851:0:0:0:70:soft-hitnormal.wav
320,192,154692,1,0,0:0:0:70:soft-hitclap2.wav
64,192,154851,128,0,155009:0:0:0:0:
320,192,155009,128,0,155168:0:0:0:70:soft-hitnormal.wav
192,192,155009,1,0,0:0:0:0:
448,192,155168,128,0,155327:0:0:0:0:
192,192,155327,128,0,155644:0:0:0:70:soft-hitnormal.wav
64,192,155327,1,0,0:0:0:70:soft-hitclap2.wav
320,192,155485,1,0,0:0:0:0:
64,192,155644,128,0,155803:0:0:0:0:
448,192,155644,1,0,0:0:0:70:soft-hitnormal.wav
320,192,155803,128,0,155962:0:0:0:0:
192,192,155962,1,0,0:0:0:70:soft-hitnormal.wav
448,192,155962,128,0,156279:0:0:0:70:soft-hitclap2.wav
64,192,155962,1,0,0:0:0:70:normal-hitfinish.wav
64,192,156279,1,0,0:0:0:70:normal-hitfinish.wav
192,192,156279,1,0,0:0:0:70:normal-hitfinish.wav
320,192,156279,1,0,0:0:0:70:normal-hitwhistle.wav
192,192,156438,1,0,0:0:0:70:soft-hitnormal.wav
320,192,156438,1,0,0:0:0:70:normal-hitnormal.wav
64,192,156597,1,0,0:0:0:70:soft-hitnormal.wav
320,192,156597,1,0,0:0:0:70:normal-hitnormal.wav
448,192,156597,1,0,0:0:0:70:soft-hitclap2.wav
192,192,156755,1,0,0:0:0:70:normal-hitnormal.wav
64,192,156835,1,0,0:0:0:70:normal-hitnormal.wav
320,192,156914,1,0,0:0:0:70:normal-hitnormal.wav
448,192,156914,1,0,0:0:0:70:soft-hitnormal.wav
320,192,157073,1,0,0:0:0:70:soft-hitnormal.wav
192,192,157073,1,0,0:0:0:70:normal-hitnormal.wav
192,192,157232,1,0,0:0:0:70:soft-hitclap2.wav
448,192,157232,1,0,0:0:0:70:normal-hitnormal.wav
64,192,157232,1,0,0:0:0:70:soft-hitnormal.wav
320,192,157311,1,0,0:0:0:70:normal-hitnormal.wav
448,192,157390,1,0,0:0:0:70:normal-hitnormal.wav
192,192,157549,1,0,0:0:0:70:soft-hitnormal.wav
64,192,157549,1,0,0:0:0:70:normal-hitnormal.wav
320,192,157708,1,0,0:0:0:70:normal-hitnormal.wav
192,192,157787,1,0,0:0:0:70:normal-hitnormal.wav
320,192,157866,1,0,0:0:0:70:normal-hitnormal.wav
448,192,157866,1,0,0:0:0:70:soft-hitnormal.wav
64,192,157866,1,0,0:0:0:70:soft-hitclap2.wav
320,192,158025,1,0,0:0:0:70:soft-hitnormal.wav
192,192,158025,1,0,0:0:0:70:normal-hitnormal.wav
192,192,158184,1,0,0:0:0:70:soft-hitnormal.wav
64,192,158184,1,0,0:0:0:70:normal-hitnormal.wav
448,192,158343,1,0,0:0:0:70:normal-hitnormal.wav
320,192,158501,1,0,0:0:0:70:soft-hitclap2.wav
192,192,158501,1,0,0:0:0:70:normal-hitfinish.wav
64,192,158501,128,0,158660:0:0:0:0:
448,192,158660,128,0,158819:0:0:0:70:normal-hitfinish.wav
320,192,158819,1,0,0:0:0:70:soft-hitnormal.wav
192,192,158819,128,0,159136:0:0:0:70:soft-hitnormal.wav
64,192,158978,1,0,0:0:0:70:soft-hitnormal.wav
320,192,159136,128,0,159295:0:0:0:70:soft-hitnormal.wav
448,192,159136,1,0,0:0:0:70:soft-hitclap2.wav
64,192,159295,128,0,159612:0:0:0:70:soft-hitnormal.wav
192,192,159295,1,0,0:0:0:0:
448,192,159454,1,0,0:0:0:70:soft-hitnormal.wav
448,192,159612,128,0,159771:0:0:0:0:
192,192,159771,128,0,160089:0:0:0:70:soft-hitnormal.wav
64,192,159771,1,0,0:0:0:70:soft-hitclap2.wav
320,192,159930,1,0,0:0:0:70:soft-hitnormal.wav
320,192,160089,128,0,160247:0:0:0:0:
64,192,160247,128,0,160565:0:0:0:0:
192,192,160247,1,0,0:0:0:70:soft-hitnormal.wav
448,192,160406,1,0,0:0:0:70:soft-hitclap2.wav
320,192,160406,1,0,0:0:0:70:soft-hitnormal.wav
448,192,160565,128,0,160724:0:0:0:0:
192,192,160724,128,0,161359:0:0:0:100:drum-hitfinish.wav
64,192,160724,1,0,0:0:0:70:soft-hitnormal.wav
320,192,160882,1,0,0:0:0:70:soft-hitnormal.wav
320,192,161041,128,0,161359:0:0:0:70:normal-hitfinish.wav
448,192,161041,1,0,0:0:0:100:soft-hitclap2.wav
64,192,161359,1,0,0:0:0:70:soft-hitfinish2.wav
448,192,161517,1,0,0:0:0:0:
320,192,161676,1,0,0:0:0:0:
64,192,161835,1,0,0:0:0:0:
192,192,161993,1,0,0:0:0:0:
320,192,162152,1,0,0:0:0:0:
192,192,162311,1,0,0:0:0:0:
320,192,162470,1,0,0:0:0:0:
192,192,162628,1,0,0:0:0:0:
448,192,162787,1,0,0:0:0:0:
320,192,162946,1,0,0:0:0:0:
192,192,163105,1,0,0:0:0:0:
64,192,163263,1,0,0:0:0:0:
192,192,163422,1,0,0:0:0:0:
320,192,163501,1,0,0:0:0:0:
64,192,163581,1,0,0:0:0:0:
192,192,163660,1,0,0:0:0:0:
448,192,163739,1,0,0:0:0:0:
320,192,163898,1,0,0:0:0:0:
64,192,163978,1,0,0:0:0:0:
192,192,164057,1,0,0:0:0:0:
448,192,164136,1,0,0:0:0:0:
64,192,164216,1,0,0:0:0:0:
192,192,164374,1,0,0:0:0:0:
320,192,164533,1,0,0:0:0:0:
448,192,164692,1,0,0:0:0:0:
192,192,164851,1,0,0:0:0:0:
64,192,165009,1,0,0:0:0:0:
320,192,165168,1,0,0:0:0:0:
192,192,165327,1,0,0:0:0:0:
64,192,165485,1,0,0:0:0:0:
192,192,165644,1,0,0:0:0:0:
320,192,165803,1,0,0:0:0:0:
192,192,165962,1,0,0:0:0:10:normal-hitnormal.wav
448,192,166120,1,0,0:0:0:70:drum-hitnormal.wav
320,192,166160,1,0,0:0:0:70:drum-hitnormal.wav
192,192,166200,1,0,0:0:0:70:drum-hitnormal.wav
64,192,166239,1,0,0:0:0:70:drum-hitnormal.wav
448,192,166359,1,0,0:0:0:70:drum-hitnormal.wav
320,192,166398,1,0,0:0:0:70:drum-hitnormal.wav
192,192,166438,1,0,0:0:0:100:soft-hitclap.wav
64,192,166438,1,0,0:0:0:70:normal-hitfinish.wav
320,192,166597,1,0,0:0:0:70:drum-hitnormal.wav
448,192,166755,1,0,0:0:0:70:drum-hitnormal.wav
64,192,166755,1,0,0:0:0:70:drum-hitnormal.wav
64,192,166993,1,0,0:0:0:70:drum-hitnormal.wav
64,192,167073,1,0,0:0:0:70:drum-hitnormal.wav
448,192,167112,1,0,0:0:0:70:drum-hitnormal.wav
320,192,167152,1,0,0:0:0:70:drum-hitnormal.wav
192,192,167192,1,0,0:0:0:70:drum-hitnormal.wav
64,192,167232,1,0,0:0:0:70:drum-hitnormal.wav
448,192,167311,1,0,0:0:0:70:drum-hitfinish.wav
192,192,167549,1,0,0:0:0:70:drum-hitnormal.wav
320,192,167708,1,0,0:0:0:100:soft-hitclap.wav
448,192,167708,1,0,0:0:0:70:normal-hitfinish.wav
64,192,167787,1,0,0:0:0:70:drum-hitnormal.wav
192,192,167866,1,0,0:0:0:70:soft-hitclap.wav
320,192,167866,1,0,0:0:0:70:drum-hitnormal.wav
448,192,167946,1,0,0:0:0:70:drum-hitnormal.wav
192,192,168025,1,0,0:0:0:70:drum-hitnormal.wav
64,192,168105,1,0,0:0:0:70:drum-hitnormal.wav
448,192,168184,1,0,0:0:0:0:
320,192,168263,1,0,0:0:0:70:drum-hitnormal.wav
192,192,168343,1,0,0:0:0:70:drum-hitnormal.wav
64,192,168501,1,0,0:0:0:70:drum-hitnormal.wav
448,192,168501,1,0,0:0:0:70:drum-hitnormal.wav
448,192,168660,1,0,0:0:0:70:drum-hitnormal.wav
64,192,168660,1,0,0:0:0:70:soft-hitclap.wav
192,192,168660,1,0,0:0:0:70:drum-hitnormal.wav
320,192,168819,1,0,0:0:0:70:drum-hitnormal.wav
192,192,168819,1,0,0:0:0:70:drum-hitnormal.wav
64,192,168978,1,0,0:0:0:70:drum-hitnormal.wav
320,192,168978,1,0,0:0:0:70:drum-hitnormal.wav
448,192,168978,1,0,0:0:0:70:normal-hitfinish.wav
192,192,169136,1,0,0:0:0:70:soft-hitclap.wav
448,192,169136,1,0,0:0:0:70:drum-hitnormal.wav
64,192,169136,1,0,0:0:0:70:drum-hitnormal.wav
192,192,169295,1,0,0:0:0:70:drum-hitnormal.wav
320,192,169295,1,0,0:0:0:70:drum-hitnormal.wav
192,192,169454,1,0,0:0:0:70:drum-hitnormal.wav
64,192,169454,1,0,0:0:0:70:soft-hitclap.wav
320,192,169533,1,0,0:0:0:70:drum-hitnormal.wav
448,192,169533,1,0,0:0:0:70:soft-hitclap.wav
192,192,169612,1,0,0:0:0:70:drum-hitnormal.wav
64,192,169612,1,0,0:0:0:70:drum-hitnormal.wav
448,192,169771,1,0,0:0:0:70:drum-hitnormal.wav
320,192,169771,1,0,0:0:0:70:drum-hitnormal.wav
192,192,169930,1,0,0:0:0:70:drum-hitnormal.wav
448,192,169930,1,0,0:0:0:30:soft-hitclap.wav
320,192,169930,1,0,0:0:0:70:drum-hitnormal.wav
64,192,169930,128,0,170247:0:0:0:70:drum-hitfinish.wav
192,192,172152,132,0,172946:0:0:0:100:drum-hitwhistle.wav
64,192,172946,5,0,0:0:0:70:soft-hitnormal.wav
320,192,172946,1,0,0:0:0:70:drum-hitnormal.wav
448,192,172946,1,0,0:0:0:70:drum-hitnormal2.wav
448,192,173263,1,0,0:0:0:0:
192,192,173422,1,0,0:0:0:0:
64,192,173581,1,0,0:0:0:0:
448,192,173660,1,0,0:0:0:0:
192,192,173739,1,0,0:0:0:0:
320,192,173898,1,0,0:0:0:0:
64,192,174057,5,0,0:0:0:100:soft-hitfinish2.wav
448,192,174057,128,0,174374:0:0:0:70:soft-hitclap2.wav
192,192,174057,1,0,0:0:0:70:soft-hitnormal.wav
320,192,174057,1,0,0:0:0:70:normal-hitfinish.wav
64,192,174216,1,0,0:0:0:0:
192,192,174374,1,0,0:0:0:70:soft-hitclap2.wav
320,192,174374,1,0,0:0:0:70:soft-hitnormal.wav
64,192,174533,128,0,174692:0:0:0:0:
192,192,174692,128,0,174851:0:0:0:70:soft-hitnormal.wav
448,192,174692,1,0,0:0:0:70:soft-hitnormal.wav
320,192,174851,128,0,175009:0:0:0:0:
448,192,175009,128,0,175168:0:0:0:70:soft-hitclap2.wav
64,192,175009,1,0,0:0:0:70:soft-hitnormal.wav
192,192,175168,128,0,175327:0:0:0:0:
320,192,175327,128,0,175803:0:0:0:70:soft-hitnormal.wav
64,192,175327,1,0,0:0:0:70:soft-hitnormal.wav
192,192,175485,1,0,0:0:0:0:
64,192,175644,1,0,0:0:0:70:soft-hitnormal.wav
448,192,175644,1,0,0:0:0:70:soft-hitclap2.wav
192,192,175803,128,0,175962:0:0:0:0:
64,192,175962,128,0,176120:0:0:0:70:soft-hitnormal.wav
448,192,175962,1,0,0:0:0:70:soft-hitnormal.wav
320,192,176120,128,0,176279:0:0:0:0:
192,192,176279,128,0,176438:0:0:0:70:soft-hitnormal.wav
64,192,176279,1,0,0:0:0:70:soft-hitclap2.wav
448,192,176438,128,0,176597:0:0:0:0:
64,192,176597,128,0,177073:0:0:0:70:soft-hitnormal.wav
192,192,176597,1,0,0:0:0:70:soft-hitnormal.wav
320,192,176597,1,0,0:0:0:70:normal-hitfinish.wav
320,192,176755,1,0,0:0:0:0:
448,192,176914,1,0,0:0:0:70:soft-hitnormal.wav
192,192,176914,1,0,0:0:0:70:soft-hitclap2.wav
320,192,177073,128,0,177390:0:0:0:0:
192,192,177232,1,0,0:0:0:70:soft-hitnormal.wav
448,192,177232,1,0,0:0:0:70:soft-hitnormal.wav
64,192,177390,128,0,177708:0:0:0:0:
192,192,177549,1,0,0:0:0:70:soft-hitnormal.wav
448,192,177549,1,0,0:0:0:70:soft-hitclap2.wav
320,192,177628,1,0,0:0:0:70:normal-hitnormal.wav
192,192,177708,128,0,177866:0:0:0:0:
448,192,177708,1,0,0:0:0:70:normal-hitnormal.wav
320,192,177866,128,0,178025:0:0:0:70:soft-hitnormal.wav
64,192,177866,1,0,0:0:0:70:soft-hitnormal.wav
448,192,178025,128,0,178184:0:0:0:0:
192,192,178105,1,0,0:0:0:70:normal-hitnormal.wav
64,192,178184,128,0,178343:0:0:0:70:soft-hitclap2.wav
320,192,178184,1,0,0:0:0:70:soft-hitnormal.wav
192,192,178343,128,0,178660:0:0:0:0:
448,192,178501,1,0,0:0:0:70:soft-hitnormal.wav
320,192,178501,1,0,0:0:0:70:soft-hitnormal.wav
64,192,178581,1,0,0:0:0:70:normal-hitnormal.wav
448,192,178660,1,0,0:0:0:70:normal-hitnormal.wav
192,192,178819,1,0,0:0:0:70:normal-hitnormal.wav
320,192,178819,1,0,0:0:0:70:soft-hitclap2.wav
64,192,178978,128,0,179136:0:0:0:70:drum-hitfinish.wav
320,192,179136,128,0,179454:0:0:0:70:soft-hitnormal.wav
448,192,179136,1,0,0:0:0:70:soft-hitnormal.wav
192,192,179136,1,0,0:0:0:70:normal-hitfinish.wav
448,192,179295,1,0,0:0:0:0:
192,192,179454,128,0,179771:0:0:0:70:soft-hitnormal.wav
64,192,179454,1,0,0:0:0:70:soft-hitclap2.wav
320,192,179612,1,0,0:0:0:0:
64,192,179771,128,0,179930:0:0:0:70:soft-hitnormal.wav
448,192,179771,1,0,0:0:0:70:soft-hitnormal.wav
320,192,179930,128,0,180247:0:0:0:0:
64,192,180089,1,0,0:0:0:70:soft-hitnormal.wav
192,192,180089,1,0,0:0:0:70:soft-hitclap2.wav
448,192,180247,128,0,180406:0:0:0:0:
64,192,180406,1,0,0:0:0:70:soft-hitnormal.wav
320,192,180406,1,0,0:0:0:70:soft-hitnormal.wav
192,192,180565,128,0,180724:0:0:0:0:
320,192,180724,128,0,180882:0:0:0:70:soft-hitclap2.wav
448,192,180724,1,0,0:0:0:70:soft-hitnormal.wav
192,192,180882,128,0,181041:0:0:0:0:
64,192,181041,128,0,181200:0:0:0:70:soft-hitnormal.wav
448,192,181041,1,0,0:0:0:70:soft-hitnormal.wav
320,192,181200,128,0,181359:0:0:0:0:
192,192,181359,128,0,181517:0:0:0:70:soft-hitnormal.wav
64,192,181359,1,0,0:0:0:70:soft-hitclap2.wav
448,192,181517,128,0,181676:0:0:0:0:
320,192,181676,128,0,182152:0:0:0:70:normal-hitfinish.wav
64,192,181676,1,0,0:0:0:70:soft-hitnormal.wav
192,192,181676,1,0,0:0:0:70:soft-hitnormal.wav
448,192,181835,1,0,0:0:0:0:
64,192,181993,1,0,0:0:0:70:soft-hitclap2.wav
192,192,181993,1,0,0:0:0:70:soft-hitnormal.wav
64,192,182152,128,0,182470:0:0:0:0:
192,192,182311,1,0,0:0:0:70:soft-hitnormal.wav
320,192,182311,1,0,0:0:0:70:soft-hitnormal.wav
448,192,182470,128,0,182628:0:0:0:0:
192,192,182628,128,0,183105:0:0:0:70:soft-hitclap2.wav
320,192,182628,1,0,0:0:0:70:soft-hitnormal.wav
64,192,182787,1,0,0:0:0:0:
320,192,182946,1,0,0:0:0:70:soft-hitnormal.wav
448,192,182946,128,0,183422:0:0:0:70:soft-hitnormal.wav
64,192,183105,1,0,0:0:0:0:
320,192,183263,1,0,0:0:0:70:soft-hitnormal.wav
192,192,183263,1,0,0:0:0:70:soft-hitclap2.wav
64,192,183422,128,0,183581:0:0:0:0:
448,192,183581,128,0,183739:0:0:0:70:soft-hitnormal.wav
320,192,183581,1,0,0:0:0:70:soft-hitnormal.wav
192,192,183739,128,0,183898:0:0:0:0:
64,192,183898,128,0,184057:0:0:0:70:soft-hitclap2.wav
448,192,183898,1,0,0:0:0:70:soft-hitnormal.wav
320,192,184057,128,0,184216:0:0:0:0:
192,192,184216,128,0,184692:0:0:0:70:soft-hitnormal.wav
64,192,184216,1,0,0:0:0:70:soft-hitnormal.wav
448,192,184216,1,0,0:0:0:70:normal-hitfinish.wav
448,192,184374,1,0,0:0:0:0:
64,192,184533,1,0,0:0:0:70:soft-hitclap2.wav
320,192,184533,1,0,0:0:0:70:soft-hitnormal.wav
448,192,184692,128,0,184851:0:0:0:0:
64,192,184851,128,0,185009:0:0:0:70:soft-hitnormal.wav
192,192,184851,1,0,0:0:0:70:soft-hitnormal.wav
320,192,185009,128,0,185168:0:0:0:0:
192,192,185168,128,0,185327:0:0:0:70:soft-hitnormal.wav
448,192,185168,1,0,0:0:0:70:soft-hitclap2.wav
64,192,185327,128,0,185485:0:0:0:0:
448,192,185485,128,0,185962:0:0:0:70:soft-hitnormal.wav
320,192,185485,1,0,0:0:0:70:soft-hitnormal.wav
64,192,185644,1,0,0:0:0:0:
192,192,185803,1,0,0:0:0:70:soft-hitnormal.wav
320,192,185803,1,0,0:0:0:70:soft-hitclap2.wav
64,192,185962,128,0,186120:0:0:0:0:
192,192,186120,128,0,186279:0:0:0:70:soft-hitnormal.wav
448,192,186120,1,0,0:0:0:70:soft-hitnormal.wav
320,192,186279,128,0,186438:0:0:0:0:
448,192,186438,128,0,186597:0:0:0:70:soft-hitclap2.wav
64,192,186438,1,0,0:0:0:70:soft-hitnormal.wav
192,192,186597,128,0,186755:0:0:0:0:
64,192,186755,128,0,187073:0:0:0:70:soft-hitnormal.wav
320,192,186755,1,0,0:0:0:70:soft-hitnormal.wav
448,192,186755,1,0,0:0:0:70:normal-hitfinish.wav
192,192,186914,1,0,0:0:0:0:
320,192,187073,128,0,187232:0:0:0:70:soft-hitclap2.wav
448,192,187073,1,0,0:0:0:70:soft-hitnormal.wav
64,192,187232,128,0,187390:0:0:0:0:
448,192,187390,128,0,187549:0:0:0:70:soft-hitnormal.wav
192,192,187390,1,0,0:0:0:70:soft-hitnormal.wav
192,192,187549,128,0,187708:0:0:0:0:
64,192,187708,128,0,187866:0:0:0:70:soft-hitnormal.wav
320,192,187708,1,0,0:0:0:70:soft-hitclap2.wav
320,192,187866,128,0,188025:0:0:0:0:
192,192,188025,128,0,188184:0:0:0:70:soft-hitnormal.wav
64,192,188025,1,0,0:0:0:70:soft-hitnormal.wav
448,192,188184,128,0,188343:0:0:0:0:
320,192,188263,1,0,0:0:0:70:normal-hitnormal.wav
64,192,188343,128,0,188501:0:0:0:70:soft-hitclap2.wav
192,192,188343,1,0,0:0:0:70:soft-hitnormal.wav
448,192,188501,128,0,188660:0:0:0:0:
64,192,188660,128,0,188978:0:0:0:70:soft-hitnormal.wav
320,192,188660,1,0,0:0:0:70:soft-hitnormal.wav
192,192,188819,1,0,0:0:0:0:
320,192,188978,1,0,0:0:0:70:soft-hitfinish2.wav
448,192,188978,1,0,0:0:0:70:soft-hitfinish2.wav
64,192,189295,1,0,0:0:0:70:soft-hitnormal.wav
192,192,189295,1,0,0:0:0:70:normal-hitfinish.wav
320,192,189374,1,0,0:0:0:70:soft-hitnormal.wav
448,192,189454,1,0,0:0:0:70:soft-hitnormal.wav
64,192,189533,1,0,0:0:0:70:soft-hitnormal.wav
192,192,189612,1,0,0:0:0:70:soft-hitnormal.wav
448,192,189692,1,0,0:0:0:70:soft-hitnormal.wav
320,192,189771,1,0,0:0:0:70:soft-hitnormal.wav
192,192,189851,1,0,0:0:0:70:soft-hitnormal.wav
64,192,189930,1,0,0:0:0:70:soft-hitnormal.wav
320,192,190009,1,0,0:0:0:70:soft-hitnormal.wav
448,192,190089,1,0,0:0:0:70:soft-hitnormal.wav
64,192,190168,1,0,0:0:0:70:soft-hitnormal.wav
192,192,190247,1,0,0:0:0:70:soft-hitclap.wav
320,192,190247,1,0,0:0:0:70:normal-hitfinish.wav
448,192,190406,1,0,0:0:0:70:soft-hitclap2.wav
320,192,190406,1,0,0:0:0:70:soft-hitclap.wav
192,192,190565,1,0,0:0:0:70:soft-hitnormal.wav
320,192,190565,1,0,0:0:0:70:normal-hitfinish.wav
64,192,190644,1,0,0:0:0:70:soft-hitnormal.wav
448,192,190724,1,0,0:0:0:70:soft-hitnormal.wav
320,192,190803,1,0,0:0:0:70:soft-hitnormal.wav
64,192,190882,1,0,0:0:0:70:soft-hitnormal.wav
192,192,190962,1,0,0:0:0:70:soft-hitnormal.wav
320,192,191041,1,0,0:0:0:70:soft-hitnormal.wav
448,192,191120,1,0,0:0:0:70:soft-hitnormal.wav
192,192,191200,1,0,0:0:0:70:soft-hitnormal.wav
64,192,191279,1,0,0:0:0:70:soft-hitnormal.wav
448,192,191359,1,0,0:0:0:70:soft-hitnormal.wav
320,192,191438,1,0,0:0:0:70:soft-hitnormal.wav
64,192,191517,1,0,0:0:0:70:soft-hitclap2.wav
192,192,191517,1,0,0:0:0:70:normal-hitfinish.wav
192,192,191676,1,0,0:0:0:70:soft-hitclap.wav
320,192,191676,1,0,0:0:0:70:soft-hitclap2.wav
64,192,191835,1,0,0:0:0:70:soft-hitclap2.wav
448,192,191835,1,0,0:0:0:70:soft-hitclap.wav
320,192,191835,1,0,0:0:0:70:normal-hitfinish.wav
64,192,191993,1,0,0:0:0:70:soft-hitclap2.wav
448,192,191993,1,0,0:0:0:70:soft-hitclap.wav
192,192,191993,1,0,0:0:0:70:soft-hitnormal.wav
64,192,192311,1,0,0:0:0:70:soft-hitclap2.wav
192,192,192311,1,0,0:0:0:70:soft-hitclap.wav
320,192,192311,1,0,0:0:0:70:normal-hitfinish.wav
64,192,192470,1,0,0:0:0:70:soft-hitclap2.wav
192,192,192470,1,0,0:0:0:70:soft-hitclap.wav
448,192,192470,1,0,0:0:0:70:soft-hitnormal.wav
192,192,192787,1,0,0:0:0:70:soft-hitclap2.wav
320,192,192787,1,0,0:0:0:70:soft-hitclap.wav
448,192,192946,1,0,0:0:0:70:soft-hitclap.wav
64,192,192946,1,0,0:0:0:70:soft-hitclap2.wav
192,192,193263,1,0,0:0:0:70:soft-hitclap.wav
448,192,193422,1,0,0:0:0:70:drum-hitfinish.wav
64,192,193739,1,0,0:0:0:70:soft-hitclap2.wav
448,192,193739,1,0,0:0:0:70:soft-hitclap.wav
192,192,193739,1,0,0:0:0:70:normal-hitfinish.wav
320,192,193898,1,0,0:0:0:70:soft-hitnormal.wav
64,192,193898,1,0,0:0:0:70:soft-hitclap2.wav
448,192,193898,1,0,0:0:0:70:soft-hitclap.wav
64,192,194216,1,0,0:0:0:70:soft-hitclap2.wav
448,192,194216,1,0,0:0:0:70:soft-hitclap.wav
320,192,194216,1,0,0:0:0:70:normal-hitfinish.wav
192,192,194374,1,0,0:0:0:70:soft-hitnormal.wav
64,192,194374,1,0,0:0:0:70:soft-hitclap2.wav
448,192,194374,1,0,0:0:0:70:soft-hitclap.wav
192,192,194692,1,0,0:0:0:70:soft-hitclap.wav
448,192,194692,1,0,0:0:0:70:soft-hitclap2.wav
64,192,194851,1,0,0:0:0:70:soft-hitclap.wav
320,192,194851,1,0,0:0:0:70:soft-hitclap2.wav
448,192,195168,1,0,0:0:0:70:soft-hitclap.wav
192,192,195327,1,0,0:0:0:70:drum-hitfinish.wav
64,192,195644,1,0,0:0:0:70:normal-hitfinish.wav
192,192,195644,1,0,0:0:0:70:soft-hitclap2.wav
320,192,195644,1,0,0:0:0:70:soft-hitclap.wav
192,192,195803,1,0,0:0:0:70:soft-hitclap2.wav
320,192,195803,1,0,0:0:0:70:soft-hitclap.wav
448,192,195803,1,0,0:0:0:70:soft-hitnormal.wav
64,192,196120,1,0,0:0:0:70:soft-hitclap2.wav
192,192,196120,1,0,0:0:0:70:normal-hitfinish.wav
448,192,196120,1,0,0:0:0:70:soft-hitclap.wav
448,192,196279,1,0,0:0:0:70:soft-hitclap.wav
320,192,196279,1,0,0:0:0:70:soft-hitnormal.wav
64,192,196279,1,0,0:0:0:70:soft-hitclap2.wav
320,192,196597,1,0,0:0:0:70:soft-hitclap2.wav
64,192,196597,1,0,0:0:0:70:soft-hitclap.wav
192,192,196755,1,0,0:0:0:70:soft-hitclap.wav
448,192,196755,1,0,0:0:0:70:soft-hitclap2.wav
192,192,197708,1,0,0:0:0:70:normal-hitnormal.wav
192,192,197866,1,0,0:0:0:70:normal-hitnormal.wav
64,192,198184,1,0,0:0:0:70:normal-hitfinish.wav
320,192,198184,1,0,0:0:0:70:soft-hitnormal.wav
448,192,198184,1,0,0:0:0:70:soft-hitfinish2.wav
192,192,198343,1,0,0:0:0:0:
320,192,198343,1,0,0:0:0:70:soft-hitnormal.wav
64,192,198501,1,0,0:0:0:70:soft-hitclap2.wav
448,192,198501,1,0,0:0:0:70:soft-hitnormal.wav
192,192,198501,1,0,0:0:0:70:soft-hitclap2.wav
448,192,198660,1,0,0:0:0:0:
320,192,198660,1,0,0:0:0:0:
192,192,198819,1,0,0:0:0:70:soft-hitnormal.wav
320,192,198819,1,0,0:0:0:70:soft-hitnormal.wav
448,192,198978,1,0,0:0:0:70:soft-hitnormal.wav
64,192,198978,1,0,0:0:0:0:
320,192,199057,1,0,0:0:0:70:soft-hitnormal.wav
64,192,199136,1,0,0:0:0:70:soft-hitclap2.wav
192,192,199136,1,0,0:0:0:70:soft-hitclap2.wav
448,192,199136,1,0,0:0:0:70:soft-hitnormal.wav
448,192,199295,1,0,0:0:0:0:
192,192,199295,1,0,0:0:0:70:soft-hitnormal.wav
64,192,199454,1,0,0:0:0:70:soft-hitnormal.wav
320,192,199454,1,0,0:0:0:70:soft-hitnormal.wav
192,192,199612,1,0,0:0:0:70:soft-hitnormal.wav
448,192,199612,1,0,0:0:0:0:
64,192,199771,1,0,0:0:0:70:soft-hitnormal.wav
448,192,199771,1,0,0:0:0:70:soft-hitclap2.wav
320,192,199771,1,0,0:0:0:70:soft-hitclap2.wav
320,192,199930,1,0,0:0:0:0:
192,192,199930,1,0,0:0:0:70:soft-hitnormal.wav
192,192,200089,1,0,0:0:0:70:soft-hitnormal.wav
64,192,200089,1,0,0:0:0:70:soft-hitnormal.wav
320,192,200247,1,0,0:0:0:70:soft-hitnormal.wav
448,192,200247,1,0,0:0:0:0:
192,192,200327,1,0,0:0:0:70:soft-hitnormal.wav
64,192,200406,1,0,0:0:0:70:soft-hitnormal.wav
320,192,200406,1,0,0:0:0:70:soft-hitclap2.wav
448,192,200406,1,0,0:0:0:70:soft-hitclap2.wav
320,192,200565,1,0,0:0:0:0:
192,192,200565,1,0,0:0:0:70:soft-hitnormal.wav
64,192,200724,1,0,0:0:0:70:soft-hitnormal.wav
192,192,200724,1,0,0:0:0:70:soft-hitnormal.wav
320,192,200882,1,0,0:0:0:70:soft-hitnormal.wav
448,192,200882,1,0,0:0:0:0:
64,192,201041,1,0,0:0:0:70:soft-hitclap2.wav
192,192,201041,1,0,0:0:0:70:soft-hitclap2.wav
320,192,201041,1,0,0:0:0:70:soft-hitnormal.wav
64,192,201200,1,0,0:0:0:70:soft-hitnormal.wav
320,192,201200,1,0,0:0:0:0:
448,192,201359,1,0,0:0:0:70:soft-hitnormal.wav
192,192,201359,1,0,0:0:0:70:soft-hitnormal.wav
192,192,201517,1,0,0:0:0:70:soft-hitnormal.wav
448,192,201517,1,0,0:0:0:0:
64,192,201676,1,0,0:0:0:70:soft-hitnormal.wav
320,192,201676,1,0,0:0:0:70:soft-hitclap2.wav
448,192,201676,1,0,0:0:0:70:soft-hitclap2.wav
192,192,201835,1,0,0:0:0:70:soft-hitnormal.wav
320,192,201835,1,0,0:0:0:0:
64,192,201993,1,0,0:0:0:70:soft-hitnormal.wav
448,192,201993,1,0,0:0:0:70:soft-hitnormal.wav
320,192,202152,1,0,0:0:0:0:
448,192,202152,1,0,0:0:0:70:soft-hitnormal.wav
64,192,202311,1,0,0:0:0:70:soft-hitclap2.wav
192,192,202311,1,0,0:0:0:70:soft-hitclap2.wav
448,192,202311,1,0,0:0:0:70:soft-hitnormal.wav
192,192,202470,1,0,0:0:0:0:
320,192,202470,1,0,0:0:0:70:soft-hitnormal.wav
64,192,202628,1,0,0:0:0:70:soft-hitnormal.wav
448,192,202628,1,0,0:0:0:70:soft-hitnormal.wav
448,192,202787,1,0,0:0:0:70:soft-hitnormal.wav
64,192,202787,1,0,0:0:0:0:
64,192,202946,1,0,0:0:0:70:soft-hitnormal.wav
192,192,202946,1,0,0:0:0:70:soft-hitclap2.wav
320,192,202946,1,0,0:0:0:70:soft-hitclap2.wav
320,192,203105,1,0,0:0:0:0:
448,192,203105,1,0,0:0:0:70:soft-hitnormal.wav
192,192,203263,1,0,0:0:0:70:soft-hitnormal.wav
320,192,203263,1,0,0:0:0:70:soft-hitnormal.wav
448,192,203422,1,0,0:0:0:70:soft-hitnormal.wav
64,192,203422,1,0,0:0:0:0:
192,192,203581,1,0,0:0:0:70:soft-hitclap2.wav
320,192,203581,1,0,0:0:0:70:soft-hitclap2.wav
448,192,203581,1,0,0:0:0:70:soft-hitnormal.wav
64,192,203739,1,0,0:0:0:0:
192,192,203739,1,0,0:0:0:70:soft-hitnormal.wav
320,192,203898,1,0,0:0:0:70:soft-hitnormal.wav
192,192,203898,1,0,0:0:0:70:soft-hitnormal.wav
320,192,204057,1,0,0:0:0:70:soft-hitnormal.wav
448,192,204057,1,0,0:0:0:0:
64,192,204216,1,0,0:0:0:70:soft-hitclap2.wav
192,192,204216,1,0,0:0:0:70:soft-hitclap2.wav
448,192,204216,1,0,0:0:0:70:soft-hitnormal.wav
320,192,204374,1,0,0:0:0:70:soft-hitnormal.wav
192,192,204374,1,0,0:0:0:0:
64,192,204454,1,0,0:0:0:0:
320,192,204533,1,0,0:0:0:70:soft-hitnormal.wav
448,192,204533,1,0,0:0:0:70:soft-hitnormal.wav
192,192,204692,1,0,0:0:0:0:
320,192,204692,1,0,0:0:0:70:soft-hitnormal.wav
64,192,204851,1,0,0:0:0:70:soft-hitclap2.wav
448,192,204851,1,0,0:0:0:70:soft-hitnormal.wav
192,192,204851,1,0,0:0:0:70:soft-hitclap2.wav
64,192,205009,1,0,0:0:0:0:
320,192,205009,1,0,0:0:0:70:soft-hitnormal.wav
192,192,205168,1,0,0:0:0:70:soft-hitnormal.wav
448,192,205168,1,0,0:0:0:70:soft-hitnormal.wav
64,192,205327,1,0,0:0:0:0:
320,192,205327,1,0,0:0:0:70:soft-hitnormal.wav
64,192,205485,1,0,0:0:0:70:soft-hitclap2.wav
192,192,205485,1,0,0:0:0:70:soft-hitclap2.wav
448,192,205485,1,0,0:0:0:70:soft-hitnormal.wav
320,192,205644,1,0,0:0:0:0:
448,192,205644,1,0,0:0:0:70:soft-hitnormal.wav
64,192,205803,1,0,0:0:0:70:soft-hitnormal.wav
320,192,205803,1,0,0:0:0:70:soft-hitnormal.wav
192,192,205962,1,0,0:0:0:0:
448,192,205962,1,0,0:0:0:70:soft-hitnormal.wav
64,192,206120,1,0,0:0:0:70:soft-hitclap2.wav
192,192,206120,1,0,0:0:0:70:soft-hitclap2.wav
320,192,206120,1,0,0:0:0:70:soft-hitnormal.wav
448,192,206279,1,0,0:0:0:0:
64,192,206279,1,0,0:0:0:70:soft-hitnormal.wav
192,192,206438,1,0,0:0:0:70:soft-hitnormal.wav
64,192,206438,1,0,0:0:0:70:soft-hitnormal.wav
448,192,206597,1,0,0:0:0:0:
320,192,206597,1,0,0:0:0:70:soft-hitnormal.wav
448,192,206755,1,0,0:0:0:70:soft-hitnormal.wav
192,192,206755,1,0,0:0:0:70:soft-hitclap2.wav
64,192,206755,1,0,0:0:0:70:soft-hitclap.wav
64,192,206914,1,0,0:0:0:70:soft-hitclap.wav
448,192,206914,1,0,0:0:0:70:soft-hitnormal.wav
192,192,206914,1,0,0:0:0:70:soft-hitclap2.wav
320,192,207073,128,0,207549:0:0:0:30:normal-hitwhistle.wav
192,192,207232,128,0,207866:0:0:0:30:normal-hitwhistle.wav
64,192,207390,128,0,208343:0:0:0:30:normal-hitwhistle.wav
448,192,207549,128,0,208343:0:0:0:30:soft-hitwhistle.wav
320,192,207866,128,0,208343:0:0:0:30:soft-hitwhistle.wav
