osu file format v14

[General]
AudioFilename: Song.mp3
AudioLeadIn: 0
PreviewTime: 173105
Countdown: 0
SampleSet: Soft
StackLeniency: 0.7
Mode: 3
LetterboxInBreaks: 0
SpecialStyle: 0
WidescreenStoryboard: 1

[Editor]
Bookmarks: 59454,60089,65406,102628,156517,161359,174057,198184
DistanceSpacing: 1
BeatDivisor: 4
GridSize: 32
TimelineZoom: 1.8

[Metadata]
Title:Higurashi Moratorium
TitleUnicode:茅蜩モラトリアム
Artist:Amatsuki
ArtistUnicode:天月
Creator:LinkTaylord
Version:Hard
Source:
Tags:TOTAL OBJECTION Vocaloid Megpoid GUMI Nico Douga
BeatmapID:1104131
BeatmapSetID:502148

[Difficulty]
HPDrainRate:8
CircleSize:4
OverallDifficulty:7.5
ApproachRate:9
SliderMultiplier:1.9
SliderTickRate:2

[Events]
//Background and Video events
0,0,"BG Higu.jpg",0,0
//Break Periods
//Storyboard Layer 0 (Background)
//Storyboard Layer 1 (Fail)
//Storyboard Layer 2 (Pass)
//Storyboard Layer 3 (Foreground)
//Storyboard Sound Samples

[TimingPoints]
3867,319.148936170213,4,2,1,10,1,0
25486,317.460317460317,4,2,1,30,1,0
63581,-100,4,2,1,30,0,1
83898,-100,4,2,1,30,0,0
108978,-76.9230769230769,4,2,1,30,0,0
109030,-142.857142857143,4,2,1,30,0,0
109083,-76.9230769230769,4,2,1,30,0,0
109136,-142.857142857143,4,2,1,30,0,0
109189,-76.9230769230769,4,2,1,30,0,0
109242,-142.857142857143,4,2,1,30,0,0
109295,-100,4,2,1,30,0,0
120724,-100,4,2,1,30,0,1
140406,-100,4,2,1,20,0,0
174057,-100,4,2,1,30,0,1
196755,-166.666666666667,4,2,1,30,0,0
198184,-100,4,2,1,30,0,0

[Colours]
Combo1 : 255,77,77
Combo2 : 2,255,66
Combo3 : 15,135,255
Combo4 : 176,100,100

[HitObjects]
192,192,3760,5,0,0:0:0:0:
448,192,3867,1,0,0:0:0:0:
320,192,3867,1,0,0:0:0:0:
64,192,4186,1,0,0:0:0:0:
320,192,4505,1,0,0:0:0:0:
448,192,4824,1,0,0:0:0:0:
192,192,5143,1,0,0:0:0:0:
64,192,5143,1,0,0:0:0:0:
320,192,5462,1,0,0:0:0:0:
320,192,6340,1,0,0:0:0:0:
192,192,6420,1,0,0:0:0:0:
64,192,6420,1,0,0:0:0:0:
448,192,6739,1,0,0:0:0:0:
64,192,7058,1,0,0:0:0:0:
320,192,7377,1,0,0:0:0:0:
192,192,7696,1,0,0:0:0:0:
448,192,7696,1,0,0:0:0:0:
64,192,8973,1,0,0:0:0:0:
320,192,8973,1,0,0:0:0:0:
448,192,9292,1,0,0:0:0:0:
192,192,9611,1,0,0:0:0:0:
320,192,9930,1,0,0:0:0:0:
192,192,10249,1,0,0:0:0:0:
448,192,10249,1,0,0:0:0:0:
64,192,10569,1,0,0:0:0:0:
320,192,10888,1,0,0:0:0:0:
64,192,11446,1,0,0:0:0:0:
320,192,11526,1,0,0:0:0:0:
448,192,11526,1,0,0:0:0:0:
192,192,11845,1,0,0:0:0:0:
448,192,12164,1,0,0:0:0:0:
64,192,12484,1,0,0:0:0:0:
320,192,12803,1,0,0:0:0:0:
448,192,12803,1,0,0:0:0:0:
192,192,13122,1,0,0:0:0:0:
320,192,13441,1,0,0:0:0:0:
448,192,13920,1,0,0:0:0:0:
320,192,13999,1,0,0:0:0:0:
192,192,14079,1,0,0:0:0:0:
64,192,14079,1,0,0:0:0:0:
448,192,14398,1,0,0:0:0:0:
64,192,14718,1,0,0:0:0:0:
320,192,15037,1,0,0:0:0:0:
192,192,15356,1,0,0:0:0:0:
448,192,15356,1,0,0:0:0:0:
64,192,15675,1,0,0:0:0:0:
320,192,15994,1,0,0:0:0:0:
192,192,16632,1,0,0:0:0:0:
448,192,16632,1,0,0:0:0:0:
320,192,16952,1,0,0:0:0:0:
64,192,17271,1,0,0:0:0:0:
448,192,17590,1,0,0:0:0:0:
192,192,17909,1,0,0:0:0:0:
64,192,17909,1,0,0:0:0:0:
320,192,18547,1,0,0:0:0:0:
64,192,19186,1,0,0:0:0:0:
448,192,19186,1,0,0:0:0:0:
192,192,19505,1,0,0:0:0:0:
320,192,19824,1,0,0:0:0:0:
448,192,20143,1,0,0:0:0:0:
64,192,20462,1,0,0:0:0:0:
320,192,20462,1,0,0:0:0:0:
192,192,20781,1,0,0:0:0:0:
448,192,21101,1,0,0:0:0:0:
64,192,21686,1,0,0:0:0:0:
320,192,21792,1,0,0:0:0:0:
320,192,25489,1,0,0:0:0:0:
192,192,25962,1,0,0:0:0:0:
448,192,26041,1,0,0:0:0:0:
64,192,26120,128,0,26279:0:0:0:0:
192,192,26279,128,0,26438:0:0:0:0:
320,192,26438,128,0,26597:0:0:0:0:
448,192,26597,128,0,26755:0:0:0:0:
64,192,26755,1,0,0:0:0:0:
192,192,26755,1,0,0:0:0:0:
64,192,27073,1,0,0:0:0:0:
448,192,27073,1,0,0:0:0:0:
320,192,27073,1,0,0:0:0:0:
192,192,27390,1,0,0:0:0:0:
448,192,27549,1,0,0:0:0:0:
64,192,27628,1,0,0:0:0:0:
320,192,27708,1,0,0:0:0:0:
448,192,27708,1,0,0:0:0:0:
320,192,28025,1,0,0:0:0:0:
64,192,28343,1,0,0:0:0:0:
448,192,28343,1,0,0:0:0:0:
192,192,28343,1,0,0:0:0:0:
320,192,28660,1,0,0:0:0:0:
64,192,28819,1,0,0:0:0:0:
448,192,28898,1,0,0:0:0:0:
192,192,28978,1,0,0:0:0:0:
64,192,28978,1,0,0:0:0:0:
320,192,29295,1,0,0:0:0:0:
448,192,29612,1,0,0:0:0:0:
64,192,29612,1,0,0:0:0:0:
320,192,29612,1,0,0:0:0:0:
192,192,29771,1,0,0:0:0:0:
448,192,29930,1,0,0:0:0:0:
64,192,30089,1,0,0:0:0:0:
320,192,30247,1,0,0:0:0:0:
448,192,30247,1,0,0:0:0:0:
192,192,30247,1,0,0:0:0:0:
64,192,30565,1,0,0:0:0:0:
320,192,30724,1,0,0:0:0:0:
64,192,30882,1,0,0:0:0:0:
448,192,30882,1,0,0:0:0:0:
192,192,30882,1,0,0:0:0:0:
320,192,31041,1,0,0:0:0:0:
192,192,31200,1,0,0:0:0:0:
448,192,31359,1,0,0:0:0:0:
192,192,31517,1,0,0:0:0:0:
64,192,31517,1,0,0:0:0:0:
320,192,31676,1,0,0:0:0:0:
192,192,31835,1,0,0:0:0:0:
448,192,31835,1,0,0:0:0:0:
64,192,31835,1,0,0:0:0:0:
320,192,31993,1,0,0:0:0:0:
448,192,32152,1,0,0:0:0:0:
192,192,32152,1,0,0:0:0:0:
64,192,32311,1,0,0:0:0:0:
320,192,32470,1,0,0:0:0:0:
192,192,32628,1,0,0:0:0:0:
320,192,32787,1,0,0:0:0:0:
448,192,32787,1,0,0:0:0:0:
64,192,32946,1,0,0:0:0:0:
192,192,33105,1,0,0:0:0:0:
320,192,33184,1,0,0:0:0:0:
448,192,33263,1,0,0:0:0:0:
192,192,33422,1,0,0:0:0:0:
64,192,33422,1,0,0:0:0:0:
320,192,33581,1,0,0:0:0:0:
192,192,33739,1,0,0:0:0:0:
448,192,33898,1,0,0:0:0:0:
320,192,34057,1,0,0:0:0:0:
64,192,34057,1,0,0:0:0:0:
192,192,34216,1,0,0:0:0:0:
320,192,34374,1,0,0:0:0:0:
448,192,34533,1,0,0:0:0:0:
192,192,34692,1,0,0:0:0:0:
64,192,34692,1,0,0:0:0:0:
320,192,34851,1,0,0:0:0:0:
448,192,35009,1,0,0:0:0:0:
192,192,35089,1,0,0:0:0:0:
64,192,35168,1,0,0:0:0:0:
320,192,35327,1,0,0:0:0:0:
448,192,35327,1,0,0:0:0:0:
192,192,35485,1,0,0:0:0:0:
64,192,35485,1,0,0:0:0:0:
320,192,35644,5,0,0:0:0:0:
192,192,35803,1,0,0:0:0:0:
64,192,35962,1,0,0:0:0:0:
448,192,36120,128,0,36438:0:0:0:0:
64,192,36438,128,0,36914:0:0:0:0:
320,192,36914,1,0,0:0:0:0:
448,192,36914,1,0,0:0:0:0:
192,192,37073,1,0,0:0:0:0:
64,192,37232,1,0,0:0:0:0:
448,192,37232,1,0,0:0:0:0:
320,192,37390,1,0,0:0:0:0:
192,192,37549,1,0,0:0:0:0:
64,192,37549,1,0,0:0:0:0:
448,192,37708,1,0,0:0:0:0:
192,192,37866,1,0,0:0:0:0:
64,192,38184,1,0,0:0:0:0:
320,192,38184,1,0,0:0:0:0:
192,192,38343,1,0,0:0:0:0:
320,192,38501,1,0,0:0:0:0:
448,192,38501,1,0,0:0:0:0:
64,192,38660,1,0,0:0:0:0:
192,192,38819,1,0,0:0:0:0:
320,192,38819,1,0,0:0:0:0:
448,192,38978,1,0,0:0:0:0:
64,192,39136,1,0,0:0:0:0:
320,192,39454,1,0,0:0:0:0:
448,192,39454,1,0,0:0:0:0:
64,192,39612,1,0,0:0:0:0:
448,192,39771,1,0,0:0:0:0:
192,192,39771,1,0,0:0:0:0:
320,192,39930,1,0,0:0:0:0:
64,192,40089,1,0,0:0:0:0:
448,192,40247,1,0,0:0:0:0:
192,192,40406,1,0,0:0:0:0:
64,192,40406,1,0,0:0:0:0:
320,192,40724,1,0,0:0:0:0:
448,192,40724,1,0,0:0:0:0:
64,192,40882,1,0,0:0:0:0:
192,192,41041,1,0,0:0:0:0:
320,192,41041,1,0,0:0:0:0:
448,192,41200,1,0,0:0:0:0:
64,192,41359,1,0,0:0:0:0:
320,192,41517,1,0,0:0:0:0:
64,192,41676,1,0,0:0:0:0:
192,192,41676,1,0,0:0:0:0:
448,192,41993,1,0,0:0:0:0:
192,192,41993,1,0,0:0:0:0:
64,192,42311,1,0,0:0:0:0:
320,192,42311,1,0,0:0:0:0:
192,192,42470,1,0,0:0:0:0:
448,192,42628,1,0,0:0:0:0:
64,192,42787,1,0,0:0:0:0:
192,192,42946,1,0,0:0:0:0:
320,192,42946,1,0,0:0:0:0:
448,192,43263,1,0,0:0:0:0:
64,192,43263,1,0,0:0:0:0:
320,192,43422,1,0,0:0:0:0:
192,192,43581,1,0,0:0:0:0:
448,192,43581,1,0,0:0:0:0:
64,192,43739,1,0,0:0:0:0:
320,192,43898,1,0,0:0:0:0:
192,192,44057,1,0,0:0:0:0:
448,192,44216,1,0,0:0:0:0:
320,192,44216,1,0,0:0:0:0:
64,192,44374,1,0,0:0:0:0:
448,192,44533,1,0,0:0:0:0:
320,192,44533,1,0,0:0:0:0:
192,192,44692,1,0,0:0:0:0:
64,192,44851,1,0,0:0:0:0:
448,192,44851,1,0,0:0:0:0:
320,192,45009,1,0,0:0:0:0:
192,192,45168,1,0,0:0:0:0:
448,192,45327,1,0,0:0:0:0:
64,192,45485,1,0,0:0:0:0:
192,192,45485,1,0,0:0:0:0:
448,192,45803,1,0,0:0:0:0:
320,192,45803,1,0,0:0:0:0:
64,192,45962,1,0,0:0:0:0:
320,192,46120,1,0,0:0:0:0:
192,192,46120,1,0,0:0:0:0:
448,192,46279,128,0,46438:0:0:0:0:
64,192,46438,128,0,46597:0:0:0:0:
320,192,46597,128,0,46755:0:0:0:0:
192,192,46755,128,0,46914:0:0:0:0:
448,192,46914,128,0,47073:0:0:0:0:
64,192,47073,1,0,0:0:0:0:
192,192,47073,1,0,0:0:0:0:
64,192,47232,1,0,0:0:0:0:
320,192,47390,1,0,0:0:0:0:
448,192,47390,1,0,0:0:0:0:
320,192,47549,1,0,0:0:0:0:
192,192,47708,1,0,0:0:0:0:
192,192,47866,1,0,0:0:0:0:
320,192,48025,1,0,0:0:0:0:
448,192,48025,1,0,0:0:0:0:
64,192,48184,1,0,0:0:0:0:
448,192,48501,1,0,0:0:0:0:
192,192,48660,1,0,0:0:0:0:
64,192,48660,1,0,0:0:0:0:
320,192,48819,1,0,0:0:0:0:
192,192,48978,1,0,0:0:0:0:
448,192,49136,1,0,0:0:0:0:
320,192,49295,1,0,0:0:0:0:
64,192,49295,1,0,0:0:0:0:
192,192,49454,1,0,0:0:0:0:
64,192,49771,1,0,0:0:0:0:
320,192,49930,1,0,0:0:0:0:
448,192,49930,1,0,0:0:0:0:
192,192,50089,1,0,0:0:0:0:
448,192,50247,1,0,0:0:0:0:
64,192,50406,1,0,0:0:0:0:
320,192,50565,1,0,0:0:0:0:
192,192,50565,1,0,0:0:0:0:
448,192,50724,1,0,0:0:0:0:
64,192,50882,1,0,0:0:0:0:
448,192,51200,1,0,0:0:0:0:
192,192,51200,1,0,0:0:0:0:
320,192,51517,1,0,0:0:0:0:
192,192,51676,1,0,0:0:0:0:
64,192,51835,1,0,0:0:0:0:
448,192,51835,1,0,0:0:0:0:
192,192,52152,1,0,0:0:0:0:
320,192,52311,1,0,0:0:0:0:
64,192,52470,1,0,0:0:0:0:
192,192,52470,1,0,0:0:0:0:
448,192,52628,1,0,0:0:0:0:
64,192,52787,1,0,0:0:0:0:
192,192,52946,1,0,0:0:0:0:
320,192,53105,1,0,0:0:0:0:
448,192,53105,1,0,0:0:0:0:
64,192,53263,1,0,0:0:0:0:
448,192,53422,1,0,0:0:0:0:
192,192,53739,1,0,0:0:0:0:
64,192,53739,1,0,0:0:0:0:
320,192,54057,1,0,0:0:0:0:
192,192,54216,1,0,0:0:0:0:
448,192,54374,1,0,0:0:0:0:
64,192,54374,1,0,0:0:0:0:
320,192,54533,1,0,0:0:0:0:
192,192,54692,1,0,0:0:0:0:
320,192,54851,1,0,0:0:0:0:
64,192,55009,1,0,0:0:0:0:
448,192,55009,1,0,0:0:0:0:
192,192,55168,1,0,0:0:0:0:
320,192,55327,1,0,0:0:0:0:
448,192,55485,1,0,0:0:0:0:
64,192,55485,1,0,0:0:0:0:
192,192,55644,1,0,0:0:0:0:
320,192,55803,1,0,0:0:0:0:
64,192,55962,1,0,0:0:0:0:
448,192,56120,1,0,0:0:0:0:
192,192,56279,1,0,0:0:0:0:
320,192,56279,1,0,0:0:0:0:
64,192,56438,1,0,0:0:0:0:
448,192,56597,1,0,0:0:0:0:
320,192,56755,1,0,0:0:0:0:
64,192,56914,1,0,0:0:0:0:
192,192,56993,1,0,0:0:0:0:
320,192,57073,1,0,0:0:0:0:
448,192,57152,1,0,0:0:0:0:
192,192,57232,1,0,0:0:0:0:
64,192,57232,1,0,0:0:0:0:
320,192,57390,1,0,0:0:0:0:
64,192,57549,1,0,0:0:0:0:
192,192,57708,1,0,0:0:0:0:
448,192,57708,1,0,0:0:0:0:
320,192,58025,1,0,0:0:0:0:
192,192,58184,1,0,0:0:0:0:
320,192,58343,1,0,0:0:0:0:
448,192,58343,1,0,0:0:0:0:
64,192,58501,1,0,0:0:0:0:
448,192,58660,1,0,0:0:0:0:
320,192,58739,1,0,0:0:0:0:
192,192,58819,1,0,0:0:0:0:
64,192,58978,1,0,0:0:0:0:
448,192,59136,1,0,0:0:0:0:
64,192,59295,1,0,0:0:0:0:
192,192,59374,1,0,0:0:0:0:
320,192,59454,1,0,0:0:0:0:
448,192,59454,1,0,0:0:0:0:
64,192,59612,1,0,0:0:0:0:
192,192,59771,1,0,0:0:0:0:
320,192,59771,1,0,0:0:0:0:
64,192,60089,1,0,0:0:0:0:
320,192,60247,1,0,0:0:0:0:
448,192,60247,1,0,0:0:0:0:
192,192,60565,1,0,0:0:0:0:
320,192,60882,1,0,0:0:0:0:
64,192,61200,1,0,0:0:0:0:
192,192,61200,1,0,0:0:0:0:
320,192,61359,1,0,0:0:0:0:
448,192,61359,1,0,0:0:0:0:
192,192,61676,1,0,0:0:0:0:
320,192,61676,1,0,0:0:0:0:
64,192,61835,1,0,0:0:0:0:
448,192,61835,1,0,0:0:0:0:
320,192,62152,1,0,0:0:0:0:
64,192,62152,1,0,0:0:0:0:
192,192,62311,1,0,0:0:0:0:
448,192,62311,1,0,0:0:0:0:
320,192,62628,1,0,0:0:0:0:
448,192,62628,1,0,0:0:0:0:
192,192,62787,1,0,0:0:0:0:
64,192,62787,1,0,0:0:0:0:
64,192,63581,1,0,0:0:0:0:
448,192,63581,1,0,0:0:0:0:
192,192,63739,1,0,0:0:0:0:
320,192,63898,1,0,0:0:0:0:
64,192,63898,1,0,0:0:0:0:
448,192,63898,1,0,0:0:0:0:
192,192,64057,1,0,0:0:0:0:
64,192,64216,1,0,0:0:0:0:
448,192,64216,1,0,0:0:0:0:
320,192,64374,1,0,0:0:0:0:
192,192,64533,1,0,0:0:0:0:
448,192,64533,1,0,0:0:0:0:
64,192,64533,1,0,0:0:0:0:
320,192,64692,1,0,0:0:0:0:
192,192,64851,1,0,0:0:0:0:
448,192,64851,1,0,0:0:0:0:
64,192,65009,1,0,0:0:0:0:
320,192,65168,1,0,0:0:0:0:
448,192,65168,1,0,0:0:0:0:
192,192,65168,1,0,0:0:0:0:
64,192,65327,1,0,0:0:0:0:
448,192,65485,1,0,0:0:0:0:
192,192,65485,1,0,0:0:0:0:
320,192,65644,1,0,0:0:0:0:
192,192,65803,1,0,0:0:0:0:
64,192,65803,1,0,0:0:0:0:
448,192,65803,1,0,0:0:0:0:
320,192,65962,1,0,0:0:0:0:
448,192,66120,1,0,0:0:0:0:
64,192,66120,1,0,0:0:0:0:
192,192,66279,1,0,0:0:0:0:
320,192,66438,1,0,0:0:0:0:
448,192,66438,1,0,0:0:0:0:
64,192,66438,1,0,0:0:0:0:
192,192,66597,1,0,0:0:0:0:
448,192,66676,1,0,0:0:0:0:
192,192,66755,1,0,0:0:0:0:
64,192,66755,1,0,0:0:0:0:
320,192,66914,1,0,0:0:0:0:
192,192,67073,1,0,0:0:0:0:
448,192,67073,1,0,0:0:0:0:
64,192,67073,1,0,0:0:0:0:
320,192,67232,1,0,0:0:0:0:
64,192,67390,1,0,0:0:0:0:
448,192,67390,1,0,0:0:0:0:
192,192,67549,1,0,0:0:0:0:
320,192,67628,1,0,0:0:0:0:
64,192,67708,1,0,0:0:0:0:
192,192,67708,1,0,0:0:0:0:
448,192,67708,1,0,0:0:0:0:
320,192,67866,1,0,0:0:0:0:
64,192,68025,1,0,0:0:0:0:
192,192,68025,1,0,0:0:0:0:
448,192,68105,1,0,0:0:0:0:
192,192,68184,1,0,0:0:0:0:
64,192,68343,1,0,0:0:0:0:
320,192,68343,1,0,0:0:0:0:
448,192,68343,1,0,0:0:0:0:
192,192,68501,1,0,0:0:0:0:
64,192,68660,1,0,0:0:0:0:
448,192,68660,1,0,0:0:0:0:
320,192,68819,1,0,0:0:0:0:
192,192,68978,1,0,0:0:0:0:
448,192,68978,1,0,0:0:0:0:
64,192,68978,1,0,0:0:0:0:
320,192,69136,1,0,0:0:0:0:
64,192,69295,1,0,0:0:0:0:
448,192,69295,1,0,0:0:0:0:
192,192,69454,1,0,0:0:0:0:
64,192,69612,1,0,0:0:0:0:
448,192,69612,1,0,0:0:0:0:
320,192,69612,1,0,0:0:0:0:
192,192,69771,1,0,0:0:0:0:
320,192,69930,1,0,0:0:0:0:
448,192,69930,1,0,0:0:0:0:
64,192,70089,1,0,0:0:0:0:
320,192,70247,1,0,0:0:0:0:
192,192,70247,1,0,0:0:0:0:
448,192,70247,1,0,0:0:0:0:
64,192,70406,1,0,0:0:0:0:
192,192,70565,1,0,0:0:0:0:
448,192,70565,1,0,0:0:0:0:
320,192,70724,1,0,0:0:0:0:
64,192,70882,1,0,0:0:0:0:
448,192,70882,1,0,0:0:0:0:
192,192,70882,1,0,0:0:0:0:
320,192,71041,1,0,0:0:0:0:
448,192,71200,1,0,0:0:0:0:
64,192,71200,1,0,0:0:0:0:
192,192,71359,1,0,0:0:0:0:
320,192,71517,1,0,0:0:0:0:
64,192,71517,1,0,0:0:0:0:
448,192,71676,1,0,0:0:0:0:
64,192,71835,1,0,0:0:0:0:
192,192,71835,1,0,0:0:0:0:
320,192,71993,1,0,0:0:0:0:
64,192,72152,1,0,0:0:0:0:
448,192,72152,1,0,0:0:0:0:
192,192,72311,1,0,0:0:0:0:
320,192,72470,1,0,0:0:0:0:
448,192,72470,1,0,0:0:0:0:
64,192,72628,1,0,0:0:0:0:
320,192,72708,1,0,0:0:0:0:
64,192,72787,1,0,0:0:0:0:
192,192,72787,1,0,0:0:0:0:
448,192,72946,1,0,0:0:0:0:
192,192,73025,1,0,0:0:0:0:
320,192,73105,1,0,0:0:0:0:
448,192,73105,1,0,0:0:0:0:
64,192,73263,1,0,0:0:0:0:
448,192,73422,1,0,0:0:0:0:
320,192,73501,1,0,0:0:0:0:
192,192,73581,1,0,0:0:0:0:
64,192,73660,1,0,0:0:0:0:
448,192,73739,1,0,0:0:0:0:
320,192,73739,1,0,0:0:0:0:
192,192,73898,1,0,0:0:0:0:
448,192,74057,1,0,0:0:0:0:
64,192,74057,1,0,0:0:0:0:
320,192,74057,1,0,0:0:0:0:
192,192,74216,1,0,0:0:0:0:
448,192,74374,1,0,0:0:0:0:
64,192,74374,1,0,0:0:0:0:
320,192,74533,1,0,0:0:0:0:
192,192,74692,1,0,0:0:0:0:
64,192,74692,1,0,0:0:0:0:
448,192,74692,1,0,0:0:0:0:
320,192,74851,1,0,0:0:0:0:
64,192,75009,1,0,0:0:0:0:
448,192,75009,1,0,0:0:0:0:
192,192,75168,1,0,0:0:0:0:
64,192,75327,1,0,0:0:0:0:
320,192,75327,1,0,0:0:0:0:
448,192,75327,1,0,0:0:0:0:
192,192,75485,1,0,0:0:0:0:
448,192,75644,1,0,0:0:0:0:
320,192,75644,1,0,0:0:0:0:
64,192,75803,1,0,0:0:0:0:
320,192,75962,1,0,0:0:0:0:
448,192,75962,1,0,0:0:0:0:
192,192,75962,1,0,0:0:0:0:
64,192,76120,1,0,0:0:0:0:
192,192,76279,1,0,0:0:0:0:
320,192,76279,1,0,0:0:0:0:
448,192,76438,1,0,0:0:0:0:
320,192,76597,1,0,0:0:0:0:
192,192,76597,1,0,0:0:0:0:
64,192,76597,1,0,0:0:0:0:
448,192,76755,1,0,0:0:0:0:
320,192,76914,1,0,0:0:0:0:
64,192,76914,1,0,0:0:0:0:
192,192,77073,1,0,0:0:0:0:
320,192,77232,1,0,0:0:0:0:
448,192,77232,1,0,0:0:0:0:
64,192,77232,1,0,0:0:0:0:
192,192,77390,1,0,0:0:0:0:
448,192,77549,1,0,0:0:0:0:
320,192,77549,1,0,0:0:0:0:
64,192,77708,1,0,0:0:0:0:
448,192,77787,1,0,0:0:0:0:
192,192,77866,1,0,0:0:0:0:
64,192,77866,1,0,0:0:0:0:
320,192,78025,1,0,0:0:0:0:
448,192,78184,1,0,0:0:0:0:
192,192,78184,1,0,0:0:0:0:
64,192,78343,1,0,0:0:0:0:
192,192,78501,1,0,0:0:0:0:
448,192,78501,1,0,0:0:0:0:
320,192,78501,1,0,0:0:0:0:
448,192,78819,1,0,0:0:0:0:
320,192,78819,1,0,0:0:0:0:
192,192,78898,1,0,0:0:0:0:
320,192,78978,1,0,0:0:0:0:
64,192,79057,1,0,0:0:0:0:
448,192,79136,1,0,0:0:0:0:
192,192,79216,1,0,0:0:0:0:
320,192,79295,1,0,0:0:0:0:
64,192,79374,1,0,0:0:0:0:
448,192,79454,1,0,0:0:0:0:
192,192,79533,1,0,0:0:0:0:
320,192,79612,5,0,0:0:0:0:
64,192,79692,1,0,0:0:0:0:
448,192,79771,1,0,0:0:0:0:
320,192,79930,1,0,0:0:0:0:
192,192,80089,5,0,0:0:0:0:
448,192,80168,1,0,0:0:0:0:
64,192,80247,1,0,0:0:0:0:
320,192,80327,1,0,0:0:0:0:
192,192,80406,1,0,0:0:0:0:
448,192,80485,1,0,0:0:0:0:
64,192,80565,1,0,0:0:0:0:
320,192,80644,1,0,0:0:0:0:
192,192,80724,1,0,0:0:0:0:
448,192,80803,1,0,0:0:0:0:
64,192,80882,1,0,0:0:0:0:
320,192,80962,1,0,0:0:0:0:
192,192,81041,1,0,0:0:0:0:
64,192,81200,1,0,0:0:0:0:
320,192,81359,1,0,0:0:0:0:
448,192,81359,1,0,0:0:0:0:
192,192,81517,1,0,0:0:0:0:
64,192,81517,1,0,0:0:0:0:
320,192,81835,1,0,0:0:0:0:
448,192,81835,1,0,0:0:0:0:
192,192,81993,1,0,0:0:0:0:
64,192,81993,1,0,0:0:0:0:
320,192,82311,1,0,0:0:0:0:
192,192,82311,1,0,0:0:0:0:
64,192,82470,1,0,0:0:0:0:
448,192,82470,1,0,0:0:0:0:
192,192,82787,1,0,0:0:0:0:
448,192,82787,1,0,0:0:0:0:
64,192,82946,1,0,0:0:0:0:
320,192,82946,1,0,0:0:0:0:
64,192,83263,1,0,0:0:0:0:
448,192,83263,1,0,0:0:0:0:
320,192,83422,1,0,0:0:0:0:
192,192,83501,1,0,0:0:0:0:
64,192,83581,1,0,0:0:0:0:
320,192,83898,1,0,0:0:0:0:
64,192,83898,1,0,0:0:0:0:
448,192,83898,1,0,0:0:0:0:
448,192,84216,1,0,0:0:0:0:
64,192,84216,1,0,0:0:0:0:
192,192,84216,1,0,0:0:0:0:
320,192,84533,1,0,0:0:0:0:
64,192,84692,1,0,0:0:0:0:
448,192,84771,1,0,0:0:0:0:
192,192,84851,1,0,0:0:0:0:
64,192,84851,1,0,0:0:0:0:
192,192,85168,1,0,0:0:0:0:
448,192,85485,1,0,0:0:0:0:
64,192,85485,1,0,0:0:0:0:
320,192,85485,1,0,0:0:0:0:
192,192,85803,1,0,0:0:0:0:
448,192,85962,1,0,0:0:0:0:
64,192,86041,1,0,0:0:0:0:
320,192,86120,1,0,0:0:0:0:
448,192,86120,1,0,0:0:0:0:
192,192,86438,1,0,0:0:0:0:
64,192,86755,1,0,0:0:0:0:
448,192,86755,1,0,0:0:0:0:
192,192,86755,1,0,0:0:0:0:
320,192,86914,1,0,0:0:0:0:
64,192,87073,1,0,0:0:0:0:
448,192,87232,1,0,0:0:0:0:
192,192,87390,1,0,0:0:0:0:
64,192,87390,1,0,0:0:0:0:
320,192,87390,1,0,0:0:0:0:
448,192,87708,1,0,0:0:0:0:
192,192,87866,1,0,0:0:0:0:
448,192,88025,1,0,0:0:0:0:
64,192,88025,1,0,0:0:0:0:
320,192,88025,1,0,0:0:0:0:
192,192,88184,1,0,0:0:0:0:
320,192,88343,1,0,0:0:0:0:
64,192,88501,1,0,0:0:0:0:
320,192,88660,1,0,0:0:0:0:
448,192,88660,1,0,0:0:0:0:
192,192,88819,1,0,0:0:0:0:
320,192,88978,1,0,0:0:0:0:
64,192,88978,1,0,0:0:0:0:
448,192,88978,1,0,0:0:0:0:
192,192,89136,1,0,0:0:0:0:
64,192,89295,1,0,0:0:0:0:
320,192,89295,1,0,0:0:0:0:
448,192,89454,1,0,0:0:0:0:
192,192,89612,1,0,0:0:0:0:
320,192,89771,1,0,0:0:0:0:
192,192,89930,1,0,0:0:0:0:
64,192,89930,1,0,0:0:0:0:
448,192,90089,1,0,0:0:0:0:
320,192,90247,1,0,0:0:0:0:
192,192,90327,1,0,0:0:0:0:
64,192,90406,1,0,0:0:0:0:
320,192,90565,1,0,0:0:0:0:
448,192,90565,1,0,0:0:0:0:
192,192,90724,1,0,0:0:0:0:
320,192,90882,1,0,0:0:0:0:
64,192,91041,1,0,0:0:0:0:
192,192,91200,1,0,0:0:0:0:
448,192,91200,1,0,0:0:0:0:
320,192,91359,1,0,0:0:0:0:
192,192,91517,1,0,0:0:0:0:
64,192,91676,1,0,0:0:0:0:
320,192,91835,1,0,0:0:0:0:
448,192,91835,1,0,0:0:0:0:
192,192,91993,1,0,0:0:0:0:
64,192,92152,1,0,0:0:0:0:
320,192,92232,1,0,0:0:0:0:
448,192,92311,1,0,0:0:0:0:
192,192,92470,1,0,0:0:0:0:
64,192,92470,1,0,0:0:0:0:
320,192,92628,1,0,0:0:0:0:
448,192,92787,1,0,0:0:0:0:
64,192,92946,1,0,0:0:0:0:
320,192,93105,1,0,0:0:0:0:
192,192,93105,1,0,0:0:0:0:
448,192,93263,1,0,0:0:0:0:
192,192,93422,1,0,0:0:0:0:
64,192,93501,1,0,0:0:0:0:
320,192,93581,1,0,0:0:0:0:
448,192,93660,1,0,0:0:0:0:
192,192,93739,1,0,0:0:0:0:
64,192,93898,1,0,0:0:0:0:
320,192,93898,1,0,0:0:0:0:
192,192,94057,1,0,0:0:0:0:
448,192,94057,1,0,0:0:0:0:
320,192,94216,1,0,0:0:0:0:
448,192,94374,1,0,0:0:0:0:
192,192,94374,1,0,0:0:0:0:
64,192,94533,1,0,0:0:0:0:
448,192,94692,1,0,0:0:0:0:
320,192,94851,1,0,0:0:0:0:
64,192,95009,1,0,0:0:0:0:
192,192,95009,1,0,0:0:0:0:
448,192,95327,1,0,0:0:0:0:
192,192,95327,1,0,0:0:0:0:
320,192,95485,1,0,0:0:0:0:
448,192,95644,1,0,0:0:0:0:
64,192,95644,1,0,0:0:0:0:
192,192,95803,1,0,0:0:0:0:
320,192,95962,1,0,0:0:0:0:
64,192,96120,1,0,0:0:0:0:
320,192,96279,1,0,0:0:0:0:
448,192,96279,1,0,0:0:0:0:
192,192,96438,1,0,0:0:0:0:
64,192,96438,1,0,0:0:0:0:
320,192,96597,1,0,0:0:0:0:
448,192,96597,1,0,0:0:0:0:
192,192,96755,1,0,0:0:0:0:
64,192,96914,1,0,0:0:0:0:
448,192,96914,1,0,0:0:0:0:
320,192,97073,1,0,0:0:0:0:
192,192,97232,1,0,0:0:0:0:
448,192,97390,1,0,0:0:0:0:
320,192,97549,1,0,0:0:0:0:
64,192,97549,1,0,0:0:0:0:
192,192,97866,1,0,0:0:0:0:
448,192,97866,1,0,0:0:0:0:
64,192,98025,1,0,0:0:0:0:
320,192,98184,1,0,0:0:0:0:
448,192,98184,1,0,0:0:0:0:
192,192,98343,1,0,0:0:0:0:
320,192,98501,1,0,0:0:0:0:
448,192,98660,1,0,0:0:0:0:
192,192,98819,1,0,0:0:0:0:
64,192,98819,1,0,0:0:0:0:
320,192,98978,1,0,0:0:0:0:
448,192,98978,1,0,0:0:0:0:
192,192,99136,1,0,0:0:0:0:
64,192,99136,1,0,0:0:0:0:
320,192,99295,1,0,0:0:0:0:
448,192,99454,1,0,0:0:0:0:
192,192,99454,1,0,0:0:0:0:
64,192,99612,1,0,0:0:0:0:
320,192,99771,1,0,0:0:0:0:
192,192,99930,1,0,0:0:0:0:
320,192,100089,1,0,0:0:0:0:
448,192,100089,1,0,0:0:0:0:
192,192,100406,1,0,0:0:0:0:
64,192,100406,1,0,0:0:0:0:
448,192,100565,1,0,0:0:0:0:
192,192,100724,1,0,0:0:0:0:
320,192,100724,1,0,0:0:0:0:
64,192,100882,1,0,0:0:0:0:
448,192,101041,1,0,0:0:0:0:
320,192,101041,1,0,0:0:0:0:
192,192,101200,1,0,0:0:0:0:
64,192,101200,1,0,0:0:0:0:
448,192,101359,1,0,0:0:0:0:
320,192,101676,1,0,0:0:0:0:
320,192,102152,1,0,0:0:0:0:
192,192,102311,1,0,0:0:0:0:
64,192,102470,1,0,0:0:0:0:
320,192,102628,1,0,0:0:0:0:
448,192,102628,1,0,0:0:0:0:
448,192,102946,1,0,0:0:0:0:
320,192,103052,1,0,0:0:0:0:
192,192,103157,1,0,0:0:0:0:
64,192,103263,1,0,0:0:0:0:
320,192,103369,1,0,0:0:0:0:
192,192,103475,1,0,0:0:0:0:
448,192,103581,1,0,0:0:0:0:
320,192,103687,1,0,0:0:0:0:
192,192,103792,1,0,0:0:0:0:
64,192,103898,1,0,0:0:0:0:
448,192,104004,1,0,0:0:0:0:
320,192,104110,1,0,0:0:0:0:
64,192,104216,1,0,0:0:0:0:
192,192,104216,1,0,0:0:0:0:
64,192,104427,1,0,0:0:0:0:
320,192,104533,1,0,0:0:0:0:
192,192,104745,1,0,0:0:0:0:
448,192,104851,1,0,0:0:0:0:
320,192,104851,1,0,0:0:0:0:
64,192,105062,1,0,0:0:0:0:
192,192,105168,1,0,0:0:0:0:
320,192,105274,1,0,0:0:0:0:
448,192,105380,1,0,0:0:0:0:
64,192,105485,1,0,0:0:0:0:
320,192,105697,1,0,0:0:0:0:
192,192,105803,1,0,0:0:0:0:
320,192,106015,1,0,0:0:0:0:
64,192,106120,1,0,0:0:0:0:
192,192,106120,1,0,0:0:0:0:
448,192,106332,1,0,0:0:0:0:
64,192,106438,1,0,0:0:0:0:
320,192,106650,1,0,0:0:0:0:
448,192,106755,1,0,0:0:0:0:
192,192,106967,1,0,0:0:0:0:
320,192,107073,1,0,0:0:0:0:
64,192,107390,1,0,0:0:0:0:
448,192,107390,1,0,0:0:0:0:
320,192,107602,1,0,0:0:0:0:
192,192,107708,1,0,0:0:0:0:
64,192,107919,1,0,0:0:0:0:
192,192,108237,1,0,0:0:0:0:
320,192,108554,1,0,0:0:0:0:
448,192,108687,1,0,0:0:0:0:
192,192,108872,1,0,0:0:0:0:
320,192,108978,1,0,0:0:0:0:
192,192,109083,1,0,0:0:0:0:
320,192,109189,1,0,0:0:0:0:
448,192,109295,1,0,0:0:0:0:
64,192,109295,1,0,0:0:0:0:
192,192,109612,1,0,0:0:0:0:
320,192,109824,1,0,0:0:0:0:
192,192,109930,1,0,0:0:0:0:
64,192,109930,1,0,0:0:0:0:
448,192,110247,1,0,0:0:0:0:
192,192,110406,1,0,0:0:0:0:
320,192,110565,1,0,0:0:0:0:
64,192,110882,1,0,0:0:0:0:
448,192,111094,1,0,0:0:0:0:
192,192,111200,1,0,0:0:0:0:
64,192,111200,1,0,0:0:0:0:
320,192,111411,1,0,0:0:0:0:
448,192,111517,1,0,0:0:0:0:
64,192,111835,1,0,0:0:0:0:
192,192,112152,1,0,0:0:0:0:
320,192,112364,1,0,0:0:0:0:
192,192,112470,1,0,0:0:0:0:
64,192,112470,1,0,0:0:0:0:
448,192,112681,1,0,0:0:0:0:
64,192,112999,128,0,114057:0:0:0:0:
448,192,114057,128,0,114374:0:0:0:0:
192,192,114374,1,0,0:0:0:0:
320,192,114374,1,0,0:0:0:0:
64,192,114533,1,0,0:0:0:0:
192,192,114612,1,0,0:0:0:0:
320,192,114692,1,0,0:0:0:0:
192,192,114851,1,0,0:0:0:0:
448,192,114851,1,0,0:0:0:0:
64,192,115168,1,0,0:0:0:0:
320,192,115327,1,0,0:0:0:0:
192,192,115485,1,0,0:0:0:0:
64,192,115485,1,0,0:0:0:0:
448,192,115644,1,0,0:0:0:0:
192,192,115803,1,0,0:0:0:0:
320,192,115882,1,0,0:0:0:0:
448,192,115962,1,0,0:0:0:0:
64,192,116120,1,0,0:0:0:0:
192,192,116279,1,0,0:0:0:0:
448,192,116438,1,0,0:0:0:0:
320,192,116517,1,0,0:0:0:0:
64,192,116597,1,0,0:0:0:0:
192,192,116597,1,0,0:0:0:0:
448,192,116755,1,0,0:0:0:0:
320,192,116914,1,0,0:0:0:0:
192,192,116914,1,0,0:0:0:0:
448,192,117232,1,0,0:0:0:0:
192,192,117390,1,0,0:0:0:0:
64,192,117390,1,0,0:0:0:0:
320,192,117708,1,0,0:0:0:0:
192,192,118025,1,0,0:0:0:0:
320,192,118343,1,0,0:0:0:0:
448,192,118343,1,0,0:0:0:0:
192,192,118501,1,0,0:0:0:0:
64,192,118501,1,0,0:0:0:0:
320,192,118819,1,0,0:0:0:0:
192,192,118819,1,0,0:0:0:0:
64,192,118978,1,0,0:0:0:0:
448,192,118978,1,0,0:0:0:0:
448,192,119295,1,0,0:0:0:0:
192,192,119295,1,0,0:0:0:0:
320,192,119454,1,0,0:0:0:0:
64,192,119454,1,0,0:0:0:0:
64,192,119771,1,0,0:0:0:0:
192,192,119771,1,0,0:0:0:0:
448,192,119930,1,0,0:0:0:0:
320,192,119930,1,0,0:0:0:0:
448,192,120724,1,0,0:0:0:0:
64,192,120724,1,0,0:0:0:0:
320,192,120882,1,0,0:0:0:0:
192,192,121041,1,0,0:0:0:0:
448,192,121041,1,0,0:0:0:0:
64,192,121041,1,0,0:0:0:0:
320,192,121200,1,0,0:0:0:0:
448,192,121359,1,0,0:0:0:0:
64,192,121359,1,0,0:0:0:0:
192,192,121517,1,0,0:0:0:0:
320,192,121676,1,0,0:0:0:0:
64,192,121676,1,0,0:0:0:0:
448,192,121676,1,0,0:0:0:0:
192,192,121835,1,0,0:0:0:0:
320,192,121993,1,0,0:0:0:0:
64,192,121993,1,0,0:0:0:0:
448,192,122152,1,0,0:0:0:0:
192,192,122311,1,0,0:0:0:0:
64,192,122311,1,0,0:0:0:0:
320,192,122311,1,0,0:0:0:0:
448,192,122470,1,0,0:0:0:0:
64,192,122628,1,0,0:0:0:0:
320,192,122628,1,0,0:0:0:0:
192,192,122787,1,0,0:0:0:0:
320,192,122946,1,0,0:0:0:0:
448,192,122946,1,0,0:0:0:0:
64,192,122946,1,0,0:0:0:0:
192,192,123105,1,0,0:0:0:0:
64,192,123263,1,0,0:0:0:0:
448,192,123263,1,0,0:0:0:0:
320,192,123422,1,0,0:0:0:0:
192,192,123581,1,0,0:0:0:0:
64,192,123581,1,0,0:0:0:0:
448,192,123581,1,0,0:0:0:0:
320,192,123739,1,0,0:0:0:0:
64,192,123819,1,0,0:0:0:0:
320,192,123898,1,0,0:0:0:0:
448,192,123898,1,0,0:0:0:0:
192,192,124057,1,0,0:0:0:0:
320,192,124216,1,0,0:0:0:0:
64,192,124216,1,0,0:0:0:0:
448,192,124216,1,0,0:0:0:0:
192,192,124374,1,0,0:0:0:0:
448,192,124533,1,0,0:0:0:0:
64,192,124533,1,0,0:0:0:0:
320,192,124692,1,0,0:0:0:0:
192,192,124771,1,0,0:0:0:0:
448,192,124851,1,0,0:0:0:0:
320,192,124851,1,0,0:0:0:0:
64,192,124851,1,0,0:0:0:0:
192,192,125009,1,0,0:0:0:0:
448,192,125168,1,0,0:0:0:0:
320,192,125168,1,0,0:0:0:0:
64,192,125247,1,0,0:0:0:0:
320,192,125327,1,0,0:0:0:0:
448,192,125485,1,0,0:0:0:0:
192,192,125485,1,0,0:0:0:0:
64,192,125485,1,0,0:0:0:0:
320,192,125644,1,0,0:0:0:0:
448,192,125803,1,0,0:0:0:0:
64,192,125803,1,0,0:0:0:0:
192,192,125962,1,0,0:0:0:0:
320,192,126120,1,0,0:0:0:0:
64,192,126120,1,0,0:0:0:0:
448,192,126120,1,0,0:0:0:0:
192,192,126279,1,0,0:0:0:0:
448,192,126438,1,0,0:0:0:0:
64,192,126438,1,0,0:0:0:0:
320,192,126597,1,0,0:0:0:0:
448,192,126755,1,0,0:0:0:0:
64,192,126755,1,0,0:0:0:0:
192,192,126755,1,0,0:0:0:0:
320,192,126914,1,0,0:0:0:0:
192,192,127073,1,0,0:0:0:0:
64,192,127073,1,0,0:0:0:0:
448,192,127232,1,0,0:0:0:0:
192,192,127390,1,0,0:0:0:0:
320,192,127390,1,0,0:0:0:0:
64,192,127390,1,0,0:0:0:0:
448,192,127549,1,0,0:0:0:0:
320,192,127708,1,0,0:0:0:0:
64,192,127708,1,0,0:0:0:0:
192,192,127866,1,0,0:0:0:0:
448,192,128025,1,0,0:0:0:0:
64,192,128025,1,0,0:0:0:0:
320,192,128025,1,0,0:0:0:0:
192,192,128184,1,0,0:0:0:0:
64,192,128343,1,0,0:0:0:0:
448,192,128343,1,0,0:0:0:0:
320,192,128501,1,0,0:0:0:0:
192,192,128660,1,0,0:0:0:0:
448,192,128660,1,0,0:0:0:0:
64,192,128819,1,0,0:0:0:0:
448,192,128978,1,0,0:0:0:0:
320,192,128978,1,0,0:0:0:0:
192,192,129136,1,0,0:0:0:0:
448,192,129295,1,0,0:0:0:0:
64,192,129295,1,0,0:0:0:0:
320,192,129454,1,0,0:0:0:0:
192,192,129612,1,0,0:0:0:0:
64,192,129612,1,0,0:0:0:0:
448,192,129771,1,0,0:0:0:0:
192,192,129851,1,0,0:0:0:0:
448,192,129930,1,0,0:0:0:0:
320,192,129930,1,0,0:0:0:0:
64,192,130089,1,0,0:0:0:0:
320,192,130168,1,0,0:0:0:0:
192,192,130247,1,0,0:0:0:0:
64,192,130247,1,0,0:0:0:0:
448,192,130406,1,0,0:0:0:0:
64,192,130565,1,0,0:0:0:0:
192,192,130644,1,0,0:0:0:0:
320,192,130724,1,0,0:0:0:0:
448,192,130803,1,0,0:0:0:0:
64,192,130882,1,0,0:0:0:0:
192,192,130882,1,0,0:0:0:0:
320,192,131041,1,0,0:0:0:0:
64,192,131200,1,0,0:0:0:0:
448,192,131200,1,0,0:0:0:0:
192,192,131200,1,0,0:0:0:0:
320,192,131359,1,0,0:0:0:0:
64,192,131517,1,0,0:0:0:0:
448,192,131517,1,0,0:0:0:0:
192,192,131676,1,0,0:0:0:0:
320,192,131835,1,0,0:0:0:0:
448,192,131835,1,0,0:0:0:0:
64,192,131835,1,0,0:0:0:0:
192,192,131993,1,0,0:0:0:0:
448,192,132152,1,0,0:0:0:0:
64,192,132152,1,0,0:0:0:0:
320,192,132311,1,0,0:0:0:0:
448,192,132470,1,0,0:0:0:0:
192,192,132470,1,0,0:0:0:0:
64,192,132470,1,0,0:0:0:0:
320,192,132628,1,0,0:0:0:0:
64,192,132787,1,0,0:0:0:0:
192,192,132787,1,0,0:0:0:0:
448,192,132946,1,0,0:0:0:0:
192,192,133105,1,0,0:0:0:0:
64,192,133105,1,0,0:0:0:0:
320,192,133105,1,0,0:0:0:0:
448,192,133263,1,0,0:0:0:0:
320,192,133422,1,0,0:0:0:0:
192,192,133422,1,0,0:0:0:0:
64,192,133581,1,0,0:0:0:0:
192,192,133739,1,0,0:0:0:0:
320,192,133739,1,0,0:0:0:0:
448,192,133739,1,0,0:0:0:0:
64,192,133898,1,0,0:0:0:0:
192,192,134057,1,0,0:0:0:0:
448,192,134057,1,0,0:0:0:0:
320,192,134216,1,0,0:0:0:0:
192,192,134374,1,0,0:0:0:0:
64,192,134374,1,0,0:0:0:0:
448,192,134374,1,0,0:0:0:0:
320,192,134533,1,0,0:0:0:0:
64,192,134692,1,0,0:0:0:0:
192,192,134692,1,0,0:0:0:0:
448,192,134851,1,0,0:0:0:0:
64,192,134930,1,0,0:0:0:0:
320,192,135009,1,0,0:0:0:0:
448,192,135009,1,0,0:0:0:0:
192,192,135168,1,0,0:0:0:0:
64,192,135327,1,0,0:0:0:0:
320,192,135327,1,0,0:0:0:0:
448,192,135485,1,0,0:0:0:0:
320,192,135644,1,0,0:0:0:0:
64,192,135644,1,0,0:0:0:0:
192,192,135644,1,0,0:0:0:0:
64,192,135962,1,0,0:0:0:0:
192,192,135962,1,0,0:0:0:0:
320,192,136041,1,0,0:0:0:0:
192,192,136120,1,0,0:0:0:0:
448,192,136200,1,0,0:0:0:0:
64,192,136279,1,0,0:0:0:0:
320,192,136359,1,0,0:0:0:0:
192,192,136438,1,0,0:0:0:0:
448,192,136517,1,0,0:0:0:0:
64,192,136597,1,0,0:0:0:0:
320,192,136676,1,0,0:0:0:0:
192,192,136755,5,0,0:0:0:0:
448,192,136835,1,0,0:0:0:0:
64,192,136914,1,0,0:0:0:0:
192,192,137073,1,0,0:0:0:0:
320,192,137232,5,0,0:0:0:0:
64,192,137311,1,0,0:0:0:0:
448,192,137390,1,0,0:0:0:0:
192,192,137470,1,0,0:0:0:0:
320,192,137549,1,0,0:0:0:0:
64,192,137628,1,0,0:0:0:0:
448,192,137708,1,0,0:0:0:0:
192,192,137787,1,0,0:0:0:0:
320,192,137866,1,0,0:0:0:0:
64,192,137946,1,0,0:0:0:0:
448,192,138025,1,0,0:0:0:0:
192,192,138105,1,0,0:0:0:0:
320,192,138184,1,0,0:0:0:0:
448,192,138343,1,0,0:0:0:0:
192,192,138501,1,0,0:0:0:0:
64,192,138501,1,0,0:0:0:0:
320,192,138660,1,0,0:0:0:0:
448,192,138660,1,0,0:0:0:0:
192,192,138978,1,0,0:0:0:0:
64,192,138978,1,0,0:0:0:0:
320,192,139136,1,0,0:0:0:0:
448,192,139136,1,0,0:0:0:0:
192,192,139454,1,0,0:0:0:0:
320,192,139454,1,0,0:0:0:0:
448,192,139612,1,0,0:0:0:0:
64,192,139612,1,0,0:0:0:0:
320,192,139930,1,0,0:0:0:0:
64,192,139930,1,0,0:0:0:0:
448,192,140089,1,0,0:0:0:0:
192,192,140089,1,0,0:0:0:0:
320,192,140247,1,0,0:0:0:0:
448,192,140406,1,0,0:0:0:0:
64,192,140406,1,0,0:0:0:0:
192,192,140565,1,0,0:0:0:0:
320,192,140724,1,0,0:0:0:0:
448,192,140724,128,0,141041:0:0:0:0:
64,192,141041,128,0,141993:0:0:0:0:
192,192,141041,1,0,0:0:0:0:
192,192,141359,1,0,0:0:0:0:
448,192,141359,1,0,0:0:0:0:
320,192,141676,1,0,0:0:0:0:
192,192,141993,1,0,0:0:0:0:
448,192,141993,128,0,142311:0:0:0:0:
64,192,142311,1,0,0:0:0:0:
192,192,142311,128,0,142787:0:0:0:0:
320,192,142628,1,0,0:0:0:0:
448,192,142628,1,0,0:0:0:0:
64,192,142787,128,0,143581:0:0:0:0:
320,192,142946,1,0,0:0:0:0:
448,192,143263,1,0,0:0:0:0:
192,192,143263,1,0,0:0:0:0:
320,192,143581,1,0,0:0:0:0:
448,192,143581,1,0,0:0:0:0:
192,192,143660,1,0,0:0:0:0:
320,192,143739,1,0,0:0:0:0:
64,192,143898,1,0,0:0:0:0:
192,192,143898,1,0,0:0:0:0:
448,192,144057,1,0,0:0:0:0:
320,192,144136,1,0,0:0:0:0:
192,192,144216,1,0,0:0:0:0:
64,192,144374,1,0,0:0:0:0:
320,192,144533,1,0,0:0:0:0:
448,192,144533,1,0,0:0:0:0:
64,192,146120,128,0,147073:0:0:0:0:
320,192,147073,128,0,147390:0:0:0:0:
192,192,147390,128,0,147866:0:0:0:0:
448,192,147866,128,0,148343:0:0:0:0:
320,192,148343,128,0,148660:0:0:0:0:
64,192,148660,128,0,150406:0:0:0:0:
320,192,151200,128,0,152470:0:0:0:0:
192,192,152470,128,0,152946:0:0:0:0:
64,192,152946,128,0,153422:0:0:0:0:
320,192,153422,128,0,153739:0:0:0:0:
448,192,153739,128,0,155009:0:0:0:0:
64,192,155009,128,0,155644:0:0:0:0:
320,192,155644,128,0,156279:0:0:0:0:
192,192,156279,128,0,157549:0:0:0:0:
64,192,158819,128,0,161359:0:0:0:0:
448,192,160724,128,0,161359:0:0:0:0:
192,192,161359,1,0,0:0:0:0:
320,192,161517,1,0,0:0:0:0:
64,192,161676,1,0,0:0:0:0:
448,192,161835,1,0,0:0:0:0:
192,192,161993,1,0,0:0:0:0:
64,192,162152,1,0,0:0:0:0:
320,192,162311,1,0,0:0:0:0:
448,192,162470,1,0,0:0:0:0:
192,192,162628,1,0,0:0:0:0:
320,192,162787,1,0,0:0:0:0:
64,192,162946,1,0,0:0:0:0:
448,192,163105,1,0,0:0:0:0:
320,192,163263,1,0,0:0:0:0:
64,192,163422,1,0,0:0:0:0:
192,192,163501,1,0,0:0:0:0:
320,192,163581,1,0,0:0:0:0:
64,192,163739,1,0,0:0:0:0:
192,192,163898,1,0,0:0:0:0:
320,192,164057,1,0,0:0:0:0:
448,192,164216,1,0,0:0:0:0:
192,192,164374,1,0,0:0:0:0:
320,192,164533,1,0,0:0:0:0:
64,192,164692,1,0,0:0:0:0:
192,192,164851,1,0,0:0:0:0:
320,192,165009,1,0,0:0:0:0:
192,192,165168,1,0,0:0:0:0:
64,192,165327,1,0,0:0:0:0:
448,192,165485,1,0,0:0:0:0:
320,192,165644,1,0,0:0:0:0:
192,192,165803,1,0,0:0:0:0:
64,192,165962,1,0,0:0:0:0:
320,192,166120,128,0,166279:0:0:0:0:
192,192,166359,1,0,0:0:0:0:
64,192,166438,1,0,0:0:0:0:
448,192,166438,1,0,0:0:0:0:
320,192,166517,1,0,0:0:0:0:
192,192,166597,1,0,0:0:0:0:
64,192,166755,1,0,0:0:0:0:
320,192,166755,1,0,0:0:0:0:
448,192,166993,1,0,0:0:0:0:
320,192,167073,1,0,0:0:0:0:
192,192,167152,1,0,0:0:0:0:
320,192,167311,1,0,0:0:0:0:
448,192,167311,1,0,0:0:0:0:
64,192,167549,1,0,0:0:0:0:
192,192,167708,1,0,0:0:0:0:
320,192,167787,1,0,0:0:0:0:
448,192,167866,1,0,0:0:0:0:
64,192,167866,1,0,0:0:0:0:
192,192,167946,1,0,0:0:0:0:
320,192,168025,1,0,0:0:0:0:
448,192,168105,1,0,0:0:0:0:
64,192,168105,1,0,0:0:0:0:
320,192,168263,1,0,0:0:0:0:
192,192,168343,1,0,0:0:0:0:
64,192,168501,1,0,0:0:0:0:
320,192,168660,1,0,0:0:0:0:
448,192,168660,1,0,0:0:0:0:
192,192,168819,1,0,0:0:0:0:
64,192,168978,1,0,0:0:0:0:
320,192,168978,1,0,0:0:0:0:
448,192,168978,1,0,0:0:0:0:
192,192,169136,1,0,0:0:0:0:
320,192,169295,1,0,0:0:0:0:
64,192,169454,128,0,169612:0:0:0:0:
448,192,169612,1,0,0:0:0:0:
192,192,169771,1,0,0:0:0:0:
320,192,169930,1,0,0:0:0:0:
448,192,169930,128,0,170247:0:0:0:0:
64,192,171993,128,0,172946:0:0:0:0:
448,192,172946,1,0,0:0:0:0:
192,192,173263,1,0,0:0:0:0:
448,192,173422,1,0,0:0:0:0:
64,192,173581,1,0,0:0:0:0:
320,192,173739,1,0,0:0:0:0:
448,192,173898,1,0,0:0:0:0:
64,192,174057,1,0,0:0:0:0:
192,192,174057,1,0,0:0:0:0:
64,192,198184,1,0,0:0:0:0:
192,192,198184,1,0,0:0:0:0:
448,192,198184,1,0,0:0:0:0:
320,192,198501,1,0,0:0:0:0:
448,192,198501,1,0,0:0:0:0:
64,192,198501,1,0,0:0:0:0:
192,192,198819,1,0,0:0:0:0:
448,192,198978,1,0,0:0:0:0:
64,192,199057,1,0,0:0:0:0:
448,192,199136,1,0,0:0:0:0:
320,192,199136,1,0,0:0:0:0:
320,192,199454,1,0,0:0:0:0:
192,192,199771,1,0,0:0:0:0:
448,192,199771,1,0,0:0:0:0:
64,192,199771,1,0,0:0:0:0:
320,192,200089,1,0,0:0:0:0:
64,192,200247,1,0,0:0:0:0:
448,192,200327,1,0,0:0:0:0:
64,192,200406,1,0,0:0:0:0:
192,192,200406,1,0,0:0:0:0:
320,192,200724,1,0,0:0:0:0:
320,192,201041,1,0,0:0:0:0:
64,192,201041,1,0,0:0:0:0:
448,192,201041,1,0,0:0:0:0:
192,192,201200,1,0,0:0:0:0:
448,192,201359,1,0,0:0:0:0:
64,192,201517,1,0,0:0:0:0:
192,192,201676,1,0,0:0:0:0:
448,192,201676,1,0,0:0:0:0:
320,192,201676,1,0,0:0:0:0:
64,192,201993,1,0,0:0:0:0:
320,192,202152,1,0,0:0:0:0:
192,192,202311,1,0,0:0:0:0:
448,192,202311,1,0,0:0:0:0:
64,192,202311,1,0,0:0:0:0:
320,192,202470,1,0,0:0:0:0:
192,192,202628,1,0,0:0:0:0:
448,192,202787,1,0,0:0:0:0:
64,192,202946,1,0,0:0:0:0:
192,192,202946,1,0,0:0:0:0:
320,192,203105,1,0,0:0:0:0:
64,192,203263,1,0,0:0:0:0:
448,192,203263,1,0,0:0:0:0:
192,192,203263,1,0,0:0:0:0:
320,192,203422,1,0,0:0:0:0:
192,192,203581,1,0,0:0:0:0:
448,192,203581,1,0,0:0:0:0:
64,192,203739,1,0,0:0:0:0:
320,192,203898,1,0,0:0:0:0:
192,192,204057,1,0,0:0:0:0:
448,192,204216,1,0,0:0:0:0:
320,192,204216,1,0,0:0:0:0:
64,192,204374,1,0,0:0:0:0:
192,192,204533,1,0,0:0:0:0:
320,192,204612,1,0,0:0:0:0:
448,192,204692,1,0,0:0:0:0:
64,192,204851,1,0,0:0:0:0:
192,192,204851,1,0,0:0:0:0:
320,192,205009,1,0,0:0:0:0:
192,192,205168,1,0,0:0:0:0:
448,192,205327,1,0,0:0:0:0:
64,192,205485,1,0,0:0:0:0:
320,192,205485,1,0,0:0:0:0:
192,192,205644,1,0,0:0:0:0:
320,192,205803,1,0,0:0:0:0:
448,192,205962,1,0,0:0:0:0:
64,192,206120,1,0,0:0:0:0:
192,192,206120,1,0,0:0:0:0:
320,192,206279,1,0,0:0:0:0:
448,192,206438,1,0,0:0:0:0:
192,192,206517,1,0,0:0:0:0:
64,192,206597,1,0,0:0:0:0:
448,192,206755,1,0,0:0:0:0:
320,192,206755,1,0,0:0:0:0:
192,192,206914,1,0,0:0:0:0:
64,192,206914,1,0,0:0:0:0:
320,192,207073,1,0,0:0:0:0:
192,192,207232,1,0,0:0:0:0:
64,192,207390,1,0,0:0:0:0:
448,192,207549,128,0,208343:0:0:0:0:
64,192,207866,128,0,208343:0:0:0:0:
