osu file format v14

[General]
AudioFilename: audio.mp3
AudioLeadIn: 0
PreviewTime: 194980
Countdown: 0
SampleSet: Soft
StackLeniency: 0.7
Mode: 0
LetterboxInBreaks: 0
WidescreenStoryboard: 0

[Editor]
DistanceSpacing: 1.8
BeatDivisor: 4
GridSize: 32
TimelineZoom: 1

[Metadata]
Title:DORAEMON
TitleUnicode:ドラえもん
Artist:Amatsuki
ArtistUnicode:天月
Creator:xHappy-
Version:Soulmate
Source:映画ドラえもん のび太の宝島
Tags:the Movie: Nobita's Treasure Island Eiga Nobita no Takarajima 星野源 HOSHINO GEN Cover Theme Song fujiko f. fujio 藤子・f・不二雄 p_kung [_lost_] c_o_n_n_e_r conner shockolatte -_frontier_- frontier
BeatmapID:2044725
BeatmapSetID:976896

[Difficulty]
HPDrainRate:7
CircleSize:4
OverallDifficulty:8.7
ApproachRate:9.2
SliderMultiplier:1.82
SliderTickRate:1

[Events]
//Background and Video events
0,0,"67540033_p0.jpg",0,0
//Break Periods
//Storyboard Layer 0 (Background)
//Storyboard Layer 1 (Fail)
//Storyboard Layer 2 (Pass)
//Storyboard Layer 3 (Foreground)
//Storyboard Sound Samples

[TimingPoints]
1574,375,4,2,1,52,1,0
1574,-125,4,2,1,52,0,0
4574,-111.111111111111,4,2,1,62,0,0
12074,-100,4,2,1,62,0,0
13855,-100,4,2,1,5,0,0
13949,-100,4,2,1,62,0,0
14230,-100,4,2,1,5,0,0
14324,-100,4,2,1,62,0,0
16855,-100,4,2,1,5,0,0
16949,-100,4,2,1,62,0,0
17605,-100,4,2,1,5,0,0
17699,-100,4,2,1,62,0,0
17980,-100,4,2,1,5,0,0
18074,-100,4,2,1,62,0,0
19855,-100,4,2,1,5,0,0
19949,-100,4,2,1,62,0,0
20230,-100,4,2,1,5,0,0
20324,-100,4,2,1,62,0,0
22855,-100,4,2,1,5,0,0
22949,-100,4,2,1,62,0,0
23230,-100,4,2,1,5,0,0
23324,-100,4,2,1,62,0,0
24074,-100,4,2,1,67,0,0
25855,-100,4,2,1,5,0,0
25949,-100,4,2,1,67,0,0
26230,-100,4,2,1,5,0,0
26324,-100,4,2,1,67,0,0
28855,-100,4,2,1,5,0,0
28949,-100,4,2,1,67,0,0
29605,-100,4,2,1,5,0,0
29699,-100,4,2,1,67,0,0
29980,-100,4,2,1,5,0,0
30074,-100,4,2,1,67,0,0
31855,-100,4,2,1,5,0,0
31949,-100,4,2,1,67,0,0
32230,-100,4,2,1,5,0,0
32324,-100,4,2,1,67,0,0
34855,-100,4,2,1,5,0,0
34949,-100,4,2,1,67,0,0
35230,-100,4,2,1,5,0,0
35324,-100,4,2,1,67,0,0
37855,-100,4,2,1,5,0,0
37949,-100,4,2,1,67,0,0
38230,-100,4,2,1,5,0,0
38324,-100,4,2,1,67,0,0
39074,-100,4,2,1,62,0,0
39449,-100,4,2,1,42,0,0
39636,-100,4,2,1,44,0,0
39824,-100,4,2,1,46,0,0
40011,-100,4,2,1,48,0,0
40199,-100,4,2,1,50,0,0
40386,-100,4,2,1,52,0,0
40574,-100,4,2,1,54,0,0
40761,-100,4,2,1,56,0,0
40949,-100,4,2,1,58,0,0
41136,-100,4,2,1,60,0,0
41324,-100,4,2,1,62,0,0
41511,-100,4,2,1,64,0,0
41699,-100,4,2,1,66,0,0
41886,-100,4,2,1,68,0,0
42074,-100,4,2,1,70,0,0
42261,-100,4,2,1,62,0,0
45449,-100,4,2,1,42,0,0
45636,-100,4,2,1,44,0,0
45824,-100,4,2,1,46,0,0
46011,-100,4,2,1,48,0,0
46199,-100,4,2,1,50,0,0
46386,-100,4,2,1,52,0,0
46574,-100,4,2,1,54,0,0
46761,-100,4,2,1,56,0,0
46949,-100,4,2,1,58,0,0
47136,-100,4,2,1,60,0,0
47324,-100,4,2,1,62,0,0
47511,-100,4,2,1,64,0,0
47699,-100,4,2,1,66,0,0
47792,-100,4,2,1,67,0,0
47886,-100,4,2,1,68,0,0
47980,-100,4,2,1,69,0,0
48074,-100,4,2,1,70,0,0
48261,-100,4,2,1,62,0,0
48355,-100,4,2,1,5,0,0
48449,-100,4,2,1,62,0,0
51167,-100,4,2,1,48,0,0
51261,-100,4,2,1,50,0,0
51355,-100,4,2,1,52,0,0
51449,-100,4,2,1,54,0,0
51542,-100,4,2,1,56,0,0
51636,-100,4,2,1,58,0,0
51730,-100,4,2,1,60,0,0
51824,-100,4,2,1,62,0,0
52011,-100,4,2,1,57,0,0
52199,-100,4,2,1,62,0,0
52386,-100,4,2,1,67,0,0
52574,-90.9090909090909,4,2,1,72,0,1
58855,-90.9090909090909,4,2,1,5,0,1
58949,-90.9090909090909,4,2,1,72,0,1
64011,-90.9090909090909,4,2,1,72,0,0
64574,-90.9090909090909,4,2,1,72,0,1
70855,-90.9090909090909,4,2,1,5,0,1
70949,-90.9090909090909,4,2,1,72,0,1
76574,-111.111111111111,4,2,1,62,0,0
87074,-100,4,2,1,67,0,0
88855,-100,4,2,1,5,0,0
88949,-100,4,2,1,67,0,0
89230,-100,4,2,1,5,0,0
89324,-100,4,2,1,67,0,0
91855,-100,4,2,1,5,0,0
91949,-100,4,2,1,67,0,0
92605,-100,4,2,1,5,0,0
92699,-100,4,2,1,67,0,0
92980,-100,4,2,1,5,0,0
93074,-100,4,2,1,67,0,0
94855,-100,4,2,1,5,0,0
94949,-100,4,2,1,67,0,0
95230,-100,4,2,1,5,0,0
95324,-100,4,2,1,67,0,0
97855,-100,4,2,1,5,0,0
97949,-100,4,2,1,67,0,0
98230,-100,4,2,1,5,0,0
98324,-100,4,2,1,67,0,0
100855,-100,4,2,1,5,0,0
100949,-100,4,2,1,67,0,0
101230,-100,4,2,1,5,0,0
101324,-100,4,2,1,62,0,0
102449,-100,4,2,1,42,0,0
102636,-100,4,2,1,44,0,0
102824,-100,4,2,1,46,0,0
103011,-100,4,2,1,48,0,0
103199,-100,4,2,1,50,0,0
103386,-100,4,2,1,52,0,0
103574,-100,4,2,1,54,0,0
103761,-100,4,2,1,56,0,0
103949,-100,4,2,1,58,0,0
104136,-100,4,2,1,60,0,0
104324,-100,4,2,1,62,0,0
104511,-100,4,2,1,64,0,0
104699,-100,4,2,1,66,0,0
104886,-100,4,2,1,68,0,0
105074,-100,4,2,1,70,0,0
105261,-100,4,2,1,62,0,0
108449,-100,4,2,1,42,0,0
108636,-100,4,2,1,44,0,0
108824,-100,4,2,1,46,0,0
109011,-100,4,2,1,48,0,0
109199,-100,4,2,1,50,0,0
109386,-100,4,2,1,52,0,0
109574,-100,4,2,1,54,0,0
109761,-100,4,2,1,56,0,0
109949,-100,4,2,1,58,0,0
110136,-100,4,2,1,60,0,0
110324,-100,4,2,1,62,0,0
110511,-100,4,2,1,64,0,0
110699,-100,4,2,1,66,0,0
110792,-100,4,2,1,67,0,0
110886,-100,4,2,1,68,0,0
110980,-100,4,2,1,69,0,0
111074,-100,4,2,1,70,0,0
111261,-100,4,2,1,62,0,0
111355,-100,4,2,1,5,0,0
111449,-100,4,2,1,62,0,0
114167,-100,4,2,1,48,0,0
114261,-100,4,2,1,50,0,0
114355,-100,4,2,1,52,0,0
114449,-100,4,2,1,54,0,0
114542,-100,4,2,1,56,0,0
114636,-100,4,2,1,58,0,0
114730,-100,4,2,1,60,0,0
114824,-100,4,2,1,62,0,0
115011,-100,4,2,1,57,0,0
115199,-100,4,2,1,62,0,0
115386,-100,4,2,1,67,0,0
115574,-90.9090909090909,4,2,1,72,0,1
121855,-90.9090909090909,4,2,1,5,0,1
121949,-90.9090909090909,4,2,1,72,0,1
127011,-90.9090909090909,4,2,1,72,0,0
127574,-90.9090909090909,4,2,1,72,0,1
133855,-90.9090909090909,4,2,1,5,0,1
133949,-90.9090909090909,4,2,1,72,0,1
139574,-111.111111111111,4,2,1,62,0,0
140699,-111.111111111111,4,2,1,42,0,0
141074,-111.111111111111,4,2,1,62,0,0
143699,-111.111111111111,4,2,1,42,0,0
144074,-111.111111111111,4,2,1,62,0,0
146699,-111.111111111111,4,2,1,42,0,0
147074,-111.111111111111,4,2,1,62,0,0
151199,-111.111111111111,4,2,1,42,0,0
151574,-111.111111111111,4,2,1,62,0,0
154199,-111.111111111111,4,2,1,42,0,0
154574,-111.111111111111,4,2,1,62,0,0
157199,-111.111111111111,4,2,1,42,0,0
157574,-111.111111111111,4,2,1,62,0,0
160574,-100,4,2,1,62,0,0
160949,-100,4,2,1,42,0,0
161136,-100,4,2,1,44,0,0
161324,-100,4,2,1,46,0,0
161511,-100,4,2,1,48,0,0
161699,-100,4,2,1,50,0,0
161886,-100,4,2,1,52,0,0
162074,-100,4,2,1,54,0,0
162261,-100,4,2,1,56,0,0
162449,-100,4,2,1,58,0,0
162636,-100,4,2,1,60,0,0
162824,-100,4,2,1,62,0,0
163011,-100,4,2,1,64,0,0
163199,-100,4,2,1,66,0,0
163386,-100,4,2,1,68,0,0
163574,-100,4,2,1,70,0,0
163761,-100,4,2,1,62,0,0
166949,-100,4,2,1,42,0,0
167136,-100,4,2,1,44,0,0
167324,-100,4,2,1,46,0,0
167511,-100,4,2,1,48,0,0
167699,-100,4,2,1,50,0,0
167886,-100,4,2,1,52,0,0
168074,-100,4,2,1,54,0,0
168261,-100,4,2,1,56,0,0
168449,-100,4,2,1,58,0,0
168636,-100,4,2,1,60,0,0
168824,-100,4,2,1,62,0,0
169011,-100,4,2,1,64,0,0
169199,-100,4,2,1,66,0,0
169292,-100,4,2,1,67,0,0
169386,-100,4,2,1,68,0,0
169480,-100,4,2,1,69,0,0
169574,-100,4,2,1,70,0,0
169761,-100,4,2,1,62,0,0
169855,-100,4,2,1,5,0,0
169949,-100,4,2,1,62,0,0
172667,-100,4,2,1,48,0,0
172761,-100,4,2,1,50,0,0
172855,-100,4,2,1,52,0,0
172949,-100,4,2,1,54,0,0
173042,-100,4,2,1,56,0,0
173136,-100,4,2,1,58,0,0
173230,-100,4,2,1,60,0,0
173324,-100,4,2,1,62,0,0
173417,-100,4,2,1,60,0,0
173511,-100,4,2,1,58,0,0
173605,-100,4,2,1,56,0,0
173699,-100,4,2,1,54,0,0
173792,-100,4,2,1,56,0,0
173886,-100,4,2,1,58,0,0
173980,-100,4,2,1,60,0,0
174074,-125,4,2,1,62,0,0
174261,-125,4,2,1,52,0,0
178949,-117.647058823529,4,2,1,52,0,0
180074,-111.111111111111,4,2,1,52,0,0
180261,-111.111111111111,4,2,1,44,0,0
180449,-111.111111111111,4,2,1,56,0,0
180636,-111.111111111111,4,2,1,48,0,0
180824,-111.111111111111,4,2,1,60,0,0
181011,-111.111111111111,4,2,1,52,0,0
181199,-111.111111111111,4,2,1,64,0,0
181386,-111.111111111111,4,2,1,56,0,0
181574,-111.111111111111,4,2,1,68,0,0
181761,-111.111111111111,4,2,1,60,0,0
181949,-111.111111111111,4,2,1,72,0,0
182136,-111.111111111111,4,2,1,64,0,0
182324,-111.111111111111,4,2,1,76,0,0
182511,-111.111111111111,4,2,1,68,0,0
182699,-111.111111111111,4,2,1,80,0,0
182792,-111.111111111111,4,2,1,71,0,0
182886,-111.111111111111,4,2,1,72,0,0
182980,-111.111111111111,4,2,1,73,0,0
183074,-100,4,2,1,74,0,0
183261,-100,4,2,1,67,0,0
192074,-100,4,2,1,44,0,0
192261,-100,4,2,1,46,0,0
192449,-100,4,2,1,48,0,0
192636,-100,4,2,1,50,0,0
192824,-100,4,2,1,52,0,0
193011,-100,4,2,1,54,0,0
193199,-100,4,2,1,56,0,0
193386,-100,4,2,1,58,0,0
193574,-100,4,2,1,60,0,0
193761,-100,4,2,1,62,0,0
193949,-100,4,2,1,64,0,0
194136,-100,4,2,1,66,0,0
194324,-100,4,2,1,68,0,0
194417,-100,4,2,1,69,0,0
194511,-100,4,2,1,70,0,0
194699,-100,4,2,1,62,0,0
194886,-100,4,2,1,57,0,0
195074,-83.3333333333333,4,2,1,82,0,1
201355,-83.3333333333333,4,2,1,5,0,1
201449,-83.3333333333333,4,2,1,82,0,1
206511,-83.3333333333333,4,2,1,82,0,0
207074,-76.9230769230769,4,2,1,92,0,1
213355,-76.9230769230769,4,2,1,5,0,1
213449,-76.9230769230769,4,2,1,92,0,1
225074,-100,4,2,1,72,0,0

[Colours]
Combo1 : 233,178,77
Combo2 : 111,130,0
Combo3 : 58,103,106
Combo4 : 216,72,9

[HitObjects]
37,39,1574,6,0,L|55:261,1,218.4,10|10,0:0|0:0,0:0:0:0:
63,343,2324,1,10,0:0:0:0:
237,327,2699,1,10,0:0:0:0:
415,26,3449,5,10,0:0:0:0:
404,200,3824,1,10,0:0:0:0:
393,374,4199,1,4,3:0:0:0:
255,258,4574,6,0,B|162:256|195:304|93:301,1,163.799995001221,6|0,1:2|0:0,0:0:0:0:
20,257,5136,1,10,0:0:0:0:
58,175,5324,2,0,L|147:168,1,81.8999975006104,10|0,0:0|0:0,0:0:0:0:
229,157,5699,1,10,0:0:0:0:
317,146,5886,6,0,P|275:79|197:72,1,163.799995001221,0|8,1:2|0:0,0:0:0:0:
106,78,6449,2,0,L|17:85,1,81.8999975006104,2|0,1:2|1:0,0:0:0:0:
137,248,6824,2,0,P|146:209|135:159,1,81.8999975006104,10|0,0:0|0:0,0:0:0:0:
56,206,7199,1,8,0:0:0:0:
190,326,7574,5,2,1:2:0:0:
256,266,7761,2,0,B|349:264|311:315|417:312,1,163.799995001221,8|2,0:0|1:2,0:0:0:0:
393,223,8324,2,0,P|368:164|399:71,1,163.799995001221,10|10,0:0|0:0,0:0:0:0:
468,17,8886,1,0,1:2:0:0:
294,66,9261,5,8,0:0:0:0:
213,25,9449,2,0,L|129:30,1,81.8999975006104,2|0,1:2|1:0,0:0:0:0:
0,177,9824,2,0,L|84:182,1,81.8999975006104,10|0,0:2|1:0,0:0:0:0:
171,188,10199,1,8,0:0:0:0:
255,347,10574,5,10,0:0:0:0:
384,109,11136,1,10,0:0:0:0:
332,212,11324,1,10,0:0:0:0:
226,22,11699,1,10,0:0:0:0:
186,11,11792,1,8,0:0:0:0:
146,16,11886,1,8,0:0:0:0:
111,37,11980,1,8,0:0:0:0:
87,70,12074,6,0,L|105:255,1,182,6|8,1:2|0:0,0:0:0:0:
119,340,12636,1,2,1:2:0:0:
280,243,12824,1,2,1:2:0:0:
46,302,13011,1,2,0:0:0:0:
264,331,13199,1,10,0:0:0:0:
104,251,13386,1,2,1:2:0:0:
235,168,13574,6,0,B|311:150|292:192|368:179,1,136.5,2|0,1:2|0:0,0:0:0:0:
442,159,13949,2,0,P|457:99|420:33,1,136.5,10|0,0:0|0:0,0:0:0:0:
346,0,14324,5,2,1:2:0:0:
252,91,14511,1,0,1:2:0:0:
490,223,14699,1,8,0:0:0:0:
490,223,15074,6,0,B|393:216|424:279|310:270,1,182,2|8,1:2|0:0,0:0:0:0:
208,212,15636,1,2,1:2:0:0:
285,54,15824,2,0,P|345:85|352:195,1,182,2|10,1:2|0:0,0:0:0:0:
319,270,16386,1,2,1:2:0:0:
208,212,16574,6,0,P|139:211|90:263,1,136.5,2|0,1:2|0:0,0:0:0:0:
80,332,16949,2,0,P|127:330|169:346,1,91,10|2,0:0|1:2,0:0:0:0:
318,380,17324,2,0,P|384:363|424:308,1,136.5,2|0,1:2|0:0,0:0:0:0:
403,235,17699,2,0,P|382:171|406:108,1,136.5,10|0,0:2|0:0,0:0:0:0:
460,53,18074,6,0,B|403:82|403:82|276:73,1,182,2|8,1:2|0:0,0:0:0:0:
194,65,18636,1,2,1:2:0:0:
225,233,18824,1,2,1:2:0:0:
247,12,19011,1,2,0:0:0:0:
140,169,19199,1,10,0:0:0:0:
302,155,19386,1,2,1:2:0:0:
117,93,19574,6,0,P|74:121|69:201,1,136.5,2|0,1:2|0:0,0:0:0:0:
110,265,19949,2,0,B|188:270|171:223|238:228,1,136.5,10|0,0:0|0:0,0:0:0:0:
313,241,20324,5,2,1:2:0:0:
201,320,20511,1,0,1:0:0:0:
117,93,20699,1,8,0:0:0:0:
117,93,21074,6,0,B|211:91|173:157|280:156,1,182,2|8,1:2|0:0,0:0:0:0:
411,111,21636,1,2,1:2:0:0:
453,269,21824,2,0,P|363:257|296:323,1,182,2|10,1:2|0:0,0:0:0:0:
228,257,22386,1,2,1:2:0:0:
122,310,22574,6,0,P|102:237|135:180,1,136.5,2|0,1:2|0:0,0:0:0:0:
197,151,22949,2,0,L|337:156,1,136.5,10|0,0:2|0:0,0:0:0:0:
410,159,23324,5,2,1:2:0:0:
339,55,23511,1,0,1:0:0:0:
128,186,23699,1,8,0:0:0:0:
256,270,23886,1,0,0:0:0:0:
256,270,23980,1,0,0:0:0:0:
256,270,24074,6,0,B|322:264|322:264|374:278|374:278|441:272,1,182,6|8,1:2|0:0,0:0:0:0:
497,205,24636,1,2,1:2:0:0:
429,54,24824,1,2,1:2:0:0:
274,187,25011,1,2,0:0:0:0:
462,131,25199,1,10,0:0:0:0:
350,16,25386,1,2,1:2:0:0:
217,108,25574,6,0,B|147:105|161:151|86:148,1,136.5,2|0,1:2|0:0,0:0:0:0:
23,108,25949,2,0,P|14:163|69:224,1,136.5,10|0,0:0|0:0,0:0:0:0:
135,249,26324,5,2,1:2:0:0:
248,182,26511,1,0,1:2:0:0:
50,28,26699,1,8,0:0:0:0:
50,28,27074,6,0,L|237:31,1,182,2|8,1:2|0:0,0:0:0:0:
351,74,27636,1,2,1:2:0:0:
506,37,27824,2,0,P|516:111|457:199,1,182,2|10,1:2|0:0,0:0:0:0:
376,234,28386,1,2,1:2:0:0:
264,174,28574,6,0,P|202:167|139:208,1,136.5,2|0,1:2|0:0,0:0:0:0:
78,250,28949,2,0,P|64:203|79:159,1,91,10|2,0:0|1:2,0:0:0:0:
31,15,29324,2,0,B|102:12|93:50|161:48,1,136.5,2|0,1:2|0:0,0:0:0:0:
235,26,29699,2,0,P|300:12|367:26,1,136.5,10|0,0:0|0:0,0:0:0:0:
438,56,30074,6,0,B|457:100|457:100|427:237,1,182,2|8,1:2|0:0,0:0:0:0:
411,320,30636,1,2,1:2:0:0:
293,251,30824,1,2,1:2:0:0:
479,287,31011,1,2,0:0:0:0:
311,346,31199,1,10,0:0:0:0:
282,170,31386,1,2,1:2:0:0:
338,66,31574,6,0,P|372:121|351:205,1,136.5,2|0,1:2|0:0,0:0:0:0:
300,237,31949,2,0,L|161:245,1,136.5,10|0,0:0|0:0,0:0:0:0:
86,252,32324,5,2,1:2:0:0:
24,358,32511,1,0,1:0:0:0:
275,317,32699,1,8,0:0:0:0:
275,317,33074,6,0,P|357:301|380:215,1,182,2|8,1:2|0:0,0:0:0:0:
337,94,33636,1,2,1:2:0:0:
195,18,33824,2,0,P|146:65|183:169,1,182,2|10,1:2|0:0,0:0:0:0:
251,213,34386,1,2,1:2:0:0:
384,292,34574,6,0,B|313:286|332:325|241:319,1,136.5,2|0,1:2|0:0,0:0:0:0:
181,288,34949,2,0,P|142:265|66:310,1,136.5,10|0,0:2|0:0,0:0:0:0:
42,377,35324,5,2,1:2:0:0:
0,251,35511,1,0,1:0:0:0:
252,319,35699,1,8,0:0:0:0:
252,319,36074,6,0,B|303:273|303:273|311:156,1,182,2|8,1:2|0:0,0:0:0:0:
318,31,36636,1,2,1:2:0:0:
157,15,36824,2,0,P|164:73|271:91,1,182,2|10,1:2|0:0,0:0:0:0:
329,23,37386,1,2,1:2:0:0:
448,134,37574,6,0,P|396:162|391:247,1,136.5,2|0,1:2|0:0,0:0:0:0:
404,311,37949,2,0,B|332:318|340:273|274:280,1,136.5,10|0,0:0|0:0,0:0:0:0:
196,285,38324,1,10,0:0:0:0:
150,286,38417,1,8,0:0:0:0:
105,288,38511,1,8,0:0:0:0:
7,168,38699,1,8,0:3:0:0:
64,54,38886,1,4,0:3:0:0:
243,31,39074,6,0,P|287:26|329:44,1,91,6|0,1:2|0:0,0:0:0:0:
391,154,39449,1,8,0:0:0:0:
222,113,39636,1,10,0:0:0:0:
295,258,39824,1,10,0:0:0:0:
347,86,40011,1,8,0:0:0:0:
206,212,40199,1,8,0:0:0:0:
425,235,40386,1,8,0:0:0:0:
148,280,40574,5,10,0:0:0:0:
305,339,40761,1,8,0:0:0:0:
122,373,40949,1,8,0:0:0:0:
287,260,41136,1,10,0:0:0:0:
75,298,41324,1,10,0:0:0:0:
287,363,41511,1,8,0:0:0:0:
45,285,41699,1,8,0:0:0:0:
314,242,41886,1,8,0:0:0:0:
71,102,42074,6,0,L|64:203,1,91,6|0,1:2|0:0,0:0:0:0:
158,309,42449,1,10,0:0:0:0:
203,312,42542,1,8,0:0:0:0:
247,300,42636,1,8,0:0:0:0:
285,276,42730,1,8,0:0:0:0:
314,242,42824,6,0,L|321:141,1,91,6|0,1:2|0:0,0:0:0:0:
439,60,43199,1,10,0:0:0:0:
402,32,43292,1,8,0:0:0:0:
360,16,43386,1,8,0:0:0:0:
315,14,43480,1,8,0:0:0:0:
271,23,43574,6,0,L|170:16,1,91,6|0,1:2|0:0,0:0:0:0:
31,47,43949,1,10,0:0:0:0:
41,91,44042,1,8,0:0:0:0:
66,128,44136,1,8,0:0:0:0:
102,155,44230,1,8,0:0:0:0:
146,166,44324,5,6,1:2:0:0:
18,252,44511,1,8,1:3:0:0:
161,318,44699,2,0,B|193:326|193:326|252:317,1,91,2|4,1:2|1:3,0:0:0:0:
369,222,45074,6,0,B|426:213|426:213|458:221,1,91,6|0,1:2|1:0,0:0:0:0:
426,370,45449,1,8,0:0:0:0:
304,263,45636,1,10,0:0:0:0:
126,332,45824,1,10,0:0:0:0:
363,318,46011,1,8,0:0:0:0:
91,260,46199,1,8,0:0:0:0:
300,369,46386,1,8,0:0:0:0:
120,185,46574,5,10,0:0:0:0:
58,378,46761,1,8,0:0:0:0:
70,118,46949,1,8,0:0:0:0:
203,348,47136,1,10,0:0:0:0:
138,74,47324,1,10,0:0:0:0:
18,308,47511,1,8,0:0:0:0:
73,42,47699,1,8,0:0:0:0:
103,9,47792,1,8,0:0:0:0:
147,1,47886,1,8,0:0:0:0:
187,21,47980,1,8,0:0:0:0:
208,61,48074,6,0,L|198:200,1,136.5,6|0,1:2|0:0,0:0:0:0:
195,242,48449,1,10,0:0:0:0:
413,290,48636,2,0,P|365:216|277:208,1,182,6|2,1:2|1:2,0:0:0:0:
343,384,49199,1,8,0:0:0:0:
282,118,49386,6,0,P|203:155|195:242,1,182,6|2,1:2|1:2,0:0:0:0:
320,294,49949,1,8,0:0:0:0:
200,38,50136,2,0,B|301:7|279:64|379:33,1,182,6|2,1:2|1:2,0:0:0:0:
114,9,50699,2,0,P|110:57|129:96,1,91,10|0,0:2|0:0,0:0:0:0:
163,273,51074,5,8,0:0:0:0:
188,236,51167,1,8,0:0:0:0:
192,191,51261,1,8,0:0:0:0:
173,150,51355,1,8,0:0:0:0:
136,125,51449,1,8,0:0:0:0:
91,121,51542,1,8,0:0:0:0:
51,141,51636,1,8,0:0:0:0:
25,178,51730,1,8,0:0:0:0:
22,223,51824,1,8,0:0:0:0:
75,296,52011,5,2,0:0:0:0:
110,202,52199,1,2,0:0:0:0:
265,265,52386,1,2,0:0:0:0:
359,111,52574,6,0,L|371:215,1,100.10000305481,14|0,0:0|0:0,0:0:0:0:
277,365,52949,2,0,L|265:261,1,100.10000305481,10|0,0:0|0:0,0:0:0:0:
241,86,53324,1,10,0:0:0:0:
209,180,53511,1,2,1:2:0:0:
359,111,53699,1,10,0:0:0:0:
159,108,53886,1,2,1:2:0:0:
385,190,54074,2,0,P|441:115|391:34,1,200.200006109619,10|8,0:0|0:0,0:0:0:0:
78,129,54824,5,10,0:0:0:0:
103,29,55011,1,2,1:2:0:0:
0,89,55199,1,10,0:0:0:0:
198,75,55386,1,2,1:2:0:0:
78,129,55574,6,0,L|68:237,1,100.10000305481,10|0,0:0|0:0,0:0:0:0:
201,351,55949,2,0,L|191:251,1,100.10000305481,10|0,0:0|0:0,0:0:0:0:
180,151,56324,1,10,0:0:0:0:
269,194,56511,1,2,1:2:0:0:
254,69,56699,1,10,0:0:0:0:
191,251,56886,1,2,1:2:0:0:
356,275,57074,6,0,P|387:190|333:100,2,200.200006109619,10|10|10,0:0|0:0|0:0,0:0:0:0:
267,320,58011,1,0,1:2:0:0:
191,251,58199,2,0,P|130:252|91:270,1,100.10000305481,10|0,0:0|1:2,0:0:0:0:
42,110,58574,6,0,B|121:104|106:153|192:149,1,150.150004582214,10|0,0:0|0:0,0:0:0:0:
258,119,58949,2,0,P|307:108|358:119,1,100.10000305481,8|0,0:0|0:0,0:0:0:0:
361,278,59324,2,0,P|325:243|306:197,1,100.10000305481,10|0,0:0|1:2,0:0:0:0:
458,146,59699,1,8,0:0:0:0:
510,296,59886,6,0,P|475:331|429:350,1,100.10000305481,2|8,1:2|0:2,0:0:0:0:
306,197,60261,2,0,L|316:93,1,100.10000305481,2|8,0:2|0:2,0:0:0:0:
130,19,60636,2,0,L|140:123,1,100.10000305481,2|8,0:2|0:0,0:0:0:0:
152,218,61011,1,2,1:2:0:0:
63,171,61199,1,10,0:0:0:0:
231,168,61386,1,2,1:2:0:0:
75,261,61574,5,10,0:0:0:0:
50,77,61761,1,10,0:0:0:0:
147,296,61949,1,10,0:0:0:0:
211,60,62136,1,10,0:0:0:0:
277,306,62324,5,10,0:0:0:0:
63,171,62511,1,10,0:0:0:0:
357,214,62699,1,10,0:0:0:0:
79,337,62886,1,10,0:0:0:0:
128,36,63074,5,14,0:0:0:0:
422,92,63449,1,14,0:0:0:0:
255,342,63824,1,8,0:0:0:0:
255,342,63917,1,8,0:0:0:0:
255,342,64011,1,10,0:0:0:0:
164,297,64199,1,2,1:2:0:0:
327,285,64386,1,2,1:2:0:0:
165,203,64574,6,0,L|64:197,1,100.10000305481,14|0,0:2|0:0,0:0:0:0:
156,40,64949,2,0,L|255:34,1,100.10000305481,10|0,0:2|0:0,0:0:0:0:
436,21,65324,1,10,0:0:0:0:
448,120,65511,1,2,1:2:0:0:
341,4,65699,1,10,0:0:0:0:
512,67,65886,1,2,1:2:0:0:
291,117,66074,2,0,B|187:109|208:176|93:168,1,200.200006109619,10|8,0:0|0:0,0:0:0:0:
279,261,66824,5,10,0:2:0:0:
349,190,67011,1,2,1:2:0:0:
372,321,67199,1,10,0:0:0:0:
182,282,67386,1,2,1:2:0:0:
274,147,67574,6,0,P|314:111|358:108,1,100.10000305481,10|0,0:0|0:0,0:0:0:0:
437,270,67949,2,0,P|397:306|353:309,1,100.10000305481,10|0,0:0|0:0,0:0:0:0:
206,202,68324,1,10,0:0:0:0:
270,278,68511,1,2,1:2:0:0:
234,119,68699,1,10,0:0:0:0:
164,302,68886,1,2,1:2:0:0:
79,164,69074,6,0,P|119:104|236:121,2,200.200006109619,10|10|10,0:0|0:0|0:0,0:0:0:0:
72,263,70011,1,0,1:2:0:0:
164,302,70199,2,0,L|264:294,1,100.10000305481,10|0,0:0|1:2,0:0:0:0:
404,213,70574,6,0,P|401:151|348:83,1,150.150004582214,10|0,0:0|0:0,0:0:0:0:
275,52,70949,2,0,L|171:60,1,100.10000305481,8|0,0:0|0:0,0:0:0:0:
37,134,71324,2,0,L|141:142,1,100.10000305481,10|0,0:0|1:2,0:0:0:0:
284,204,71699,1,8,0:0:0:0:
189,333,71886,6,0,P|161:285|160:241,1,100.10000305481,2|8,1:2|0:0,0:0:0:0:
207,41,72261,2,0,P|235:89|236:133,1,100.10000305481,2|8,0:2|0:0,0:0:0:0:
45,140,72636,2,0,P|93:112|137:111,1,100.10000305481,2|8,0:2|0:0,0:0:0:0:
236,132,73011,1,2,1:2:0:0:
158,195,73199,1,10,0:0:0:0:
207,41,73386,1,2,1:2:0:0:
254,227,73574,5,10,0:0:0:0:
136,110,73761,1,8,0:0:0:0:
83,321,73949,5,10,0:0:0:0:
236,132,74136,1,10,0:0:0:0:
402,323,74324,5,10,0:0:0:0:
154,232,74511,1,10,0:0:0:0:
438,187,74699,5,10,0:0:0:0:
191,341,74886,1,10,0:0:0:0:
97,55,75074,5,14,0:0:0:0:
1,230,75449,1,14,0:0:0:0:
135,378,75824,1,8,0:0:0:0:
135,378,75917,1,8,0:0:0:0:
135,378,76011,1,10,0:0:0:0:
221,327,76199,1,2,1:2:0:0:
375,378,76386,1,2,1:2:0:0:
470,227,76574,6,0,L|475:62,1,163.799995001221,6|0,1:2|0:0,0:0:0:0:
402,24,77136,1,10,0:0:0:0:
329,62,77324,2,0,P|286:64|249:42,1,81.8999975006104,10|0,0:0|0:0,0:0:0:0:
181,4,77699,1,10,0:0:0:0:
107,39,77886,6,0,L|100:217,1,163.799995001221,0|8,1:2|0:0,0:0:0:0:
48,267,78449,2,0,P|85:284|131:280,1,81.8999975006104,2|0,1:2|1:0,0:0:0:0:
297,185,78824,2,0,P|260:168|214:172,1,81.8999975006104,10|2,0:2|3:2,0:0:0:0:
244,248,79199,1,10,3:2:0:0:
277,87,79574,5,2,1:2:0:0:
339,33,79761,2,0,B|427:23|410:72|498:64,1,163.799995001221,8|2,0:0|1:2,0:0:0:0:
511,145,80324,2,0,P|512:211|451:290,1,163.799995001221,10|10,0:0|0:0,0:0:0:0:
380,320,80886,1,0,1:0:0:0:
256,212,81261,5,8,0:0:0:0:
325,166,81449,2,0,P|365:166|403:181,1,81.8999975006104,2|0,1:2|1:0,0:0:0:0:
239,293,81824,2,0,P|199:293|161:278,1,81.8999975006104,10|0,3:2|1:2,0:0:0:0:
119,207,82199,1,10,3:2:0:0:
224,82,82574,5,2,1:2:0:0:
162,27,82761,2,0,P|80:28|28:87,1,163.799995001221,8|2,0:0|1:2,0:0:0:0:
16,167,83324,2,0,B|99:164|80:223|165:220,1,163.799995001221,10|10,0:0|0:0,0:0:0:0:
243,194,83886,1,0,1:2:0:0:
301,346,84261,5,8,0:0:0:0:
379,321,84449,2,0,L|372:238,1,81.8999975006104,2|0,1:2|1:0,0:0:0:0:
502,91,84824,2,0,L|495:174,1,81.8999975006104,10|0,3:2|1:0,0:0:0:0:
486,254,85199,1,10,3:2:0:0:
361,147,85574,5,10,0:0:0:0:
148,23,86136,1,10,0:0:0:0:
262,13,86324,1,10,0:0:0:0:
55,158,86699,1,10,0:0:0:0:
86,183,86792,1,8,0:0:0:0:
125,196,86886,1,8,0:0:0:0:
166,197,86980,1,8,0:0:0:0:
204,183,87074,6,0,P|269:167|347:243,1,182,6|8,1:2|0:0,0:0:0:0:
356,330,87636,1,2,1:2:0:0:
170,273,87824,1,2,1:2:0:0:
416,278,88011,1,2,0:0:0:0:
203,343,88199,1,10,0:2:0:0:
292,173,88386,1,2,1:2:0:0:
215,34,88574,6,0,P|154:40|108:107,1,136.5,2|0,1:2|0:0,0:0:0:0:
30,117,88949,2,0,P|91:123|137:190,1,136.5,10|0,0:2|0:0,0:0:0:0:
149,260,89324,5,2,1:2:0:0:
28,226,89511,1,0,1:0:0:0:
290,204,89699,1,8,0:0:0:0:
290,204,90074,6,0,B|336:225|336:225|469:212,1,182,2|8,1:2|0:0,0:0:0:0:
512,91,90636,1,2,1:2:0:0:
359,22,90824,2,0,B|298:24|298:24|256:54|256:54|187:56,1,182,2|10,1:2|0:0,0:0:0:0:
96,50,91386,1,2,1:2:0:0:
15,154,91574,6,0,P|67:184|150:170,1,136.5,2|0,1:2|0:0,0:0:0:0:
215,153,91949,2,0,P|212:203|190:235,1,91,10|2,0:0|1:2,0:0:0:0:
51,306,92324,2,0,B|128:300|110:353|194:348,1,136.5,2|0,1:2|0:0,0:0:0:0:
249,320,92699,2,0,P|312:298|375:320,1,136.5,10|0,0:0|0:0,0:0:0:0:
435,369,93074,6,0,B|400:328|400:328|404:200,1,182,2|8,1:2|0:0,0:0:0:0:
410,108,93636,1,2,1:2:0:0:
260,159,93824,1,2,1:2:0:0:
484,155,94011,1,2,0:0:0:0:
350,14,94199,1,10,0:2:0:0:
210,91,94386,1,2,1:2:0:0:
75,6,94574,6,0,B|55:39|55:39|60:140,1,136.5,2|0,1:2|0:0,0:0:0:0:
26,206,94949,2,0,P|72:155|139:156,1,136.5,10|0,0:0|0:0,0:0:0:0:
209,180,95324,5,2,1:2:0:0:
346,187,95511,1,0,1:0:0:0:
107,232,95699,1,8,0:0:0:0:
107,232,96074,6,0,B|209:229|183:283|278:279,1,182,2|8,1:2|0:0,0:0:0:0:
409,256,96636,1,2,1:2:0:0:
366,96,96824,2,0,P|278:93|237:17,1,182,2|10,1:2|0:0,0:0:0:0:
328,14,97386,1,2,1:2:0:0:
163,33,97574,6,0,B|91:34|117:74|31:73,1,136.5,2|0,1:2|0:0,0:0:0:0:
22,149,97949,2,0,P|83:152|130:206,1,136.5,10|0,0:0|0:0,0:0:0:0:
152,280,98324,5,2,1:2:0:0:
26,333,98511,1,0,1:2:0:0:
35,73,98699,1,8,0:0:0:0:
35,73,99074,6,0,L|222:80,1,182,2|8,1:2|0:0,0:0:0:0:
346,83,99636,1,2,1:2:0:0:
496,19,99824,2,0,P|513:98|477:193,1,182,2|10,1:2|0:0,0:0:0:0:
424,263,100386,1,2,1:2:0:0:
322,179,100574,6,0,P|257:171|208:223,1,136.5,2|0,1:2|0:0,0:0:0:0:
139,253,100949,2,0,P|189:294|256:282,1,136.5,10|0,0:2|0:0,0:0:0:0:
324,258,101324,1,10,0:0:0:0:
369,263,101417,1,8,0:0:0:0:
414,268,101511,1,8,0:0:0:0:
505,141,101699,1,8,0:3:0:0:
497,267,101886,1,4,0:3:0:0:
417,115,102074,6,0,L|326:105,1,91,6|0,1:2|0:0,0:0:0:0:
165,89,102449,1,8,0:0:0:0:
301,183,102636,1,10,0:0:0:0:
134,220,102824,1,10,0:0:0:0:
250,80,103011,1,8,0:0:0:0:
203,276,103199,1,8,0:0:0:0:
101,77,103386,1,8,0:0:0:0:
330,38,103574,5,10,0:0:0:0:
204,143,103761,1,8,0:0:0:0:
416,87,103949,1,8,0:0:0:0:
237,51,104136,1,10,0:0:0:0:
363,217,104324,1,10,0:0:0:0:
330,38,104511,1,8,0:0:0:0:
222,247,104699,1,8,0:0:0:0:
416,87,104886,1,8,0:0:0:0:
133,57,105074,6,0,L|42:63,1,91,4|0,1:2|0:0,0:0:0:0:
102,197,105449,1,10,0:0:0:0:
147,200,105542,1,8,0:0:0:0:
192,203,105636,1,8,0:0:0:0:
238,206,105730,1,8,0:0:0:0:
283,209,105824,6,0,L|374:214,1,91,6|0,1:2|0:0,0:0:0:0:
464,328,106199,1,10,0:0:0:0:
419,332,106292,1,8,0:0:0:0:
374,335,106386,1,8,0:0:0:0:
328,338,106480,1,8,0:0:0:0:
283,340,106574,6,0,L|192:345,1,91,6|0,1:2|0:0,0:0:0:0:
46,350,106949,1,10,0:0:0:0:
48,304,107042,1,8,0:0:0:0:
50,259,107136,1,8,0:0:0:0:
52,213,107230,1,8,0:0:0:0:
54,168,107324,5,6,1:2:0:0:
158,54,107511,1,8,1:3:0:0:
296,124,107699,2,0,L|389:129,1,91,2|4,1:2|1:3,0:0:0:0:
511,221,108074,6,0,L|418:226,1,91,6|0,1:2|1:0,0:0:0:0:
265,233,108449,1,8,0:0:0:0:
162,100,108636,1,10,0:0:0:0:
187,293,108824,1,10,0:0:0:0:
309,101,109011,1,8,0:0:0:0:
56,150,109199,1,8,0:0:0:0:
265,233,109386,1,8,0:0:0:0:
36,346,109574,5,10,0:0:0:0:
56,150,109761,1,8,0:0:0:0:
178,379,109949,1,8,0:0:0:0:
236,122,110136,1,10,0:0:0:0:
453,316,110324,1,10,0:0:0:0:
199,287,110511,1,8,0:0:0:0:
296,46,110699,1,8,0:0:0:0:
322,82,110792,1,8,0:0:0:0:
330,127,110886,1,8,0:0:0:0:
317,170,110980,1,8,0:0:0:0:
287,204,111074,6,0,P|244:219|159:191,1,136.5,4|0,1:2|0:0,0:0:0:0:
121,165,111449,1,10,0:0:0:0:
329,126,111636,2,0,B|227:136|256:73|158:81,1,182,6|2,1:2|1:2,0:0:0:0:
416,100,112199,1,8,0:0:0:0:
172,179,112386,6,0,P|106:165|61:68,1,182,6|2,1:2|1:2,0:0:0:0:
243,230,112949,1,8,0:0:0:0:
395,18,113136,2,0,B|260:26|260:26|216:9,1,182,6|2,1:2|1:2,0:0:0:0:
486,8,113699,2,0,P|481:56|454:89,1,91,10|0,0:0|0:0,0:0:0:0:
285,157,114074,5,8,0:0:0:0:
328,143,114167,1,8,0:0:0:0:
372,151,114261,1,8,0:0:0:0:
408,178,114355,1,8,0:0:0:0:
428,219,114449,1,8,0:0:0:0:
427,264,114542,1,8,0:0:0:0:
406,303,114636,1,8,0:0:0:0:
369,329,114730,1,8,0:0:0:0:
324,335,114824,1,8,0:0:0:0:
253,279,115011,5,2,0:0:0:0:
335,238,115199,1,2,0:0:0:0:
167,197,115386,1,2,0:0:0:0:
255,39,115574,6,0,L|243:139,1,100.10000305481,14|0,0:0|0:0,0:0:0:0:
87,229,115949,2,0,L|75:129,1,100.10000305481,10|0,0:0|0:0,0:0:0:0:
173,281,116324,1,10,0:0:0:0:
91,338,116511,1,2,1:2:0:0:
167,197,116699,1,10,0:0:0:0:
269,362,116886,1,2,1:2:0:0:
222,135,117074,2,0,P|149:115|84:207,1,200.200006109619,10|8,0:0|0:0,0:0:0:0:
181,380,117824,5,10,0:0:0:0:
167,281,118011,1,2,1:2:0:0:
269,362,118199,1,10,0:2:0:0:
91,338,118386,1,2,1:2:0:0:
248,284,118574,6,0,L|344:252,1,100.10000305481,10|0,0:0|0:0,0:0:0:0:
512,188,118949,2,0,L|416:156,1,100.10000305481,10|0,0:0|0:0,0:0:0:0:
248,91,119324,1,10,0:0:0:0:
172,156,119511,1,2,1:2:0:0:
191,25,119699,1,10,0:0:0:0:
233,216,119886,1,2,1:2:0:0:
334,82,120074,6,0,B|439:77|414:142|522:137,2,200.200006109619,10|10|10,0:0|0:0|0:0,0:0:0:0:
249,135,121011,1,0,1:2:0:0:
163,82,121199,2,0,P|112:86|72:113,1,100.10000305481,10|0,0:0|1:0,0:0:0:0:
39,271,121574,6,0,B|90:266|90:266|137:281|137:281|187:276,1,150.150004582214,10|0,0:0|0:0,0:0:0:0:
264,258,121949,2,0,B|301:253|301:253|367:272,1,100.10000305481,8|0,0:0|0:0,0:0:0:0:
511,328,122324,2,0,B|481:305|481:305|450:250,1,100.10000305481,10|0,0:0|1:2,0:0:0:0:
378,107,122699,1,8,0:0:0:0:
219,125,122886,6,0,B|172:131|172:131|124:109,1,100.10000305481,2|8,1:2|0:2,0:0:0:0:
192,286,123261,2,0,B|214:244|214:244|259:217,1,100.10000305481,2|8,0:2|0:2,0:0:0:0:
61,180,123636,2,0,B|82:222|82:222|78:274,1,100.10000305481,2|8,0:2|0:2,0:0:0:0:
29,363,124011,1,2,1:2:0:0:
127,345,124199,1,10,0:0:0:0:
0,237,124386,1,2,1:2:0:0:
107,75,124574,5,10,0:0:0:0:
298,132,124761,1,10,0:0:0:0:
80,190,124949,1,10,0:0:0:0:
288,49,125136,1,10,0:0:0:0:
478,226,125324,5,10,0:0:0:0:
218,180,125511,1,10,0:0:0:0:
440,355,125699,1,10,0:0:0:0:
369,77,125886,1,10,0:0:0:0:
154,283,126074,5,14,0:0:0:0:
445,210,126449,1,14,0:0:0:0:
224,5,126824,1,8,0:0:0:0:
224,5,126917,1,8,0:0:0:0:
224,5,127011,1,10,0:0:0:0:
126,29,127199,1,2,1:2:0:0:
284,63,127386,1,2,1:2:0:0:
132,122,127574,6,0,L|31:132,1,100.10000305481,14|0,0:0|0:0,0:0:0:0:
122,288,127949,2,0,L|223:298,1,100.10000305481,10|0,0:0|0:0,0:0:0:0:
401,310,128324,1,10,0:2:0:0:
339,232,128511,1,2,1:2:0:0:
310,384,128699,1,10,0:2:0:0:
487,307,128886,1,2,1:2:0:0:
345,133,129074,2,0,L|141:154,1,200.200006109619,10|8,0:0|0:0,0:0:0:0:
46,327,129824,5,10,0:2:0:0:
101,243,130011,1,2,1:2:0:0:
133,366,130199,1,10,0:2:0:0:
18,248,130386,1,2,1:2:0:0:
171,288,130574,6,0,L|276:277,1,100.10000305481,10|0,0:0|0:0,0:0:0:0:
367,124,130949,2,0,L|262:113,1,100.10000305481,10|0,0:0|0:0,0:0:0:0:
87,97,131324,1,10,0:2:0:0:
175,146,131511,1,2,1:2:0:0:
67,232,131699,1,10,0:2:0:0:
234,208,131886,1,2,1:2:0:0:
88,324,132074,6,0,P|138:373|250:333,2,200.200006109619,10|10|10,0:0|0:0|0:0,0:0:0:0:
6,265,133011,1,0,1:0:0:0:
49,173,133199,2,0,L|167:169,1,100.10000305481,10|0,0:0|1:0,0:0:0:0:
280,78,133574,6,0,P|347:69|418:106,1,150.150004582214,10|0,0:0|0:0,0:0:0:0:
455,177,133949,2,0,L|452:278,1,100.10000305481,8|0,0:0|0:0,0:0:0:0:
331,383,134324,2,0,L|328:282,1,100.10000305481,10|0,0:0|1:0,0:0:0:0:
212,170,134699,1,8,0:0:0:0:
59,218,134886,6,0,P|73:266|112:305,1,100.10000305481,2|8,1:2|0:0,0:0:0:0:
222,150,135261,2,0,P|174:133|120:143,1,100.10000305481,2|8,0:2|0:0,0:0:0:0:
222,317,135636,2,0,P|262:287|285:237,1,100.10000305481,2|8,0:2|0:0,0:0:0:0:
300,144,136011,1,2,1:2:0:0:
204,186,136199,1,10,0:0:0:0:
368,211,136386,1,2,1:2:0:0:
308,30,136574,5,10,0:0:0:0:
162,103,136761,1,10,0:0:0:0:
368,211,136949,5,10,0:0:0:0:
211,22,137136,1,10,0:0:0:0:
291,265,137324,5,10,0:0:0:0:
405,36,137511,1,10,0:0:0:0:
467,308,137699,5,10,0:0:0:0:
308,30,137886,1,10,0:0:0:0:
209,314,138074,5,14,0:0:0:0:
444,127,138449,1,14,0:0:0:0:
144,148,138824,1,8,0:0:0:0:
144,148,138917,1,8,0:0:0:0:
144,148,139011,1,10,0:0:0:0:
219,214,139199,1,2,1:2:0:0:
61,229,139386,1,2,1:2:0:0:
217,322,139574,6,0,L|385:310,1,163.799995001221,6|0,1:2|0:0,0:0:0:0:
426,232,140136,1,2,1:2:0:0:
370,160,140324,2,0,L|283:167,1,81.8999975006104,10|0,0:2|0:0,0:0:0:0:
216,221,140699,2,0,L|129:214,1,81.8999975006104,6|0,1:2|0:0,0:0:0:0:
57,167,141074,2,0,P|44:208|52:254,2,81.8999975006104,2|0|0,0:0|0:0|1:0,0:0:0:0:
139,129,141636,1,0,0:0:0:0:
228,141,141824,2,0,P|266:158|277:275,1,163.799995001221,10|0,0:0|0:0,0:0:0:0:
120,348,142574,6,0,P|72:321|48:216,1,163.799995001221,2|0,1:2|0:2,0:0:0:0:
116,164,143136,1,2,1:2:0:0:
203,185,143324,2,0,B|291:178|269:234|356:228,1,163.799995001221,10|6,0:0|1:2,0:0:0:0:
440,69,144074,2,0,L|357:75,1,81.8999975006104,2|0,0:2|1:0,0:0:0:0:
272,101,144449,2,0,L|189:95,1,81.8999975006104,8|0,0:3|1:0,0:0:0:0:
124,32,144824,1,10,0:0:0:0:
57,92,145011,1,0,1:0:0:0:
189,184,145199,1,0,1:0:0:0:
288,33,145574,6,0,L|296:115,1,81.8999975006104,2|8,1:2|0:0,0:0:0:0:
386,121,145949,2,0,L|378:203,1,81.8999975006104,2|2,0:0|1:2,0:0:0:0:
467,217,146324,2,0,P|425:282|339:286,1,163.799995001221,10|6,0:0|1:2,0:0:0:0:
234,145,147074,2,0,P|162:129|91:181,1,163.799995001221,2|0,0:0|0:0,0:0:0:0:
22,234,147636,1,4,0:3:0:0:
78,304,147824,2,0,B|172:304|135:361|231:361,1,163.799995001221,10|0,0:0|0:0,0:0:0:0:
361,240,148574,5,10,0:0:0:0:
279,375,148761,1,10,0:0:0:0:
291,182,148949,1,10,0:0:0:0:
468,324,149136,1,10,0:0:0:0:
202,324,149324,5,10,0:0:0:0:
466,225,149699,1,2,1:2:0:0:
332,104,150074,6,0,B|275:96|275:96|234:106|234:106|171:98,1,163.799995001221,6|0,1:2|0:0,0:0:0:0:
98,43,150636,1,0,1:0:0:0:
24,95,150824,2,0,L|21:185,1,81.8999975006104,10|0,0:0|0:0,0:0:0:0:
92,231,151199,2,0,L|182:234,1,81.8999975006104,6|0,1:2|3:0,0:0:0:0:
255,196,151574,2,0,L|345:193,2,81.8999975006104,2|0|0,0:0|0:0|1:0,0:0:0:0:
181,143,152136,1,0,0:0:0:0:
225,64,152324,2,0,B|315:56|286:114|381:107,1,163.799995001221,10|0,0:0|0:0,0:0:0:0:
433,279,153074,6,0,L|269:282,1,163.799995001221,2|0,1:2|0:0,0:0:0:0:
190,324,153636,1,2,1:2:0:0:
110,281,153824,2,0,P|95:221|161:145,1,163.799995001221,10|6,0:0|1:2,0:0:0:0:
190,324,154574,2,0,P|164:354|124:368,1,81.8999975006104,2|0,0:0|1:0,0:0:0:0:
41,333,154949,2,0,P|28:295|36:246,1,81.8999975006104,8|0,0:3|1:0,0:0:0:0:
105,200,155324,1,10,0:0:0:0:
46,132,155511,1,0,1:0:0:0:
205,155,155699,1,0,1:0:0:0:
353,256,156074,6,0,L|256:265,1,81.8999975006104,2|0,1:2|0:0,0:0:0:0:
201,320,156449,2,0,L|104:311,1,81.8999975006104,2|2,0:2|1:2,0:0:0:0:
51,371,156824,2,0,P|90:338|87:231,1,163.799995001221,10|6,0:0|1:2,0:0:0:0:
23,64,157574,2,0,P|72:99|174:79,1,163.799995001221,2|0,0:0|0:3,0:0:0:0:
255,122,158136,1,4,0:3:0:0:
294,40,158324,2,0,P|340:87|327:178,1,163.799995001221,10|0,0:0|0:0,0:0:0:0:
157,241,159074,6,0,L|170:349,2,109.199996667481,10|8|8,0:0|0:0|0:0,0:0:0:0:
58,171,159824,2,0,L|39:341,1,163.799995001221,10|2,0:0|1:2,0:0:0:0:
181,211,160574,6,0,L|271:194,1,91,6|0,1:2|0:0,0:0:0:0:
423,169,160949,1,8,0:0:0:0:
268,113,161136,1,10,0:0:0:0:
364,277,161324,1,10,0:0:0:0:
364,78,161511,1,8,0:0:0:0:
286,270,161699,1,8,0:0:0:0:
506,220,161886,1,8,0:0:0:0:
270,194,162074,5,10,0:0:0:0:
449,279,162261,1,8,0:0:0:0:
198,232,162449,1,8,0:0:0:0:
433,187,162636,1,10,0:0:0:0:
135,180,162824,1,10,0:0:0:0:
380,340,163011,1,8,0:0:0:0:
208,108,163199,1,8,0:0:0:0:
148,384,163386,1,8,0:0:0:0:
456,355,163574,6,0,P|451:310|423:273,1,91,6|0,1:2|0:0,0:0:0:0:
271,256,163949,1,10,0:0:0:0:
226,264,164042,1,8,0:0:0:0:
183,252,164136,1,8,0:0:0:0:
150,221,164230,1,8,0:0:0:0:
135,178,164324,6,0,P|140:133|168:96,1,91,6|0,1:2|0:0,0:0:0:0:
321,84,164699,1,10,0:0:0:0:
361,104,164792,1,8,0:0:0:0:
405,111,164886,1,8,0:0:0:0:
450,104,164980,1,8,0:0:0:0:
491,84,165074,6,0,P|506:121|501:174,1,91,6|0,1:2|0:0,0:0:0:0:
466,322,165449,1,10,0:0:0:0:
421,311,165542,1,8,0:0:0:0:
376,312,165636,1,8,0:0:0:0:
332,324,165730,1,8,0:0:0:0:
293,348,165824,5,6,1:2:0:0:
157,275,166011,1,8,1:3:0:0:
20,348,166199,2,0,L|15:246,1,91,2|4,1:2|1:3,0:0:0:0:
94,123,166574,6,0,L|89:225,1,91,6|0,1:2|1:0,0:0:0:0:
151,356,166949,1,8,0:0:0:0:
256,191,167136,1,10,0:0:0:0:
417,348,167324,1,10,0:0:0:0:
202,270,167511,1,8,0:0:0:0:
449,193,167699,1,8,0:0:0:0:
289,350,167886,1,8,0:0:0:0:
335,96,168074,5,10,0:0:0:0:
350,294,168261,1,8,0:0:0:0:
248,57,168449,1,8,0:0:0:0:
464,205,168636,1,10,0:0:0:0:
180,117,168824,1,10,0:0:0:0:
440,109,169011,1,8,0:0:0:0:
176,41,169199,1,8,0:0:0:0:
133,55,169292,1,8,0:0:0:0:
106,91,169386,1,8,0:0:0:0:
104,136,169480,1,8,0:0:0:0:
127,174,169574,6,0,P|146:211|130:302,1,136.5,6|0,1:2|0:0,0:0:0:0:
110,344,169949,1,10,0:0:0:0:
372,337,170136,2,0,B|274:323|297:381|197:367,1,182,6|2,1:2|1:2,0:0:0:0:
463,348,170699,1,8,0:0:0:0:
224,271,170886,6,0,B|125:285|148:227|48:241,1,182,6|2,1:2|1:2,0:0:0:0:
196,366,171449,1,8,0:0:0:0:
211,85,171636,2,0,P|130:122|50:86,1,182,6|2,1:2|1:2,0:0:0:0:
276,21,172199,2,0,P|301:68|299:112,1,91,10|0,0:0|0:0,0:0:0:0:
411,249,172574,5,8,0:0:0:0:
409,204,172667,1,8,0:0:0:0:
383,167,172761,1,8,0:0:0:0:
341,152,172855,1,8,0:0:0:0:
297,163,172949,1,8,0:0:0:0:
267,196,173042,1,8,0:0:0:0:
261,240,173136,1,8,0:0:0:0:
280,281,173230,1,8,0:0:0:0:
311,313,173324,6,0,L|361:311,3,45.5,8|8|8|8,0:3|0:3|0:3|0:3,0:0:0:0:
411,249,173699,2,0,L|461:251,3,45.5,4|4|4|4,0:3|0:3|0:3|0:3,0:0:0:0:
512,326,174074,6,0,P|469:249|512:61,1,291.2,6|0,1:2|0:0,0:0:0:0:
340,32,175199,1,2,0:0:0:0:
257,59,175386,1,2,0:0:0:0:
173,32,175574,2,0,P|73:42|16:137,1,218.4,0|0,1:0|1:0,0:0:0:0:
19,157,176230,1,0,1:0:0:0:
22,178,176324,1,0,1:0:0:0:
39,351,176699,2,0,L|113:345,1,72.8,2|0,0:0|1:0,0:0:0:0:
198,335,177074,5,2,1:2:0:0:
38,263,177449,1,2,0:0:0:0:
198,193,177824,1,2,0:0:0:0:
38,122,178199,1,2,0:0:0:0:
75,43,178386,1,2,0:0:0:0:
162,44,178574,1,2,1:2:0:0:
97,206,178949,6,0,L|141:179,2,51.5666676502228,2|0|0,0:0|0:0|0:0,0:0:0:0:
223,325,179324,2,0,L|212:274,2,51.5666676502228,2|0|0,0:0|0:0|0:0,0:0:0:0:
367,228,179699,2,0,L|319:210,2,51.5666676502228,2|0|0,0:0|0:0|0:0,0:0:0:0:
344,49,180074,5,10,0:0:0:0:
252,179,180261,1,8,0:0:0:0:
201,21,180449,1,10,0:0:0:0:
334,136,180636,1,8,0:0:0:0:
146,103,180824,1,10,0:0:0:0:
344,49,181011,1,8,0:0:0:0:
123,30,181199,1,10,0:0:0:0:
334,136,181386,1,8,0:0:0:0:
104,174,181574,5,10,0:0:0:0:
201,21,181761,1,8,0:0:0:0:
229,214,181949,1,10,0:0:0:0:
54,97,182136,1,8,0:0:0:0:
127,309,182324,1,10,0:0:0:0:
297,145,182511,1,8,0:0:0:0:
103,12,182699,1,10,0:0:0:0:
63,19,182792,1,8,0:0:0:0:
32,45,182886,1,8,0:0:0:0:
19,83,182980,1,8,0:0:0:0:
27,123,183074,6,0,L|40:214,1,91,6|0,1:2|0:0,0:0:0:0:
127,309,183449,2,0,L|140:218,1,91,8|0,0:2|0:0,0:0:0:0:
225,123,183824,2,0,L|238:214,1,91,8|0,0:2|1:0,0:0:0:0:
256,339,184199,1,10,0:0:0:0:
373,289,184386,1,2,1:2:0:0:
127,309,184574,6,0,L|35:318,1,91,8|0,0:0|0:0,0:0:0:0:
1,195,184949,2,0,L|93:186,1,91,8|0,0:0|0:0,0:0:0:0:
127,63,185324,2,0,L|35:72,1,91,8|0,0:0|1:2,0:0:0:0:
187,5,185699,2,0,P|208:52|203:95,1,91,10|0,0:0|1:0,0:0:0:0:
153,236,186074,6,0,P|217:172|300:189,2,182,10|10|10,0:0|0:0|0:0,0:0:0:0:
117,349,187011,1,0,1:0:0:0:
231,379,187199,2,0,P|273:377|315:354,1,91,10|2,0:0|1:2,0:0:0:0:
371,248,187574,6,0,L|380:64,2,182,8|8|8,0:0|0:0|0:0,0:0:0:0:
277,319,188511,1,0,1:2:0:0:
376,383,188699,2,0,P|425:375|470:338,1,91,10|0,0:0|1:0,0:0:0:0:
510,245,189074,6,0,L|505:153,1,91,10|0,0:0|0:0,0:0:0:0:
401,26,189449,2,0,L|396:118,1,91,10|0,0:0|1:0,0:0:0:0:
383,312,189824,1,10,0:0:0:0:
310,167,190011,1,0,1:2:0:0:
512,278,190199,1,10,0:0:0:0:
333,378,190386,1,0,1:2:0:0:
219,204,190574,6,0,P|214:151|233:114,1,91,10|0,0:0|0:0,0:0:0:0:
392,136,190949,2,0,P|397:189|378:226,1,91,10|0,0:0|0:0,0:0:0:0:
233,292,191324,1,10,0:0:0:0:
121,167,191511,1,0,1:0:0:0:
68,384,191699,1,10,0:0:0:0:
188,218,191886,1,0,1:0:0:0:
0,302,192074,5,10,0:0:0:0:
56,116,192261,1,10,0:0:0:0:
108,304,192449,1,10,0:0:0:0:
159,71,192636,1,10,0:0:0:0:
196,285,192824,5,10,0:0:0:0:
56,116,193011,1,10,0:0:0:0:
279,149,193199,1,10,0:0:0:0:
53,243,193386,1,10,0:0:0:0:
159,71,193574,5,10,0:0:0:0:
196,285,193761,1,2,0:0:0:0:
307,43,193949,1,10,0:0:0:0:
136,186,194136,1,2,0:0:0:0:
415,200,194324,6,0,L|468:189,2,45.5,10|8|8,0:0|0:0|0:0,0:0:0:0:
328,133,194699,1,8,0:3:0:0:
257,234,194886,1,4,0:3:0:0:
307,43,195074,6,0,P|365:47|406:85,1,109.199996667481,14|0,0:0|0:0,0:0:0:0:
352,269,195449,2,0,P|294:265|253:227,1,109.199996667481,10|0,0:0|0:0,0:0:0:0:
170,55,195824,1,10,0:0:0:0:
113,175,196011,1,2,1:2:0:0:
287,120,196199,1,10,0:0:0:0:
90,85,196386,1,2,1:2:0:0:
153,300,196574,2,0,B|266:294|235:349|363:345,1,218.399993334961,10|8,0:0|0:0,0:0:0:0:
459,149,197324,5,10,0:2:0:0:
355,184,197511,1,2,1:2:0:0:
382,57,197699,1,10,0:2:0:0:
430,249,197886,1,2,1:2:0:0:
279,122,198074,6,0,L|167:128,1,109.199996667481,10|0,0:0|0:0,0:0:0:0:
5,235,198449,2,0,L|117:241,1,109.199996667481,10|0,0:0|0:0,0:0:0:0:
310,251,198824,1,10,0:0:0:0:
203,327,199011,1,2,1:2:0:0:
335,178,199199,1,10,0:0:0:0:
377,366,199386,1,2,1:2:0:0:
511,174,199574,6,0,P|479:63|398:8,2,218.399993334961,10|10|10,0:0|0:0|0:0,0:0:0:0:
426,242,200511,1,0,1:2:0:0:
335,178,200699,2,0,P|279:174|225:194,1,109.199996667481,10|0,0:0|1:0,0:0:0:0:
76,279,201074,6,0,P|50:209|67:123,1,163.799995001221,14|0,0:2|0:0,0:0:0:0:
126,59,201449,2,0,L|237:65,1,109.199996667481,8|0,0:0|0:0,0:0:0:0:
375,170,201824,2,0,L|264:176,1,109.199996667481,10|0,0:0|1:0,0:0:0:0:
157,313,202199,1,10,0:0:0:0:
330,323,202386,6,0,P|377:337|441:329,1,109.199996667481,2|8,1:2|0:0,0:0:0:0:
344,155,202761,2,0,P|305:145|233:161,1,109.199996667481,2|8,0:2|0:0,0:0:0:0:
31,240,203136,2,0,P|74:260|138:259,1,109.199996667481,2|8,0:2|0:0,0:0:0:0:
244,251,203511,1,2,1:2:0:0:
173,334,203699,1,10,0:0:0:0:
238,158,203886,1,2,1:2:0:0:
339,319,204074,5,10,0:0:0:0:
176,83,204261,1,10,0:0:0:0:
150,366,204449,1,10,0:0:0:0:
309,117,204636,1,10,0:0:0:0:
29,216,204824,5,10,0:0:0:0:
339,319,205011,1,10,0:0:0:0:
143,55,205199,1,10,0:0:0:0:
126,384,205386,1,10,0:0:0:0:
333,92,205574,5,14,0:0:0:0:
60,310,205949,1,14,0:0:0:0:
405,362,206324,1,8,0:0:0:0:
405,362,206417,1,8,0:0:0:0:
405,362,206511,1,10,0:0:0:0:
428,255,206699,1,2,1:2:0:0:
276,337,206886,1,2,1:2:0:0:
158,158,207074,6,0,L|169:41,1,118.299994584656,14|0,0:0|0:0,0:0:0:0:
337,172,207449,2,0,L|348:289,1,118.299994584656,10|0,0:0|0:0,0:0:0:0:
136,263,207824,1,10,0:0:0:0:
247,175,208011,1,2,1:2:0:0:
203,370,208199,1,10,0:0:0:0:
72,195,208386,1,2,1:2:0:0:
256,55,208574,2,0,P|348:50|426:160,1,236.599989169312,10|10,0:0|0:0,0:0:0:0:
300,359,209324,5,10,0:0:0:0:
237,258,209511,1,2,1:2:0:0:
84,349,209699,1,10,0:0:0:0:
316,280,209886,1,2,1:2:0:0:
141,156,210074,6,0,L|139:281,1,118.299994584656,10|0,0:0|0:0,0:0:0:0:
308,144,210449,2,0,L|306:19,1,118.299994584656,10|0,0:0|0:0,0:0:0:0:
94,52,210824,1,10,0:0:0:0:
44,184,211011,1,2,1:2:0:0:
5,2,211199,1,10,0:0:0:0:
157,171,211386,1,2,1:2:0:0:
327,9,211574,6,0,P|442:19|470:124,2,236.599989169312,10|10|10,0:0|0:0|0:0,0:0:0:0:
219,56,212511,1,0,1:2:0:0:
110,9,212699,2,0,P|56:15|6:54,1,118.299994584656,10|0,0:0|1:2,0:0:0:0:
61,240,213074,6,0,B|156:237|131:306|224:302,1,177.449991876984,14|0,0:0|0:0,0:0:0:0:
309,269,213449,2,0,P|368:261|427:290,1,118.299994584656,10|0,0:0|0:0,0:0:0:0:
511,119,213824,2,0,P|460:89|428:40,1,118.299994584656,10|0,0:0|1:0,0:0:0:0:
239,58,214199,1,10,0:0:0:0:
51,40,214386,6,0,L|42:160,1,118.299994584656,2|8,1:2|0:0,0:0:0:0:
231,279,214761,2,0,L|222:159,1,118.299994584656,2|8,0:2|0:0,0:0:0:0:
428,40,215136,2,0,L|419:160,1,118.299994584656,2|8,0:2|0:0,0:0:0:0:
405,275,215511,1,2,1:2:0:0:
318,194,215699,1,10,0:2:0:0:
506,229,215886,1,2,1:2:0:0:
294,303,216074,5,10,0:0:0:0:
350,60,216261,1,10,0:0:0:0:
422,351,216449,5,10,0:0:0:0:
273,60,216636,1,10,0:0:0:0:
183,379,216824,5,10,0:0:0:0:
434,146,217011,1,10,0:0:0:0:
84,96,217199,5,10,0:0:0:0:
425,245,217386,1,10,0:0:0:0:
53,307,217574,5,14,0:0:0:0:
347,108,217949,1,14,0:0:0:0:
6,7,218324,1,8,0:0:0:0:
6,7,218417,1,8,0:0:0:0:
6,7,218511,1,10,0:0:0:0:
64,109,218699,1,2,1:2:0:0:
240,18,218886,1,2,1:2:0:0:
355,190,219074,5,10,0:0:0:0:
136,45,219261,1,10,0:0:0:0:
55,320,219449,5,10,0:0:0:0:
298,92,219636,1,10,0:0:0:0:
469,372,219824,5,10,0:0:0:0:
168,199,220011,1,10,0:0:0:0:
484,29,220199,5,10,0:0:0:0:
285,351,220386,1,10,0:0:0:0:
111,8,220574,5,14,0:0:0:0:
415,190,220949,1,14,0:0:0:0:
87,326,221324,1,8,0:0:0:0:
87,326,221417,1,8,0:0:0:0:
87,326,221511,1,10,0:0:0:0:
133,216,221699,1,2,1:2:0:0:
294,335,221886,1,2,1:2:0:0:
172,67,222074,5,10,0:0:0:0:
65,368,222261,1,10,0:0:0:0:
304,72,222449,5,10,0:0:0:0:
498,384,222636,1,10,0:0:0:0:
180,238,222824,5,10,0:0:0:0:
512,28,223011,1,10,0:0:0:0:
256,359,223199,5,10,0:0:0:0:
17,15,223386,1,10,0:0:0:0:
436,185,223574,5,14,0:0:0:0:
66,266,223949,1,14,0:0:0:0:
344,9,224324,1,8,0:0:0:0:
344,9,224417,1,8,0:0:0:0:
344,9,224511,1,10,0:0:0:0:
449,86,224699,1,2,1:2:0:0:
256,142,224886,1,2,1:2:0:0:
476,197,225074,6,0,P|471:273|384:324,1,182,6|0,1:2|0:0,0:0:0:0:
302,289,225636,1,10,0:0:0:0:
218,324,225824,2,0,L|125:318,1,91,10|0,0:0|0:0,0:0:0:0:
67,249,226199,1,10,0:0:0:0:
130,184,226386,6,0,L|314:196,1,182,0|8,1:2|0:0,0:0:0:0:
388,245,226949,2,0,P|404:192|388:151,1,91,2|0,1:2|1:0,0:0:0:0:
313,15,227324,2,0,P|297:68|313:109,1,91,10|0,0:0|0:0,0:0:0:0:
390,63,227699,1,8,0:0:0:0:
208,53,228074,5,2,1:2:0:0:
129,7,228261,2,0,P|44:23|1:105,1,182,8|2,0:0|1:2,0:0:0:0:
33,186,228824,2,0,B|137:189|107:135|203:137,1,182,10|10,0:0|0:0,0:0:0:0:
282,183,229386,1,0,1:0:0:0:
166,323,229761,5,8,0:0:0:0:
100,259,229949,2,0,L|109:168,1,91,2|0,1:2|1:0,0:0:0:0:
190,25,230324,2,0,L|199:116,1,91,10|0,0:2|1:0,0:0:0:0:
210,206,230699,1,8,0:0:0:0:
315,57,231074,5,2,1:2:0:0:
392,9,231261,2,0,P|403:79|324:148,1,182,8|2,0:0|1:2,0:0:0:0:
236,131,231824,2,0,B|326:130|315:198|404:197,1,182,10|10,0:0|0:0,0:0:0:0:
487,169,232386,1,0,1:2:0:0:
418,338,232761,5,8,0:0:0:0:
343,284,232949,2,0,L|250:291,1,91,2|0,1:2|1:0,0:0:0:0:
103,361,233324,2,0,L|196:368,1,91,10|0,0:0|1:0,0:0:0:0:
284,372,233699,1,8,0:0:0:0:
213,204,234074,5,10,0:0:0:0:
417,22,234636,1,10,0:0:0:0:
438,147,234824,1,10,0:0:0:0:
237,50,235199,1,10,0:0:0:0:
342,137,235386,1,8,0:0:0:0:
334,92,235480,1,8,0:0:0:0:
327,48,235574,1,10,0:0:0:0:
