osu file format v14

[General]
AudioFilename: audio.mp3
AudioLeadIn: 0
PreviewTime: 194980
Countdown: 0
SampleSet: Soft
StackLeniency: 0.7
Mode: 0
LetterboxInBreaks: 0
WidescreenStoryboard: 0

[Editor]
DistanceSpacing: 1.1
BeatDivisor: 4
GridSize: 32
TimelineZoom: 0.6999999

[Metadata]
Title:DORAEMON
TitleUnicode:ドラえもん
Artist:Amatsuki
ArtistUnicode:天月
Creator:xHappy-
Version:Insane
Source:映画ドラえもん のび太の宝島
Tags:the Movie: Nobita's Treasure Island Eiga Nobita no Takarajima 星野源 HOSHINO GEN Cover Theme Song fujiko f. fujio 藤子・f・不二雄 p_kung [_lost_] c_o_n_n_e_r conner shockolatte -_frontier_- frontier
BeatmapID:2049099
BeatmapSetID:976896

[Difficulty]
HPDrainRate:7
CircleSize:4
OverallDifficulty:8
ApproachRate:9
SliderMultiplier:1.72
SliderTickRate:1

[Events]
//Background and Video events
0,0,"67540033_p0.jpg",0,0
//Break Periods
//Storyboard Layer 0 (Background)
//Storyboard Layer 1 (Fail)
//Storyboard Layer 2 (Pass)
//Storyboard Layer 3 (Foreground)
//Storyboard Sound Samples

[TimingPoints]
1574,375,4,2,1,52,1,0
1574,-125,4,2,1,52,0,0
4574,-111.111111111111,4,2,1,62,0,0
12074,-100,4,2,1,62,0,0
16855,-100,4,2,1,5,0,0
16949,-100,4,2,1,62,0,0
17605,-100,4,2,1,5,0,0
17699,-100,4,2,1,62,0,0
17980,-100,4,2,1,5,0,0
18074,-100,4,2,1,62,0,0
22855,-100,4,2,1,5,0,0
22949,-100,4,2,1,62,0,0
23230,-100,4,2,1,5,0,0
23324,-100,4,2,1,62,0,0
24074,-100,4,2,1,67,0,0
28855,-100,4,2,1,5,0,0
28949,-100,4,2,1,67,0,0
29605,-100,4,2,1,5,0,0
29699,-100,4,2,1,67,0,0
29980,-100,4,2,1,5,0,0
30074,-100,4,2,1,67,0,0
34855,-100,4,2,1,5,0,0
34949,-100,4,2,1,67,0,0
35230,-100,4,2,1,5,0,0
35324,-100,4,2,1,67,0,0
37855,-100,4,2,1,5,0,0
37949,-100,4,2,1,67,0,0
38230,-100,4,2,1,5,0,0
38324,-100,4,2,1,67,0,0
39074,-100,4,2,1,62,0,0
39449,-100,4,2,1,42,0,0
39636,-100,4,2,1,44,0,0
39824,-100,4,2,1,46,0,0
40011,-100,4,2,1,48,0,0
40199,-100,4,2,1,50,0,0
40386,-100,4,2,1,52,0,0
40574,-100,4,2,1,54,0,0
40761,-100,4,2,1,56,0,0
40949,-100,4,2,1,58,0,0
41136,-100,4,2,1,60,0,0
41324,-100,4,2,1,62,0,0
41511,-100,4,2,1,64,0,0
41699,-100,4,2,1,66,0,0
41886,-100,4,2,1,68,0,0
42074,-100,4,2,1,70,0,0
42261,-100,4,2,1,62,0,0
45449,-100,4,2,1,42,0,0
45636,-100,4,2,1,44,0,0
45824,-100,4,2,1,46,0,0
46011,-100,4,2,1,48,0,0
46199,-100,4,2,1,50,0,0
46386,-100,4,2,1,52,0,0
46574,-100,4,2,1,54,0,0
46761,-100,4,2,1,56,0,0
46949,-100,4,2,1,58,0,0
47136,-100,4,2,1,60,0,0
47324,-100,4,2,1,62,0,0
47511,-100,4,2,1,64,0,0
47699,-100,4,2,1,66,0,0
47792,-100,4,2,1,67,0,0
47886,-100,4,2,1,68,0,0
47980,-100,4,2,1,69,0,0
48074,-100,4,2,1,70,0,0
48261,-100,4,2,1,62,0,0
51167,-100,4,2,1,48,0,0
51261,-100,4,2,1,50,0,0
51355,-100,4,2,1,52,0,0
51449,-100,4,2,1,54,0,0
51542,-100,4,2,1,56,0,0
51636,-100,4,2,1,58,0,0
51730,-100,4,2,1,60,0,0
51824,-100,4,2,1,62,0,0
52011,-100,4,2,1,57,0,0
52199,-100,4,2,1,62,0,0
52386,-100,4,2,1,67,0,0
52574,-90.9090909090909,4,2,1,72,0,1
58855,-90.9090909090909,4,2,1,5,0,1
58949,-90.9090909090909,4,2,1,72,0,1
64011,-90.9090909090909,4,2,1,72,0,0
64574,-90.9090909090909,4,2,1,72,0,1
70855,-90.9090909090909,4,2,1,5,0,1
70949,-90.9090909090909,4,2,1,72,0,1
76574,-111.111111111111,4,2,1,62,0,0
87074,-100,4,2,1,67,0,0
91855,-100,4,2,1,5,0,0
91949,-100,4,2,1,67,0,0
92605,-100,4,2,1,5,0,0
92699,-100,4,2,1,67,0,0
92980,-100,4,2,1,5,0,0
93074,-100,4,2,1,67,0,0
97855,-100,4,2,1,5,0,0
97949,-100,4,2,1,67,0,0
98230,-100,4,2,1,5,0,0
98324,-100,4,2,1,67,0,0
100855,-100,4,2,1,5,0,0
100949,-100,4,2,1,67,0,0
101230,-100,4,2,1,5,0,0
101324,-100,4,2,1,62,0,0
102449,-100,4,2,1,42,0,0
102636,-100,4,2,1,44,0,0
102824,-100,4,2,1,46,0,0
103011,-100,4,2,1,48,0,0
103199,-100,4,2,1,50,0,0
103386,-100,4,2,1,52,0,0
103574,-100,4,2,1,54,0,0
103761,-100,4,2,1,56,0,0
103949,-100,4,2,1,58,0,0
104136,-100,4,2,1,60,0,0
104324,-100,4,2,1,62,0,0
104511,-100,4,2,1,64,0,0
104699,-100,4,2,1,66,0,0
104886,-100,4,2,1,68,0,0
105074,-100,4,2,1,70,0,0
105261,-100,4,2,1,62,0,0
108449,-100,4,2,1,42,0,0
108636,-100,4,2,1,44,0,0
108824,-100,4,2,1,46,0,0
109011,-100,4,2,1,48,0,0
109199,-100,4,2,1,50,0,0
109386,-100,4,2,1,52,0,0
109574,-100,4,2,1,54,0,0
109761,-100,4,2,1,56,0,0
109949,-100,4,2,1,58,0,0
110136,-100,4,2,1,60,0,0
110324,-100,4,2,1,62,0,0
110511,-100,4,2,1,64,0,0
110699,-100,4,2,1,66,0,0
110792,-100,4,2,1,67,0,0
110886,-100,4,2,1,68,0,0
110980,-100,4,2,1,69,0,0
111074,-100,4,2,1,70,0,0
111261,-100,4,2,1,62,0,0
114167,-100,4,2,1,48,0,0
114261,-100,4,2,1,50,0,0
114355,-100,4,2,1,52,0,0
114449,-100,4,2,1,54,0,0
114542,-100,4,2,1,56,0,0
114636,-100,4,2,1,58,0,0
114730,-100,4,2,1,60,0,0
114824,-100,4,2,1,62,0,0
115011,-100,4,2,1,57,0,0
115199,-100,4,2,1,62,0,0
115386,-100,4,2,1,67,0,0
115574,-90.9090909090909,4,2,1,72,0,1
121855,-90.9090909090909,4,2,1,5,0,1
121949,-90.9090909090909,4,2,1,72,0,1
127011,-90.9090909090909,4,2,1,72,0,0
127574,-90.9090909090909,4,2,1,72,0,1
133855,-90.9090909090909,4,2,1,5,0,1
133949,-90.9090909090909,4,2,1,72,0,1
139574,-111.111111111111,4,2,1,62,0,0
140699,-111.111111111111,4,2,1,42,0,0
141074,-111.111111111111,4,2,1,62,0,0
143699,-111.111111111111,4,2,1,42,0,0
144074,-111.111111111111,4,2,1,62,0,0
146699,-111.111111111111,4,2,1,42,0,0
147074,-111.111111111111,4,2,1,62,0,0
151199,-111.111111111111,4,2,1,42,0,0
151574,-111.111111111111,4,2,1,62,0,0
154199,-111.111111111111,4,2,1,42,0,0
154574,-111.111111111111,4,2,1,62,0,0
157199,-111.111111111111,4,2,1,42,0,0
157574,-111.111111111111,4,2,1,62,0,0
160574,-100,4,2,1,62,0,0
160949,-100,4,2,1,42,0,0
161136,-100,4,2,1,44,0,0
161324,-100,4,2,1,46,0,0
161511,-100,4,2,1,48,0,0
161699,-100,4,2,1,50,0,0
161886,-100,4,2,1,52,0,0
162074,-100,4,2,1,54,0,0
162261,-100,4,2,1,56,0,0
162449,-100,4,2,1,58,0,0
162636,-100,4,2,1,60,0,0
162824,-100,4,2,1,62,0,0
163011,-100,4,2,1,64,0,0
163199,-100,4,2,1,66,0,0
163386,-100,4,2,1,68,0,0
163574,-100,4,2,1,70,0,0
163761,-100,4,2,1,62,0,0
166949,-100,4,2,1,42,0,0
167136,-100,4,2,1,44,0,0
167324,-100,4,2,1,46,0,0
167511,-100,4,2,1,48,0,0
167699,-100,4,2,1,50,0,0
167886,-100,4,2,1,52,0,0
168074,-100,4,2,1,54,0,0
168261,-100,4,2,1,56,0,0
168449,-100,4,2,1,58,0,0
168636,-100,4,2,1,60,0,0
168824,-100,4,2,1,62,0,0
169011,-100,4,2,1,64,0,0
169199,-100,4,2,1,66,0,0
169292,-100,4,2,1,67,0,0
169386,-100,4,2,1,68,0,0
169480,-100,4,2,1,69,0,0
169574,-100,4,2,1,70,0,0
169761,-100,4,2,1,62,0,0
172667,-100,4,2,1,48,0,0
172761,-100,4,2,1,50,0,0
172855,-100,4,2,1,52,0,0
172949,-100,4,2,1,54,0,0
173042,-100,4,2,1,56,0,0
173136,-100,4,2,1,58,0,0
173230,-100,4,2,1,60,0,0
173324,-100,4,2,1,62,0,0
173417,-100,4,2,1,60,0,0
173511,-100,4,2,1,58,0,0
173605,-100,4,2,1,56,0,0
173699,-100,4,2,1,54,0,0
173792,-100,4,2,1,56,0,0
173886,-100,4,2,1,58,0,0
173980,-100,4,2,1,60,0,0
174074,-125,4,2,1,62,0,0
174261,-125,4,2,1,52,0,0
178949,-117.647058823529,4,2,1,52,0,0
180074,-111.111111111111,4,2,1,52,0,0
180261,-111.111111111111,4,2,1,44,0,0
180449,-111.111111111111,4,2,1,56,0,0
180636,-111.111111111111,4,2,1,48,0,0
180824,-111.111111111111,4,2,1,60,0,0
181011,-111.111111111111,4,2,1,52,0,0
181199,-111.111111111111,4,2,1,64,0,0
181386,-111.111111111111,4,2,1,56,0,0
181574,-111.111111111111,4,2,1,68,0,0
181761,-111.111111111111,4,2,1,60,0,0
181949,-111.111111111111,4,2,1,72,0,0
182136,-111.111111111111,4,2,1,64,0,0
182324,-111.111111111111,4,2,1,76,0,0
182511,-111.111111111111,4,2,1,68,0,0
182699,-111.111111111111,4,2,1,80,0,0
182792,-111.111111111111,4,2,1,71,0,0
182886,-111.111111111111,4,2,1,72,0,0
182980,-111.111111111111,4,2,1,73,0,0
183074,-100,4,2,1,74,0,0
183261,-100,4,2,1,67,0,0
192074,-100,4,2,1,44,0,0
192261,-100,4,2,1,46,0,0
192449,-100,4,2,1,48,0,0
192636,-100,4,2,1,50,0,0
192824,-100,4,2,1,52,0,0
193011,-100,4,2,1,54,0,0
193199,-100,4,2,1,56,0,0
193386,-100,4,2,1,58,0,0
193574,-100,4,2,1,60,0,0
193761,-100,4,2,1,62,0,0
193949,-100,4,2,1,64,0,0
194136,-100,4,2,1,66,0,0
194324,-100,4,2,1,68,0,0
194417,-100,4,2,1,69,0,0
194511,-100,4,2,1,70,0,0
194699,-100,4,2,1,62,0,0
194886,-100,4,2,1,57,0,0
195074,-83.3333333333333,4,2,1,82,0,1
201355,-83.3333333333333,4,2,1,5,0,1
201449,-83.3333333333333,4,2,1,82,0,1
206511,-83.3333333333333,4,2,1,82,0,0
207074,-76.9230769230769,4,2,1,92,0,1
213355,-76.9230769230769,4,2,1,5,0,1
213449,-76.9230769230769,4,2,1,92,0,1
225074,-100,4,2,1,72,0,0

[Colours]
Combo1 : 233,178,77
Combo2 : 111,130,0
Combo3 : 58,103,106
Combo4 : 216,72,9

[HitObjects]
470,352,1574,6,0,P|453:320|299:299,1,206.4,10|10,0:0|0:0,0:0:0:0:
226,332,2324,1,10,0:0:0:0:
62,310,2699,1,10,0:0:0:0:
217,18,3449,5,10,0:0:0:0:
240,181,3824,1,10,0:0:0:0:
265,344,4199,1,4,3:0:0:0:
420,242,4574,6,0,P|454:180|435:98,1,154.799995275879,6|0,1:2|0:0,0:0:0:0:
376,40,5136,1,10,0:0:0:0:
297,72,5324,2,0,P|257:85|216:81,1,77.3999976379395,10|0,0:0|0:2,0:0:0:0:
137,69,5699,1,10,0:0:0:0:
69,17,5886,6,0,P|52:72|103:149,1,154.799995275879,0|8,1:2|0:0,0:0:0:0:
162,209,6449,2,0,L|155:305,1,77.3999976379395,2|0,1:2|1:0,0:0:0:0:
321,372,6824,2,0,L|314:276,1,77.3999976379395,10|0,0:0|0:0,0:0:0:0:
305,210,7199,1,8,0:0:0:0:
210,351,7574,5,2,1:2:0:0:
156,286,7761,2,0,B|72:286|103:332|9:332,1,154.799995275879,8|2,0:0|1:2,0:0:0:0:
28,245,8324,2,0,P|42:170|28:94,1,154.799995275879,10|10,0:0|0:0,0:0:0:0:
9,10,8886,1,0,1:0:0:0:
179,17,9261,5,8,0:0:0:0:
251,62,9449,2,0,L|244:148,1,77.3999976379395,2|0,1:2|1:0,0:0:0:0:
142,294,9824,2,0,L|135:208,1,77.3999976379395,10|0,0:2|1:0,0:0:0:0:
124,132,10199,1,8,0:0:0:0:
256,238,10574,5,10,0:0:0:0:
25,348,11136,1,10,0:0:0:0:
56,244,11324,1,10,0:0:0:0:
195,341,11699,1,10,0:0:0:0:
217,347,11792,1,8,0:0:0:0:
239,352,11886,1,8,0:0:0:0:
261,347,11980,1,8,0:0:0:0:
281,341,12074,6,0,L|285:170,1,172,6|8,1:2|0:0,0:0:0:0:
244,84,12636,1,2,1:2:0:0:
397,121,12824,1,2,1:2:0:0:
207,160,13011,1,2,0:0:0:0:
321,44,13199,1,10,0:0:0:0:
364,195,13386,1,2,1:2:0:0:
202,255,13574,6,0,P|140:229|119:125,2,172,2|10|2,1:2|0:0|1:2,0:0:0:0:
207,160,14511,1,0,1:1:0:0:
144,330,14699,1,8,0:0:0:0:
144,330,15074,6,0,P|211:348|289:292,1,172,2|8,1:2|0:0,0:0:0:0:
360,178,15636,1,2,1:2:0:0:
231,60,15824,2,0,P|200:119|233:219,1,172,2|10,1:2|0:0,0:0:0:0:
289,291,16386,1,2,1:2:0:0:
422,211,16574,6,0,P|410:161|342:118,1,129,2|0,1:2|0:0,0:0:0:0:
271,123,16949,2,0,L|175:133,1,86,10|2,0:0|1:2,0:0:0:0:
72,25,17324,2,0,P|17:56|-1:117,1,129,2|0,1:2|0:0,0:0:0:0:
8,194,17699,2,0,L|24:322,1,129,10|0,0:0|0:0,0:0:0:0:
88,364,18074,6,0,B|189:368|161:315|250:319,1,172,2|8,1:2|0:0,0:0:0:0:
344,321,18636,1,2,1:2:0:0:
444,229,18824,1,2,1:2:0:0:
300,145,19011,1,2,0:0:0:0:
415,298,19199,1,10,0:0:0:0:
396,135,19386,1,2,1:2:0:0:
283,247,19574,6,0,P|193:251|116:211,2,172,2|10|2,1:2|0:0|1:2,0:0:0:0:
344,321,20511,1,0,1:0:0:0:
291,144,20699,1,8,0:0:0:0:
291,144,21074,6,0,P|206:140|141:76,1,172,2|8,1:2|0:0,0:0:0:0:
256,4,21636,1,2,1:2:0:0:
394,79,21824,2,0,P|411:143|370:236,1,172,2|10,1:2|0:0,0:0:0:0:
300,300,22386,1,2,1:2:0:0:
197,226,22574,6,0,P|146:220|82:265,1,129,2|0,1:2|0:0,0:0:0:0:
28,314,22949,2,0,P|44:253|28:193,1,129,10|0,0:0|0:0,0:0:0:0:
0,119,23324,5,2,1:2:0:0:
28,29,23511,1,0,1:0:0:0:
191,108,23699,1,8,0:0:0:0:
166,16,23886,1,0,0:0:0:0:
166,16,23980,1,0,0:0:0:0:
166,16,24074,6,0,B|261:5|243:67|328:55,1,172,6|8,1:2|0:0,0:0:0:0:
421,41,24636,1,2,1:2:0:0:
382,172,24824,1,2,1:2:0:0:
511,94,25011,1,2,0:2:0:0:
314,129,25199,1,10,0:2:0:0:
475,171,25386,1,2,1:2:0:0:
355,275,25574,6,0,B|291:272|291:272|256:290|256:290|188:287,2,172,2|10|2,1:2|0:0|1:2,0:0:0:0:
449,286,26511,1,0,1:0:0:0:
327,151,26699,1,8,0:0:0:0:
327,151,27074,6,0,P|247:170|171:110,1,172,2|8,1:2|0:0,0:0:0:0:
125,6,27636,1,2,1:2:0:0:
17,124,27824,2,0,L|30:300,1,172,2|10,1:2|0:0,0:0:0:0:
105,352,28386,1,2,1:2:0:0:
204,267,28574,6,0,P|260:262|322:301,1,129,2|0,1:2|0:0,0:0:0:0:
381,346,28949,2,0,P|395:308|385:254,1,86,10|2,0:0|1:2,0:0:0:0:
435,115,29324,2,0,P|382:150|318:146,1,129,2|0,1:2|0:0,0:0:0:0:
244,122,29699,2,0,B|179:118|195:161|122:156,1,129,10|0,0:0|0:0,0:0:0:0:
46,147,30074,6,0,P|32:63|101:18,1,172,2|8,1:2|0:0,0:0:0:0:
190,24,30636,1,2,1:2:0:0:
321,43,30824,1,2,1:2:0:0:
134,83,31011,1,2,0:2:0:0:
316,144,31199,1,10,0:2:0:0:
260,0,31386,1,2,1:2:0:0:
208,149,31574,6,0,B|187:207|209:236|231:265|209:317,2,172,2|10|2,1:2|0:0|1:2,0:0:0:0:
290,194,32511,1,0,1:0:0:0:
124,276,32699,1,8,0:0:0:0:
124,276,33074,6,0,P|108:203|126:105,1,172,2|8,1:2|0:0,0:0:0:0:
216,19,33636,1,2,1:2:0:0:
343,113,33824,2,0,P|427:108|479:44,1,172,2|10,1:2|0:0,0:0:0:0:
386,24,34386,1,2,1:2:0:0:
266,90,34574,6,0,L|270:224,1,129,2|0,1:2|0:0,0:0:0:0:
328,269,34949,2,0,P|266:294|212:270,1,129,10|0,0:0|0:0,0:0:0:0:
162,210,35324,5,2,1:2:0:0:
87,281,35511,1,0,1:0:0:0:
20,106,35699,1,8,0:0:0:0:
20,106,36074,6,0,B|115:112|96:53|186:59,1,172,2|8,1:2|0:0,0:0:0:0:
306,106,36636,1,2,1:2:0:0:
200,234,36824,2,0,P|145:212|194:140,1,172,2|10,1:2|0:0,0:0:0:0:
276,185,37386,1,2,1:2:0:0:
224,308,37574,6,0,P|155:311|102:285,1,129,2|0,1:2|0:0,0:0:0:0:
47,228,37949,2,0,P|43:154|64:99,1,129,10|0,0:0|0:0,0:0:0:0:
130,67,38324,2,0,L|176:74,2,43,10|8|8,0:0|0:0|0:0,0:0:0:0:
294,11,38699,1,8,0:3:0:0:
409,66,38886,1,4,0:3:0:0:
391,203,39074,6,0,B|302:201|321:255|227:252,1,172,6|8,1:2|0:0,0:0:0:0:
141,218,39636,1,10,0:0:0:0:
277,332,39824,2,0,P|325:318|357:297,1,86,10|8,0:0|0:0,0:0:0:0:
132,315,40199,1,8,0:0:0:0:
311,226,40386,1,8,0:0:0:0:
147,123,40574,6,0,P|110:94|72:92,1,86,10|8,0:0|0:0,0:0:0:0:
244,163,40949,1,8,0:0:0:0:
81,179,41136,1,10,0:0:0:0:
209,332,41324,2,0,P|216:280|197:244,1,86,10|8,0:0|0:0,0:0:0:0:
124,299,41699,1,8,0:0:0:0:
221,132,41886,1,8,0:0:0:0:
362,287,42074,6,0,L|367:198,1,86,6|0,1:2|0:0,0:0:0:0:
504,207,42449,2,0,L|510:153,1,43,10|8,0:0|0:0,0:0:0:0:
450,126,42636,2,0,L|451:71,1,43,8|8,0:0|0:0,0:0:0:0:
382,69,42824,6,0,P|340:68|299:85,1,86,6|0,1:2|0:0,0:0:0:0:
162,71,43199,2,0,L|168:116,1,43,10|8,0:0|0:0,0:0:0:0:
224,158,43386,2,0,L|218:203,1,43,8|8,0:0|0:0,0:0:0:0:
203,272,43574,6,0,L|207:358,1,86,6|0,1:2|0:0,0:0:0:0:
46,372,43949,2,0,L|3:361,1,43,10|8,0:0|0:0,0:0:0:0:
92,316,44136,2,0,L|135:305,1,43,8|8,0:0|0:0,0:0:0:0:
47,258,44324,6,0,L|50:172,1,86,6|8,1:2|0:3,0:0:0:0:
0,57,44699,2,0,P|44:41|85:48,1,86,2|4,1:2|0:3,0:0:0:0:
215,81,45074,6,0,P|292:96|359:37,1,172,6|8,1:2|0:0,0:0:0:0:
271,7,45636,1,10,0:0:0:0:
315,169,45824,2,0,P|365:150|391:123,1,86,10|8,0:0|0:0,0:0:0:0:
392,301,46199,1,8,0:0:0:0:
249,231,46386,1,8,0:0:0:0:
387,127,46574,6,0,P|437:124|479:146,1,86,10|8,0:0|0:0,0:0:0:0:
334,57,46949,1,8,0:0:0:0:
417,213,47136,1,10,0:0:0:0:
249,231,47324,2,0,P|235:176|242:148,1,86,10|8,0:0|0:0,0:0:0:0:
431,229,47699,1,8,0:0:0:0:
411,245,47792,1,8,0:0:0:0:
390,260,47886,1,8,0:0:0:0:
370,276,47980,1,8,0:0:0:0:
349,291,48074,6,0,P|272:312|182:291,1,172,6|10,1:2|0:0,0:0:0:0:
94,187,48636,2,0,B|155:181|155:181|201:153|201:153|257:148,1,172,6|2,1:2|1:2,0:0:0:0:
394,133,49199,1,8,0:0:0:0:
312,20,49386,6,0,B|208:11|253:67|150:58,1,172,6|2,1:2|1:2,0:0:0:0:
22,6,49949,1,8,0:0:0:0:
74,132,50136,2,0,B|93:182|93:182|84:306,1,172,6|2,1:2|1:2,0:0:0:0:
206,365,50699,2,0,L|199:277,1,86,10|0,0:0|0:0,0:0:0:0:
184,142,51074,5,8,0:0:0:0:
209,139,51167,1,8,0:0:0:0:
234,134,51261,1,8,0:0:0:0:
258,123,51355,1,8,0:0:0:0:
278,108,51449,2,0,L|282:52,4,43,8|8|8|8|8,0:0|0:0|0:0|0:0|0:0,0:0:0:0:
365,163,52011,5,2,0:0:0:0:
292,224,52199,1,2,0:0:0:0:
439,274,52386,1,2,0:0:0:0:
273,313,52574,6,0,L|166:320,1,94.600002886963,14|0,0:0|0:0,0:0:0:0:
99,167,52949,2,0,L|206:174,1,94.600002886963,10|0,0:0|0:0,0:0:0:0:
363,185,53324,1,10,0:0:0:0:
271,233,53511,1,2,1:2:0:0:
328,104,53699,1,10,0:0:0:0:
417,250,53886,1,2,1:2:0:0:
405,56,54074,2,0,P|326:12|248:58,1,189.200005773926,10|8,0:0|0:0,0:0:0:0:
280,264,54824,5,10,0:0:0:0:
316,166,55011,1,2,1:2:0:0:
412,242,55199,1,10,0:0:0:0:
230,190,55386,1,2,1:2:0:0:
395,147,55574,6,0,L|498:143,1,94.600002886963,10|0,0:0|0:0,0:0:0:0:
368,23,55949,2,0,L|265:19,1,94.600002886963,10|0,0:0|0:0,0:0:0:0:
102,10,56324,1,10,0:0:0:0:
142,105,56511,1,2,1:2:0:0:
19,73,56699,1,10,0:0:0:0:
191,31,56886,1,2,1:2:0:0:
65,150,57074,6,0,B|40:241|40:241|65:332,2,189.200005773926,10|10|10,0:0|0:0|0:0,0:0:0:0:
161,188,58011,1,0,1:2:0:0:
258,150,58199,2,0,B|303:139|303:139|349:150,1,94.600002886963,10|0,0:0|1:0,0:0:0:0:
458,264,58574,6,0,B|386:260|402:307|322:303,1,141.900004330444,10|0,0:0|0:0,0:0:0:0:
256,271,58949,2,0,P|208:270|164:284,1,94.600002886963,8|0,0:0|0:0,0:0:0:0:
26,348,59324,2,0,P|11:303|12:255,1,94.600002886963,10|0,0:0|1:0,0:0:0:0:
27,104,59699,1,8,0:0:0:0:
174,120,59886,6,0,P|220:116|260:90,1,94.600002886963,2|8,1:2|0:0,0:0:0:0:
256,271,60261,2,0,P|220:240|174:230,1,94.600002886963,2|8,0:2|0:0,0:0:0:0:
344,146,60636,2,0,P|337:192|353:236,1,94.600002886963,2|8,0:2|0:0,0:0:0:0:
428,308,61011,1,2,1:2:0:0:
428,308,61199,2,0,P|458:239|447:200,1,94.600002886963,10|2,0:0|1:2,0:0:0:0:
334,112,61574,5,10,0:0:0:0:
303,311,61761,1,10,0:0:0:0:
206,112,61949,1,10,0:0:0:0:
227,311,62136,1,10,0:0:0:0:
271,62,62324,5,10,0:0:0:0:
158,223,62511,1,10,0:0:0:0:
380,196,62699,1,10,0:0:0:0:
206,112,62886,1,10,0:0:0:0:
303,311,63074,5,14,0:0:0:0:
389,60,63449,1,14,0:0:0:0:
129,111,63824,1,8,0:0:0:0:
129,111,63917,1,8,0:0:0:0:
129,111,64011,1,10,0:2:0:0:
252,158,64199,2,0,P|262:112|252:66,1,94.600002886963,2|2,1:2|1:2,0:0:0:0:
154,205,64574,6,0,P|143:250|153:296,1,94.600002886963,14|0,0:0|0:0,0:0:0:0:
315,350,64949,2,0,P|325:304|315:258,1,94.600002886963,10|0,0:0|0:0,0:0:0:0:
262,95,65324,1,10,0:0:0:0:
243,197,65511,1,2,1:2:0:0:
363,123,65699,1,10,0:0:0:0:
197,134,65886,1,2,1:2:0:0:
377,203,66074,2,0,P|443:145|411:56,1,189.200005773926,10|8,0:0|0:0,0:0:0:0:
208,33,66824,5,10,0:0:0:0:
273,113,67011,1,2,1:2:0:0:
146,108,67199,1,10,0:0:0:0:
297,36,67386,1,2,1:2:0:0:
208,169,67574,6,0,L|201:272,1,94.600002886963,10|0,0:0|0:0,0:0:0:0:
43,328,67949,2,0,L|36:225,1,94.600002886963,10|0,0:0|0:0,0:0:0:0:
18,63,68324,1,10,0:0:0:0:
114,101,68511,1,2,1:2:0:0:
0,160,68699,1,10,0:0:0:0:
110,2,68886,1,2,1:2:0:0:
200,140,69074,6,0,L|190:330,2,189.200005773926,10|10|10,0:0|0:0|0:0,0:0:0:0:
292,187,70011,1,0,1:0:0:0:
385,140,70199,2,0,B|440:139|440:139|474:120,1,94.600002886963,10|0,0:0|1:0,0:0:0:0:
361,16,70574,6,0,B|306:15|306:15|278:33|278:33|225:32,1,141.900004330444,10|0,0:0|0:0,0:0:0:0:
149,18,70949,2,0,B|131:59|131:59|131:110,1,94.600002886963,8|0,0:0|0:0,0:0:0:0:
13,204,71324,2,0,B|48:239|48:239|89:255,1,94.600002886963,10|0,0:0|1:0,0:0:0:0:
241,244,71699,1,8,0:0:0:0:
377,307,71886,6,0,L|365:201,1,94.600002886963,2|8,1:2|0:0,0:0:0:0:
317,39,72261,2,0,L|305:145,1,94.600002886963,2|8,0:2|0:0,0:0:0:0:
120,95,72636,2,0,P|164:69|215:75,1,94.600002886963,2|8,0:2|0:0,0:0:0:0:
186,173,73011,1,2,1:2:0:0:
186,173,73199,2,0,P|224:195|253:254,1,94.600002886963,10|2,0:0|1:2,0:0:0:0:
106,317,73574,5,10,0:0:0:0:
77,131,73761,1,10,0:0:0:0:
249,237,73949,5,10,0:0:0:0:
64,221,74136,1,10,0:0:0:0:
254,95,74324,5,10,0:0:0:0:
285,289,74511,1,10,0:0:0:0:
104,149,74699,5,10,0:0:0:0:
295,77,74886,1,10,0:0:0:0:
414,275,75074,5,14,0:0:0:0:
192,97,75449,1,14,0:0:0:0:
64,350,75824,1,8,0:0:0:0:
64,350,75917,1,8,0:0:0:0:
64,350,76011,1,10,0:0:0:0:
190,285,76199,2,0,P|236:276|282:285,1,94.600002886963,2|2,1:2|1:2,0:0:0:0:
408,344,76574,6,0,P|432:271|407:199,1,154.799995275879,4|0,1:2|0:0,0:0:0:0:
348,138,77136,1,10,0:0:0:0:
408,78,77324,2,0,P|426:44|430:6,1,77.3999976379395,10|0,0:0|0:0,0:0:0:0:
345,19,77699,1,10,0:0:0:0:
261,6,77886,6,0,B|180:3|205:50|116:47,1,154.799995275879,0|8,1:2|0:0,0:0:0:0:
42,2,78449,2,0,P|30:38|34:77,1,77.3999976379395,2|0,1:2|1:0,0:0:0:0:
137,232,78824,2,0,P|148:195|144:156,1,77.3999976379395,10|2,0:0|3:2,0:0:0:0:
64,187,79199,1,10,3:2:0:0:
82,356,79574,5,2,1:2:0:0:
155,313,79761,2,0,B|236:310|211:357|300:354,1,154.799995275879,8|2,0:0|1:2,0:0:0:0:
382,329,80324,2,0,L|391:173,1,154.799995275879,10|10,0:0|0:0,0:0:0:0:
395,89,80886,1,0,1:2:0:0:
257,189,81261,5,8,0:0:0:0:
308,120,81449,2,0,L|304:42,1,77.3999976379395,2|0,1:2|1:0,0:0:0:0:
486,4,81824,2,0,L|482:82,1,77.3999976379395,10|0,3:2|1:0,0:0:0:0:
476,166,82199,1,10,3:2:0:0:
386,20,82574,5,2,1:2:0:0:
304,42,82761,2,0,B|225:55|225:55|151:42,1,154.799995275879,8|2,0:0|1:2,0:0:0:0:
68,21,83324,2,0,B|81:100|81:100|68:174,1,154.799995275879,10|10,0:0|0:0,0:0:0:0:
47,256,83886,1,0,1:0:0:0:
216,275,84261,5,8,0:0:0:0:
194,192,84449,2,0,L|208:110,1,77.3999976379395,2|0,1:2|1:0,0:0:0:0:
368,22,84824,2,0,L|382:104,1,77.3999976379395,10|0,3:2|1:0,0:0:0:0:
398,181,85199,1,10,3:2:0:0:
285,52,85574,5,10,0:0:0:0:
200,292,86136,1,10,0:0:0:0:
172,186,86324,1,10,0:0:0:0:
324,340,86699,1,10,0:0:0:0:
338,321,86792,1,8,0:0:0:0:
355,306,86886,1,8,0:0:0:0:
375,294,86980,1,8,0:0:0:0:
397,287,87074,6,0,P|444:282|493:176,1,172,6|8,1:2|0:0,0:0:0:0:
444,99,87636,1,2,1:2:0:0:
259,137,87824,1,2,1:2:0:0:
416,205,88011,1,2,0:2:0:0:
344,57,88199,1,10,0:2:0:0:
312,223,88386,1,2,1:2:0:0:
229,69,88574,6,0,P|166:61|95:137,2,172,2|10|2,1:2|0:0|1:2,0:0:0:0:
189,154,89511,1,0,1:0:0:0:
93,0,89699,1,8,0:0:0:0:
93,0,90074,6,0,P|34:61|8:143,1,172,2|8,1:2|0:0,0:0:0:0:
67,257,90636,1,2,1:2:0:0:
189,154,90824,2,0,B|288:148|251:203|351:198,1,172,2|10,1:2|0:0,0:0:0:0:
443,181,91386,1,2,1:2:0:0:
425,334,91574,6,0,P|362:329|299:353,1,129,2|0,1:2|0:0,0:0:0:0:
228,377,91949,2,0,P|182:378|145:362,1,86,10|2,0:0|1:2,0:0:0:0:
13,280,92324,2,0,L|18:150,1,129,2|0,1:2|0:0,0:0:0:0:
70,95,92699,2,0,P|134:97|184:136,1,129,10|0,0:0|0:0,0:0:0:0:
235,194,93074,6,0,B|336:195|298:142|396:143,1,172,2|8,1:2|0:0,0:0:0:0:
488,156,93636,1,2,1:2:0:0:
388,237,93824,1,2,1:2:0:0:
512,328,94011,1,2,0:0:0:0:
326,298,94199,1,10,0:0:0:0:
483,258,94386,1,2,1:2:0:0:
358,371,94574,6,0,P|278:368|244:292,2,172,2|10|2,1:2|0:0|1:2,0:0:0:0:
424,304,95511,1,0,1:0:0:0:
378,125,95699,1,8,0:0:0:0:
378,125,96074,6,0,B|320:124|320:124|270:150|270:150|212:149,1,172,2|8,1:2|0:0,0:0:0:0:
119,66,96636,1,2,1:2:0:0:
269,14,96824,2,0,B|320:41|320:41|439:38,1,172,2|10,1:2|0:0,0:0:0:0:
508,96,97386,1,2,1:2:0:0:
437,235,97574,6,0,P|381:244|319:204,1,129,2|0,1:2|0:0,0:0:0:0:
280,141,97949,2,0,P|224:132|162:172,1,129,10|0,0:0|0:0,0:0:0:0:
126,235,98324,5,2,1:2:0:0:
187,306,98511,1,0,1:2:0:0:
3,333,98699,1,8,0:0:0:0:
3,333,99074,6,0,L|9:161,1,172,2|8,1:2|0:0,0:0:0:0:
96,61,99636,1,2,1:2:0:0:
226,158,99824,2,0,P|294:156|355:71,1,172,2|10,1:2|0:0,0:0:0:0:
259,69,100386,1,2,1:2:0:0:
149,145,100574,6,0,B|126:204|126:204|130:271,1,129,2|0,1:2|0:0,0:0:0:0:
148,344,100949,2,0,B|199:343|199:343|229:362|229:362|272:361,1,129,10|0,0:0|0:0,0:0:0:0:
349,361,101324,2,0,L|393:364,2,43,10|8|8,0:0|0:0|0:0,0:0:0:0:
487,254,101699,1,8,0:3:0:0:
399,148,101886,1,4,0:3:0:0:
309,254,102074,6,0,P|227:255|186:183,1,172,6|8,1:2|0:0,0:0:0:0:
190,91,102636,1,10,0:0:0:0:
347,42,102824,2,0,P|393:33|430:47,1,86,10|8,0:0|0:0,0:0:0:0:
253,0,103199,1,8,0:0:0:0:
385,138,103386,1,8,0:0:0:0:
226,259,103574,6,0,P|196:220|188:183,1,86,10|8,0:0|0:0,0:0:0:0:
204,44,103949,1,8,0:0:0:0:
283,190,104136,1,10,0:0:0:0:
142,109,104324,2,0,P|107:143|102:185,1,86,10|8,0:0|0:0,0:0:0:0:
338,240,104699,1,8,0:0:0:0:
149,308,104886,1,8,0:0:0:0:
315,354,105074,6,0,P|359:356|399:337,1,86,6|0,1:2|0:0,0:0:0:0:
509,259,105449,2,0,L|469:239,1,43,10|8,0:0|0:0,0:0:0:0:
384,199,105636,2,0,L|424:179,1,43,8|8,0:0|0:0,0:0:0:0:
466,116,105824,6,0,L|464:29,1,86,6|0,1:2|0:0,0:0:0:0:
333,43,106199,2,0,L|328:1,1,43,10|8,0:0|0:0,0:0:0:0:
282,105,106386,2,0,L|277:148,1,43,8|8,0:0|0:0,0:0:0:0:
228,45,106574,6,0,L|140:43,1,86,6|0,1:2|0:0,0:0:0:0:
4,58,106949,2,0,L|-1:15,1,43,10|8,0:0|0:0,0:0:0:0:
71,116,107136,2,0,L|76:73,1,43,8|8,0:0|0:0,0:0:0:0:
12,190,107324,6,0,L|100:187,1,86,6|8,1:2|0:3,0:0:0:0:
205,273,107699,2,0,L|117:270,1,86,2|4,1:2|0:3,0:0:0:0:
20,367,108074,6,0,B|70:351|70:351|200:356,1,172,6|8,1:2|0:0,0:0:0:0:
282,354,108636,1,10,0:0:0:0:
260,197,108824,2,0,P|232:234|227:282,1,86,10|8,0:0|0:0,0:0:0:0:
336,160,109199,1,8,0:0:0:0:
385,277,109386,1,8,0:0:0:0:
281,101,109574,6,0,P|322:81|365:86,1,86,10|8,0:0|0:0,0:0:0:0:
450,158,109949,1,8,0:0:0:0:
315,236,110136,1,10,0:0:0:0:
432,348,110324,2,8,P|465:305|467:269,1,86,10|8,0:0|0:0,0:0:0:0:
240,345,110699,1,8,0:0:0:0:
214,346,110792,1,8,0:0:0:0:
188,348,110886,1,8,0:0:0:0:
162,349,110980,1,8,0:0:0:0:
134,351,111074,6,0,P|81:287|89:203,1,172,6|10,1:2|0:0,0:0:0:0:
192,111,111636,2,0,B|278:104|255:152|357:144,1,172,6|2,1:2|1:2,0:0:0:0:
465,230,112199,1,8,0:0:0:0:
345,297,112386,6,0,P|272:296|223:216,1,172,6|2,1:2|1:2,0:0:0:0:
316,116,112949,1,8,0:0:0:0:
237,3,113136,2,0,B|151:-4|174:44|71:36,1,172,6|2,1:2|1:2,0:0:0:0:
0,154,113699,2,0,P|29:177|43:225,1,86,10|0,0:0|0:0,0:0:0:0:
67,358,114074,5,8,0:0:0:0:
74,333,114167,1,8,0:0:0:0:
87,311,114261,1,8,0:0:0:0:
106,293,114355,1,8,0:0:0:0:
128,280,114449,2,0,L|187:283,4,43,8|8|8|8|8,0:0|0:0|0:0|0:0|0:0,0:0:0:0:
163,191,115011,5,2,0:0:0:0:
206,106,115199,1,2,0:0:0:0:
350,174,115386,1,2,0:0:0:0:
256,31,115574,6,0,P|209:17|161:28,1,94.600002886963,14|0,0:0|0:0,0:0:0:0:
28,127,115949,2,0,P|75:141|123:130,1,94.600002886963,10|0,0:0|0:0,0:0:0:0:
285,98,116324,1,10,0:0:0:0:
206,165,116511,1,2,1:2:0:0:
256,31,116699,1,10,0:0:0:0:
342,168,116886,1,2,1:2:0:0:
177,258,117074,2,0,B|69:254|114:312|0:307,1,189.200005773926,10|8,0:0|0:0,0:0:0:0:
183,352,117824,5,10,0:0:0:0:
279,314,118011,1,2,1:2:0:0:
136,191,118199,1,10,0:0:0:0:
304,213,118386,1,2,1:2:0:0:
466,160,118574,6,0,P|482:107|473:53,1,94.600002886963,10|0,0:0|0:0,0:0:0:0:
317,10,118949,2,0,P|314:56|329:101,1,94.600002886963,10|0,0:0|0:0,0:0:0:0:
426,241,119324,1,10,0:0:0:0:
365,325,119511,1,2,1:2:0:0:
375,184,119699,1,10,0:0:0:0:
443,365,119886,1,2,1:2:0:0:
294,279,120074,6,0,P|206:248|117:278,2,189.200005773926,10|10|10,0:0|0:0|0:0,0:0:0:0:
366,354,121011,1,0,1:2:0:0:
438,279,121199,2,0,P|463:236|466:192,1,94.600002886963,10|0,0:0|1:0,0:0:0:0:
397,49,121574,6,0,P|346:72|260:65,1,141.900004330444,10|0,0:0|0:0,0:0:0:0:
196,27,121949,2,0,P|137:25|101:42,1,94.600002886963,8|0,0:0|0:0,0:0:0:0:
107,190,122324,2,0,P|150:149|163:112,1,94.600002886963,10|0,0:0|1:0,0:0:0:0:
16,78,122699,1,8,0:0:0:0:
25,228,122886,6,0,L|31:326,1,94.600002886963,2|8,1:2|0:0,0:0:0:0:
190,234,123261,2,0,L|106:189,1,94.600002886963,2|8,0:2|0:0,0:0:0:0:
102,378,123636,2,0,L|186:323,1,94.600002886963,2|8,0:2|0:0,0:0:0:0:
284,343,124011,1,2,1:2:0:0:
284,343,124199,2,0,P|330:314|343:270,1,94.600002886963,10|2,0:0|1:2,0:0:0:0:
190,234,124574,5,10,0:0:0:0:
253,46,124761,1,10,0:0:0:0:
268,269,124949,1,10,0:0:0:0:
134,135,125136,1,10,0:0:0:0:
355,119,125324,5,10,0:0:0:0:
190,234,125511,1,10,0:0:0:0:
395,320,125699,1,10,0:0:0:0:
268,173,125886,1,10,0:0:0:0:
151,369,126074,5,14,0:0:0:0:
381,203,126449,1,14,0:0:0:0:
154,31,126824,1,8,0:0:0:0:
154,31,126917,1,8,0:0:0:0:
154,31,127011,1,10,0:0:0:0:
63,140,127199,2,0,L|66:46,1,94.600002886963,2|2,1:2|1:2,0:0:0:0:
213,130,127574,6,0,L|216:224,1,94.600002886963,14|0,0:0|0:2,0:0:0:0:
96,346,127949,2,0,L|99:252,1,94.600002886963,10|0,0:0|0:2,0:0:0:0:
262,300,128324,1,10,0:0:0:0:
172,351,128511,1,2,1:2:0:0:
216,224,128699,1,10,0:0:0:0:
319,358,128886,1,2,1:2:0:0:
276,166,129074,2,0,P|201:142|134:217,1,189.200005773926,10|8,0:0|0:0,0:0:0:0:
182,13,129824,5,10,0:0:0:0:
271,64,130011,1,2,1:2:0:0:
138,86,130199,1,10,0:0:0:0:
329,12,130386,1,2,1:2:0:0:
463,104,130574,6,0,P|485:58|489:15,1,94.600002886963,10|0,0:0|0:0,0:0:0:0:
345,106,130949,2,0,P|350:152|371:194,1,94.600002886963,10|0,0:0|0:0,0:0:0:0:
475,329,131324,1,10,0:0:0:0:
375,298,131511,1,2,1:2:0:0:
463,196,131699,1,10,0:0:0:0:
402,380,131886,1,2,1:2:0:0:
301,248,132074,6,0,B|195:246|232:302|123:300,2,189.200005773926,10|10|10,0:0|0:0|0:0,0:0:0:0:
383,183,133011,1,0,1:2:0:0:
305,113,133199,2,0,P|243:114|193:132,1,94.600002886963,10|0,0:0|1:0,0:0:0:0:
70,189,133574,6,0,P|54:109|75:49,1,141.900004330444,10|0,0:0|0:0,0:0:0:0:
143,26,133949,2,0,P|189:30|236:26,1,94.600002886963,8|0,0:0|0:0,0:0:0:0:
238,179,134324,2,0,P|274:148|303:112,1,94.600002886963,10|0,0:0|1:2,0:0:0:0:
391,237,134699,1,8,0:0:0:0:
274,335,134886,6,0,L|169:332,1,94.600002886963,2|8,1:2|0:0,0:0:0:0:
70,189,135261,2,0,L|174:186,1,94.600002886963,2|8,0:2|0:0,0:0:0:0:
47,336,135636,2,0,P|20:297|15:249,1,94.600002886963,2|8,0:2|0:0,0:0:0:0:
117,268,136011,1,2,1:2:0:0:
117,268,136199,2,0,L|216:262,1,94.600002886963,10|2,0:0|1:2,0:0:0:0:
366,358,136574,5,10,0:0:0:0:
302,169,136761,1,10,0:0:0:0:
498,265,136949,5,10,0:0:0:0:
306,299,137136,1,10,0:0:0:0:
435,120,137324,5,10,0:0:0:0:
443,329,137511,1,10,0:0:0:0:
310,139,137699,5,10,0:0:0:0:
512,154,137886,1,10,0:0:0:0:
316,275,138074,5,14,0:0:0:0:
232,3,138449,1,14,0:0:0:0:
507,71,138824,1,8,0:0:0:0:
507,71,138917,1,8,0:0:0:0:
507,71,139011,1,10,0:0:0:0:
437,194,139199,2,0,P|391:208|344:206,1,94.600002886963,2|2,1:2|1:2,0:0:0:0:
239,120,139574,6,0,P|165:135|124:199,1,154.799995275879,6|0,1:2|0:0,0:0:0:0:
119,284,140136,1,2,1:2:0:0:
192,327,140324,2,0,B|256:324|256:324|290:335|290:335|345:332,1,154.799995275879,8|6,0:0|1:2,0:0:0:0:
496,253,141074,2,0,B|374:286|394:201|272:234,1,232.199992913819,2|0,0:0|0:0,0:0:0:0:
187,247,141824,2,0,P|160:175|187:106,1,154.799995275879,10|0,0:0|0:0,0:0:0:0:
353,67,142574,6,0,L|341:229,1,154.799995275879,2|0,1:2|0:0,0:0:0:0:
400,282,143136,1,2,1:2:0:0:
338,340,143324,2,0,P|274:344|204:290,1,154.799995275879,10|6,0:0|1:2,0:0:0:0:
83,171,144074,2,0,L|95:333,2,154.799995275879,2|8|10,0:2|0:3|0:0,0:0:0:0:
74,86,145011,1,0,1:0:0:0:
74,86,145199,1,0,1:0:0:0:
244,82,145574,6,0,L|325:79,1,77.3999976379395,2|8,1:2|0:0,0:0:0:0:
396,39,145949,2,0,L|477:42,1,77.3999976379395,2|2,0:0|1:2,0:0:0:0:
502,122,146324,2,0,B|432:121|432:121|364:176,1,154.799995275879,10|6,0:0|1:2,0:0:0:0:
471,308,147074,2,0,B|387:312|408:261|326:265,1,154.799995275879,2|0,0:0|0:0,0:0:0:0:
243,247,147636,1,4,0:3:0:0:
213,166,147824,2,0,P|168:202|171:295,1,154.799995275879,8|0,0:0|0:0,0:0:0:0:
328,355,148574,5,10,0:0:0:0:
406,259,148761,1,10,0:0:0:0:
283,197,148949,1,10,0:0:0:0:
405,95,149136,1,10,0:0:0:0:
241,44,149324,5,10,0:0:0:0:
429,179,149699,1,2,1:2:0:0:
240,316,150074,6,0,P|166:330|101:291,1,154.799995275879,6|0,1:2|0:0,0:0:0:0:
62,215,150636,1,2,1:2:0:0:
101,139,150824,2,0,B|187:133|162:185|246:179,1,154.799995275879,10|6,0:0|1:2,0:0:0:0:
416,179,151574,2,0,P|315:227|305:341,1,232.199992913819,2|0,0:0|0:0,0:0:0:0:
380,374,152324,2,0,P|445:358|496:283,1,154.799995275879,10|0,0:0|0:0,0:0:0:0:
485,119,153074,6,0,P|412:140|339:119,1,154.799995275879,2|0,1:2|0:0,0:0:0:0:
275,63,153636,1,2,1:2:0:0:
210,119,153824,2,0,L|219:284,1,154.799995275879,10|6,0:0|1:2,0:0:0:0:
56,329,154574,2,0,L|65:164,2,154.799995275879,2|8|10,0:0|0:3|0:0,0:0:0:0:
132,382,155511,1,0,1:0:0:0:
132,382,155699,1,0,1:0:0:0:
272,285,156074,6,0,P|319:284|352:302,1,77.3999976379395,2|0,1:2|0:0,0:0:0:0:
416,344,156449,2,0,P|430:308|427:270,1,77.3999976379395,2|2,0:2|1:2,0:0:0:0:
394,191,156824,2,0,P|353:128|376:57,1,154.799995275879,10|6,0:0|1:2,0:0:0:0:
211,11,157574,2,0,P|149:54|118:127,1,154.799995275879,2|0,0:0|0:3,0:0:0:0:
124,209,158136,1,4,0:3:0:0:
205,183,158324,2,0,P|231:98|300:71,1,154.799995275879,10|0,0:0|0:0,0:0:0:0:
410,195,159074,6,0,L|308:175,2,103.199996850586,10|8|8,0:0|0:0|0:0,0:0:0:0:
479,285,159824,2,0,L|324:296,1,154.799995275879,10|2,0:0|1:2,0:0:0:0:
147,363,160574,6,0,P|195:294|186:210,1,172,6|8,1:2|0:0,1:2:0:0:
140,121,161136,1,10,0:0:0:0:
22,228,161324,2,0,P|8:183|11:140,1,86,10|8,0:0|0:0,0:0:0:0:
186,210,161699,1,8,0:0:0:0:
65,303,161886,1,8,0:0:0:0:
140,121,162074,6,0,P|177:110|224:115,1,86,10|8,0:0|0:0,0:0:0:0:
346,177,162449,1,8,0:0:0:0:
186,210,162636,1,10,0:0:0:0:
367,266,162824,2,0,P|409:246|433:211,1,86,10|8,0:0|0:0,0:0:0:0:
262,282,163199,1,8,0:0:0:0:
305,109,163386,1,8,0:0:0:0:
163,33,163574,6,0,P|120:33|81:50,1,86,6|0,1:2|0:0,0:0:0:0:
0,162,163949,2,0,L|46:145,1,43,10|8,0:0|0:0,0:0:0:0:
103,234,164136,2,0,L|57:217,1,43,8|8,0:0|0:0,0:0:0:0:
3,265,164324,6,0,L|7:361,1,86,6|0,1:2|0:0,0:0:0:0:
143,371,164699,2,0,L|187:361,1,43,10|8,0:0|0:0,0:0:0:0:
259,304,164886,2,0,L|215:294,1,43,8|8,0:0|0:0,0:0:0:0:
146,267,165074,6,0,L|149:171,1,86,6|0,1:2|0:0,0:0:0:0:
184,47,165449,2,0,L|187:101,1,43,10|8,0:0|0:0,0:0:0:0:
255,158,165636,2,0,L|257:115,1,43,8|8,0:0|0:0,0:0:0:0:
326,85,165824,6,0,P|336:127|328:169,1,86,6|8,1:2|0:3,0:0:0:0:
245,280,166199,2,0,P|235:238|243:196,1,86,2|4,1:2|0:3,0:0:0:0:
333,300,166574,6,0,P|297:355|192:356,1,172,6|8,1:2|0:0,0:0:0:0:
111,323,167136,1,10,0:0:0:0:
103,163,167324,2,0,P|147:143|185:146,1,86,8|8,0:0|0:0,0:0:0:0:
52,244,167699,1,8,0:0:0:0:
134,62,167886,1,8,0:0:0:0:
256,209,168074,6,0,P|277:169|277:126,1,86,10|8,0:0|0:0,0:0:0:0:
331,279,168449,1,8,0:0:0:0:
162,219,168636,1,10,0:0:0:0:
349,150,168824,2,0,L|436:138,1,86,10|8,0:0|0:0,0:0:0:0:
245,21,169199,1,8,0:0:0:0:
219,16,169292,1,8,0:0:0:0:
193,17,169386,1,8,0:0:0:0:
169,24,169480,1,8,0:0:0:0:
147,38,169574,6,0,L|153:211,1,172,6|10,1:2|0:0,0:0:0:0:
111,341,170136,2,0,P|173:284|257:285,1,172,6|2,1:2|1:2,0:0:0:0:
376,356,170699,1,8,0:0:0:0:
496,290,170886,2,0,L|502:117,1,172,6|2,1:2|1:2,0:0:0:0:
388,37,171449,1,8,0:0:0:0:
252,59,171636,2,0,P|294:143|366:175,1,172,6|2,1:2|1:2,0:0:0:0:
270,278,172199,2,0,P|228:270|186:278,1,86,10|0,0:0|0:0,0:0:0:0:
64,213,172574,5,8,0:0:0:0:
85,198,172667,1,8,0:0:0:0:
103,179,172761,1,8,0:0:0:0:
117,158,172855,1,8,0:0:0:0:
127,134,172949,2,0,L|132:80,3,43,8|8|8|8,0:0|0:0|0:0|0:0,0:0:0:0:
216,62,173324,6,0,L|221:116,3,43,8|8|8|8,0:3|0:3|0:3|0:3,0:0:0:0:
224,130,173699,1,4,0:3:0:0:
226,155,173792,1,4,0:3:0:0:
232,180,173886,1,4,0:3:0:0:
242,204,173980,1,4,0:3:0:0:
258,227,174074,6,0,B|413:246|350:153|526:170,1,275.2,6|0,1:2|0:0,0:0:0:0:
492,318,175199,2,0,P|461:302|427:298,1,68.8,2|2,0:0|0:0,0:0:0:0:
354,324,175574,2,0,P|252:327|153:298,1,206.4,0|0,1:2|1:0,0:0:0:0:
140,293,176230,1,0,1:0:0:0:
127,287,176324,1,0,1:0:0:0:
142,136,176699,2,0,L|215:131,1,68.8,2|0,1:2|1:0,0:0:0:0:
286,125,177074,5,2,1:2:0:0:
393,232,177449,1,2,0:0:0:0:
500,125,177824,1,2,0:0:0:0:
393,17,178199,1,2,0:0:0:0:
325,51,178386,1,2,0:0:0:0:
257,17,178574,1,2,1:2:0:0:
116,94,178949,6,0,L|114:152,2,48.7333342628479,2|0|0,0:0|0:0|0:0,0:0:0:0:
225,164,179324,2,0,L|176:195,2,48.7333342628479,2|0|0,0:0|0:0|0:0,0:0:0:0:
207,286,179699,2,0,L|152:268,2,48.7333342628479,2|0|0,0:0|0:0|0:0,0:0:0:0:
332,351,180074,5,10,0:0:0:0:
309,196,180261,1,8,0:0:0:0:
440,289,180449,2,0,P|479:272|503:242,1,77.3999976379395,10|8,0:0|0:0,0:0:0:0:
289,285,180824,1,10,0:0:0:0:
429,203,181011,1,8,0:0:0:0:
374,50,181199,2,0,P|358:92|365:129,1,77.3999976379395,10|8,0:0|0:0,0:0:0:0:
440,289,181574,5,10,0:0:0:0:
494,136,181761,1,8,0:0:0:0:
334,203,181949,2,0,P|297:208|255:186,1,77.3999976379395,10|8,0:0|0:0,0:0:0:0:
191,54,182324,1,10,0:0:0:0:
362,123,182511,1,8,0:0:0:0:
183,264,182699,1,10,0:0:0:0:
159,265,182792,1,8,0:0:0:0:
137,261,182886,1,8,0:0:0:0:
116,250,182980,1,8,0:0:0:0:
99,232,183074,6,0,L|109:139,1,86,6|0,1:2|0:0,0:0:0:0:
62,34,183449,2,0,P|104:27|146:32,1,86,8|0,0:0|0:0,0:0:0:0:
259,74,183824,2,0,P|301:80|343:75,1,86,8|0,0:0|1:0,0:0:0:0:
461,50,184199,1,10,0:0:0:0:
405,156,184386,1,2,1:2:0:0:
474,348,184574,6,0,P|501:302|500:238,1,86,8|0,0:0|0:0,0:0:0:0:
416,187,184949,2,0,L|330:191,1,86,8|0,0:0|0:0,0:0:0:0:
209,196,185324,2,0,P|216:237|240:273,1,86,8|0,0:0|1:0,0:0:0:0:
147,350,185699,2,0,P|108:332|65:331,1,86,10|0,0:0|1:0,0:0:0:0:
8,224,186074,6,0,P|65:169|75:81,2,172,10|10|10,0:0|0:0|0:0,0:0:0:0:
65,331,187011,1,0,1:0:0:0:
163,261,187199,2,0,P|205:252|247:256,1,86,10|2,0:0|1:2,0:0:0:0:
356,308,187574,6,0,P|299:253|289:165,2,172,8|8|8,0:0|0:0|0:0,0:0:0:0:
405,198,188511,1,0,1:0:0:0:
347,91,188699,2,0,P|309:70|267:72,1,86,10|0,0:0|1:0,0:0:0:0:
154,116,189074,6,0,L|160:218,1,86,10|0,0:0|0:0,0:0:0:0:
278,300,189449,2,0,L|284:198,1,86,10|0,0:0|1:0,0:0:0:0:
362,80,189824,1,10,0:0:0:0:
154,116,190011,1,0,1:0:0:0:
344,157,190199,1,10,0:0:0:0:
232,7,190386,1,0,1:0:0:0:
60,116,190574,6,0,L|66:218,1,86,10|0,0:0|0:0,0:0:0:0:
184,300,190949,2,0,L|190:198,1,86,10|0,0:0|0:0,0:0:0:0:
282,89,191324,1,10,0:0:0:0:
397,265,191511,1,0,1:0:0:0:
230,150,191699,1,10,0:0:0:0:
432,124,191886,1,0,1:0:0:0:
288,253,192074,5,10,0:0:0:0:
343,92,192261,1,10,0:0:0:0:
155,120,192449,1,10,0:0:0:0:
319,170,192636,1,10,0:0:0:0:
182,38,192824,5,10,0:0:0:0:
134,200,193011,1,10,0:0:0:0:
343,92,193199,1,10,0:0:0:0:
391,281,193386,1,10,0:0:0:0:
155,120,193574,5,10,0:0:0:0:
319,170,193761,1,2,0:0:0:0:
134,200,193949,1,10,0:0:0:0:
242,77,194136,1,2,0:0:0:0:
47,51,194324,2,0,L|44:105,2,43,8|8|8,0:0|0:0|0:0,0:0:0:0:
155,120,194699,2,0,L|152:33,1,86,8|4,0:3|0:3,0:0:0:0:
29,173,195074,6,0,P|14:222|22:272,1,103.199996850586,14|0,0:0|0:0,0:0:0:0:
182,368,195449,2,0,P|196:318|188:268,1,103.199996850586,10|0,0:0|0:0,0:0:0:0:
84,113,195824,1,10,0:0:0:0:
191,149,196011,1,2,1:2:0:0:
29,173,196199,1,10,0:0:0:0:
152,34,196386,1,2,1:2:0:0:
317,182,196574,2,0,P|393:175|464:76,1,206.399993701172,10|8,0:0|0:0,0:0:0:0:
244,17,197324,5,10,0:0:0:0:
199,121,197511,1,2,1:2:0:0:
89,35,197699,1,8,0:0:0:0:
295,85,197886,1,2,1:2:0:0:
108,142,198074,6,0,L|102:248,1,103.199996850586,10|0,0:0|0:0,0:0:0:0:
253,353,198449,2,0,L|247:247,1,103.199996850586,10|0,0:0|0:0,0:0:0:0:
234,64,198824,1,8,0:0:0:0:
201,172,199011,1,2,1:2:0:0:
318,118,199199,1,8,0:0:0:0:
108,142,199386,1,2,1:2:0:0:
320,206,199574,6,0,B|425:200|401:265|514:260,2,206.399993701172,10|10|10,0:0|0:0|0:0,0:0:0:0:
220,262,200511,1,0,1:0:0:0:
120,206,200699,2,0,P|88:165|81:114,1,103.199996850586,10|0,0:0|1:0,0:0:0:0:
226,24,201074,6,0,L|396:31,1,154.799995275879,14|0,0:0|0:0,0:0:0:0:
460,10,201449,2,0,P|461:52|422:102,1,103.199996850586,8|0,0:0|0:0,0:0:0:0:
268,151,201824,2,0,P|318:155|355:190,1,103.199996850586,10|0,0:0|1:0,0:0:0:0:
376,355,202199,1,10,0:0:0:0:
212,370,202386,6,0,P|162:366|113:344,1,103.199996850586,2|8,1:2|0:0,0:0:0:0:
8,178,202761,2,0,L|16:74,1,103.199996850586,2|8,0:2|0:0,0:0:0:0:
212,11,203136,2,0,L|219:113,1,103.199996850586,2|8,0:2|0:0,0:0:0:0:
332,121,203511,1,2,1:2:0:0:
332,121,203699,2,0,L|325:223,1,103.199996850586,10|2,0:2|1:2,0:0:0:0:
149,271,204074,5,10,0:0:0:0:
118,54,204261,1,10,0:0:0:0:
354,90,204449,1,10,0:0:0:0:
130,181,204636,1,10,0:0:0:0:
343,16,204824,5,10,0:0:0:0:
381,246,205011,1,10,0:0:0:0:
211,69,205199,1,10,0:0:0:0:
474,86,205386,1,10,0:0:0:0:
240,217,205574,5,14,0:0:0:0:
7,12,205949,1,14,0:0:0:0:
0,321,206324,1,8,0:0:0:0:
0,321,206417,1,8,0:0:0:0:
0,321,206511,1,10,0:0:0:0:
147,370,206699,2,0,P|156:319|147:269,1,103.199996850586,2|2,1:2|1:2,0:0:0:0:
100,72,207074,6,0,L|216:67,1,111.799994882202,14|0,0:0|0:0,0:0:0:0:
370,191,207449,2,0,L|254:186,1,111.799994882202,10|0,0:0|0:0,0:0:0:0:
56,183,207824,1,10,0:0:0:0:
146,268,208011,1,2,1:2:0:0:
41,102,208199,1,10,0:0:0:0:
13,317,208386,1,2,1:2:0:0:
233,266,208574,2,0,B|361:252|318:321|446:308,1,223.599989764405,10|10,0:0|0:0,0:0:0:0:
420,63,209324,5,10,0:0:0:0:
340,156,209511,1,2,1:2:0:0:
511,102,209699,1,10,0:0:0:0:
295,66,209886,1,2,1:2:0:0:
453,197,210074,6,0,L|446:308,1,111.799994882202,10|0,0:0|0:0,0:0:0:0:
255,374,210449,2,0,L|248:263,1,111.799994882202,10|0,0:0|0:0,0:0:0:0:
295,66,210824,1,10,0:0:0:0:
362,168,211011,1,2,1:2:0:0:
209,137,211199,1,10,0:0:0:0:
416,80,211386,1,2,1:2:0:0:
195,10,211574,6,0,P|131:28|85:171,2,223.599989764405,10|10|10,0:0|0:0|0:0,0:0:0:0:
300,74,212511,1,0,1:0:0:0:
404,10,212699,2,0,P|459:13|501:49,1,111.799994882202,10|0,0:0|1:0,0:0:0:0:
479,227,213074,6,0,B|399:227|424:279|324:278,1,167.699992323304,14|0,0:0|0:0,0:0:0:0:
256,337,213449,2,0,P|235:283|249:230,1,111.799994882202,10|0,0:0|0:0,0:0:0:0:
80,166,213824,2,0,P|101:115|147:86,1,111.799994882202,10|0,0:0|1:0,0:0:0:0:
326,97,214199,1,10,0:0:0:0:
463,210,214386,6,0,L|457:329,1,111.799994882202,2|8,1:2|0:0,0:0:0:0:
352,136,214761,2,0,L|454:80,1,111.799994882202,2|8,0:2|0:0,0:0:0:0:
323,267,215136,2,0,L|217:229,1,111.799994882202,2|8,0:2|0:0,0:0:0:0:
124,309,215511,1,2,1:2:0:0:
124,309,215699,2,0,P|87:258|86:206,1,111.799994882202,10|2,0:0|1:2,0:0:0:0:
144,23,216074,5,10,0:0:0:0:
368,59,216261,1,10,0:0:0:0:
155,194,216449,5,10,0:0:0:0:
390,134,216636,1,10,0:0:0:0:
174,36,216824,5,10,0:0:0:0:
263,279,217011,1,10,0:0:0:0:
368,59,217199,5,10,0:0:0:0:
198,253,217386,1,10,0:0:0:0:
423,179,217574,5,14,0:0:0:0:
134,7,217949,1,14,0:0:0:0:
49,331,218324,1,8,0:0:0:0:
49,331,218417,1,8,0:0:0:0:
49,331,218511,1,10,0:0:0:0:
210,378,218699,2,0,L|215:265,1,111.799994882202,2|2,1:2|1:2,0:0:0:0:
225,98,219074,5,10,0:0:0:0:
400,235,219261,1,10,0:0:0:0:
145,201,219449,5,10,0:0:0:0:
354,104,219636,1,10,0:0:0:0:
109,28,219824,5,10,0:0:0:0:
283,203,220011,1,10,0:0:0:0:
20,158,220199,5,10,0:0:0:0:
269,78,220386,1,10,0:0:0:0:
89,261,220574,5,14,0:0:0:0:
413,344,220949,1,14,0:0:0:0:
309,24,221324,1,8,0:0:0:0:
309,24,221417,1,8,0:0:0:0:
309,24,221511,1,10,0:0:0:0:
144,57,221699,2,0,L|141:178,1,111.799994882202,2|2,1:2|1:2,0:0:0:0:
141,336,222074,5,10,0:0:0:0:
300,133,222261,1,10,0:0:0:0:
476,336,222449,5,10,0:0:0:0:
230,175,222636,1,10,0:0:0:0:
503,56,222824,5,10,0:0:0:0:
337,309,223011,1,10,0:0:0:0:
226,9,223199,5,10,0:0:0:0:
512,182,223386,1,10,0:0:0:0:
253,342,223574,5,14,0:0:0:0:
417,24,223949,1,14,0:0:0:0:
62,75,224324,1,8,0:0:0:0:
62,75,224417,1,8,0:0:0:0:
62,75,224511,1,10,0:0:0:0:
195,195,224699,2,0,L|205:82,1,111.799994882202,2|2,1:2|1:2,0:0:0:0:
11,161,225074,6,0,L|16:332,1,172,6|0,1:2|0:0,0:0:0:0:
99,377,225636,1,10,0:0:0:0:
180,333,225824,2,0,P|223:325|265:333,1,86,8|0,0:0|0:0,0:0:0:0:
349,377,226199,1,10,0:0:0:0:
432,332,226386,6,0,P|461:254|432:175,1,172,0|8,1:2|0:0,0:0:0:0:
348,128,226949,2,0,L|246:131,1,86,2|0,1:2|1:0,0:0:0:0:
91,247,227324,2,0,L|176:249,1,86,10|0,0:0|0:0,0:0:0:0:
271,254,227699,1,8,0:0:0:0:
178,89,228074,5,2,1:2:0:0:
235,14,228261,2,0,B|326:9|299:65|396:60,1,172,8|2,0:0|1:2,0:0:0:0:
478,12,228824,2,0,P|435:83|448:168,1,172,10|10,0:0|0:0,0:0:0:0:
478,258,229386,1,0,1:0:0:0:
299,194,229761,5,8,0:0:0:0:
218,244,229949,2,0,L|223:344,1,86,2|0,1:2|1:0,0:0:0:0:
385,202,230324,2,0,L|389:116,1,86,10|0,0:0|1:0,0:0:0:0:
393,21,230699,1,8,0:0:0:0:
224,107,231074,5,2,1:2:0:0:
153,44,231261,2,0,P|71:56|33:130,1,172,8|2,0:0|1:2,0:0:0:0:
61,220,231824,2,0,L|236:205,1,172,10|10,0:0|0:0,0:0:0:0:
326,196,232386,1,0,1:0:0:0:
198,335,232761,5,8,0:0:0:0:
282,291,232949,2,0,P|292:332|282:373,1,86,2|0,1:2|1:0,0:0:0:0:
75,373,233324,2,0,P|64:331|74:290,1,86,10|0,0:0|1:0,0:0:0:0:
110,202,233699,1,8,0:0:0:0:
24,33,234074,5,10,0:0:0:0:
261,188,234636,1,10,0:0:0:0:
238,69,234824,1,10,0:0:0:0:
109,207,235199,1,10,0:0:0:0:
185,262,235386,2,0,L|186:212,2,43,8|8|10,0:0|0:0|0:0,0:0:0:0:
