osu file format v14

[General]
AudioFilename: audio.mp3
AudioLeadIn: 0
PreviewTime: 194980
Countdown: 0
SampleSet: Soft
StackLeniency: 0.7
Mode: 0
LetterboxInBreaks: 0
WidescreenStoryboard: 0

[Editor]
DistanceSpacing: 1.1
BeatDivisor: 4
GridSize: 32
TimelineZoom: 1

[Metadata]
Title:DORAEMON
TitleUnicode:ドラえもん
Artist:Amatsuki
ArtistUnicode:天月
Creator:xHappy-
Version:Hard
Source:映画ドラえもん のび太の宝島
Tags:the Movie: Nobita's Treasure Island Eiga Nobita no Takarajima 星野源 HOSHINO GEN Cover Theme Song fujiko f. fujio 藤子・f・不二雄 p_kung [_lost_] c_o_n_n_e_r conner shockolatte -_frontier_- frontier
BeatmapID:2049098
BeatmapSetID:976896

[Difficulty]
HPDrainRate:5.5
CircleSize:3.8
OverallDifficulty:6
ApproachRate:7.6
SliderMultiplier:1.4
SliderTickRate:1

[Events]
//Background and Video events
0,0,"67540033_p0.jpg",0,0
//Break Periods
//Storyboard Layer 0 (Background)
//Storyboard Layer 1 (Fail)
//Storyboard Layer 2 (Pass)
//Storyboard Layer 3 (Foreground)
//Storyboard Sound Samples

[TimingPoints]
1574,375,4,2,1,52,1,0
1574,-125,4,2,1,52,0,0
4480,-125,4,2,1,5,0,0
4574,-111.111111111111,4,2,1,62,0,0
12074,-100,4,2,1,62,0,0
24074,-100,4,2,1,67,0,0
39074,-100,4,2,1,62,0,0
39449,-100,4,2,1,42,0,0
39636,-100,4,2,1,44,0,0
39824,-100,4,2,1,46,0,0
40011,-100,4,2,1,48,0,0
40199,-100,4,2,1,50,0,0
40386,-100,4,2,1,52,0,0
40574,-100,4,2,1,54,0,0
40761,-100,4,2,1,56,0,0
40949,-100,4,2,1,58,0,0
41136,-100,4,2,1,60,0,0
41324,-100,4,2,1,62,0,0
41511,-100,4,2,1,64,0,0
41699,-100,4,2,1,66,0,0
41886,-100,4,2,1,68,0,0
42074,-100,4,2,1,70,0,0
42261,-100,4,2,1,62,0,0
45449,-100,4,2,1,42,0,0
45636,-100,4,2,1,44,0,0
45824,-100,4,2,1,46,0,0
46011,-100,4,2,1,48,0,0
46199,-100,4,2,1,50,0,0
46386,-100,4,2,1,52,0,0
46574,-100,4,2,1,54,0,0
46761,-100,4,2,1,56,0,0
46949,-100,4,2,1,58,0,0
47136,-100,4,2,1,60,0,0
47324,-100,4,2,1,62,0,0
47511,-100,4,2,1,64,0,0
47699,-100,4,2,1,66,0,0
47792,-100,4,2,1,67,0,0
47886,-100,4,2,1,68,0,0
47980,-100,4,2,1,69,0,0
48074,-100,4,2,1,70,0,0
48261,-100,4,2,1,62,0,0
51167,-100,4,2,1,48,0,0
51261,-100,4,2,1,50,0,0
51355,-100,4,2,1,52,0,0
51449,-100,4,2,1,54,0,0
51542,-100,4,2,1,56,0,0
51636,-100,4,2,1,58,0,0
51730,-100,4,2,1,60,0,0
51824,-100,4,2,1,62,0,0
52011,-100,4,2,1,57,0,0
52199,-100,4,2,1,62,0,0
52386,-100,4,2,1,67,0,0
52574,-90.9090909090909,4,2,1,72,0,1
64011,-90.9090909090909,4,2,1,72,0,0
64574,-90.9090909090909,4,2,1,72,0,1
76574,-111.111111111111,4,2,1,62,0,0
87074,-100,4,2,1,67,0,0
102449,-100,4,2,1,42,0,0
102636,-100,4,2,1,44,0,0
102824,-100,4,2,1,46,0,0
103011,-100,4,2,1,48,0,0
103199,-100,4,2,1,50,0,0
103386,-100,4,2,1,52,0,0
103574,-100,4,2,1,54,0,0
103761,-100,4,2,1,56,0,0
103949,-100,4,2,1,58,0,0
104136,-100,4,2,1,60,0,0
104324,-100,4,2,1,62,0,0
104511,-100,4,2,1,64,0,0
104699,-100,4,2,1,66,0,0
104886,-100,4,2,1,68,0,0
105074,-100,4,2,1,70,0,0
105261,-100,4,2,1,62,0,0
108449,-100,4,2,1,42,0,0
108636,-100,4,2,1,44,0,0
108824,-100,4,2,1,46,0,0
109011,-100,4,2,1,48,0,0
109199,-100,4,2,1,50,0,0
109386,-100,4,2,1,52,0,0
109574,-100,4,2,1,54,0,0
109761,-100,4,2,1,56,0,0
109949,-100,4,2,1,58,0,0
110136,-100,4,2,1,60,0,0
110324,-100,4,2,1,62,0,0
110511,-100,4,2,1,64,0,0
110699,-100,4,2,1,66,0,0
110792,-100,4,2,1,67,0,0
110886,-100,4,2,1,68,0,0
110980,-100,4,2,1,69,0,0
111074,-100,4,2,1,70,0,0
111261,-100,4,2,1,62,0,0
114167,-100,4,2,1,48,0,0
114261,-100,4,2,1,50,0,0
114355,-100,4,2,1,52,0,0
114449,-100,4,2,1,54,0,0
114542,-100,4,2,1,56,0,0
114636,-100,4,2,1,58,0,0
114730,-100,4,2,1,60,0,0
114824,-100,4,2,1,62,0,0
115011,-100,4,2,1,57,0,0
115199,-100,4,2,1,62,0,0
115386,-100,4,2,1,67,0,0
115574,-90.9090909090909,4,2,1,72,0,1
127011,-90.9090909090909,4,2,1,72,0,0
127574,-90.9090909090909,4,2,1,72,0,1
139574,-111.111111111111,4,2,1,62,0,0
140699,-111.111111111111,4,2,1,42,0,0
141074,-111.111111111111,4,2,1,62,0,0
143699,-111.111111111111,4,2,1,42,0,0
144074,-111.111111111111,4,2,1,62,0,0
146699,-111.111111111111,4,2,1,42,0,0
147074,-111.111111111111,4,2,1,62,0,0
151199,-111.111111111111,4,2,1,42,0,0
151574,-111.111111111111,4,2,1,62,0,0
154199,-111.111111111111,4,2,1,42,0,0
154574,-111.111111111111,4,2,1,62,0,0
157199,-111.111111111111,4,2,1,42,0,0
157574,-111.111111111111,4,2,1,62,0,0
160574,-100,4,2,1,62,0,0
160949,-100,4,2,1,42,0,0
161136,-100,4,2,1,44,0,0
161324,-100,4,2,1,46,0,0
161511,-100,4,2,1,48,0,0
161699,-100,4,2,1,50,0,0
161886,-100,4,2,1,52,0,0
162074,-100,4,2,1,54,0,0
162261,-100,4,2,1,56,0,0
162449,-100,4,2,1,58,0,0
162636,-100,4,2,1,60,0,0
162824,-100,4,2,1,62,0,0
163011,-100,4,2,1,64,0,0
163199,-100,4,2,1,66,0,0
163386,-100,4,2,1,68,0,0
163574,-100,4,2,1,70,0,0
163761,-100,4,2,1,62,0,0
166949,-100,4,2,1,42,0,0
167136,-100,4,2,1,44,0,0
167324,-100,4,2,1,46,0,0
167511,-100,4,2,1,48,0,0
167699,-100,4,2,1,50,0,0
167886,-100,4,2,1,52,0,0
168074,-100,4,2,1,54,0,0
168261,-100,4,2,1,56,0,0
168449,-100,4,2,1,58,0,0
168636,-100,4,2,1,60,0,0
168824,-100,4,2,1,62,0,0
169011,-100,4,2,1,64,0,0
169199,-100,4,2,1,66,0,0
169292,-100,4,2,1,67,0,0
169386,-100,4,2,1,68,0,0
169480,-100,4,2,1,69,0,0
169574,-100,4,2,1,70,0,0
169761,-100,4,2,1,62,0,0
172667,-100,4,2,1,48,0,0
172761,-100,4,2,1,50,0,0
172855,-100,4,2,1,52,0,0
172949,-100,4,2,1,54,0,0
173042,-100,4,2,1,56,0,0
173136,-100,4,2,1,58,0,0
173230,-100,4,2,1,60,0,0
173324,-100,4,2,1,62,0,0
173417,-100,4,2,1,60,0,0
173511,-100,4,2,1,58,0,0
173605,-100,4,2,1,56,0,0
173699,-100,4,2,1,54,0,0
173792,-100,4,2,1,56,0,0
173886,-100,4,2,1,58,0,0
173980,-100,4,2,1,60,0,0
174074,-125,4,2,1,62,0,0
174261,-125,4,2,1,52,0,0
180074,-111.111111111111,4,2,1,52,0,0
180261,-111.111111111111,4,2,1,44,0,0
180449,-111.111111111111,4,2,1,56,0,0
180636,-111.111111111111,4,2,1,48,0,0
180824,-111.111111111111,4,2,1,60,0,0
181011,-111.111111111111,4,2,1,52,0,0
181199,-111.111111111111,4,2,1,64,0,0
181386,-111.111111111111,4,2,1,56,0,0
181574,-111.111111111111,4,2,1,68,0,0
181761,-111.111111111111,4,2,1,60,0,0
181949,-111.111111111111,4,2,1,72,0,0
182136,-111.111111111111,4,2,1,64,0,0
182324,-111.111111111111,4,2,1,76,0,0
182511,-111.111111111111,4,2,1,68,0,0
182699,-111.111111111111,4,2,1,80,0,0
182792,-111.111111111111,4,2,1,71,0,0
182886,-111.111111111111,4,2,1,72,0,0
182980,-111.111111111111,4,2,1,73,0,0
183074,-100,4,2,1,74,0,0
183261,-100,4,2,1,67,0,0
192074,-100,4,2,1,44,0,0
192261,-100,4,2,1,46,0,0
192449,-100,4,2,1,48,0,0
192636,-100,4,2,1,50,0,0
192824,-100,4,2,1,52,0,0
193011,-100,4,2,1,54,0,0
193199,-100,4,2,1,56,0,0
193386,-100,4,2,1,58,0,0
193574,-100,4,2,1,60,0,0
193761,-100,4,2,1,62,0,0
193949,-100,4,2,1,64,0,0
194136,-100,4,2,1,66,0,0
194324,-100,4,2,1,68,0,0
194417,-100,4,2,1,69,0,0
194511,-100,4,2,1,70,0,0
194699,-100,4,2,1,62,0,0
194886,-100,4,2,1,57,0,0
195074,-83.3333333333333,4,2,1,82,0,1
206511,-83.3333333333333,4,2,1,82,0,0
207074,-76.9230769230769,4,2,1,92,0,1
225074,-100,4,2,1,72,0,0

[Colours]
Combo1 : 233,178,77
Combo2 : 111,130,0
Combo3 : 58,103,106
Combo4 : 216,72,9

[HitObjects]
416,352,1574,6,0,P|473:335|491:235,1,168,10|10,0:0|0:0,0:0:0:0:
455,168,2324,1,10,0:0:0:0:
303,207,2699,1,10,0:0:0:0:
37,39,3449,5,10,0:0:0:0:
193,47,3824,1,10,0:0:0:0:
349,56,4199,1,4,3:0:0:0:
254,173,4574,6,0,B|148:163|185:223|73:217,1,188.999994232178,6|10,1:2|0:0,0:0:0:0:
8,182,5324,2,0,P|42:225|50:296,1,125.999996154785,10|10,0:0|0:0,0:0:0:0:
33,367,5886,1,0,1:2:0:0:
173,311,6261,1,8,0:0:0:0:
173,311,6449,2,0,L|240:314,1,62.9999980773926,2|0,1:2|1:0,0:0:0:0:
296,359,6824,2,0,P|308:295|268:246,1,125.999996154785,10|8,0:0|0:0,0:0:0:0:
160,148,7574,5,2,1:2:0:0:
160,148,7761,2,0,P|215:144|274:104,1,125.999996154785,8|2,0:0|1:2,0:0:0:0:
301,34,8324,2,0,P|305:89|345:148,1,125.999996154785,10|10,0:0|0:0,0:0:0:0:
397,199,8886,1,0,1:2:0:0:
288,304,9261,1,8,0:0:0:0:
288,304,9449,2,0,L|221:308,1,62.9999980773926,2|0,1:2|1:0,0:0:0:0:
158,272,9824,2,0,L|91:268,2,62.9999980773926,10|0|8,0:2|1:0|0:0,0:0:0:0:
256,157,10574,5,10,0:0:0:0:
86,6,11136,1,10,0:0:0:0:
86,6,11324,1,10,0:0:0:0:
11,137,11699,2,0,L|7:179,3,31.4999990386963,10|8|8|8,0:0|0:0|0:0|0:0,0:0:0:0:
3,206,12074,6,0,P|8:265|69:317,1,140,6|8,1:2|0:0,0:0:0:0:
143,299,12636,1,2,1:2:0:0:
143,299,12824,2,0,B|222:291|196:342|273:336,1,140,2|10,1:2|0:0,0:0:0:0:
347,314,13386,1,2,1:2:0:0:
347,314,13574,1,2,1:2:0:0:
255,190,13949,1,10,0:0:0:0:
380,101,14324,2,0,L|389:175,2,70,2|0|8,1:2|1:2|0:0,0:0:0:0:
255,9,15074,6,0,P|185:7|126:44,1,140,2|8,1:2|0:0,0:0:0:0:
69,93,15636,1,2,1:2:0:0:
69,93,15824,2,0,L|89:231,1,140,2|10,1:2|0:0,0:0:0:0:
108,313,16386,1,2,1:2:0:0:
108,313,16574,1,2,1:2:0:0:
261,301,16949,2,0,L|333:298,1,70,10|2,0:0|1:2,0:0:0:0:
395,340,17324,2,0,P|403:276|352:225,1,140,2|10,1:2|0:2,0:0:0:0:
242,118,18074,6,0,B|317:125|306:86|379:93,1,140,2|8,1:2|0:0,0:0:0:0:
431,38,18636,1,2,1:2:0:0:
431,38,18824,2,0,P|451:113|413:161,1,140,2|10,1:2|0:0,0:0:0:0:
345,187,19386,1,2,1:2:0:0:
345,187,19574,1,2,1:2:0:0:
254,311,19949,1,10,0:0:0:0:
167,187,20324,2,0,L|97:196,2,70,2|0|8,1:2|1:0|0:0,0:0:0:0:
18,145,21074,6,0,P|6:216|41:273,1,140,2|8,1:2|0:0,0:0:0:0:
34,348,21636,1,2,1:2:0:0:
34,348,21824,2,0,P|51:281|108:243,1,140,2|10,1:2|0:0,0:0:0:0:
183,231,22386,1,2,1:2:0:0:
183,231,22574,1,2,1:2:0:0:
288,118,22949,1,10,0:2:0:0:
160,32,23324,2,0,L|88:36,2,70,2|0|8,1:2|1:0|0:0,0:0:0:0:
38,126,24074,6,0,B|116:116|96:159|177:150,1,140,6|8,1:2|0:0,0:0:0:0:
247,132,24636,1,2,1:2:0:0:
247,132,24824,2,0,P|252:78|319:35,1,140,2|10,1:2|0:0,0:0:0:0:
397,38,25386,1,2,1:2:0:0:
397,38,25574,1,2,1:2:0:0:
510,141,25949,1,10,0:0:0:0:
364,192,26324,2,0,L|294:197,2,70,2|0|8,1:2|1:2|0:0,0:0:0:0:
220,134,27074,6,0,P|196:200|223:266,1,140,2|8,1:2|0:0,0:0:0:0:
153,301,27636,1,2,1:2:0:0:
153,301,27824,2,0,P|109:252|36:232,1,140,2|10,1:2|0:0,0:0:0:0:
26,155,28386,1,2,1:2:0:0:
26,155,28574,1,2,1:2:0:0:
121,33,28949,2,0,L|193:36,1,70,10|2,0:0|1:2,0:0:0:0:
252,82,29324,2,0,P|317:74|375:25,1,140,2|10,1:2|0:0,0:0:0:0:
510,98,30074,6,0,P|444:105|386:154,1,140,2|8,1:2|0:0,0:0:0:0:
334,205,30636,1,2,1:2:0:0:
334,205,30824,2,0,B|280:202|280:202|251:212|251:212|193:208,1,140,2|10,1:2|0:0,0:0:0:0:
119,202,31386,1,2,1:2:0:0:
119,202,31574,1,2,1:2:0:0:
195,335,31949,1,10,0:0:0:0:
45,370,32324,2,0,P|28:345|23:280,2,70,2|0|8,1:2|1:0|0:0,0:0:0:0:
12,218,33074,6,0,P|70:218|112:153,1,140,2|8,1:2|0:0,0:0:0:0:
89,80,33636,1,2,1:2:0:0:
89,80,33824,2,0,B|125:104|125:104|222:99,1,140,2|10,1:2|0:0,0:0:0:0:
298,96,34386,1,2,1:2:0:0:
298,96,34574,1,2,1:2:0:0:
386,221,34949,1,10,0:2:0:0:
477,96,35324,2,0,L|490:168,2,70,2|0|8,1:2|1:0|0:0,0:0:0:0:
500,248,36074,6,0,P|439:241|387:294,1,140,2|8,1:2|0:0,0:0:0:0:
349,360,36636,1,2,1:2:0:0:
349,360,36824,2,0,P|288:367|236:314,1,140,2|10,1:2|0:0,0:0:0:0:
218,239,37386,1,2,1:2:0:0:
218,239,37574,1,2,1:2:0:0:
344,151,37949,1,10,0:0:0:0:
218,61,38324,6,0,L|184:54,2,35,10|8|8,0:0|0:0|0:0,0:0:0:0:
294,71,38699,1,8,0:3:0:0:
294,71,38886,1,4,0:3:0:0:
370,55,39074,6,0,P|388:86|384:186,1,140,6|8,1:2|0:0,0:0:0:0:
336,247,39636,1,10,0:0:0:0:
277,197,39824,2,0,L|201:201,1,70,10|8,0:0|0:0,0:0:0:0:
155,258,40199,2,0,L|79:254,1,70,8|8,0:0|0:0,0:0:0:0:
21,210,40574,2,0,P|7:243|16:290,2,70,10|8|8,0:0|0:0|0:0,0:0:0:0:
86,170,41136,1,10,0:0:0:0:
35,111,41324,2,0,P|21:78|30:31,1,70,10|8,0:0|0:0,0:0:0:0:
98,66,41699,2,0,L|174:70,1,70,8|8,0:0|0:0,0:0:0:0:
245,71,42074,5,6,1:2:0:0:
398,60,42449,2,0,L|395:101,3,35,10|8|8|8,0:0|0:0|0:0|0:0,0:0:0:0:
393,133,42824,1,6,1:2:0:0:
274,231,43199,2,0,L|277:272,3,35,10|8|8|8,0:0|0:0|0:0|0:0,0:0:0:0:
279,304,43574,1,6,1:2:0:0:
412,380,43949,2,0,L|409:345,3,35,10|8|8|8,0:0|0:0|0:0|0:0,0:0:0:0:
407,307,44324,1,6,1:2:0:0:
343,263,44511,1,8,1:3:0:0:
279,304,44699,2,0,L|197:309,1,70,2|4,1:2|1:3,0:0:0:0:
146,353,45074,6,0,P|194:291|182:230,1,140,6|8,1:2|0:0,0:0:0:0:
136,174,45636,1,10,0:0:0:0:
183,113,45824,2,0,L|253:117,1,70,10|8,0:0|0:0,0:0:0:0:
308,170,46199,2,0,L|378:166,1,70,8|8,0:0|0:0,0:0:0:0:
435,217,46574,2,0,P|454:182|452:146,2,70,10|8|8,0:0|0:0|0:0,0:0:0:0:
370,258,47136,1,10,0:0:0:0:
432,303,47324,2,0,P|451:338|449:374,1,70,10|8,0:0|0:0,0:0:0:0:
374,356,47699,2,0,L|338:360,3,35,8|8|8|8,0:0|0:0|0:0|0:0,0:0:0:0:
300,361,48074,6,0,B|237:338|237:384|163:361,1,140,6|10,1:2|0:0,0:0:0:0:
91,333,48636,2,0,P|50:282|53:209,1,140,6|2,1:2|1:2,0:0:0:0:
74,136,49199,1,8,0:0:0:0:
148,153,49386,2,0,P|194:159|255:93,1,140,6|2,1:2|1:2,0:0:0:0:
245,19,49949,1,8,0:0:0:0:
321,13,50136,2,0,B|394:10|376:51|454:48,1,140,6|2,1:2|1:2,0:0:0:0:
506,104,50699,2,0,P|501:145|479:176,1,70,10|0,0:2|0:0,0:0:0:0:
417,204,51074,6,0,L|416:243,3,35,8|8|8|8,0:0|0:0|0:0|0:0,0:0:0:0:
439,265,51449,2,0,L|440:304,3,35,8|8|8|8,0:0|0:0|0:0|0:0,0:0:0:0:
457,330,51824,1,8,0:0:0:0:
391,367,52011,5,2,0:0:0:0:
308,383,52199,1,2,0:0:0:0:
259,315,52386,1,2,0:0:0:0:
270,231,52574,6,0,B|193:228|211:274|124:270,1,154.000004699707,14|10,0:0|0:0,0:0:0:0:
18,137,53324,2,0,L|26:61,1,77.0000023498536,10|2,0:0|1:2,0:0:0:0:
100,18,53699,2,0,L|108:94,1,77.0000023498536,10|2,0:0|1:2,0:0:0:0:
179,140,54074,2,0,P|246:132|297:68,1,154.000004699707,10|8,0:0|0:0,0:0:0:0:
467,65,54824,2,0,P|449:108|453:144,1,77.0000023498536,10|2,0:0|1:2,0:0:0:0:
476,218,55199,1,10,0:0:0:0:
476,218,55386,1,2,1:2:0:0:
391,210,55574,6,0,B|340:207|340:207|291:220|291:220|233:216,1,154.000004699707,10|10,0:0|0:0,0:0:0:0:
153,69,56324,2,0,P|121:87|103:131,1,77.0000023498536,10|2,0:0|1:2,0:0:0:0:
24,91,56699,2,0,P|14:126|32:170,1,77.0000023498536,10|2,0:0|1:2,0:0:0:0:
8,246,57074,2,0,B|99:248|73:195|156:197,2,154.000004699707,10|10|10,0:0|0:0|0:0,0:0:0:0:
0,330,58011,1,0,1:2:0:0:
0,330,58199,2,0,L|89:323,1,77.0000023498536,10|0,0:0|1:2,0:0:0:0:
154,289,58574,6,0,P|237:280|298:321,2,154.000004699707,10|8|10,0:0|0:0|0:0,0:0:0:0:
76,323,59511,1,0,1:2:0:0:
76,323,59699,1,8,0:0:0:0:
35,249,59886,2,0,L|43:171,1,77.0000023498536,2|8,1:2|0:2,0:0:0:0:
10,93,60261,2,0,P|49:87|87:100,1,77.0000023498536,2|8,0:2|0:2,0:0:0:0:
155,143,60636,2,0,P|194:149|232:136,1,77.0000023498536,2|8,0:2|0:0,0:0:0:0:
300,92,61011,1,2,1:2:0:0:
300,92,61199,2,0,P|336:80|374:86,1,77.0000023498536,10|2,0:0|1:2,0:0:0:0:
451,119,61574,5,10,0:0:0:0:
407,191,61761,1,10,0:0:0:0:
451,263,61949,1,10,0:0:0:0:
407,335,62136,1,10,0:0:0:0:
331,296,62324,2,0,L|251:290,1,77.0000023498536,10|10,0:0|0:0,0:0:0:0:
193,230,62699,2,0,L|113:236,1,77.0000023498536,10|10,0:0|0:0,0:0:0:0:
46,284,63074,5,14,0:0:0:0:
97,122,63449,1,14,0:0:0:0:
257,176,63824,1,8,0:0:0:0:
257,176,63917,1,8,0:0:0:0:
257,176,64011,1,10,0:0:0:0:
327,128,64199,2,0,L|391:175,1,77.0000023498536,2|2,1:2|1:2,0:0:0:0:
460,126,64574,6,0,P|457:65|384:20,1,154.000004699707,14|10,0:2|0:2,0:0:0:0:
213,24,65324,2,0,P|214:66|192:102,1,77.0000023498536,10|2,0:0|1:2,0:0:0:0:
270,139,65699,2,0,P|241:169|199:179,1,77.0000023498536,10|2,0:0|1:2,0:0:0:0:
126,201,66074,2,0,B|203:198|192:244|271:242,1,154.000004699707,10|8,0:0|0:0,0:0:0:0:
439,263,66824,2,0,P|400:261|366:278,1,77.0000023498536,10|2,0:2|1:2,0:0:0:0:
423,341,67199,1,10,0:0:0:0:
423,341,67386,1,2,1:2:0:0:
502,311,67574,6,0,P|517:254|455:185,1,154.000004699707,10|10,0:0|0:0,0:0:0:0:
290,184,68324,2,0,P|259:199|208:192,1,77.0000023498536,10|2,0:0|1:2,0:0:0:0:
200,278,68699,2,0,P|165:265|141:236,1,77.0000023498536,10|2,0:0|1:2,0:0:0:0:
98,162,69074,2,0,P|121:229|70:298,2,154.000004699707,10|10|10,0:0|0:0|0:0,0:0:0:0:
25,118,70011,1,0,1:2:0:0:
25,118,70199,2,0,P|52:86|84:77,1,77.0000023498536,10|0,0:0|1:2,0:0:0:0:
169,70,70574,6,0,B|250:64|229:113|314:107,2,154.000004699707,10|8|10,0:0|0:0|0:0,0:0:0:0:
84,76,71511,1,0,1:2:0:0:
84,76,71699,1,8,0:0:0:0:
29,140,71886,2,0,L|36:217,1,77.0000023498536,2|8,1:2|0:0,0:0:0:0:
6,296,72261,2,0,P|48:300|86:284,1,77.0000023498536,2|8,0:2|0:0,0:0:0:0:
141,229,72636,2,0,P|183:225|221:241,1,77.0000023498536,2|8,0:2|0:0,0:0:0:0:
268,303,73011,1,2,1:2:0:0:
268,303,73199,2,0,P|310:307|348:291,1,77.0000023498536,10|2,0:0|1:2,0:0:0:0:
414,250,73574,5,10,0:0:0:0:
356,187,73761,1,8,0:0:0:0:
414,125,73949,1,10,0:0:0:0:
356,62,74136,1,10,0:0:0:0:
273,80,74324,2,0,P|232:85|198:77,1,77.0000023498536,10|10,0:0|0:0,0:0:0:0:
127,28,74699,2,0,P|86:23|52:31,1,77.0000023498536,10|10,0:0|0:0,0:0:0:0:
0,98,75074,5,14,0:0:0:0:
98,235,75449,1,14,0:0:0:0:
256,175,75824,1,8,0:0:0:0:
256,175,75917,1,8,0:0:0:0:
256,175,76011,1,10,0:0:0:0:
324,125,76199,2,0,L|387:172,1,77.0000023498536,2|2,1:2|1:2,0:0:0:0:
363,250,76574,6,0,B|258:240|287:290|180:280,1,188.999994232178,6|10,1:2|0:0,0:0:0:0:
115,319,77324,2,0,P|103:269|148:211,1,125.999996154785,10|10,0:0|0:0,0:0:0:0:
218,194,77886,1,0,1:2:0:0:
297,65,78261,1,8,0:0:0:0:
297,65,78449,2,0,L|232:69,1,62.9999980773926,2|0,1:2|1:0,0:0:0:0:
164,38,78824,2,0,L|99:34,2,62.9999980773926,10|2|10,0:2|3:2|3:2,0:0:0:0:
62,150,79574,5,2,1:2:0:0:
133,126,79761,2,0,P|193:142|221:199,1,125.999996154785,8|2,0:0|1:2,0:0:0:0:
207,270,80324,2,0,B|144:262|155:299|84:291,1,125.999996154785,10|10,0:0|0:0,0:0:0:0:
15,261,80886,1,0,1:0:0:0:
120,369,81261,1,8,0:0:0:0:
120,369,81449,2,0,L|183:361,1,62.9999980773926,2|0,1:2|1:0,0:0:0:0:
253,334,81824,2,0,L|316:342,1,62.9999980773926,10|0,3:2|0:0,0:0:0:0:
390,350,82199,1,10,3:2:0:0:
327,212,82574,5,2,1:2:0:0:
255,186,82761,2,0,P|199:183|143:222,1,125.999996154785,8|2,0:0|1:2,0:0:0:0:
82,176,83324,2,0,P|116:131|116:63,1,125.999996154785,10|10,0:0|0:0,0:0:0:0:
75,0,83886,1,0,1:2:0:0:
224,34,84261,1,8,0:0:0:0:
224,34,84449,2,0,P|251:43|287:41,1,62.9999980773926,2|0,1:2|1:0,0:0:0:0:
350,3,84824,2,0,P|359:30|355:70,1,62.9999980773926,10|0,3:2|1:0,0:0:0:0:
334,136,85199,1,10,3:2:0:0:
225,241,85574,5,10,0:0:0:0:
50,95,86136,1,10,0:0:0:0:
50,95,86324,1,10,0:0:0:0:
178,14,86699,2,0,L|211:11,3,31.4999990386963,10|8|8|8,0:0|0:0|0:0|0:0,0:0:0:0:
247,8,87074,6,0,P|308:11|361:67,1,140,6|8,1:2|0:0,0:0:0:0:
332,137,87636,1,2,1:2:0:0:
332,137,87824,2,0,B|258:147|273:105|196:116,1,140,2|10,1:2|0:2,0:0:0:0:
120,130,88386,1,2,1:2:0:0:
120,130,88574,1,2,1:2:0:0:
221,245,88949,1,10,0:2:0:0:
106,347,89324,2,0,L|98:277,2,70,2|0|8,1:2|1:0|0:0,0:0:0:0:
37,209,90074,6,0,B|75:231|75:231|176:217,1,140,2|8,1:2|0:0,0:0:0:0:
246,210,90636,1,2,1:2:0:0:
246,210,90824,2,0,B|284:188|284:188|385:202,1,140,2|10,1:2|0:0,0:0:0:0:
456,211,91386,1,2,1:2:0:0:
456,211,91574,1,2,1:2:0:0:
378,79,91949,2,0,L|307:69,1,70,10|2,0:0|1:2,0:0:0:0:
232,56,92324,2,0,P|166:54|119:110,1,140,2|10,1:2|0:0,0:0:0:0:
176,249,93074,6,0,P|215:196|196:125,1,140,2|8,1:2|0:0,0:0:0:0:
141,179,93636,1,2,1:2:0:0:
141,179,93824,2,0,P|106:211|113:298,1,140,2|10,1:2|0:2,0:0:0:0:
179,345,94386,1,2,1:2:0:0:
179,345,94574,1,2,1:2:0:0:
308,261,94949,1,10,0:0:0:0:
229,128,95324,2,0,L|236:213,2,70,2|0|8,1:2|1:0|0:0,0:0:0:0:
363,51,96074,6,0,L|374:190,1,140,2|8,1:2|0:0,0:0:0:0:
381,266,96636,1,2,1:2:0:0:
381,266,96824,2,0,B|329:262|329:262|296:270|296:270|241:266,1,140,2|10,1:2|0:0,0:0:0:0:
165,262,97386,1,2,1:2:0:0:
165,262,97574,1,2,1:2:0:0:
272,151,97949,1,10,0:0:0:0:
165,40,98324,2,0,L|95:46,2,70,2|0|8,1:2|1:2|0:0,0:0:0:0:
14,8,99074,6,0,P|9:76|59:128,1,140,2|8,1:2|0:0,0:0:0:0:
131,118,99636,1,2,1:2:0:0:
131,118,99824,2,0,B|205:114|184:162|260:160,1,140,2|10,1:2|0:0,0:0:0:0:
336,149,100386,1,2,1:2:0:0:
336,149,100574,1,2,1:2:0:0:
222,253,100949,1,10,0:2:0:0:
359,322,101324,6,0,L|355:359,2,35,10|8|8,0:0|0:0|0:0,0:0:0:0:
371,245,101699,1,8,0:3:0:0:
371,245,101886,1,4,0:3:0:0:
440,212,102074,6,0,P|383:164|321:178,1,140,6|8,1:2|0:0,0:0:0:0:
262,223,102636,1,10,0:0:0:0:
197,180,102824,2,0,L|123:183,1,70,10|8,0:0|0:0,0:0:0:0:
61,142,103199,2,0,P|51:177|58:216,1,70,8|8,0:0|0:0,0:0:0:0:
72,285,103574,2,0,L|2:282,2,70,10|8|8,0:0|0:0|0:0,0:0:0:0:
144,259,104136,1,10,0:0:0:0:
216,285,104324,2,0,L|285:282,1,70,10|8,0:0|0:0,0:0:0:0:
343,333,104699,2,0,L|412:335,1,70,8|8,0:0|0:0,0:0:0:0:
465,279,105074,5,4,1:2:0:0:
324,215,105449,2,0,L|327:180,3,35,10|8|8|8,0:0|0:0|0:0|0:0,0:0:0:0:
332,142,105824,1,6,1:2:0:0:
224,31,106199,2,0,L|228:69,3,35,10|8|8|8,0:0|0:0|0:0|0:0,0:0:0:0:
232,104,106574,1,6,1:2:0:0:
125,215,106949,2,0,L|129:177,3,35,10|8|8|8,0:0|0:0|0:0|0:0,0:0:0:0:
133,142,107324,1,6,1:2:0:0:
76,89,107511,1,8,1:3:0:0:
18,140,107699,2,0,L|13:214,1,70,2|4,1:2|1:3,0:0:0:0:
41,281,108074,6,0,B|90:264|90:264|182:278,1,140,6|8,1:2|0:0,0:0:0:0:
237,324,108636,1,10,0:0:0:0:
305,287,108824,2,0,P|322:257|325:223,1,70,10|8,0:0|0:0,0:0:0:0:
284,156,109199,2,0,P|267:126|264:92,1,70,8|8,0:0|0:0,0:0:0:0:
328,48,109574,2,0,L|405:44,2,70,10|8|8,0:0|0:0|0:0,0:0:0:0:
258,13,110136,1,10,0:0:0:0:
189,48,110324,2,0,L|112:44,1,70,10|8,0:0|0:0,0:0:0:0:
41,43,110699,2,0,L|49:81,3,35,8|8|8|8,0:0|0:0|0:0|0:0,0:0:0:0:
60,113,111074,6,0,P|75:167|60:249,1,140,4|10,1:2|0:0,0:0:0:0:
27,317,111636,2,0,P|66:266|139:272,1,140,6|2,1:2|1:2,0:0:0:0:
203,307,112199,1,8,0:0:0:0:
262,258,112386,2,0,L|248:112,1,140,6|2,1:2|1:2,0:0:0:0:
239,41,112949,1,8,0:0:0:0:
162,47,113136,2,0,B|89:44|107:85|29:82,1,140,6|2,1:2|1:2,0:0:0:0:
0,154,113699,2,0,P|14:181|10:227,1,70,10|0,0:0|0:0,0:0:0:0:
11,296,114074,6,0,L|9:334,3,35,8|8|8|8,0:0|0:0|0:0|0:0,0:0:0:0:
47,338,114449,2,0,L|49:376,3,35,8|8|8|8,0:0|0:0|0:0|0:0,0:0:0:0:
87,375,114824,1,8,0:0:0:0:
163,372,115011,5,2,0:0:0:0:
142,290,115199,1,2,0:0:0:0:
223,268,115386,1,2,0:0:0:0:
247,349,115574,6,0,P|304:292|292:221,1,154.000004699707,14|10,0:0|0:0,0:0:0:0:
142,290,116324,2,0,P|122:253|124:211,1,77.0000023498536,10|2,0:0|1:2,0:0:0:0:
49,173,116699,2,0,P|76:146|113:136,1,77.0000023498536,10|2,0:0|1:2,0:0:0:0:
136,54,117074,2,0,B|213:49|203:95|283:92,1,154.000004699707,10|8,0:0|0:0,0:0:0:0:
437,25,117824,2,0,P|455:62|454:109,1,77.0000023498536,10|2,0:0|1:2,0:0:0:0:
434,179,118199,1,10,0:2:0:0:
434,179,118386,1,2,1:2:0:0:
472,254,118574,6,0,P|400:254|348:191,1,154.000004699707,10|10,0:0|0:0,0:0:0:0:
246,60,119324,2,0,L|230:140,1,77.0000023498536,10|2,0:0|1:2,0:0:0:0:
147,150,119699,2,0,L|163:230,1,77.0000023498536,10|2,0:0|1:2,0:0:0:0:
191,305,120074,2,0,B|271:305|254:350|334:350,2,154.000004699707,10|10|10,0:0|0:0|0:0,0:0:0:0:
124,357,121011,1,0,1:2:0:0:
123,357,121199,2,0,P|107:318|111:282,1,77.0000023498536,10|0,0:0|1:0,0:0:0:0:
54,220,121574,6,0,B|108:237|108:237|205:222,2,154.000004699707,10|8|10,0:0|0:0|0:0,0:0:0:0:
5,150,122511,1,0,1:2:0:0:
5,150,122699,1,8,0:0:0:0:
54,81,122886,2,0,B|83:76|83:76|135:83,1,77.0000023498536,2|8,1:2|0:2,0:0:0:0:
211,105,123261,2,0,B|240:110|240:110|292:103,1,77.0000023498536,2|8,0:2|0:2,0:0:0:0:
369,81,123636,2,0,B|398:76|398:76|450:83,1,77.0000023498536,2|8,0:2|0:2,0:0:0:0:
511,144,124011,1,2,1:2:0:0:
511,144,124199,2,0,L|506:228,1,77.0000023498536,10|2,0:0|1:2,0:0:0:0:
496,305,124574,5,10,0:0:0:0:
421,344,124761,1,10,0:0:0:0:
345,305,124949,1,10,0:0:0:0:
270,344,125136,1,10,0:0:0:0:
194,305,125324,2,0,P|185:264|194:230,1,77.0000023498536,10|10,0:0|0:0,0:0:0:0:
239,159,125699,2,0,P|248:118|239:84,1,77.0000023498536,10|10,0:0|0:0,0:0:0:0:
198,10,126074,5,14,0:0:0:0:
69,120,126449,1,14,0:0:0:0:
193,230,126824,1,8,0:0:0:0:
193,230,126917,1,8,0:0:0:0:
193,230,127011,1,10,0:0:0:0:
276,243,127199,2,0,L|327:175,1,77.0000023498536,2|2,1:2|1:2,0:0:0:0:
321,100,127574,6,0,P|279:57|171:67,1,154.000004699707,14|10,0:0|0:0,0:0:0:0:
20,66,128324,2,0,P|27:106|20:142,1,77.0000023498536,10|2,0:2|1:2,0:0:0:0:
100,168,128699,2,0,P|76:201|46:221,1,77.0000023498536,10|2,0:2|1:2,0:0:0:0:
26,303,129074,2,0,P|71:298|169:337,1,154.000004699707,10|8,0:0|0:0,0:0:0:0:
296,224,129824,2,0,P|263:200|243:170,1,77.0000023498536,10|2,0:2|1:2,0:0:0:0:
216,89,130199,1,10,0:2:0:0:
216,89,130386,1,2,1:2:0:0:
257,14,130574,6,0,P|314:5|387:74,1,154.000004699707,10|10,0:0|0:0,0:0:0:0:
440,223,131324,2,0,P|400:227|370:248,1,77.0000023498536,10|2,0:2|1:2,0:0:0:0:
313,184,131699,2,0,P|287:215|281:251,1,77.0000023498536,10|2,0:2|1:2,0:0:0:0:
293,334,132074,2,0,B|212:340|234:287|146:294,2,154.000004699707,10|10|10,0:0|0:0|0:0,0:0:0:0:
377,336,133011,1,0,1:0:0:0:
377,336,133199,2,0,L|453:333,1,77.0000023498536,10|0,0:0|1:0,0:0:0:0:
480,252,133574,6,0,L|315:258,2,154.000004699707,10|8|10,0:0|0:0|0:0,0:0:0:0:
511,173,134511,1,0,1:0:0:0:
511,173,134699,1,8,0:0:0:0:
465,101,134886,2,0,L|377:104,1,77.0000023498536,2|8,1:2|0:0,0:0:0:0:
316,148,135261,2,0,L|228:145,1,77.0000023498536,2|8,0:2|0:0,0:0:0:0:
166,101,135636,2,0,L|78:104,1,77.0000023498536,2|8,0:2|0:0,0:0:0:0:
21,52,136011,1,2,1:2:0:0:
21,52,136199,2,0,P|3:89|5:124,1,77.0000023498536,10|2,0:0|1:2,0:0:0:0:
32,204,136574,5,10,0:0:0:0:
95,259,136761,1,10,0:0:0:0:
159,204,136949,1,10,0:0:0:0:
222,259,137136,1,10,0:0:0:0:
287,204,137324,2,0,P|320:197|363:203,1,77.0000023498536,10|10,0:0|0:0,0:0:0:0:
430,253,137699,2,0,P|463:260|506:254,1,77.0000023498536,10|10,0:0|0:0,0:0:0:0:
468,177,138074,5,14,0:0:0:0:
327,272,138449,1,14,0:0:0:0:
257,117,138824,1,8,0:0:0:0:
257,117,138917,1,8,0:0:0:0:
257,117,139011,1,10,0:0:0:0:
184,161,139199,2,0,L|115:108,1,77.0000023498536,2|2,1:2|1:2,0:0:0:0:
65,51,139574,6,0,P|29:122|95:197,1,188.999994232178,6|2,1:2|1:2,0:0:0:0:
77,270,140324,2,0,P|123:267|167:206,1,125.999996154785,10|6,0:2|1:2,0:0:0:0:
318,212,141074,2,0,P|245:244|235:345,1,188.999994232178,2|0,0:0|0:0,0:0:0:0:
306,367,141824,2,0,L|433:362,1,125.999996154785,10|0,0:0|0:0,0:0:0:0:
511,204,142574,6,0,L|323:212,1,188.999994232178,2|2,1:2|1:2,0:0:0:0:
262,259,143324,2,0,P|243:212|281:147,1,125.999996154785,10|6,0:0|1:2,0:0:0:0:
129,120,144074,2,0,B|235:125|202:60|303:64,1,188.999994232178,2|0,0:2|1:0,0:0:0:0:
370,29,144824,2,0,P|379:76|369:104,1,62.9999980773926,10|0,0:0|1:0,0:0:0:0:
348,160,145199,1,0,1:0:0:0:
496,186,145574,6,0,P|492:218|472:245,1,62.9999980773926,2|8,1:2|0:0,0:0:0:0:
470,318,145949,2,0,P|439:312|414:292,1,62.9999980773926,2|2,0:0|1:2,0:0:0:0:
366,234,146324,2,0,P|304:230|251:278,1,125.999996154785,10|6,0:0|1:2,0:0:0:0:
114,320,147074,2,0,P|72:287|54:148,1,188.999994232178,2|4,0:0|0:3,0:0:0:0:
86,93,147824,2,0,P|139:69|202:98,1,125.999996154785,10|0,0:0|0:0,0:0:0:0:
316,187,148574,5,10,0:0:0:0:
257,234,148761,1,10,0:0:0:0:
316,281,148949,1,10,0:0:0:0:
257,328,149136,1,10,0:0:0:0:
316,375,149324,1,10,0:0:0:0:
435,281,149699,1,2,1:2:0:0:
316,187,150074,6,0,B|253:184|253:184|194:205|194:205|130:202,1,188.999994232178,6|0,1:2|1:0,0:0:0:0:
70,247,150824,2,0,P|56:190|97:135,1,125.999996154785,10|6,0:0|1:2,0:0:0:0:
27,0,151574,2,0,B|131:1|98:59|207:60,1,188.999994232178,2|0,0:0|0:0,0:0:0:0:
271,31,152324,2,0,L|396:35,1,125.999996154785,10|0,0:0|0:0,0:0:0:0:
480,162,153074,6,0,L|288:171,1,188.999994232178,2|0,1:2|1:0,0:0:0:0:
232,123,153824,2,0,P|214:175|251:235,1,125.999996154785,10|6,0:0|1:2,0:0:0:0:
178,367,154574,2,0,P|143:295|41:303,1,188.999994232178,2|0,0:0|1:0,0:0:0:0:
1,237,155324,2,0,P|20:210|26:180,1,62.9999980773926,10|0,0:0|1:0,0:0:0:0:
1,109,155699,1,0,1:0:0:0:
152,104,156074,6,0,L|220:102,1,62.9999980773926,2|0,1:2|0:0,0:0:0:0:
281,64,156449,2,0,L|349:66,1,62.9999980773926,2|2,0:2|1:2,0:0:0:0:
410,102,156824,2,0,P|438:155|410:209,1,125.999996154785,10|6,0:0|1:2,0:0:0:0:
258,208,157574,2,0,B|149:206|187:265|80:263,1,188.999994232178,2|4,0:0|0:3,0:0:0:0:
36,203,158324,2,0,P|9:245|30:317,1,125.999996154785,10|0,0:0|0:0,0:0:0:0:
174,350,159074,6,0,L|259:351,2,83.9999974365235,10|8|8,0:0|0:0|0:0,0:0:0:0:
95,286,159824,2,0,B|141:265|141:265|215:252,1,125.999996154785,10|2,0:0|1:2,0:0:0:0:
365,224,160574,6,0,P|304:185|291:121,1,140,6|8,1:2|0:0,0:0:0:0:
304,46,161136,1,10,0:0:0:0:
233,15,161324,2,0,P|202:14|162:28,1,70,10|8,0:0|0:0,0:0:0:0:
89,20,161699,2,0,P|66:41|47:79,1,70,8|8,0:0|0:0,0:0:0:0:
61,151,162074,2,0,L|73:220,2,70,10|8|8,0:0|0:0|0:0,0:0:0:0:
136,136,162636,1,10,0:0:0:0:
211,150,162824,2,0,P|247:156|280:150,1,70,10|8,0:0|0:0,0:0:0:0:
354,129,163199,2,0,P|390:123|423:129,1,70,8|8,0:0|0:0,0:0:0:0:
496,150,163574,5,6,1:2:0:0:
386,258,163949,2,0,L|336:253,3,35,10|8|8|8,0:0|0:0|0:0|0:0,0:0:0:0:
312,252,164324,1,6,1:2:0:0:
195,151,164699,2,0,L|145:156,3,35,10|8|8|8,0:0|0:0|0:0|0:0,0:0:0:0:
121,157,165074,1,6,1:2:0:0:
2,255,165449,2,0,L|52:260,3,35,10|8|8|8,0:0|0:0|0:0|0:0,0:0:0:0:
76,261,165824,1,6,1:2:0:0:
140,302,166011,1,8,1:3:0:0:
205,261,166199,2,0,P|243:259|277:272,1,70,2|4,1:2|1:3,0:0:0:0:
320,330,166574,6,0,P|290:267|325:206,1,140,6|8,1:2|0:0,0:0:0:0:
397,210,167136,1,10,0:0:0:0:
397,132,167324,2,0,L|326:130,1,70,10|8,0:0|0:0,0:0:0:0:
256,162,167699,2,0,L|185:164,1,70,8|8,0:0|0:0,0:0:0:0:
111,185,168074,2,0,P|110:143|133:110,2,70,10|8|8,0:0|0:0|0:0,0:0:0:0:
168,236,168636,1,10,0:0:0:0:
111,288,168824,2,0,P|110:330|133:363,1,70,10|8,0:0|0:0,0:0:0:0:
198,371,169199,2,0,L|236:364,3,35,8|8|8|8,0:0|0:0|0:0|0:0,0:0:0:0:
263,341,169574,6,0,B|343:339|324:381|397:379,1,140,6|10,1:2|0:0,0:0:0:0:
458,336,170136,2,0,P|486:273|458:213,1,140,6|2,1:2|1:2,0:0:0:0:
399,160,170699,1,8,0:0:0:0:
335,203,170886,2,0,P|263:203|227:148,1,140,6|2,1:2|1:2,0:0:0:0:
219,74,171449,1,8,0:0:0:0:
271,17,171636,2,0,L|418:26,1,140,6|2,1:2|1:2,0:0:0:0:
484,1,172199,2,0,P|488:41|473:73,1,70,10|0,0:0|0:0,0:0:0:0:
427,127,172574,6,0,L|435:165,3,35,8|8|8|8,0:0|0:0|0:0|0:0,0:0:0:0:
413,193,172949,2,0,L|405:231,3,35,8|8|8|8,0:0|0:0|0:0|0:0,0:0:0:0:
435,252,173324,6,0,L|443:290,3,35,8|8|8|8,0:3|0:3|0:3|0:3,0:0:0:0:
424,320,173699,2,0,L|416:358,3,35,4|4|4|4,0:3|0:3|0:3|0:3,0:0:0:0:
444,381,174074,6,0,L|218:370,1,224,6|0,1:2|0:0,0:0:0:0:
75,382,175199,2,0,P|72:350|87:314,1,56,2|2,0:0|0:0,0:0:0:0:
106,259,175574,2,0,P|127:195|79:112,1,168,0|0,1:0|1:0,0:0:0:0:
63,109,176230,1,0,1:0:0:0:
46,105,176324,1,0,1:0:0:0:
173,33,176699,2,0,L|229:39,1,56,2|0,0:0|1:0,0:0:0:0:
300,23,177074,6,0,P|345:8|410:15,1,112,2|2,1:2|0:0,0:0:0:0:
420,159,177824,2,0,P|375:174|310:167,1,112,2|2,0:0|0:0,0:0:0:0:
252,126,178386,1,2,0:0:0:0:
191,166,178574,1,2,1:2:0:0:
50,126,178949,1,2,0:0:0:0:
5,264,179324,1,2,0:0:0:0:
146,304,179699,1,2,0:0:0:0:
296,238,180074,6,0,L|385:236,1,62.9999980773926,10|8,0:0|0:0,0:0:0:0:
416,285,180449,2,0,P|433:252|432:223,1,62.9999980773926,10|8,0:0|0:0,0:0:0:0:
398,159,180824,2,0,P|381:126|382:97,1,62.9999980773926,10|8,0:0|0:0,0:0:0:0:
316,60,181199,2,0,P|293:81|262:89,1,62.9999980773926,10|8,0:0|0:0,0:0:0:0:
189,68,181574,2,0,P|158:76|135:97,1,62.9999980773926,10|8,0:0|0:0,0:0:0:0:
62,77,181949,2,0,P|57:107|68:137,1,62.9999980773926,10|8,0:0|0:0,0:0:0:0:
9,184,182324,2,0,P|31:205|62:213,1,62.9999980773926,10|8,0:0|0:0,0:0:0:0:
137,213,182699,2,0,L|179:209,3,31.4999990386963,10|8|8|8,0:0|0:0|0:0|0:0,0:0:0:0:
206,207,183074,6,0,B|251:202|251:202|300:212|300:212|344:208,1,140,6|8,1:2|0:2,0:0:0:0:
462,108,183824,1,8,0:2:0:0:
344,8,184199,2,0,L|269:16,1,70,10|2,0:0|1:2,0:0:0:0:
209,56,184574,2,0,P|136:56|86:15,2,140,8|8|8,0:0|0:0|0:0,0:0:0:0:
274,15,185511,1,0,1:2:0:0:
274,15,185699,2,0,P|286:52|280:85,1,70,10|0,0:0|1:0,0:0:0:0:
233,143,186074,6,0,B|169:141|180:184|101:182,1,140,10|10,0:0|0:0,0:0:0:0:
16,311,186824,2,0,P|49:297|95:299,1,70,10|0,0:0|1:0,0:0:0:0:
152,328,187199,2,0,P|186:326|218:313,1,70,10|2,0:0|1:2,0:0:0:0:
279,265,187574,2,0,P|347:270|393:323,2,140,8|8|8,0:0|0:0|0:0,0:0:0:0:
214,223,188511,1,0,1:2:0:0:
214,223,188699,2,0,L|218:150,1,70,10|0,0:0|1:0,0:0:0:0:
155,107,189074,6,0,P|184:83|236:80,1,70,10|0,0:0|0:0,0:0:0:0:
258,13,189449,2,0,P|295:9|339:37,1,70,10|0,0:0|1:0,0:0:0:0:
398,1,189824,2,0,P|401:38|373:82,1,70,10|0,0:0|1:2,0:0:0:0:
416,140,190199,2,0,P|396:172|349:193,1,70,10|0,0:0|1:2,0:0:0:0:
293,182,190574,2,0,P|264:158|212:155,1,70,10|0,0:0|0:0,0:0:0:0:
190,88,190949,2,0,P|152:84|108:112,1,70,10|0,0:0|0:0,0:0:0:0:
50,76,191324,2,0,P|46:113|74:157,1,70,10|0,0:0|1:0,0:0:0:0:
32,215,191699,2,0,P|51:247|98:268,1,70,10|0,0:0|1:0,0:0:0:0:
136,314,192074,5,10,0:0:0:0:
195,265,192261,1,10,0:0:0:0:
253,314,192449,1,10,0:0:0:0:
312,265,192636,1,10,0:0:0:0:
370,314,192824,6,0,P|388:283|383:237,1,70,10|10,0:0|0:0,0:0:0:0:
339,189,193199,2,0,P|321:158|326:112,1,70,10|10,0:0|0:0,0:0:0:0:
341,50,193574,5,10,0:0:0:0:
266,70,193761,1,2,0:0:0:0:
191,50,193949,1,10,0:0:0:0:
117,70,194136,1,2,0:0:0:0:
42,50,194324,6,0,L|5:41,2,35,10|8|8,0:0|0:0|0:0,0:0:0:0:
53,126,194699,1,8,0:3:0:0:
1,183,194886,1,4,0:3:0:0:
37,253,195074,6,0,P|111:220|186:253,1,167.999994873047,14|10,0:0|0:0,0:0:0:0:
352,334,195824,2,0,P|372:292|368:254,1,83.9999974365235,10|2,0:0|1:2,0:0:0:0:
457,228,196199,2,0,P|434:187|400:169,1,83.9999974365235,10|2,0:0|1:2,0:0:0:0:
310,158,196574,2,0,B|410:158|379:107|467:107,1,167.999994873047,10|8,0:0|0:0,0:0:0:0:
297,28,197324,2,0,P|256:32|221:56,1,83.9999974365235,10|2,0:2|1:2,0:0:0:0:
161,126,197699,1,10,0:2:0:0:
161,126,197886,1,2,1:2:0:0:
101,54,198074,6,0,P|74:85|111:202,1,167.999994873047,10|10,0:0|0:0,0:0:0:0:
46,373,198824,2,0,P|82:348|123:346,1,83.9999974365235,10|2,0:0|1:2,0:0:0:0:
180,274,199199,2,0,P|223:281|253:309,1,83.9999974365235,10|2,0:0|1:2,0:0:0:0:
314,376,199574,2,0,P|273:313|314:240,2,167.999994873047,10|10|10,0:0|0:0|0:0,0:0:0:0:
379,311,200511,1,0,1:2:0:0:
379,311,200699,2,0,L|465:308,1,83.9999974365235,10|0,0:0|1:0,0:0:0:0:
511,228,201074,6,0,P|492:150|415:130,2,167.999994873047,14|8|10,0:2|0:0|0:0,0:0:0:0:
462,308,202011,1,0,1:0:0:0:
462,308,202199,1,10,0:0:0:0:
398,241,202386,2,0,P|354:240|319:259,1,83.9999974365235,2|8,1:2|0:0,0:0:0:0:
240,306,202761,2,0,P|196:307|161:288,1,83.9999974365235,2|8,0:2|0:0,0:0:0:0:
104,215,203136,2,0,L|115:128,1,83.9999974365235,2|8,0:2|0:0,0:0:0:0:
56,59,203511,1,2,1:2:0:0:
56,59,203699,2,0,P|92:39|134:41,1,83.9999974365235,10|2,0:0|1:2,0:0:0:0:
220,74,204074,5,10,0:0:0:0:
306,42,204261,1,10,0:0:0:0:
392,74,204449,1,10,0:0:0:0:
415,163,204636,1,10,0:0:0:0:
391,252,204824,2,0,L|300:261,1,83.9999974365235,10|10,0:0|0:0,0:0:0:0:
223,220,205199,2,0,L|132:211,1,83.9999974365235,10|10,0:0|0:0,0:0:0:0:
60,260,205574,5,14,0:0:0:0:
194,133,205949,1,14,0:0:0:0:
25,56,206324,1,8,0:0:0:0:
25,56,206417,1,8,0:0:0:0:
25,56,206511,1,10,0:0:0:0:
115,77,206699,2,0,L|190:40,1,83.9999974365235,2|2,1:2|1:2,0:0:0:0:
284,17,207074,6,0,P|348:23|403:151,1,181.999991668702,14|10,0:0|0:0,0:0:0:0:
437,313,207824,2,0,P|389:315|350:300,1,90.9999958343508,10|2,0:0|1:2,0:0:0:0:
263,248,208199,2,0,P|215:246|176:261,1,90.9999958343508,10|2,0:0|1:2,0:0:0:0:
95,322,208574,2,0,P|79:237|136:169,1,181.999991668702,10|10,0:0|0:0,0:0:0:0:
316,79,209324,2,0,P|273:63|228:65,1,90.9999958343508,10|2,0:0|1:2,0:0:0:0:
129,79,209699,1,10,0:0:0:0:
129,79,209886,1,2,1:2:0:0:
41,30,210074,6,0,L|55:211,1,181.999991668702,10|10,0:0|0:0,0:0:0:0:
194,355,210824,2,0,L|186:261,1,90.9999958343508,10|2,0:0|1:2,0:0:0:0:
247,184,211199,2,0,L|255:90,1,90.9999958343508,10|2,0:0|1:2,0:0:0:0:
203,6,211574,2,0,B|108:6|137:77|43:77,2,181.999991668702,10|10|10,0:0|0:0|0:0,0:0:0:0:
303,6,212511,1,0,1:2:0:0:
303,6,212699,2,0,P|352:7|389:30,1,90.9999958343508,10|0,0:0|1:2,0:0:0:0:
487,33,213074,6,0,B|487:127|416:98|416:193,2,181.999991668702,14|10|10,0:0|0:0|0:0,0:0:0:0:
387,28,214011,1,0,1:0:0:0:
387,28,214199,1,10,0:0:0:0:
287,33,214386,2,0,P|244:42|199:33,1,90.9999958343508,2|8,1:2|0:0,0:0:0:0:
99,18,214761,2,0,P|56:9|11:18,1,90.9999958343508,2|8,0:2|0:0,0:0:0:0:
58,106,215136,2,0,P|49:149|58:194,1,90.9999958343508,2|8,0:2|0:0,0:0:0:0:
149,152,215511,1,2,1:2:0:0:
149,152,215699,2,0,P|192:161|237:152,1,90.9999958343508,10|2,0:2|1:2,0:0:0:0:
330,113,216074,5,10,0:0:0:0:
421,152,216261,1,10,0:0:0:0:
454,246,216449,1,10,0:0:0:0:
421,340,216636,1,10,0:0:0:0:
330,379,216824,2,0,L|239:374,1,90.9999958343508,10|10,0:0|0:0,0:0:0:0:
182,290,217199,2,0,L|91:295,1,90.9999958343508,10|10,0:0|0:0,0:0:0:0:
18,364,217574,5,14,0:0:0:0:
130,198,217949,1,14,0:0:0:0:
18,31,218324,1,8,0:0:0:0:
18,31,218417,1,8,0:0:0:0:
18,31,218511,1,10,0:0:0:0:
114,5,218699,2,0,L|210:4,1,90.9999958343508,2|2,1:2|1:2,1:2:0:0:
269,81,219074,5,10,0:0:0:0:
186,137,219261,1,10,0:0:0:0:
269,192,219449,1,10,0:0:0:0:
186,248,219636,1,10,0:0:0:0:
269,303,219824,2,0,P|314:313|357:303,1,90.9999958343508,10|10,0:0|0:0,0:0:0:0:
424,228,220199,2,0,P|469:218|512:228,1,90.9999958343508,10|10,0:0|0:0,0:0:0:0:
471,319,220574,5,14,0:0:0:0:
468,118,220949,1,14,0:0:0:0:
279,186,221324,1,8,0:0:0:0:
279,186,221417,1,8,0:0:0:0:
279,186,221511,1,10,0:0:0:0:
192,134,221699,2,0,L|104:183,1,90.9999958343508,2|2,1:2|1:2,0:0:0:0:
21,134,222074,5,10,0:0:0:0:
53,30,222261,1,10,0:0:0:0:
162,29,222449,1,10,0:0:0:0:
192,134,222636,1,10,0:0:0:0:
107,203,222824,2,0,B|97:247|97:247|107:292,1,90.9999958343508,10|10,0:0|0:0,0:0:0:0:
189,363,223199,2,0,B|233:373|233:373|278:363,1,90.9999958343508,10|10,0:0|0:0,0:0:0:0:
361,292,223574,5,14,0:0:0:0:
224,121,223949,1,14,0:0:0:0:
89,293,224324,1,8,0:0:0:0:
89,293,224417,1,8,0:0:0:0:
89,293,224511,1,10,0:0:0:0:
9,231,224699,2,0,L|4:139,1,90.9999958343508,2|2,1:2|1:2,0:2:0:0:
69,64,225074,6,0,B|182:61|155:124|266:121,1,210,6|10,1:2|0:0,0:0:0:0:
328,74,225824,2,0,P|343:133|299:192,1,140,10|10,0:0|0:0,0:0:0:0:
221,196,226386,1,0,1:2:0:0:
130,319,226761,1,8,0:0:0:0:
130,319,226949,2,0,L|200:316,1,70,2|0,1:2|1:0,0:0:0:0:
263,272,227324,2,0,P|333:280|378:332,1,140,10|8,0:0|0:0,0:0:0:0:
507,248,228074,5,2,1:2:0:0:
507,248,228261,2,0,P|451:201|447:138,1,140,8|2,0:0|1:2,0:0:0:0:
475,65,228824,2,0,P|428:121|365:125,1,140,10|10,0:0|0:0,0:0:0:0:
290,105,229386,1,0,1:0:0:0:
154,31,229761,1,8,0:0:0:0:
154,31,229949,2,0,L|151:108,1,70,2|0,1:2|1:0,0:0:0:0:
83,137,230324,2,0,L|86:214,1,70,10|0,0:2|1:0,0:0:0:0:
147,253,230699,1,8,0:0:0:0:
256,145,231074,5,2,1:2:0:0:
256,145,231261,2,0,B|331:142|311:187|387:185,1,140,8|2,0:0|1:2,0:0:0:0:
439,128,231824,2,0,P|464:184|432:252,1,140,10|10,0:0|0:0,0:0:0:0:
356,263,232386,1,0,1:2:0:0:
256,145,232761,1,8,0:0:0:0:
256,145,232949,2,0,L|169:149,1,70,2|0,1:2|1:0,0:0:0:0:
134,90,233324,2,0,L|64:86,1,70,10|0,0:0|1:0,0:0:0:0:
28,155,233699,1,8,0:0:0:0:
165,223,234074,5,10,0:0:0:0:
393,189,234636,1,10,0:0:0:0:
393,189,234824,1,10,0:0:0:0:
289,303,235199,1,10,0:0:0:0:
289,303,235386,2,0,L|281:258,2,35,8|8|10,0:0|0:0|0:0,0:0:0:0:
