osu file format v14

[General]
AudioFilename: audio.mp3
AudioLeadIn: 0
PreviewTime: 194891
Countdown: 0
SampleSet: Soft
StackLeniency: 0.4
Mode: 0
LetterboxInBreaks: 0
WidescreenStoryboard: 0

[Editor]
Bookmarks: 98047
DistanceSpacing: 1.5
BeatDivisor: 4
GridSize: 4
TimelineZoom: 1.3

[Metadata]
Title:DORAEMON
TitleUnicode:ドラえもん
Artist:Amatsuki
ArtistUnicode:天月
Creator:browiec
Version:Best Friend
Source:映画ドラえもん のび太の宝島
Tags:the Movie: Nobita's Treasure Island Eiga Nobita no Takarajima HOSHINO GEN Cover theme song fujiko f. fujio kuki1537 kowari 星野源 japanese pop jpop j-pop full ver version anime あまつき
BeatmapID:2519704
BeatmapSetID:1210297

[Difficulty]
HPDrainRate:5.8
CircleSize:3.8
OverallDifficulty:8.8
ApproachRate:9.2
SliderMultiplier:1.85
SliderTickRate:1

[Events]
//Background and Video events
0,0,"bg.jpg",0,0
//Break Periods
2,177279,179134
//Storyboard Layer 0 (Background)
//Storyboard Layer 1 (Fail)
//Storyboard Layer 2 (Pass)
//Storyboard Layer 3 (Foreground)
//Storyboard Layer 4 (Overlay)
//Storyboard Sound Samples

[TimingPoints]
1579,375,4,2,1,50,1,0
1579,-133.333333333333,4,2,1,50,0,0
4579,-117.647058823529,4,2,1,60,0,0
39079,-117.647058823529,4,2,1,65,0,0
48079,-111.111111111111,4,2,1,65,0,0
51829,-133.333333333333,4,2,1,50,0,0
52579,-100,4,2,1,70,0,0
76579,-117.647058823529,4,2,1,60,0,0
102079,-117.647058823529,4,2,1,65,0,0
111079,-111.111111111111,4,2,1,65,0,0
114829,-133.333333333333,4,2,1,50,0,0
115579,-100,4,2,1,70,0,0
139579,-133.333333333333,4,2,1,55,0,0
160579,-117.647058823529,4,2,1,65,0,0
169579,-111.111111111111,4,2,1,65,0,0
174266,-111.111111111111,4,2,1,50,0,0
179704,-117.647058823529,4,2,1,50,0,0
180079,-117.647058823529,4,2,1,60,0,0
183079,-111.111111111111,4,2,1,70,0,0
195079,-100,4,2,1,75,0,0
225079,-117.647058823529,4,2,1,65,0,0
234079,-133.333333333333,4,2,1,55,0,0

[Colours]
Combo1 : 159,217,53
Combo2 : 255,132,9
Combo3 : 33,102,177
Combo4 : 249,223,123

[HitObjects]
256,296,1579,6,0,B|372:264|340:348|456:316,1,208.125007939339,10|10,0:2|0:2,0:2:0:0:
512,172,2329,2,0,P|432:184|412:244,1,138.750005292893,10|10,0:2|0:2,0:2:0:0:
455,316,3454,5,10,0:2:0:0:
440,332,3829,2,0,B|348:308|348:308|304:336,1,138.750005292893,10|0,0:2|3:2,0:2:0:0:
120,376,4579,6,0,B|112:312|112:312|128:276|128:276|120:204,1,157.250002999306,6|0,3:2|0:2,0:2:0:0:
176,64,5141,1,10,0:2:0:0:
260,204,5329,2,0,L|252:288,1,78.6250014996529,10|0,0:2|0:2,0:2:0:0:
104,208,5704,1,10,0:2:0:0:
256,112,5891,6,0,B|344:96|320:160|412:140,1,157.250002999306,0|8,3:2|0:2,0:2:0:0:
512,264,6454,1,2,3:2:0:0:
480,92,6641,1,0,3:2:0:0:
384,228,6829,2,0,B|344:320|344:320|384:376,1,157.250002999306,10|8,0:2|0:2,0:2:0:0:
392,356,7579,5,2,3:2:0:0:
284,228,7766,2,0,P|236:216|192:228,1,78.6250014996529,8|0,0:2|0:2,0:2:0:0:
96,336,8141,1,2,3:2:0:0:
112,168,8329,2,0,L|124:256,1,78.6250014996529,10|0,0:2|0:2,0:2:0:0:
196,384,8704,1,10,0:2:0:0:
272,244,8891,6,0,B|336:236|336:236|372:248|372:248|440:240,1,157.250002999306,0|8,3:2|0:2,0:2:0:0:
488,72,9454,1,2,3:2:0:0:
440,224,9641,1,0,3:2:0:0:
388,40,9829,1,10,0:2:0:0:
512,160,10016,1,0,3:2:0:0:
312,104,10204,1,8,0:2:0:0:
300,92,10579,6,0,P|256:68|160:120,1,157.250002999306,2|0,3:2|0:2,0:2:0:0:
140,300,11141,1,2,3:2:0:0:
240,152,11329,2,0,P|240:208|236:248,1,78.6250014996529,2|0,3:2|0:2,0:2:0:0:
180,376,11704,1,2,3:2:0:0:
100,232,11891,1,0,3:2:0:0:
100,232,11985,1,0,3:2:0:0:
100,232,12079,6,0,B|68:128|68:128|100:76,1,157.250002999306,6|8,3:2|0:2,0:2:0:0:
316,32,12641,1,2,3:2:0:0:
192,172,12829,1,2,3:2:0:0:
240,0,13016,1,2,0:2:0:0:
316,168,13204,1,10,0:2:0:0:
164,40,13391,1,2,3:2:0:0:
256,224,13579,6,0,P|268:268|256:312,1,78.6250014996529,2|0,3:2|0:2,0:2:0:0:
104,360,13954,2,0,P|92:316|104:272,1,78.6250014996529,10|0,0:2|0:2,0:2:0:0:
240,144,14329,1,2,3:2:0:0:
180,316,14516,1,0,3:2:0:0:
108,144,14704,2,0,P|60:136|24:148,1,78.6250014996529,8|0,0:2|0:2,0:2:0:0:
16,320,15079,6,0,B|108:292|88:360|172:332,1,157.250002999306,2|8,3:2|0:2,0:2:0:0:
240,184,15641,1,2,3:2:0:0:
292,340,15829,2,0,P|336:348|380:336,1,78.6250014996529,2|0,3:2|0:2,0:2:0:0:
476,244,16204,2,0,P|432:252|388:240,1,78.6250014996529,10|0,0:2|3:2,0:2:0:0:
448,80,16579,6,0,L|440:168,1,78.6250014996529,2|0,3:2|0:2,0:2:0:0:
272,196,16954,1,10,0:2:0:0:
360,44,17141,1,0,3:2:0:0:
399,245,17329,2,0,L|407:333,1,78.6250014996529,2|0,3:2|0:2,0:2:0:0:
244,372,17704,2,0,L|252:284,1,78.6250014996529,10|0,0:2|0:2,0:2:0:0:
172,92,18079,6,0,P|116:76|36:148,1,157.250002999306,2|8,3:2|0:2,0:2:0:0:
64,312,18641,1,2,3:2:0:0:
124,164,18829,1,2,3:2:0:0:
144,340,19016,1,2,0:2:0:0:
56,216,19204,1,10,0:2:0:0:
8,376,19391,1,2,3:2:0:0:
140,252,19579,6,0,P|188:244|232:260,1,78.6250014996529,2|0,3:2|0:2,0:2:0:0:
332,364,19954,2,0,P|301:326|292:280,1,78.6250014996529,10|0,0:2|0:2,0:2:0:0:
440,136,20329,1,2,3:2:0:0:
384,292,20516,1,0,3:2:0:0:
312,132,20704,2,0,L|228:124,1,78.6250014996529,8|0,0:2|0:2,0:2:0:0:
88,24,21079,6,0,B|44:64|44:64|82:154,1,157.250002999306,2|8,3:2|0:2,0:2:0:0:
180,288,21641,1,2,3:2:0:0:
233,124,21829,2,0,P|277:116|321:128,1,78.6250014996529,2|0,3:2|0:2,0:2:0:0:
392,260,22204,1,10,0:2:0:0:
416,88,22391,1,0,3:2:0:0:
272,208,22579,6,0,L|280:296,1,78.6250014996529,2|0,3:2|0:2,0:2:0:0:
400,364,22954,2,0,L|408:276,1,78.6250014996529,10|0,0:2|0:2,0:2:0:0:
380,72,23329,1,2,3:2:0:0:
480,216,23516,1,0,3:2:0:0:
512,40,23704,1,8,0:2:0:0:
376,184,23891,1,0,3:2:0:0:
376,184,23985,1,0,3:2:0:0:
376,184,24079,6,0,B|292:156|308:220|216:196,1,157.250002999306,6|8,3:2|0:2,0:2:0:0:
88,52,24641,1,2,3:2:0:0:
256,116,24829,1,2,3:2:0:0:
96,212,25016,1,2,0:2:0:0:
208,52,25204,1,10,0:2:0:0:
240,244,25391,1,2,3:2:0:0:
80,132,25579,6,0,L|-4:140,1,78.6250014996529,2|0,3:2|0:2,0:2:0:0:
92,304,25954,2,0,L|176:312,1,78.6250014996529,10|0,0:2|0:2,0:2:0:0:
324,176,26329,1,2,3:2:0:0:
268,332,26516,1,0,3:2:0:0:
184,184,26704,2,0,L|176:104,1,78.6250014996529,8|0,0:2|0:2,0:2:0:0:
360,8,27079,6,0,P|420:4|472:88,1,157.250002999306,2|8,3:2|0:2,0:2:0:0:
404,248,27641,1,2,3:2:0:0:
336,96,27829,2,0,P|284:84|248:96,1,78.6250014996529,2|0,3:2|0:2,0:2:0:0:
248,244,28204,2,0,P|284:204|292:167,1,78.6250014996529,10|0,0:2|3:2,0:2:0:0:
164,48,28579,6,0,L|172:132,1,78.6250014996529,2|0,3:2|0:2,0:2:0:0:
112,300,28954,1,10,0:2:0:0:
40,144,29141,1,0,3:2:0:0:
124,320,29329,2,0,B|164:328|164:328|208:320,1,78.6250014996529,2|0,3:2|0:2,0:2:0:0:
284,144,29704,2,0,B|244:136|244:136|200:144,1,78.6250014996529,10|0,0:2|0:2,0:2:0:0:
312,324,30079,6,0,B|372:316|372:316|408:328|408:328|472:320,1,157.250002999306,2|8,3:2|0:2,0:2:0:0:
436,116,30641,1,2,3:2:0:0:
328,236,30829,1,2,3:2:0:0:
380,60,31016,1,2,0:2:0:0:
492,232,31204,1,10,0:2:0:0:
456,40,31391,1,2,3:2:0:0:
316,212,31579,6,0,P|276:220|232:208,1,78.6250014996529,2|0,3:2|0:2,0:2:0:0:
96,60,31954,2,0,P|136:52|180:64,1,78.6250014996529,10|0,0:2|0:2,0:2:0:0:
116,248,32329,1,2,3:2:0:0:
20,96,32516,1,0,3:2:0:0:
216,180,32704,2,0,L|208:264,1,78.6250014996529,8|0,0:2|0:2,0:2:0:0:
32,356,33079,6,0,L|20:200,1,157.250002999306,2|8,3:2|0:2,0:2:0:0:
84,20,33641,1,2,3:2:0:0:
156,196,33829,2,0,P|200:204|244:192,1,78.6250014996529,2|0,3:2|0:2,0:2:0:0:
384,72,34204,1,10,0:2:0:0:
328,240,34391,1,0,3:2:0:0:
264,40,34579,6,0,L|276:136,1,78.6250014996529,2|0,3:2|0:2,0:2:0:0:
416,232,34954,2,0,L|428:136,1,78.6250014996529,10|0,0:2|0:2,0:2:0:0:
244,200,35329,1,2,3:2:0:0:
384,316,35516,1,0,3:2:0:0:
312,140,35704,2,0,P|264:112|228:112,1,78.6250014996529,8|0,0:2|0:0,0:0:0:0:
152,296,36079,6,0,B|72:320|84:260|-4:280,1,157.250002999306,2|8,3:2|0:2,0:2:0:0:
48,84,36641,1,2,3:2:0:0:
172,208,36829,2,0,P|212:220|256:212,1,78.6250014996529,2|0,3:2|0:2,0:2:0:0:
280,24,37204,1,10,0:2:0:0:
128,124,37391,1,0,3:2:0:0:
336,184,37579,6,0,L|328:96,1,78.6250014996529,2|0,3:2|0:2,0:2:0:0:
152,28,37954,2,0,L|144:116,1,78.6250014996529,10|0,0:2|0:2,0:2:0:0:
168,304,38329,1,10,0:2:0:0:
168,304,38422,1,8,0:2:0:0:
168,304,38516,1,8,0:2:0:0:
244,148,38704,1,0,3:2:0:0:
280,336,38891,1,0,3:2:0:0:
128,196,39079,6,0,L|40:188,1,78.6250014996529,6|0,3:2|0:2,0:2:0:0:
192,68,39454,1,8,3:2:0:0:
224,260,39641,1,10,3:2:0:0:
108,92,39829,1,10,3:2:0:0:
292,184,40016,1,8,3:2:0:0:
104,280,40204,1,8,3:2:0:0:
280,96,40391,1,8,3:2:0:0:
236,344,40579,5,10,3:2:0:0:
164,84,40766,1,8,3:2:0:0:
304,292,40954,1,8,3:2:0:0:
352,40,41141,1,10,3:2:0:0:
224,260,41329,1,10,3:2:0:0:
176,0,41516,1,8,3:2:0:0:
376,208,41704,1,8,3:2:0:0:
84,124,41891,1,8,3:2:0:0:
368,16,42079,6,0,P|412:12|456:24,1,78.6250014996529,6|0,3:2|0:2,0:2:0:0:
376,208,42454,2,0,L|380:156,3,39.3125007498264,10|8|8|8,3:2|3:2|3:2|3:2,0:2:0:0:
312,104,42829,2,0,P|272:96|224:112,1,78.6250014996529,6|0,3:2|0:2,0:2:0:0:
128,244,43204,1,10,3:2:0:0:
129,263,43297,1,8,3:2:0:0:
131,283,43391,1,8,3:2:0:0:
132,302,43485,1,8,3:2:0:0:
134,322,43579,6,0,P|174:330|222:314,1,78.6250014996529,6|0,3:2|0:2,0:2:0:0:
332,180,43954,2,0,L|336:224,3,39.3125007498264,10|8|8|8,3:2|3:2|3:2|3:2,0:2:0:0:
388,284,44329,2,0,L|380:372,1,78.6250014996529,6|0,3:2|3:2,0:2:0:0:
220,304,44704,2,0,L|212:216,1,78.6250014996529,2|0,3:2|3:2,0:2:0:0:
308,40,45079,6,0,P|356:32|400:44,1,78.6250014996529,6|0,3:2|0:2,0:2:0:0:
360,220,45454,1,8,3:2:0:0:
236,88,45641,1,10,3:2:0:0:
232,292,45829,1,10,3:2:0:0:
320,124,46016,1,8,3:2:0:0:
300,356,46204,1,8,3:2:0:0:
168,152,46391,1,8,3:2:0:0:
400,256,46579,5,10,3:2:0:0:
140,348,46766,1,8,3:2:0:0:
240,88,46954,1,8,3:2:0:0:
348,356,47141,1,10,3:2:0:0:
92,204,47329,1,10,3:2:0:0:
376,108,47516,1,8,3:2:0:0:
240,376,47704,2,0,L|236:332,1,39.3125007498264,8|8,3:2|3:2,0:2:0:0:
164,116,47891,2,0,L|160:160,1,39.3125007498264,8|8,3:2|3:2,0:2:0:0:
96,376,48079,6,0,P|45:373|29:249,1,166.499994918823,6|8,3:2|0:2,0:2:0:0:
164,108,48641,2,0,L|172:200,1,83.2499974594117,6|0,3:2|0:2,0:2:0:0:
240,364,49016,1,2,3:2:0:0:
300,176,49204,1,8,0:2:0:0:
400,368,49391,6,0,P|456:376|488:364,1,83.2499974594117,6|0,3:2|0:2,0:2:0:0:
420,144,49766,1,2,3:2:0:0:
320,308,49954,1,8,0:2:0:0:
284,72,50141,2,0,L|276:168,1,83.2499974594117,6|0,3:2|0:2,0:2:0:0:
172,300,50516,1,2,3:2:0:0:
92,108,50704,2,0,P|132:96|180:112,1,83.2499974594117,10|0,0:2|0:2,0:2:0:0:
264,312,51079,5,0,3:2:0:0:
72,208,51266,1,0,3:2:0:0:
72,208,51360,1,0,3:2:0:0:
72,208,51454,2,0,L|120:204,1,41.6249987297059,0|0,3:2|3:2,0:2:0:0:
308,128,51641,2,0,L|260:124,1,41.6249987297059,0|0,3:2|3:2,0:2:0:0:
136,308,51829,6,0,B|248:268|228:360|336:320,1,208.125007939339,0|2,3:2|0:2,0:2:0:0:
404,148,52579,6,0,L|396:240,1,92.5,14|0,0:2|0:2,0:2:0:0:
212,68,52954,2,0,L|220:164,1,92.5,10|0,0:2|0:2,0:2:0:0:
248,376,53329,1,10,0:2:0:0:
312,172,53516,1,2,3:2:0:0:
384,384,53704,1,10,0:2:0:0:
448,176,53891,1,2,3:2:0:0:
232,288,54079,6,0,B|112:316|112:316|48:280,1,185,10|8,0:2|0:2,0:2:0:0:
0,80,54641,1,0,0:2:0:0:
172,188,54829,2,0,P|236:196|276:180,1,92.5,10|0,0:2|3:2,0:2:0:0:
408,40,55204,1,10,0:2:0:0:
344,240,55391,1,2,3:2:0:0:
208,16,55579,6,0,L|216:128,1,92.5,10|0,0:2|0:2,0:2:0:0:
32,244,55954,2,0,L|40:132,1,92.5,10|0,0:2|0:2,0:2:0:0:
264,244,56329,1,10,0:2:0:0:
36,340,56516,1,2,3:2:0:0:
132,128,56704,1,10,0:2:0:0:
216,348,56891,1,2,3:2:0:0:
40,172,57079,6,0,P|28:116|44:72,1,92.5,10|0,0:2|0:2,0:2:0:0:
264,8,57454,2,0,P|276:64|260:108,1,92.5,8|0,0:2|0:2,0:2:0:0:
216,312,57829,1,8,0:2:0:0:
132,128,58016,1,0,3:2:0:0:
100,352,58204,1,8,0:2:0:0:
208,168,58391,1,0,3:2:0:0:
312,372,58579,6,0,B|358:379|358:379|408:368,1,92.5,10|0,0:2|0:2,0:2:0:0:
506,225,58954,2,0,B|460:232|460:232|410:221,1,92.5,8|0,0:2|0:2,0:2:0:0:
232,56,59329,1,10,0:2:0:0:
324,264,59516,1,0,3:2:0:0:
400,52,59704,1,8,0:2:0:0:
224,220,59891,6,0,L|232:316,1,92.5,2|8,3:2|0:2,0:2:0:0:
412,376,60266,2,0,L|420:280,1,92.5,2|8,0:2|0:2,0:2:0:0:
296,88,60641,2,0,L|304:184,1,92.5,2|8,0:2|0:2,0:2:0:0:
512,96,61016,1,2,3:2:0:0:
324,0,61204,2,0,P|271:1|226:25,1,92.5,10|0,0:2|0:2,0:2:0:0:
168,340,61579,5,10,0:2:0:0:
296,88,61766,1,10,0:2:0:0:
252,364,61954,1,10,0:2:0:0:
144,120,62141,1,10,0:2:0:0:
336,328,62329,5,10,0:2:0:0:
392,64,62516,1,10,0:2:0:0:
144,256,62704,1,10,0:2:0:0:
448,160,62891,1,10,0:2:0:0:
144,32,63079,6,0,L|40:44,1,92.5,14|0,0:2|0:2,0:2:0:0:
148,288,63454,2,0,L|252:300,1,92.5,14|0,3:2|0:2,0:2:0:0:
384,124,63829,1,8,0:2:0:0:
384,124,63922,1,8,0:2:0:0:
384,124,64016,1,10,0:2:0:0:
400,320,64204,1,2,3:2:0:0:
248,184,64391,1,2,3:2:0:0:
484,284,64579,6,0,P|492:328|472:376,1,92.5,14|0,0:2|0:2,0:2:0:0:
239,271,64954,2,0,P|231:227|251:179,1,92.5,10|0,0:2|0:2,0:2:0:0:
488,112,65329,1,10,0:2:0:0:
272,28,65516,1,2,3:2:0:0:
368,236,65704,1,10,0:2:0:0:
460,24,65891,1,2,3:2:0:0:
247,183,66079,6,0,B|176:172|176:172|135:191|135:191|67:183,1,185,10|8,0:2|0:2,0:2:0:0:
184,8,66641,1,0,0:2:0:0:
324,144,66829,2,0,P|332:200|316:240,1,92.5,10|2,0:2|3:2,0:2:0:0:
104,144,67204,1,10,0:2:0:0:
320,52,67391,1,2,3:2:0:0:
144,248,67579,6,0,L|48:240,1,92.5,10|0,0:2|0:2,0:2:0:0:
144,40,67954,2,0,L|240:32,1,92.5,10|0,0:2|0:2,0:2:0:0:
388,216,68329,1,10,0:2:0:0:
328,16,68516,1,2,3:2:0:0:
268,244,68704,1,10,0:2:0:0:
400,64,68891,1,2,3:2:0:0:
440,288,69079,6,0,L|432:384,1,92.5,10|0,0:2|0:2,0:2:0:0:
256,268,69454,2,0,L|248:172,1,92.5,8|0,0:2|0:2,0:2:0:0:
388,8,69829,2,0,P|456:8|496:120,1,185,8|8,0:2|0:2,0:2:0:0:
424,304,70391,1,0,3:2:0:0:
328,92,70579,6,0,P|276:80|228:92,1,92.5,10|0,0:2|0:2,0:2:0:0:
228,288,70954,2,0,P|264:248|278:201,1,92.5,8|0,0:2|0:2,0:2:0:0:
64,80,71329,1,10,0:2:0:0:
136,288,71516,1,0,3:2:0:0:
238,87,71704,1,8,0:2:0:0:
40,244,71891,6,0,L|48:336,1,92.5,2|8,3:2|0:2,0:2:0:0:
260,280,72266,2,0,L|268:188,1,92.5,2|8,0:2|0:2,0:2:0:0:
80,72,72641,2,0,L|88:164,1,92.5,2|8,0:2|0:2,0:2:0:0:
168,356,73016,1,2,3:2:0:0:
252,164,73204,2,0,P|304:152|348:168,1,92.5,10|0,0:2|0:2,0:2:0:0:
456,380,73579,5,10,3:2:0:0:
208,240,73766,1,10,3:2:0:0:
476,132,73954,1,10,3:2:0:0:
340,380,74141,1,10,3:2:0:0:
240,72,74329,5,10,3:2:0:0:
396,320,74516,1,10,3:2:0:0:
436,32,74704,1,10,3:2:0:0:
312,300,74891,1,10,3:2:0:0:
204,0,75079,6,0,L|212:104,1,92.5,14|0,3:2|0:2,0:2:0:0:
440,240,75454,2,0,L|448:136,1,92.5,14|0,3:2|0:2,0:2:0:0:
204,224,75829,1,8,0:2:0:0:
204,224,75922,1,8,0:2:0:0:
204,224,76016,1,10,0:2:0:0:
388,320,76204,1,2,3:2:0:0:
328,112,76391,1,2,3:2:0:0:
216,312,76579,6,0,B|136:284|148:348|60:324,1,157.250002999306,6|0,3:2|0:2,0:2:0:0:
12,152,77141,1,10,3:2:0:0:
168,212,77329,2,0,P|212:224|252:216,1,78.6250014996529,10|0,3:2|0:2,0:2:0:0:
176,48,77704,1,10,3:2:0:0:
84,196,77891,6,0,B|52:292|52:292|88:344,1,157.250002999306,0|8,3:2|0:2,0:2:0:0:
260,272,78454,1,2,3:2:0:0:
100,360,78641,1,0,3:2:0:0:
184,192,78829,1,10,0:2:0:0:
248,372,79016,1,2,0:2:0:0:
328,200,79204,2,0,L|416:208,1,78.6250014996529,10|0,0:2|0:2,0:2:0:0:
260,56,79579,5,2,3:2:0:0:
192,220,79766,2,0,P|148:228|108:216,1,78.6250014996529,8|0,0:2|0:2,0:2:0:0:
176,36,80141,1,2,3:2:0:0:
276,184,80329,2,0,P|284:222|276:260,1,78.6250014996529,10|0,0:2|0:2,0:2:0:0:
88,180,80704,1,10,0:2:0:0:
268,96,80891,6,0,B|332:88|332:88|364:100|364:100|432:92,1,157.250002999306,0|8,3:2|0:2,0:2:0:0:
500,252,81454,1,2,3:2:0:0:
444,104,81641,1,0,3:2:0:0:
384,296,81829,1,10,0:2:0:0:
504,164,82016,1,0,3:2:0:0:
324,228,82204,2,0,L|244:220,1,78.6250014996529,10|0,0:2|0:2,0:2:0:0:
332,60,82579,5,2,3:2:0:0:
412,208,82766,2,0,L|404:300,1,78.6250014996529,8|0,0:2|0:2,0:2:0:0:
292,136,83141,1,2,3:2:0:0:
248,304,83329,2,0,L|256:396,1,78.6250014996529,10|0,0:2|0:2,0:2:0:0:
424,284,83704,1,10,0:2:0:0:
248,212,83891,2,0,B|152:184|152:184|96:212,1,157.250002999306,0|8,3:2|0:2,0:2:0:0:
48,364,84454,5,2,3:2:0:0:
8,200,84641,1,0,3:2:0:0:
128,340,84829,1,10,0:2:0:0:
152,152,85016,1,0,3:2:0:0:
0,284,85204,2,0,L|84:272,1,78.6250014996529,10|0,0:2|0:2,0:2:0:0:
220,96,85579,6,0,P|292:88|340:164,1,157.250002999306,2|0,3:2|0:2,0:2:0:0:
252,308,86141,1,2,3:2:0:0:
152,152,86329,2,0,L|160:240,1,78.6250014996529,2|0,3:2|0:2,0:2:0:0:
212,384,86704,1,2,3:2:0:0:
284,224,86891,1,0,3:2:0:0:
284,224,86985,1,0,3:2:0:0:
284,224,87079,6,0,B|372:196|356:260|440:232,1,157.250002999306,6|8,3:2|0:2,0:2:0:0:
372,72,87641,1,2,3:2:0:0:
268,208,87829,1,2,3:2:0:0:
292,36,88016,1,2,0:2:0:0:
376,204,88204,1,10,0:2:0:0:
448,32,88391,1,2,3:2:0:0:
276,120,88579,6,0,P|228:128|188:112,1,78.6250014996529,2|0,3:2|0:2,0:2:0:0:
76,232,88954,2,0,P|124:240|164:224,1,78.6250014996529,10|0,0:2|0:2,0:2:0:0:
296,104,89329,1,2,3:2:0:0:
240,268,89516,1,0,3:2:0:0:
172,104,89704,2,0,L|164:20,1,78.6250014996529,8|0,0:2|0:2,0:2:0:0:
368,4,90079,6,0,B|412:44|412:44|376:148,1,157.250002999306,2|8,3:2|0:2,0:2:0:0:
308,288,90641,1,2,3:2:0:0:
240,128,90829,2,0,P|192:120|156:132,1,78.6250014996529,2|0,3:2|0:2,0:2:0:0:
160,284,91204,2,0,P|190:246|198:209,1,78.6250014996529,10|0,0:2|3:2,0:2:0:0:
72,88,91579,6,0,L|80:176,1,78.6250014996529,2|0,3:2|0:2,0:2:0:0:
20,324,91954,1,10,0:2:0:0:
92,180,92141,1,0,3:2:0:0:
144,336,92329,2,0,B|184:344|184:344|224:336,1,78.6250014996529,2|0,3:2|0:2,0:2:0:0:
328,212,92704,2,0,B|288:220|288:220|248:212,1,78.6250014996529,10|0,0:2|0:2,0:2:0:0:
152,36,93079,6,0,P|216:24|280:104,1,157.250002999306,2|8,3:2|0:2,0:2:0:0:
260,256,93641,1,2,3:2:0:0:
196,108,93829,1,2,3:2:0:0:
144,288,94016,1,2,0:2:0:0:
252,168,94204,1,10,0:2:0:0:
240,352,94391,1,2,3:2:0:0:
336,192,94579,6,0,P|380:184|424:200,1,78.6250014996529,2|0,3:2|0:2,0:2:0:0:
460,352,94954,2,0,P|421:360|383:351,1,78.6250014996529,10|0,0:2|0:2,0:2:0:0:
320,176,95329,1,2,3:2:0:0:
252,336,95516,1,0,3:2:0:0:
200,160,95704,2,0,L|192:248,1,78.6250014996529,8|0,0:2|0:2,0:2:0:0:
56,352,96079,6,0,B|48:288|48:288|60:252|60:252|52:184,1,157.250002999306,2|8,3:2|0:2,0:2:0:0:
112,28,96641,1,2,3:2:0:0:
192,180,96829,2,0,P|236:188|280:176,1,78.6250014996529,2|0,3:2|0:2,0:2:0:0:
388,64,97204,1,10,0:2:0:0:
340,240,97391,1,0,3:2:0:0:
232,100,97579,6,0,L|240:8,1,78.6250014996529,2|0,3:2|0:2,0:2:0:0:
404,84,97954,2,0,L|412:176,1,78.6250014996529,10|0,0:2|0:2,0:2:0:0:
292,328,98329,1,2,3:2:0:0:
456,244,98516,1,0,3:2:0:0:
276,156,98704,2,0,P|260:208|276:256,1,78.6250014996529,8|0,0:2|0:0,0:0:0:0:
432,328,99079,6,0,B|352:304|364:368|276:344,1,157.250002999306,2|8,3:2|0:2,0:2:0:0:
160,208,99641,1,2,3:2:0:0:
176,376,99829,2,0,L|184:292,1,78.6250014996529,2|0,3:2|0:2,0:2:0:0:
224,108,100204,1,10,0:2:0:0:
308,264,100391,1,0,3:2:0:0:
352,76,100579,6,0,P|396:68|444:80,1,78.6250014996529,2|0,3:2|0:2,0:2:0:0:
488,240,100954,2,0,P|444:248|396:236,1,78.6250014996529,10|0,0:2|0:2,0:2:0:0:
228,140,101329,1,10,0:2:0:0:
228,140,101422,1,8,0:2:0:0:
228,140,101516,1,8,0:2:0:0:
424,92,101704,1,0,3:2:0:0:
308,248,101891,1,0,3:2:0:0:
324,40,102079,6,0,L|332:124,1,78.6250014996529,6|0,3:2|0:2,0:2:0:0:
392,304,102454,1,8,3:2:0:0:
268,172,102641,1,10,3:2:0:0:
248,348,102829,1,10,3:2:0:0:
388,208,103016,1,8,3:2:0:0:
180,248,103204,1,8,3:2:0:0:
360,376,103391,1,8,3:2:0:0:
320,132,103579,5,10,3:2:0:0:
232,368,103766,1,8,3:2:0:0:
160,104,103954,1,8,3:2:0:0:
300,316,104141,1,10,3:2:0:0:
268,60,104329,1,10,3:2:0:0:
168,288,104516,1,8,3:2:0:0:
108,28,104704,1,8,3:2:0:0:
244,256,104891,1,8,3:2:0:0:
304,0,105079,6,0,L|296:84,1,78.6250014996529,6|0,3:2|0:2,0:2:0:0:
152,272,105454,2,0,L|148:228,3,39.3125007498264,10|8|8|8,3:2|3:2|3:2|3:2,0:2:0:0:
104,152,105829,2,0,L|188:144,1,78.6250014996529,6|0,3:2|0:2,0:2:0:0:
331,321,106204,1,10,3:2:0:0:
313,329,106297,1,8,3:2:0:0:
293,332,106391,1,8,3:2:0:0:
274,331,106485,1,8,3:2:0:0:
255,326,106579,6,0,L|247:247,1,78.6250014996529,6|0,3:2|0:2,0:2:0:0:
336,68,106954,2,0,L|380:64,3,39.3125007498264,10|8|8|8,3:2|3:2|3:2|3:2,0:2:0:0:
460,60,107329,2,0,L|452:144,1,78.6250014996529,6|0,3:2|3:2,0:2:0:0:
308,272,107704,2,0,L|300:188,1,78.6250014996529,2|0,3:2|3:2,0:2:0:0:
160,12,108079,6,0,P|120:8|80:24,1,78.6250014996529,6|0,3:2|0:2,0:2:0:0:
164,196,108454,1,8,3:2:0:0:
240,36,108641,1,10,3:2:0:0:
72,136,108829,1,10,3:2:0:0:
272,196,109016,1,8,3:2:0:0:
96,44,109204,1,8,3:2:0:0:
144,276,109391,1,8,3:2:0:0:
312,80,109579,5,10,3:2:0:0:
56,156,109766,1,8,3:2:0:0:
300,280,109954,1,8,3:2:0:0:
192,44,110141,1,10,3:2:0:0:
60,284,110329,1,10,3:2:0:0:
344,192,110516,1,8,3:2:0:0:
84,36,110704,2,0,L|88:88,1,39.3125007498264,8|8,0:2|3:2,0:2:0:0:
156,288,110891,2,0,L|160:236,1,39.3125007498264,8|8,3:2|3:2,0:2:0:0:
272,40,111079,6,0,B|364:24|344:88|436:68,1,166.499994918823,6|8,3:2|0:2,0:2:0:0:
304,248,111641,2,0,L|296:156,1,83.2499974594117,6|0,3:2|0:2,0:2:0:0:
128,32,112016,1,2,3:2:0:0:
184,220,112204,1,8,0:2:0:0:
112,20,112391,6,0,P|68:12|20:32,1,83.2499974594117,6|0,3:2|0:2,0:2:0:0:
92,220,112766,1,2,3:2:0:0:
208,52,112954,1,8,0:2:0:0:
264,256,113141,2,0,L|256:344,1,83.2499974594117,6|0,3:2|0:2,0:2:0:0:
76,236,113516,1,2,3:2:0:0:
272,168,113704,2,0,B|316:164|316:164|360:176,1,83.2499974594117,10|0,0:2|0:2,0:2:0:0:
428,336,114079,5,0,3:2:0:0:
480,160,114266,1,0,3:2:0:0:
480,160,114360,1,0,3:2:0:0:
480,160,114454,2,0,L|476:212,1,41.6249987297059,0|0,3:2|3:2,0:2:0:0:
344,304,114641,2,0,L|340:252,1,41.6249987297059,0|0,3:2|3:2,0:2:0:0:
396,80,114829,6,0,P|368:24|232:52,1,208.125007939339,0|2,3:2|0:2,0:2:0:0:
104,264,115579,6,0,L|96:164,1,92.5,14|0,0:2|0:2,0:2:0:0:
312,88,115954,2,0,L|304:188,1,92.5,10|0,0:2|0:2,0:2:0:0:
244,384,116329,1,10,0:2:0:0:
184,176,116516,1,2,3:2:0:0:
336,356,116704,1,10,0:2:0:0:
112,264,116891,1,2,3:2:0:0:
332,164,117079,6,0,B|452:136|452:136|520:180,1,185,10|8,0:2|0:2,0:2:0:0:
444,376,117641,1,0,0:2:0:0:
316,184,117829,2,0,L|304:280,1,92.5,10|0,0:2|3:2,0:2:0:0:
104,352,118204,1,10,0:2:0:0:
156,156,118391,1,2,3:2:0:0:
268,360,118579,6,0,P|316:364|360:348,1,92.5,10|0,0:2|0:2,0:2:0:0:
512,232,118954,2,0,P|464:236|420:220,1,92.5,10|0,0:2|0:2,0:2:0:0:
288,24,119329,1,10,0:2:0:0:
480,144,119516,1,2,3:2:0:0:
248,196,119704,1,10,0:2:0:0:
392,16,119891,1,2,3:2:0:0:
424,256,120079,6,0,L|416:356,1,92.5,10|0,0:2|0:2,0:2:0:0:
224,384,120454,2,0,L|216:280,1,92.5,8|0,0:2|0:2,0:2:0:0:
160,88,120829,1,8,0:2:0:0:
80,280,121016,1,0,3:2:0:0:
32,64,121204,1,8,0:2:0:0:
152,228,121391,1,0,3:2:0:0:
208,16,121579,6,0,B|252:8|252:8|312:20,1,92.5,10|0,0:2|0:2,0:2:0:0:
440,164,121954,2,0,B|396:156|396:156|336:168,1,92.5,8|0,0:2|0:2,0:2:0:0:
200,352,122329,1,10,0:2:0:0:
396,256,122516,1,0,3:2:0:0:
180,176,122704,1,8,0:2:0:0:
356,348,122891,6,0,P|408:356|452:340,1,92.5,2|8,3:2|0:2,0:2:0:0:
312,144,123266,2,0,P|279:185|270:231,1,92.5,2|8,0:2|0:2,0:2:0:0:
510,207,123641,2,0,P|490:157|455:127,1,92.5,2|8,0:2|0:2,0:2:0:0:
372,328,124016,1,2,3:2:0:0:
296,128,124204,2,0,L|304:36,1,92.5,10|0,0:2|0:2,0:2:0:0:
468,284,124579,5,10,0:2:0:0:
208,184,124766,1,10,0:2:0:0:
476,108,124954,1,10,0:2:0:0:
336,344,125141,1,10,0:2:0:0:
256,40,125329,5,10,0:2:0:0:
452,268,125516,1,10,0:2:0:0:
132,212,125704,1,10,0:2:0:0:
380,48,125891,1,10,0:2:0:0:
324,368,126079,6,0,P|272:376|228:360,1,92.5,14|0,3:2|0:2,0:2:0:0:
56,244,126454,2,0,P|108:252|152:236,1,92.5,14|0,3:2|0:2,0:2:0:0:
276,64,126829,1,8,0:2:0:0:
276,64,126922,1,8,0:2:0:0:
276,64,127016,1,10,0:2:0:0:
288,272,127204,1,2,3:2:0:0:
136,128,127391,1,2,3:2:0:0:
360,212,127579,6,0,L|456:204,1,92.5,14|0,0:2|0:2,0:2:0:0:
328,20,127954,2,0,L|232:12,1,92.5,10|0,0:2|0:2,0:2:0:0:
104,240,128329,1,10,0:2:0:0:
248,104,128516,1,2,3:2:0:0:
264,312,128704,1,10,0:2:0:0:
152,124,128891,1,2,3:2:0:0:
56,320,129079,6,0,P|112:332|196:248,1,185,10|8,0:2|0:2,0:2:0:0:
140,40,129641,1,0,0:2:0:0:
12,228,129829,2,0,L|104:240,1,92.5,10|2,0:2|3:2,0:2:0:0:
320,152,130204,1,10,0:2:0:0:
188,320,130391,1,2,3:2:0:0:
240,68,130579,6,0,B|284:56|284:56|332:68,1,92.5,10|0,0:2|0:2,0:2:0:0:
500,192,130954,2,0,B|456:180|456:180|408:192,1,92.5,10|0,0:2|0:2,0:2:0:0:
160,244,131329,1,10,0:2:0:0:
372,328,131516,1,2,3:2:0:0:
212,152,131704,1,10,0:2:0:0:
264,368,131891,1,2,3:2:0:0:
360,164,132079,6,0,P|404:152|464:176,1,92.5,10|0,0:2|0:2,0:2:0:0:
276,356,132454,2,0,P|232:368|172:344,1,92.5,8|0,0:2|0:2,0:2:0:0:
56,164,132829,2,0,B|156:136|132:228|256:188,1,185,8|8,0:2|0:2,0:2:0:0:
412,80,133391,1,0,3:2:0:0:
192,8,133579,6,0,L|200:108,1,92.5,10|0,0:2|0:2,0:2:0:0:
324,288,133954,2,0,L|332:188,1,92.5,8|0,0:2|0:2,0:2:0:0:
468,28,134329,1,10,0:2:0:0:
348,184,134516,1,0,3:2:0:0:
296,0,134704,1,8,0:2:0:0:
460,188,134891,6,0,B|468:236|468:236|452:288,1,92.5,2|8,3:2|0:2,0:2:0:0:
243,369,135266,2,0,B|235:321|235:321|251:269,1,92.5,2|8,0:2|0:2,0:2:0:0:
368,100,135641,2,0,B|376:148|376:148|360:200,1,92.5,2|8,0:2|0:2,0:2:0:0:
256,20,136016,1,2,3:2:0:0:
176,200,136204,2,0,P|128:212|80:196,1,92.5,10|0,0:2|0:2,0:2:0:0:
272,8,136579,5,10,3:2:0:0:
344,264,136766,1,10,3:2:0:0:
192,48,136954,1,10,3:2:0:0:
144,316,137141,1,10,3:2:0:0:
324,80,137329,5,10,3:2:0:0:
384,352,137516,1,10,3:2:0:0:
444,52,137704,1,10,3:2:0:0:
308,296,137891,1,10,3:2:0:0:
216,4,138079,6,0,L|224:100,1,92.5,14|0,3:2|0:2,0:2:0:0:
424,260,138454,2,0,L|432:164,1,92.5,14|0,3:2|0:2,0:2:0:0:
216,220,138829,1,8,0:2:0:0:
216,220,138922,1,8,0:2:0:0:
216,220,139016,1,10,0:2:0:0:
376,336,139204,1,2,3:2:0:0:
328,136,139391,1,2,3:2:0:0:
204,312,139579,6,0,B|92:276|120:368|-4:336,1,208.125007939339,6|2,3:2|3:2,0:2:0:0:
32,180,140329,2,0,L|40:260,1,69.3750026464463,10|0,0:2|0:2,0:2:0:0:
128,192,140704,2,0,L|136:112,1,69.3750026464463,6|0,3:2|0:2,0:2:0:0:
204,16,141079,6,0,P|252:0|300:128,1,208.125007939339,2|0,3:2|0:2,0:2:0:0:
236,164,141829,2,0,P|276:148|364:200,1,138.750005292893,10|0,3:2|0:2,0:2:0:0:
444,368,142579,6,0,B|508:312|508:312|460:176,1,208.125007939339,2|2,3:2|3:2,0:2:0:0:
376,108,143329,2,0,L|368:180,1,69.3750026464463,10|0,0:2|0:2,0:2:0:0:
280,240,143704,2,0,L|272:168,1,69.3750026464463,6|0,3:2|0:2,0:2:0:0:
204,64,144079,6,0,B|148:60|148:60|124:72|124:72|60:68,1,138.750005292893,2|0,3:2|3:2,0:2:0:0:
8,144,144641,1,0,3:2:0:0:
8,144,144829,2,0,L|16:216,1,69.3750026464463,10|0,3:2|3:2,0:2:0:0:
64,292,145204,1,0,3:2:0:0:
204,64,145579,6,0,P|236:60|276:72,1,69.3750026464463,2|8,3:2|0:2,0:2:0:0:
384,168,145954,1,2,0:2:0:0:
360,32,146141,1,2,3:2:0:0:
284,156,146329,2,0,L|292:236,1,69.3750026464463,10|0,0:2|0:2,0:2:0:0:
190,214,146704,2,0,L|184:284,1,69.3750026464463,6|0,3:2|0:2,0:2:0:0:
256,360,147079,6,0,B|372:392|340:300|464:336,1,208.125007939339,2|0,3:2|0:2,0:2:0:0:
512,228,147829,2,0,P|472:240|408:164,1,138.750005292893,10|0,0:2|0:2,0:2:0:0:
172,72,148579,5,10,0:2:0:0:
240,248,148766,1,10,0:2:0:0:
288,40,148954,1,10,0:2:0:0:
224,228,149141,1,10,0:2:0:0:
156,52,149329,2,0,B|72:24|72:24|16:60,1,138.750005292893,10|2,0:2|3:2,0:2:0:0:
244,316,150079,6,0,B|256:236|256:236|236:184|236:184|248:96,1,208.125007939339,6|2,3:2|3:2,0:2:0:0:
332,52,150829,2,0,L|340:132,1,69.3750026464463,10|0,0:2|0:2,0:2:0:0:
424,176,151204,2,0,L|432:96,1,69.3750026464463,6|0,3:2|0:2,0:2:0:0:
508,216,151579,6,0,P|456:264|340:212,1,208.125007939339,2|0,3:2|0:2,0:2:0:0:
300,128,152329,2,0,P|252:100|172:144,1,138.750005292893,10|0,3:2|0:2,0:2:0:0:
16,324,153079,6,0,B|88:376|88:376|216:324,1,208.125007939339,2|2,3:2|3:2,0:2:0:0:
288,272,153829,2,0,L|280:192,1,69.3750026464463,10|0,0:2|0:2,0:2:0:0:
196,148,154204,2,0,L|188:228,1,69.3750026464463,6|0,3:2|0:2,0:2:0:0:
104,304,154579,6,0,L|90:165,1,138.750005292893,2|0,3:2|3:2,0:2:0:0:
24,80,155141,1,0,3:2:0:0:
24,80,155329,2,0,L|100:72,1,69.3750026464463,10|0,3:2|3:2,0:2:0:0:
168,20,155704,1,0,3:2:0:0:
256,288,156079,6,0,B|332:268|316:328|396:308,1,138.750005292893,2|2,3:2|0:2,0:2:0:0:
464,260,156641,1,2,3:2:0:0:
396,160,156829,2,0,P|376:196|376:228,1,69.3750026464463,10|0,0:2|0:2,0:2:0:0:
480,128,157204,2,0,P|458:92|431:76,1,69.3750026464463,6|0,3:2|0:2,0:2:0:0:
304,128,157579,6,0,B|276:164|208:152|208:152|164:96|204:40,1,208.125007939339,2|0,3:2|3:2,0:2:0:0:
308,40,158329,2,0,P|352:52|392:144,1,138.750005292893,10|0,0:2|0:2,0:2:0:0:
232,332,159079,6,0,L|224:232,2,92.5000035285951,10|10|10,3:2|3:2|3:2,0:2:0:0:
352,376,159829,2,0,L|364:224,1,138.750005292893,10|2,3:2|3:2,0:2:0:0:
248,24,160579,6,0,P|212:16|152:32,1,78.6250014996529,6|0,3:2|0:2,0:2:0:0:
72,208,160954,1,8,3:2:0:0:
208,108,161141,1,10,3:2:0:0:
144,268,161329,1,10,3:2:0:0:
76,80,161516,1,8,3:2:0:0:
240,208,161704,1,8,3:2:0:0:
9,141,161891,1,8,3:2:0:0:
269,50,162079,5,10,3:2:0:0:
129,288,162266,1,8,3:2:0:0:
172,28,162454,1,8,3:2:0:0:
268,284,162641,1,10,3:2:0:0:
108,92,162829,1,10,3:2:0:0:
56,336,163016,1,8,3:2:0:0:
196,116,163204,1,8,3:2:0:0:
244,372,163391,1,8,3:2:0:0:
40,168,163579,6,0,L|48:252,1,78.6250014996529,6|0,3:2|0:2,0:2:0:0:
232,352,163954,2,0,L|236:296,3,39.3125007498264,10|8|8|8,3:2|3:2|3:2|3:2,0:2:0:0:
288,240,164329,2,0,L|280:160,1,78.6250014996529,6|0,3:2|0:2,0:2:0:0:
464,60,164704,1,10,3:2:0:0:
462,77,164797,1,8,3:2:0:0:
460,94,164891,1,8,3:2:0:0:
458,111,164985,1,8,3:2:0:0:
456,128,165079,6,0,L|448:208,1,78.6250014996529,6|0,3:2|0:2,0:2:0:0:
344,348,165454,2,0,L|348:288,3,39.3125007498264,10|8|8|8,3:2|3:2|3:2|3:2,0:2:0:0:
288,240,165829,2,0,L|280:160,1,78.6250014996529,6|0,3:2|3:2,0:2:0:0:
124,80,166204,2,0,L|116:158,1,78.6250014996529,2|0,3:2|3:2,0:2:0:0:
248,324,166579,6,0,P|284:336|340:320,1,78.6250014996529,6|0,3:2|0:2,0:2:0:0:
460,176,166954,1,8,3:2:0:0:
288,244,167141,1,10,3:2:0:0:
460,321,167329,1,10,3:2:0:0:
352,128,167516,1,8,3:2:0:0:
278,338,167704,1,8,3:2:0:0:
476,164,167891,1,8,3:2:0:0:
373,384,168079,5,10,3:2:0:0:
260,136,168266,1,8,3:2:0:0:
464,308,168454,1,8,3:2:0:0:
368,48,168641,1,10,3:2:0:0:
264,320,168829,1,10,3:2:0:0:
452,76,169016,1,8,3:2:0:0:
376,372,169204,1,8,3:2:0:0:
376,372,169297,1,8,3:2:0:0:
376,372,169391,2,0,L|372:332,1,39.3125007498264,8|8,3:2|3:2,0:2:0:0:
272,120,169579,6,0,B|208:112|208:112|172:128|172:128|88:120,1,166.499994918823,6|8,3:2|0:2,0:2:0:0:
12,320,170141,2,0,L|96:312,1,83.2499974594117,6|0,3:2|0:2,0:2:0:0:
298,235,170516,1,2,3:2:0:0:
185,384,170704,1,8,0:2:0:0:
133,181,170891,6,0,P|177:169|221:181,1,83.2499974594117,6|0,3:2|0:2,0:2:0:0:
332,328,171266,1,2,3:2:0:0:
308,128,171454,1,8,0:2:0:0:
176,264,171641,2,0,L|184:356,1,83.2499974594117,6|0,3:2|0:2,0:2:0:0:
388,264,172016,1,2,3:2:0:0:
212,176,172204,2,0,B|172:168|172:168|120:184,1,83.2499974594117,10|0,0:2|0:2,0:2:0:0:
280,356,172579,5,0,3:2:0:0:
328,152,172766,1,0,3:2:0:0:
328,152,172860,1,0,3:2:0:0:
328,152,172954,2,0,L|332:204,1,41.6249987297059,0|0,3:2|3:2,0:2:0:0:
432,332,173141,2,0,L|436:280,1,41.6249987297059,0|0,3:2|3:2,0:2:0:0:
380,76,173329,6,0,P|341:60|300:64,1,83.2499974594117,0|0,3:2|0:2,0:2:0:0:
152,172,173704,1,0,3:2:0:0:
152,172,173797,1,0,3:2:0:0:
152,172,173891,2,0,L|204:168,1,41.6249987297059,0|0,3:2|3:2,0:2:0:0:
344,272,174079,5,6,3:2:0:0:
256,192,174266,12,2,177079,3:2:0:0:
180,320,179704,6,0,L|260:312,1,78.6250014996529,2|0,0:2|0:2,0:2:0:0:
328,156,180079,5,2,3:2:0:0:
396,300,180266,1,0,3:2:0:0:
428,124,180454,1,2,3:2:0:0:
324,256,180641,1,0,3:2:0:0:
296,72,180829,1,2,3:2:0:0:
400,212,181016,1,0,3:2:0:0:
360,12,181204,1,2,3:2:0:0:
260,200,181391,1,0,3:2:0:0:
456,136,181579,5,2,3:2:0:0:
256,48,181766,1,0,3:2:0:0:
324,256,181954,1,2,3:2:0:0:
440,56,182141,1,0,3:2:0:0:
200,132,182329,1,2,3:2:0:0:
416,260,182516,1,0,3:2:0:0:
360,12,182704,2,0,L|356:56,2,39.3125007498264,2|0|0,3:2|3:2|3:2,3:2:0:0:
224,232,183079,6,0,P|184:240|136:228,1,83.2499974594117,14|0,3:2|0:2,0:2:0:0:
260,16,183454,5,8,0:2:0:0:
320,264,183641,1,0,3:2:0:0:
180,60,183829,5,8,0:2:0:0:
120,312,184016,1,0,3:2:0:0:
256,112,184204,5,10,0:2:0:0:
288,348,184391,1,2,3:2:0:0:
92,156,184579,6,0,L|176:148,1,83.2499974594117,8|0,0:2|0:2,0:2:0:0:
416,272,184954,5,8,0:2:0:0:
296,40,185141,1,0,3:2:0:0:
208,312,185329,5,8,0:2:0:0:
440,168,185516,1,0,3:2:0:0:
164,84,185704,5,10,0:2:0:0:
296,324,185891,1,0,3:2:0:0:
372,24,186079,5,10,0:2:0:0:
240,236,186266,1,0,3:2:0:0:
448,40,186454,5,10,0:2:0:0:
472,296,186641,1,0,3:2:0:0:
324,92,186829,5,10,0:2:0:0:
268,320,187016,1,0,3:2:0:0:
460,120,187204,5,10,0:2:0:0:
392,374,187391,1,2,3:2:0:0:
260,152,187579,6,0,P|220:144|176:156,1,83.2499974594117,8|0,0:2|0:2,0:2:0:0:
76,360,187954,5,8,0:2:0:0:
16,124,188141,1,0,3:2:0:0:
156,328,188329,5,8,0:2:0:0:
192,68,188516,1,0,3:2:0:0:
64,276,188704,5,10,0:2:0:0:
10,34,188891,1,0,3:2:0:0:
216,248,189079,6,0,L|304:240,1,83.2499974594117,10|0,0:2|0:2,0:2:0:0:
448,56,189454,2,0,L|360:48,1,83.2499974594117,10|0,0:2|0:2,0:2:0:0:
108,120,189829,5,10,0:2:0:0:
332,256,190016,1,0,3:2:0:0:
220,12,190204,5,10,0:2:0:0:
124,256,190391,1,0,3:2:0:0:
312,72,190579,6,0,B|352:64|352:64|400:76,1,83.2499974594117,10|0,0:2|0:2,0:2:0:0:
500,284,190954,2,0,B|458:294|458:294|418:286,1,83.2499974594117,10|0,0:2|0:2,0:2:0:0:
208,120,191329,5,10,0:2:0:0:
336,348,191516,1,0,3:2:0:0:
404,84,191704,2,0,L|392:176,1,83.2499974594117,10|0,0:2|3:2,0:0:0:0:
252,368,192079,5,2,3:2:0:0:
188,144,192266,1,0,3:2:0:0:
328,328,192454,1,0,3:2:0:0:
312,92,192641,1,0,3:2:0:0:
132,264,192829,1,0,3:2:0:0:
400,204,193016,1,0,3:2:0:0:
144,80,193204,1,0,3:2:0:0:
248,352,193391,1,0,3:2:0:0:
364,32,193579,5,8,3:2:0:0:
172,336,193766,1,8,3:2:0:0:
248,0,193954,1,8,3:2:0:0:
391,314,194141,1,8,3:2:0:0:
164,68,194329,1,8,0:2:0:0:
164,68,194422,1,8,0:2:0:0:
164,68,194516,1,8,0:2:0:0:
280,372,194704,2,0,L|288:284,1,83.2499974594117,0|0,3:2|3:2,0:2:0:0:
384,32,195079,6,0,P|440:24|484:44,1,92.5,14|0,0:2|0:2,0:2:0:0:
512,248,195454,2,0,P|468:261|423:252,1,92.5,10|0,0:2|0:2,0:2:0:0:
264,56,195829,1,10,0:2:0:0:
468,172,196016,1,2,3:2:0:0:
236,228,196204,1,10,0:2:0:0:
384,32,196391,1,2,3:2:0:0:
316,284,196579,6,0,P|272:315|151:272,1,185,10|8,0:2|0:2,0:2:0:0:
168,52,197141,1,0,0:2:0:0:
320,200,197329,2,0,P|376:208|412:196,1,92.5,10|0,0:2|3:2,0:2:0:0:
300,16,197704,1,10,0:2:0:0:
232,224,197891,1,2,3:2:0:0:
136,8,198079,6,0,L|144:100,1,92.5,10|0,0:2|0:2,0:2:0:0:
324,256,198454,2,0,L|332:164,1,92.5,10|0,0:2|0:2,0:2:0:0:
92,232,198829,1,10,0:2:0:0:
308,336,199016,1,2,3:2:0:0:
192,128,199204,1,10,0:2:0:0:
132,356,199391,1,2,3:2:0:0:
328,184,199579,6,0,P|380:172|436:192,1,92.5,10|0,0:2|0:2,0:2:0:0:
308,376,199954,2,0,P|271:336|260:278,1,92.5,8|0,0:2|0:2,0:2:0:0:
312,56,200329,1,8,0:2:0:0:
376,272,200516,1,0,3:2:0:0:
176,160,200704,1,8,0:2:0:0:
404,80,200891,1,0,3:2:0:0:
216,248,201079,6,0,B|172:256|172:256|124:244,1,92.5,10|0,0:2|0:2,0:2:0:0:
48,36,201454,2,0,B|92:28|92:28|140:40,1,92.5,8|0,0:2|0:2,0:2:0:0:
312,220,201829,1,10,0:2:0:0:
232,12,202016,1,0,3:2:0:0:
128,212,202204,1,8,0:2:0:0:
332,36,202391,6,0,L|324:132,1,92.5,2|8,3:2|0:2,0:2:0:0:
440,320,202766,2,0,L|432:224,1,92.5,2|8,0:2|0:2,0:2:0:0:
232,136,203141,2,0,L|239:228,1,92.5,2|8,0:2|0:2,0:2:0:0:
460,140,203516,1,2,3:2:0:0:
256,48,203704,2,0,P|208:48|164:76,1,92.5,10|0,0:2|0:2,0:2:0:0:
256,352,204079,5,10,0:2:0:0:
336,108,204266,1,10,0:2:0:0:
124,272,204454,1,10,0:2:0:0:
412,220,204641,1,10,0:2:0:0:
128,64,204829,5,10,0:2:0:0:
336,304,205016,1,10,0:2:0:0:
324,0,205204,1,10,0:2:0:0:
128,256,205391,1,10,0:2:0:0:
444,104,205579,6,0,L|452:4,1,92.5,14|0,0:2|0:2,0:2:0:0:
200,152,205954,2,0,L|208:252,1,92.5,14|0,3:2|0:2,0:2:0:0:
404,364,206329,1,8,0:2:0:0:
404,364,206422,1,8,0:2:0:0:
404,364,206516,1,10,0:2:0:0:
328,180,206704,1,2,3:2:0:0:
232,364,206891,1,2,3:2:0:0:
412,192,207079,6,0,P|460:180|504:196,1,92.5,14|0,0:2|0:2,0:2:0:0:
319,365,207454,2,0,P|271:377|227:361,1,92.5,10|0,0:2|0:2,0:2:0:0:
172,152,207829,1,10,0:2:0:0:
88,340,208016,1,2,3:2:0:0:
40,120,208204,1,10,0:2:0:0:
168,292,208391,1,2,3:2:0:0:
232,64,208579,6,0,B|340:36|312:112|412:88,1,185,10|8,0:2|0:2,0:2:0:0:
456,288,209141,1,0,0:2:0:0:
268,168,209329,2,0,P|212:160|168:180,1,92.5,10|2,0:2|3:2,0:2:0:0:
280,380,209704,1,10,0:2:0:0:
368,176,209891,1,2,3:2:0:0:
176,320,210079,6,0,L|84:312,1,92.5,10|0,0:2|0:2,0:2:0:0:
0,140,210454,2,0,L|92:132,1,92.5,10|0,0:2|0:2,0:2:0:0:
340,64,210829,1,10,0:2:0:0:
184,240,211016,1,2,3:2:0:0:
168,0,211204,1,10,0:2:0:0:
332,168,211391,1,2,3:2:0:0:
92,72,211579,6,0,B|48:64|48:64|-8:76,1,92.5,10|0,0:2|0:2,0:2:0:0:
124,264,211954,2,0,B|168:272|168:272|224:260,1,92.5,8|0,0:2|0:2,0:2:0:0:
364,64,212329,2,0,B|295:58|295:58|256:79|256:79|180:74,1,185,8|8,0:2|0:2,0:2:0:0:
232,284,212891,1,0,3:2:0:0:
396,160,213079,6,0,P|452:152|500:168,1,92.5,10|0,0:2|0:2,0:2:0:0:
492,352,213454,2,0,P|436:360|388:344,1,92.5,8|0,0:2|0:2,0:2:0:0:
236,144,213829,1,10,0:2:0:0:
448,264,214016,1,0,3:2:0:0:
216,352,214204,1,8,0:2:0:0:
364,128,214391,6,0,L|356:228,1,92.5,2|8,3:2|0:2,0:2:0:0:
192,368,214766,2,0,L|184:268,1,92.5,2|8,0:2|0:2,0:2:0:0:
276,48,215141,2,0,L|268:148,1,92.5,2|8,0:2|0:2,0:2:0:0:
336,348,215516,1,2,3:2:0:0:
451,135,215704,2,0,P|395:119|351:135,1,92.5,10|0,0:2|0:2,0:2:0:0:
184,364,216079,5,10,3:2:0:0:
120,96,216266,1,10,3:2:0:0:
256,316,216454,1,10,3:2:0:0:
316,60,216641,1,10,3:2:0:0:
180,280,216829,5,10,3:2:0:0:
140,12,217016,1,10,3:2:0:0:
324,264,217204,1,10,3:2:0:0:
384,16,217391,1,10,3:2:0:0:
160,196,217579,6,0,L|64:188,1,92.5,14|0,3:2|0:2,0:2:0:0:
276,8,217954,2,0,L|368:0,1,92.5,14|0,3:2|0:2,0:2:0:0:
464,208,218329,1,8,0:2:0:0:
464,208,218422,1,8,0:2:0:0:
464,208,218516,1,10,0:2:0:0:
272,108,218704,2,0,P|224:96|164:116,1,92.5,2|2,3:2|3:2,0:0:0:0:
256,360,219079,5,10,3:2:0:0:
372,112,219266,1,10,3:2:0:0:
112,284,219454,1,10,3:2:0:0:
408,200,219641,1,10,3:2:0:0:
136,68,219829,5,10,3:2:0:0:
272,344,220016,1,10,3:2:0:0:
348,24,220204,1,10,3:2:0:0:
124,268,220391,1,10,3:2:0:0:
424,68,220579,6,0,P|472:56|524:72,1,92.5,14|0,3:2|0:2,0:2:0:0:
448,320,220954,2,0,P|400:332|348:316,1,92.5,14|0,3:2|0:2,0:2:0:0:
168,192,221329,1,8,0:2:0:0:
168,192,221422,1,8,0:2:0:0:
168,192,221516,1,10,0:2:0:0:
400,152,221704,2,0,P|412:200|396:252,1,92.5,2|2,3:2|3:2,0:0:0:0:
184,372,222079,5,10,3:2:0:0:
88,64,222266,1,10,3:2:0:0:
288,328,222454,1,10,3:2:0:0:
336,32,222641,1,10,3:2:0:0:
56,276,222829,5,10,3:2:0:0:
396,184,223016,1,10,3:2:0:0:
72,44,223204,1,10,3:2:0:0:
196,352,223391,1,10,3:2:0:0:
336,32,223579,6,0,B|384:20|384:20|440:36,1,92.5,14|0,3:2|0:2,0:2:0:0:
332,284,223954,2,0,B|284:296|284:296|228:280,1,92.5,14|0,3:2|0:2,0:2:0:0:
108,56,224329,1,8,0:2:0:0:
108,56,224422,1,8,0:2:0:0:
108,56,224516,1,10,0:2:0:0:
288,200,224704,1,2,3:2:0:0:
48,132,224891,1,2,3:2:0:0:
284,32,225079,6,0,B|384:8|384:8|444:40,1,157.250002999306,6|0,3:2|0:2,0:2:0:0:
480,224,225641,1,10,0:2:0:0:
344,116,225829,2,0,L|264:120,1,78.6250014996529,10|0,0:2|0:2,0:2:0:0:
196,272,226204,1,10,0:2:0:0:
96,120,226391,6,0,B|104:180|104:180|92:212|92:212|100:288,1,157.250002999306,0|8,3:2|0:2,0:2:0:0:
260,352,226954,1,2,3:2:0:0:
200,188,227141,1,0,3:2:0:0:
140,352,227329,2,0,P|96:364|12:296,1,157.250002999306,10|8,0:2|0:2,0:2:0:0:
24,284,228079,5,2,3:2:0:0:
168,188,228266,2,0,L|160:280,1,78.6250014996529,8|0,0:2|0:2,0:2:0:0:
0,164,228641,1,2,3:2:0:0:
152,100,228829,2,0,P|190:99|225:117,1,78.6250014996529,10|0,0:2|0:2,0:2:0:0:
280,248,229204,1,10,0:2:0:0:
312,80,229391,6,0,B|404:52|388:120|480:88,1,157.250002999306,0|8,3:2|0:2,0:2:0:0:
452,296,229954,1,2,3:2:0:0:
348,160,230141,1,0,3:2:0:0:
316,332,230329,1,10,0:2:0:0:
428,196,230516,1,0,3:2:0:0:
396,364,230704,1,8,0:2:0:0:
404,376,231079,5,2,3:2:0:0:
344,232,231266,2,0,P|296:224|264:236,1,78.6250014996529,8|0,0:2|0:2,0:2:0:0:
204,368,231641,1,2,3:2:0:0:
160,228,231829,2,0,L|152:149,1,78.6250014996529,10|0,0:2|0:2,0:2:0:0:
256,264,232204,1,10,0:2:0:0:
292,104,232391,6,0,P|328:80|432:120,1,157.250002999306,0|8,3:2|0:2,0:2:0:0:
448,312,232954,1,2,3:2:0:0:
356,160,233141,1,0,3:2:0:0:
320,328,233329,1,10,0:2:0:0:
432,208,233516,1,0,3:2:0:0:
260,260,233704,2,0,P|216:268|172:256,1,78.6250014996529,8|0,0:2|0:2,0:2:0:0:
92,96,234079,6,0,B|204:64|184:152|292:116,1,208.125007939339,10|10,0:2|0:2,0:2:0:0:
396,32,234829,2,0,L|384:180,1,138.750005292893,10|10,0:2|3:2,0:2:0:0:
332,300,235391,1,8,3:2:0:0:
332,300,235485,1,8,3:2:0:0:
332,300,235579,1,10,3:2:0:0:
