osu file format v14

[General]
AudioFilename: audio.mp3
AudioLeadIn: 0
PreviewTime: 194985
Countdown: 0
SampleSet: Soft
StackLeniency: 0.7
Mode: 2
LetterboxInBreaks: 0
WidescreenStoryboard: 0

[Editor]
DistanceSpacing: 1.5
BeatDivisor: 4
GridSize: 8
TimelineZoom: 1.5

[Metadata]
Title:DORAEMON
TitleUnicode:ドラえもん
Artist:Amatsuki
ArtistUnicode:天月
Creator:Verti
Version:Best Friend
Source:映画ドラえもん のび太の宝島
Tags:Cover theme song Male Vocal Japanese pop j-pop full ver version anime the Movie: Nobita's Treasure Island Eiga Nobita no Takarajima HOSHINO GEN fujiko f. fujio 星野源 jpop あまつき doraeiga 菊池 俊輔 Shunsuke Kikuchi 藤子 不二雄 kainBenny- BennyBananas Benita Mniam Rew0825 Browiec
BeatmapID:2750179
BeatmapSetID:1327531

[Difficulty]
HPDrainRate:6
CircleSize:4.2
OverallDifficulty:9.2
ApproachRate:9.2
SliderMultiplier:1.6
SliderTickRate:2

[Events]
//Background and Video events
0,0,"quack.jpg",0,0
//Break Periods
//Storyboard Layer 0 (Background)
//Storyboard Layer 1 (Fail)
//Storyboard Layer 2 (Pass)
//Storyboard Layer 3 (Foreground)
//Storyboard Layer 4 (Overlay)
//Storyboard Sound Samples

[TimingPoints]
1579,375,4,2,0,30,1,0
1579,-100,4,2,0,35,0,0
12079,-100,4,2,0,30,0,0
24079,-100,4,2,0,30,0,0
39079,-100,4,2,0,35,0,0
42079,-80,4,2,0,35,0,0
45079,-100,4,2,0,35,0,0
52016,-71.4285714285714,4,2,0,30,0,0
52579,-86.9565217391303,4,2,0,50,0,1
58579,-86.9565217391303,4,2,0,50,0,1
61579,-86.9565217391303,4,2,0,55,0,1
70579,-86.9565217391303,4,2,0,50,0,1
73579,-86.9565217391303,4,2,0,55,0,1
76579,-100,4,2,0,35,0,0
87079,-100,4,2,0,30,0,0
102079,-100,4,2,0,35,0,0
105079,-80,4,2,0,35,0,0
108079,-100,4,2,0,35,0,0
115016,-86.9565217391303,4,2,0,30,0,0
115579,-86.9565217391304,4,2,0,50,0,1
121579,-86.9565217391304,4,2,0,50,0,1
124579,-86.9565217391304,4,2,0,55,0,1
133579,-86.9565217391304,4,2,0,50,0,1
136579,-86.9565217391304,4,2,0,55,0,1
139579,-100,4,2,0,30,0,0
160579,-100,4,2,0,35,0,0
163579,-80,4,2,0,35,0,0
166579,-100,4,2,0,35,0,0
169579,-100,4,2,0,30,0,0
173610,-100,4,2,0,30,0,0
173704,-100,4,2,0,30,0,0
173797,-100,4,2,0,30,0,0
173891,-100,4,2,0,30,0,0
173985,-100,4,2,0,30,0,0
174079,-100,4,2,0,30,0,0
178579,-100,4,2,0,30,0,0
180079,-100,4,2,0,35,0,0
183079,-86.9565217391304,4,2,0,50,0,1
192079,-100,4,2,0,35,0,0
195079,-86.9565217391304,4,2,0,50,0,1
201079,-86.9565217391304,4,2,0,50,0,1
204079,-86.9565217391304,4,2,0,55,0,1
213079,-86.9565217391304,4,2,0,50,0,1
216079,-86.9565217391304,4,2,0,55,0,1
219079,-86.9565217391304,4,2,0,55,0,1
222079,-86.9565217391304,4,2,0,65,0,1
225079,-100,4,2,0,35,0,0
235579,-100,4,2,0,30,0,0

[Colours]
Combo1 : 255,125,125
Combo2 : 36,146,255
Combo3 : 255,156,108
Combo4 : 173,90,90

[HitObjects]
368,264,1579,6,0,P|424:208|368:152,1,160,10|0,0:2|0:0,0:0:0:0:
256,192,2141,1,10,0:2:0:0:
144,192,2329,2,0,L|144:96,1,80,10|0,0:2|0:0,0:0:0:0:
320,192,2704,1,10,0:2:0:0:
144,192,3454,6,0,L|144:112,1,80,10|0,0:2|0:0,0:0:0:0:
312,80,3829,2,0,L|224:80,1,80,10|0,0:2|0:0,0:0:0:0:
400,80,4204,1,0,3:2:0:0:
160,264,4579,6,0,P|104:208|160:152,1,160,6|0,3:2|0:2,0:0:0:0:
256,192,5141,1,10,0:2:0:0:
368,192,5329,2,0,L|368:96,1,80,10|0,0:2|0:2,0:0:0:0:
192,192,5704,1,10,0:2:0:0:
312,192,5891,2,2,L|200:64,1,160,0|8,3:2|0:2,0:0:0:0:
368,192,6454,6,0,L|368:112,1,80,2|0,3:2|3:2,0:0:0:0:
208,192,6829,2,0,L|208:304,1,80,10|0,0:2|0:0,0:0:0:0:
368,192,7204,1,8,0:2:0:0:
136,192,7579,6,0,P|80:136|136:80,1,160,2|0,3:2|0:2,0:0:0:0:
232,64,8141,1,2,3:2:0:0:
344,64,8329,2,0,L|344:144,1,80,10|0,0:2|0:2,0:0:0:0:
168,64,8704,1,10,0:2:0:0:
296,56,8891,2,10,L|168:184,1,160,0|8,3:2|0:2,0:0:0:0:
352,64,9454,6,0,L|352:176,1,80,2|0,3:2|3:2,0:0:0:0:
192,192,9829,2,0,L|304:192,1,80,10|0,0:2|3:2,0:0:0:0:
128,72,10204,1,8,0:2:0:0:
392,192,10579,6,0,P|448:136|392:80,1,160,2|0,3:2|0:2,0:0:0:0:
288,36,11141,1,2,3:2:0:0:
176,36,11329,2,0,L|72:36,1,80,2|0,3:2|0:2,0:0:0:0:
400,196,11704,2,0,L|448:196,1,40,2|0,3:2|0:0,0:0:0:0:
224,28,11891,2,0,L|176:28,1,40,10|0,3:2|3:2,0:0:0:0:
368,192,12079,6,0,P|416:128|368:72,1,160,6|8,3:2|0:2,0:0:0:0:
208,32,12641,1,2,3:2:0:0:
112,80,12829,1,2,3:2:0:0:
112,176,13016,1,2,0:2:0:0:
208,232,13204,1,10,0:2:0:0:
368,200,13391,1,2,3:2:0:0:
208,232,13579,5,2,3:2:0:0:
368,200,13954,1,10,0:2:0:0:
80,96,14329,1,2,3:2:0:0:
200,96,14516,2,0,L|104:96,2,80,0|8|0,3:2|0:2|0:2,0:0:0:0:
448,96,15079,6,0,P|504:152|448:208,1,160,2|8,3:2|0:2,0:0:0:0:
336,192,15641,1,2,3:2:0:0:
224,192,15829,2,0,L|144:192,1,80,2|0,3:2|0:2,0:0:0:0:
304,64,16204,2,0,L|392:64,1,80,10|0,0:2|3:2,0:0:0:0:
48,192,16579,6,0,L|48:96,1,80,2|0,3:2|0:2,0:0:0:0:
224,64,16954,2,0,L|224:160,1,80,10|0,0:2|3:2,0:0:0:0:
48,192,17329,2,0,L|144:192,1,80,2|0,3:2|0:2,0:0:0:0:
424,192,17704,2,0,L|424:88,1,80,10|0,0:2|0:2,0:0:0:0:
168,48,18079,6,0,P|112:120|168:176,1,160,2|8,3:2|0:2,0:0:0:0:
304,272,18641,1,2,3:2:0:0:
400,200,18829,1,2,3:2:0:0:
400,200,19016,1,2,0:2:0:0:
304,272,19204,1,10,0:2:0:0:
144,48,19391,1,2,3:2:0:0:
312,40,19579,5,2,3:2:0:0:
136,48,19954,1,10,0:2:0:0:
456,48,20329,1,2,3:2:0:0:
336,48,20516,2,0,L|424:48,2,80,0|8|0,3:2|0:2|0:2,0:0:0:0:
88,48,21079,6,0,P|32:104|88:160,1,160,2|8,3:2|0:2,0:0:0:0:
152,40,21641,1,2,3:2:0:0:
264,40,21829,2,0,L|360:40,1,80,2|0,3:2|0:2,0:0:0:0:
176,40,22204,2,0,L|80:40,1,80,10|0,0:2|3:2,0:0:0:0:
344,192,22579,6,0,L|344:88,1,80,2|0,3:2|0:2,0:0:0:0:
176,112,22954,2,0,L|176:32,1,80,10|0,0:2|0:2,0:0:0:0:
336,192,23329,2,0,L|232:192,1,80,2|0,3:2|3:2,0:0:0:0:
424,192,23704,2,0,L|510:192,1,80,8|0,0:2|3:2,0:0:0:0:
256,192,24079,6,0,L|80:192,1,160,6|8,3:2|0:2,0:0:0:0:
256,192,24641,1,2,3:2:0:0:
160,192,24829,1,2,3:2:0:0:
256,192,25016,1,2,0:2:0:0:
352,184,25204,1,10,0:2:0:0:
192,24,25391,1,2,3:2:0:0:
360,16,25579,5,2,3:2:0:0:
120,16,25954,1,10,0:2:0:0:
440,120,26329,1,2,3:2:0:0:
320,120,26516,2,0,L|432:120,2,80,0|8|0,3:2|0:2|0:2,0:0:0:0:
72,168,27079,6,0,P|16:112|80:48,1,160,2|8,3:2|0:2,0:0:0:0:
152,192,27641,1,2,3:2:0:0:
256,192,27829,2,0,L|344:192,1,80,2|0,3:2|0:2,0:0:0:0:
168,192,28204,2,0,L|168:112,1,80,10|0,0:2|3:2,0:0:0:0:
416,120,28579,6,0,L|512:120,1,80,2|0,3:2|0:2,0:0:0:0:
248,24,28954,2,0,L|144:24,1,80,10|0,0:2|3:2,0:0:0:0:
432,184,29329,2,0,L|432:96,1,80,2|0,3:2|0:2,0:0:0:0:
264,24,29704,2,0,L|352:24,1,80,10|0,0:2|0:2,0:0:0:0:
100,200,30079,6,0,P|52:136|100:80,1,160,2|8,3:2|0:2,0:0:0:0:
268,73,30641,1,2,3:2:0:0:
364,129,30829,1,2,3:2:0:0:
364,249,31016,1,2,0:2:0:0:
281,329,31204,1,10,0:2:0:0:
103,64,31391,1,2,3:2:0:0:
281,329,31579,5,2,3:2:0:0:
47,63,31954,1,10,0:2:0:0:
232,64,32329,1,2,3:2:0:0:
112,64,32516,2,0,L|200:64,2,80,0|8|0,3:2|0:2|0:2,0:0:0:0:
360,192,33079,6,0,L|192:192,1,160,2|8,3:2|0:2,0:0:0:0:
288,96,33641,1,2,3:2:0:0:
392,192,33829,2,0,L|392:88,1,80,2|0,3:2|0:2,0:0:0:0:
224,96,34204,2,0,L|136:96,1,80,10|0,0:2|3:2,0:0:0:0:
312,32,34579,6,0,L|392:32,1,80,2|0,3:2|0:2,0:0:0:0:
224,96,34954,2,0,L|320:96,1,80,10|0,0:2|0:2,0:0:0:0:
56,192,35329,2,0,L|56:112,1,80,2|0,3:2|3:2,0:0:0:0:
224,96,35704,2,0,L|320:96,1,80,8|0,0:2|0:0,0:0:0:0:
56,192,36079,6,0,L|216:192,1,160,2|8,3:2|0:2,0:0:0:0:
112,112,36641,1,2,3:2:0:0:
8,112,36829,2,0,L|8:200,1,80,2|0,3:2|0:2,0:0:0:0:
168,112,37204,2,0,L|264:112,1,80,10|0,0:2|3:2,0:0:0:0:
80,40,37579,6,0,L|160:40,1,80,2|0,3:2|0:2,0:0:0:0:
408,56,37954,2,0,L|408:144,1,80,10|0,0:2|0:2,0:0:0:0:
160,192,38329,5,10,0:2:0:0:
128,176,38375,1,0,0:0:0:0:
104,152,38422,1,8,0:2:0:0:
96,120,38469,1,0,0:0:0:0:
104,88,38516,1,8,0:2:0:0:
120,72,38563,1,0,0:0:0:0:
160,48,38610,1,0,0:0:0:0:
328,64,38704,2,0,L|400:64,1,40,10|0,3:2|0:0,0:0:0:0:
160,192,38891,2,0,L|112:192,1,40,10|0,3:2|0:0,0:0:0:0:
384,64,39079,5,6,3:2:0:0:
480,128,39266,1,0,0:2:0:0:
480,240,39454,1,8,3:2:0:0:
384,288,39641,1,10,3:2:0:0:
112,208,39829,1,10,3:2:0:0:
16,141,40016,1,8,3:2:0:0:
16,69,40204,1,8,3:2:0:0:
112,21,40391,1,8,3:2:0:0:
360,200,40579,5,10,3:2:0:0:
472,200,40766,1,8,3:2:0:0:
360,200,40954,1,8,3:2:0:0:
248,200,41141,1,10,3:2:0:0:
496,304,41329,1,10,3:2:0:0:
368,200,41516,1,8,3:2:0:0:
496,240,41704,1,8,3:2:0:0:
368,264,41891,1,8,3:2:0:0:
120,144,42079,6,0,P|56:208|120:272,1,200,6|10,3:2|3:2,0:0:0:0:
168,280,42547,1,8,3:2:0:0:
328,200,42641,2,0,L|392:200,1,50,8|8,3:2|3:2,0:0:0:0:
168,280,42829,2,0,L|368:280,1,200,6|10,3:2|3:2,0:0:0:0:
288,232,43297,1,8,3:2:0:0:
104,280,43391,2,0,L|32:280,1,50,8|8,3:2|3:2,0:0:0:0:
288,232,43579,6,0,P|352:168|288:104,1,200,6|10,3:2|3:2,0:0:0:0:
224,104,44047,1,8,3:2:0:0:
56,104,44141,2,0,L|0:104,1,50,8|8,3:2|3:2,0:0:0:0:
240,104,44329,2,0,L|344:104,1,100,6|0,3:2|3:2,0:0:0:0:
56,104,44704,2,0,L|56:216,1,100,2|0,3:2|3:2,0:0:0:0:
304,304,45079,5,6,3:2:0:0:
400,232,45266,1,0,0:2:0:0:
400,144,45454,1,8,3:2:0:0:
304,64,45641,1,10,3:2:0:0:
24,192,45829,1,10,3:2:0:0:
144,144,46016,1,8,3:2:0:0:
24,192,46204,1,8,3:2:0:0:
144,144,46391,1,8,3:2:0:0:
392,320,46579,5,10,3:2:0:0:
488,248,46766,1,8,3:2:0:0:
488,152,46954,1,8,3:2:0:0:
392,80,47141,1,10,3:2:0:0:
144,144,47329,2,0,L|144:48,1,80,10|8,3:2|3:2,0:0:0:0:
392,80,47704,2,0,L|448:80,1,40,8|8,3:2|3:2,0:0:0:0:
248,144,47891,2,0,L|184:144,1,40,8|8,3:2|3:2,0:0:0:0:
392,80,48079,6,0,P|448:136|392:192,1,160,6|8,3:2|0:2,0:0:0:0:
152,56,48641,2,0,L|328:56,1,160,6|2,3:2|3:2,0:0:0:0:
152,56,49204,1,8,0:2:0:0:
400,64,49391,6,0,P|456:120|408:168,1,160,6|2,3:2|3:2,0:0:0:0:
296,184,49954,1,8,0:2:0:0:
48,64,50141,2,0,L|240:64,1,160,6|2,3:2|3:2,0:0:0:0:
48,64,50704,2,0,L|48:176,1,80,10|0,0:2|0:2,0:0:0:0:
312,192,51079,5,10,3:2:0:0:
368,152,51172,1,0,0:0:0:0:
368,88,51266,1,10,3:2:0:0:
312,48,51360,1,0,3:2:0:0:
144,192,51454,2,0,L|80:192,1,40,10|10,3:2|3:2,0:0:0:0:
312,48,51641,2,0,L|360:48,1,40,10|10,3:2|3:2,0:0:0:0:
120,192,51829,1,10,3:2:0:0:
376,48,52016,2,0,L|504:48,2,111.999996582031,0|0|2,0:0|0:0|0:2,0:0:0:0:
24,192,52579,6,0,L|24:96,1,92.0000017547608,14|0,0:2|0:2,0:0:0:0:
320,32,52954,2,0,L|424:32,1,92.0000017547608,10|0,0:2|0:2,0:0:0:0:
128,32,53329,1,10,0:2:0:0:
16,72,53516,1,2,3:2:0:0:
16,160,53704,1,10,0:2:0:0:
128,200,53891,1,2,3:2:0:0:
416,56,54079,6,0,L|512:56,1,92.0000017547608,10|0,0:2|0:0,0:0:0:0:
224,32,54454,2,0,L|336:32,1,92.0000017547608,8|0,0:2|0:2,0:0:0:0:
24,176,54829,1,10,0:2:0:0:
152,104,55016,1,0,3:2:0:0:
24,176,55204,1,10,0:2:0:0:
152,104,55391,1,2,3:2:0:0:
480,72,55579,6,0,L|480:176,1,92.0000017547608,10|0,0:2|0:2,0:0:0:0:
200,128,55954,2,0,L|304:128,1,92.0000017547608,10|0,0:2|0:2,0:0:0:0:
16,192,56329,1,10,0:2:0:0:
144,192,56516,1,2,3:2:0:0:
16,192,56704,1,10,0:2:0:0:
144,192,56891,1,2,3:2:0:0:
432,136,57079,6,0,L|432:32,1,92.0000017547608,10|0,0:2|0:2,0:0:0:0:
144,208,57454,2,0,L|40:208,1,92.0000017547608,8|0,0:2|0:2,0:0:0:0:
328,96,57829,1,8,0:2:0:0:
200,96,58016,1,0,3:2:0:0:
480,96,58204,1,8,0:2:0:0:
352,96,58391,1,0,3:2:0:0:
80,16,58579,6,0,L|264:16,1,184.000003509522,10|8,0:2|0:2,0:0:0:0:
80,16,59141,1,0,0:2:0:0:
376,168,59329,2,0,P|438:107|372:39,1,184.000003509522,10|8,0:2|0:2,0:0:0:0:
112,176,59891,6,0,L|2:176,1,92.0000017547608,2|8,3:2|0:2,0:0:0:0:
304,88,60266,2,0,L|192:88,1,92.0000017547608,2|8,0:2|0:2,0:0:0:0:
496,168,60641,2,0,L|496:48,1,92.0000017547608,2|8,0:2|0:2,0:0:0:0:
200,72,61016,2,0,L|88:72,2,92.0000017547608,2|10|0,3:2|0:2|0:2,0:0:0:0:
480,192,61579,5,10,0:2:0:0:
336,192,61766,1,10,0:2:0:0:
192,192,61954,1,10,0:2:0:0:
480,192,62141,1,10,0:2:0:0:
192,192,62329,1,10,0:2:0:0:
336,192,62516,1,10,0:2:0:0:
192,192,62704,1,10,0:2:0:0:
480,192,62891,1,10,0:2:0:0:
192,192,63079,6,0,P|144:144|192:96,1,138.000002632141,14|0,0:2|0:0,0:0:0:0:
368,56,63454,2,0,L|480:56,1,92.0000017547608,14|0,3:2|0:2,0:0:0:0:
264,56,63829,1,10,0:2:0:0:
328,56,63922,1,8,0:2:0:0:
392,56,64016,1,10,0:2:0:0:
192,192,64204,2,0,L|88:192,1,92.0000017547608,2|2,3:2|3:2,0:0:0:0:
368,56,64579,6,0,L|464:56,1,92.0000017547608,14|0,0:2|0:2,0:0:0:0:
168,200,64954,2,0,L|72:200,1,92.0000017547608,10|0,0:2|0:2,0:0:0:0:
360,192,65329,1,10,0:2:0:0:
472,192,65516,1,2,3:2:0:0:
344,192,65704,1,10,0:2:0:0:
216,192,65891,1,2,3:2:0:0:
496,192,66079,6,0,L|496:88,1,92.0000017547608,10|0,0:2|0:0,0:0:0:0:
216,48,66454,2,0,L|328:48,1,92.0000017547608,8|0,0:2|0:2,0:0:0:0:
16,192,66829,1,10,0:2:0:0:
144,192,67016,1,2,3:2:0:0:
16,192,67204,1,10,0:2:0:0:
144,192,67391,1,2,3:2:0:0:
416,192,67579,6,0,L|512:192,1,92.0000017547608,10|0,0:2|0:2,0:0:0:0:
200,64,67954,2,0,L|96:64,1,92.0000017547608,10|0,0:2|0:2,0:0:0:0:
392,192,68329,1,10,0:2:0:0:
488,136,68516,1,2,3:2:0:0:
488,72,68704,1,10,0:2:0:0:
392,32,68891,1,2,3:2:0:0:
32,192,69079,6,0,L|32:88,1,92.0000017547608,10|0,0:2|0:2,0:0:0:0:
288,192,69454,2,0,L|192:192,1,92.0000017547608,8|0,0:2|0:2,0:0:0:0:
472,56,69829,2,0,L|472:168,1,92.0000017547608,8|0,0:2|0:0,0:0:0:0:
200,64,70204,2,0,L|200:160,1,92.0000017547608,8|0,0:2|3:2,0:0:0:0:
472,56,70579,6,0,L|272:56,1,184.000003509522,10|8,0:2|0:2,0:0:0:0:
136,48,71141,1,0,0:2:0:0:
392,192,71329,2,0,P|448:112|392:48,1,184.000003509522,10|8,0:2|0:2,0:0:0:0:
120,120,71891,6,0,L|120:224,1,92.0000017547608,2|8,3:2|0:2,0:0:0:0:
400,96,72266,2,0,L|504:96,1,92.0000017547608,2|8,0:2|0:2,0:0:0:0:
208,32,72641,2,0,L|104:32,1,92.0000017547608,2|8,0:2|0:2,0:0:0:0:
448,192,73016,2,0,L|336:192,2,92.0000017547608,2|10|0,3:2|0:2|0:2,0:0:0:0:
168,112,73579,5,10,3:2:0:0:
312,112,73766,1,10,3:2:0:0:
32,112,73954,1,10,3:2:0:0:
32,224,74141,1,10,3:2:0:0:
312,112,74329,1,10,3:2:0:0:
168,112,74516,1,10,3:2:0:0:
448,120,74704,1,10,3:2:0:0:
448,240,74891,1,10,3:2:0:0:
168,192,75079,6,0,P|120:144|168:96,1,138.000002632141,14|0,3:2|0:0,0:0:0:0:
416,104,75454,2,0,L|512:104,1,92.0000017547608,14|0,3:2|0:2,0:0:0:0:
312,48,75829,1,10,0:2:0:0:
376,48,75922,1,8,0:2:0:0:
440,48,76016,1,10,0:2:0:0:
248,192,76204,2,0,L|128:192,1,92.0000017547608,2|2,3:2|3:2,0:0:0:0:
416,104,76579,6,0,P|472:160|416:216,1,160,6|0,3:2|0:2,0:0:0:0:
312,104,77141,1,10,3:2:0:0:
208,96,77329,2,0,L|208:200,1,80,10|0,3:2|0:2,0:0:0:0:
376,32,77704,2,0,P|448:32|448:104,1,160,10|0,3:2|0:0,0:0:0:0:
336,32,78266,1,8,0:2:0:0:
176,32,78454,6,0,L|176:120,1,80,2|0,3:2|3:2,0:0:0:0:
336,32,78829,1,10,0:2:0:0:
176,40,79016,2,0,L|280:40,2,80,2|10|0,0:2|0:2|0:2,0:0:0:0:
344,160,79579,6,0,P|400:216|344:272,1,160,2|0,3:2|0:2,0:0:0:0:
240,160,80141,1,2,3:2:0:0:
136,160,80329,2,0,L|136:256,1,80,10|0,0:2|0:2,0:0:0:0:
296,24,80704,2,0,P|384:24|384:88,1,160,10|0,0:2|0:0,0:0:0:0:
296,24,81266,1,8,0:2:0:0:
168,24,81454,6,0,L|168:112,1,80,2|0,3:2|3:2,0:0:0:0:
336,24,81829,2,0,L|232:24,2,80,10|0|10,0:2|3:2|0:2,0:0:0:0:
176,192,82391,1,0,0:2:0:0:
336,24,82579,6,0,P|384:80|336:144,1,160,2|0,3:2|0:2,0:0:0:0:
240,144,83141,1,2,3:2:0:0:
128,144,83329,2,0,L|128:48,1,80,10|0,0:2|0:2,0:0:0:0:
288,48,83704,2,0,P|368:48|368:120,1,160,10|0,0:2|0:0,0:0:0:0:
264,48,84266,1,8,0:2:0:0:
144,48,84454,6,0,L|144:152,1,80,2|0,3:2|3:2,0:0:0:0:
304,16,84829,2,0,L|224:16,2,80,10|0|10,0:2|3:2|0:2,0:0:0:0:
144,16,85391,1,0,0:2:0:0:
304,16,85579,6,0,P|352:72|304:144,1,160,2|0,3:2|0:2,0:0:0:0:
208,16,86141,1,2,3:2:0:0:
96,16,86329,2,0,L|96:120,1,80,2|0,3:2|0:2,0:0:0:0:
344,192,86704,2,0,L|408:192,1,40,10|0,3:2|0:0,0:0:0:0:
208,16,86891,2,0,L|160:16,1,40,0|0,3:2|3:2,0:0:0:0:
344,192,87079,6,0,P|392:120|344:72,1,160,6|8,3:2|0:2,0:0:0:0:
184,56,87641,1,2,3:2:0:0:
88,56,87829,1,2,3:2:0:0:
184,56,88016,1,2,0:2:0:0:
280,56,88204,1,10,0:2:0:0:
112,56,88391,1,2,3:2:0:0:
280,56,88579,5,2,3:2:0:0:
112,56,88954,1,10,0:2:0:0:
440,56,89329,1,2,3:2:0:0:
336,56,89516,2,0,L|432:56,2,80,0|8|0,3:2|0:2|0:2,0:0:0:0:
88,192,90079,6,0,L|256:192,1,160,2|8,3:2|0:2,0:0:0:0:
144,96,90641,1,2,3:2:0:0:
40,96,90829,2,0,L|40:192,1,80,2|0,3:2|0:2,0:0:0:0:
208,32,91204,2,0,L|312:32,1,80,10|0,0:2|3:2,0:0:0:0:
120,96,91579,6,0,L|208:96,1,80,2|0,3:2|0:2,0:0:0:0:
32,96,91954,2,0,L|32:184,1,80,10|0,0:2|3:2,0:0:0:0:
200,64,92329,2,0,L|296:64,1,80,2|0,3:2|0:2,0:0:0:0:
112,168,92704,2,0,L|24:168,1,80,10|0,0:2|0:2,0:0:0:0:
280,192,93079,6,0,P|336:128|280:72,1,160,2|8,3:2|0:2,0:0:0:0:
136,288,93641,1,2,3:2:0:0:
232,224,93829,1,2,3:2:0:0:
232,128,94016,1,2,0:2:0:0:
136,48,94204,1,10,0:2:0:0:
304,40,94391,1,2,3:2:0:0:
136,48,94579,5,2,3:2:0:0:
376,40,94954,1,10,0:2:0:0:
104,32,95329,1,2,3:2:0:0:
224,32,95516,2,0,L|144:32,2,80,0|8|0,3:2|0:2|0:2,0:0:0:0:
472,40,96079,6,0,L|472:208,1,160,2|8,3:2|0:2,0:0:0:0:
364,39,96641,1,2,3:2:0:0:
256,40,96829,2,0,L|152:40,1,80,2|0,3:2|0:2,0:0:0:0:
336,40,97204,2,0,L|432:40,1,80,10|0,0:2|3:2,0:0:0:0:
168,192,97579,6,0,L|168:104,1,80,2|0,3:2|0:2,0:0:0:0:
336,40,97954,2,0,L|232:40,1,80,10|0,0:2|0:2,0:0:0:0:
424,16,98329,2,0,L|512:16,1,80,2|0,3:2|3:2,0:0:0:0:
256,24,98704,2,0,L|168:24,1,80,8|0,0:2|0:0,0:0:0:0:
424,16,99079,6,0,P|472:80|424:152,1,160,2|8,3:2|0:2,0:0:0:0:
336,16,99641,1,2,3:2:0:0:
232,16,99829,2,0,L|328:16,1,80,2|0,3:2|0:2,0:0:0:0:
152,16,100204,2,0,L|64:16,1,80,10|0,0:2|3:2,0:0:0:0:
320,184,100579,6,0,L|208:184,1,80,2|0,3:2|0:2,0:0:0:0:
408,72,100954,2,0,L|496:72,1,80,10|0,0:2|0:2,0:0:0:0:
208,184,101329,5,10,0:2:0:0:
176,168,101375,1,0,0:0:0:0:
152,144,101422,1,8,0:2:0:0:
144,112,101469,1,0,0:0:0:0:
152,80,101516,1,8,0:2:0:0:
168,64,101563,1,0,0:0:0:0:
208,40,101610,1,0,0:0:0:0:
384,72,101704,2,0,L|432:72,1,40,10|0,3:2|0:0,0:0:0:0:
208,192,101891,2,0,L|144:192,1,40,10|0,3:2|0:0,0:0:0:0:
408,72,102079,5,6,3:2:0:0:
504,120,102266,1,0,0:2:0:0:
504,224,102454,1,8,3:2:0:0:
408,272,102641,1,10,3:2:0:0:
160,64,102829,1,10,3:2:0:0:
288,64,103016,1,8,3:2:0:0:
32,48,103204,1,8,3:2:0:0:
160,64,103391,1,8,3:2:0:0:
424,184,103579,5,10,3:2:0:0:
288,64,103766,1,8,3:2:0:0:
424,184,103954,1,8,3:2:0:0:
288,64,104141,1,10,3:2:0:0:
40,48,104329,1,10,3:2:0:0:
40,160,104516,1,8,3:2:0:0:
288,64,104704,1,8,3:2:0:0:
416,64,104891,1,8,3:2:0:0:
168,64,105079,6,0,P|104:128|168:192,1,200,6|10,3:2|3:2,0:0:0:0:
216,72,105547,1,8,3:2:0:0:
384,72,105641,2,0,L|456:72,1,50,8|8,3:2|3:2,0:0:0:0:
216,72,105829,2,0,L|416:72,1,200,6|10,3:2|3:2,0:0:0:0:
336,16,106297,1,8,3:2:0:0:
152,72,106391,2,0,L|72:72,1,50,8|8,3:2|3:2,0:0:0:0:
320,8,106579,6,0,P|392:72|320:128,1,200,6|10,3:2|3:2,0:0:0:0:
272,8,107047,1,8,3:2:0:0:
104,80,107141,2,0,L|48:80,1,50,8|8,3:2|3:2,0:0:0:0:
304,8,107329,1,6,3:2:0:0:
400,88,107516,1,0,3:2:0:0:
400,192,107704,1,2,3:2:0:0:
304,248,107891,1,0,3:2:0:0:
40,96,108079,5,6,3:2:0:0:
160,96,108266,1,0,0:2:0:0:
40,32,108454,1,8,3:2:0:0:
160,160,108641,1,10,3:2:0:0:
408,232,108829,1,10,3:2:0:0:
504,176,109016,1,8,3:2:0:0:
504,88,109204,1,8,3:2:0:0:
408,40,109391,1,8,3:2:0:0:
160,192,109579,5,10,3:2:0:0:
48,192,109766,1,8,3:2:0:0:
160,192,109954,1,8,3:2:0:0:
272,192,110141,1,10,3:2:0:0:
16,40,110329,2,0,L|96:40,1,80,10|8,3:2|3:2,0:0:0:0:
344,40,110704,2,0,L|408:40,1,40,10|8,0:2|3:2,0:0:0:0:
192,56,110891,2,0,L|144:56,1,40,10|8,3:2|3:2,0:0:0:0:
344,40,111079,6,0,P|400:96|344:152,1,160,6|8,3:2|0:2,0:0:0:0:
104,80,111641,2,0,L|272:80,1,160,6|2,3:2|3:2,0:0:0:0:
104,80,112204,1,8,0:2:0:0:
352,216,112391,6,0,L|168:216,1,160,6|2,3:2|3:2,0:0:0:0:
80,208,112954,1,8,0:2:0:0:
344,208,113141,2,0,L|184:208,1,160,6|2,3:2|3:2,0:0:0:0:
328,32,113704,2,0,L|424:32,1,80,10|0,0:2|0:2,0:0:0:0:
152,40,114079,5,10,3:2:0:0:
96,80,114172,1,0,0:0:0:0:
96,144,114266,1,10,3:2:0:0:
152,176,114360,1,0,3:2:0:0:
328,32,114454,2,0,L|376:32,1,40,10|10,3:2|3:2,0:0:0:0:
152,176,114641,2,0,L|104:176,1,40,10|10,3:2|3:2,0:0:0:0:
368,32,114829,1,10,3:2:0:0:
120,24,115016,2,0,L|16:24,2,92.0000017547608,0|0|2,0:0|0:0|0:2,0:0:0:0:
392,184,115579,6,0,L|392:64,1,92.0000017547608,14|0,0:2|0:2,0:0:0:0:
144,64,115954,2,0,L|32:64,1,92.0000017547608,10|0,0:2|0:2,0:0:0:0:
312,112,116329,1,10,0:2:0:0:
424,160,116516,1,2,3:2:0:0:
312,112,116704,1,10,0:2:0:0:
200,48,116891,1,2,3:2:0:0:
464,160,117079,6,0,L|464:280,1,92.0000017547608,10|0,0:2|0:0,0:0:0:0:
216,64,117454,2,0,L|328:64,1,92.0000017547608,8|0,0:2|0:2,0:0:0:0:
48,56,117829,1,10,0:2:0:0:
168,56,118016,1,0,3:2:0:0:
48,56,118204,1,10,0:2:0:0:
168,56,118391,1,2,3:2:0:0:
440,184,118579,6,0,L|440:80,1,92.0000017547608,10|0,0:2|0:2,0:0:0:0:
192,56,118954,2,0,L|288:56,1,92.0000017547608,10|0,0:2|0:2,0:0:0:0:
24,56,119329,1,10,0:2:0:0:
144,56,119516,1,2,3:2:0:0:
24,56,119704,1,10,0:2:0:0:
144,56,119891,1,2,3:2:0:0:
400,56,120079,6,0,L|504:56,1,92.0000017547608,10|0,0:2|0:2,0:0:0:0:
232,56,120454,2,0,L|128:56,1,92.0000017547608,8|0,0:2|0:2,0:0:0:0:
424,88,120829,1,8,0:2:0:0:
304,88,121016,1,0,3:2:0:0:
40,160,121204,1,8,0:2:0:0:
160,160,121391,1,0,3:2:0:0:
440,56,121579,6,0,L|248:56,1,184.000003509522,10|8,0:2|0:2,0:0:0:0:
424,56,122141,1,0,0:2:0:0:
176,168,122329,2,0,P|112:112|176:56,1,184.000003509522,10|8,0:2|0:2,0:0:0:0:
416,160,122891,6,0,L|512:160,1,92.0000017547608,2|8,3:2|0:2,0:0:0:0:
264,176,123266,2,0,L|360:176,1,92.0000017547608,2|8,0:2|0:2,0:0:0:0:
112,48,123641,2,0,L|112:152,1,92.0000017547608,2|8,0:2|0:2,0:0:0:0:
384,48,124016,2,0,L|288:48,2,92.0000017547608,2|10|0,3:2|0:2|0:2,0:0:0:0:
128,192,124579,5,10,0:2:0:0:
256,192,124766,1,10,0:2:0:0:
384,192,124954,1,10,0:2:0:0:
128,192,125141,1,10,0:2:0:0:
384,192,125329,1,10,0:2:0:0:
256,192,125516,1,10,0:2:0:0:
384,192,125704,1,10,0:2:0:0:
128,192,125891,1,10,0:2:0:0:
384,192,126079,6,0,P|424:144|376:104,1,138.000002632141,14|0,3:2|0:0,0:0:0:0:
192,192,126454,2,0,L|96:192,1,92.0000017547608,14|0,3:2|0:2,0:0:0:0:
280,112,126829,1,10,0:2:0:0:
224,112,126922,1,8,0:2:0:0:
168,112,127016,1,10,0:2:0:0:
384,192,127204,2,0,L|480:192,1,92.0000017547608,2|2,3:2|3:2,0:0:0:0:
208,32,127579,6,0,L|320:32,1,92.0000017547608,14|0,0:2|0:2,0:0:0:0:
40,24,127954,2,0,L|40:128,1,92.0000017547608,10|0,0:2|0:2,0:0:0:0:
288,296,128329,1,10,0:2:0:0:
192,224,128516,1,2,3:2:0:0:
192,120,128704,1,10,0:2:0:0:
288,56,128891,1,2,3:2:0:0:
40,40,129079,6,0,L|136:40,1,92.0000017547608,10|0,0:2|0:0,0:0:0:0:
376,48,129454,2,0,L|376:144,1,92.0000017547608,8|0,0:2|0:2,0:0:0:0:
120,40,129829,1,10,0:2:0:0:
32,80,130016,1,2,3:2:0:0:
32,80,130204,1,10,0:2:0:0:
120,152,130391,1,2,3:2:0:0:
400,128,130579,6,0,L|496:128,1,92.0000017547608,10|0,0:2|0:2,0:0:0:0:
232,40,130954,2,0,L|120:40,1,92.0000017547608,10|0,0:2|0:2,0:0:0:0:
400,192,131329,1,10,0:2:0:0:
280,192,131516,1,2,3:2:0:0:
400,192,131704,1,10,0:2:0:0:
280,192,131891,1,2,3:2:0:0:
32,56,132079,6,0,L|32:152,1,92.0000017547608,10|0,0:2|0:2,0:0:0:0:
280,192,132454,2,0,L|176:192,1,92.0000017547608,8|0,0:2|0:2,0:0:0:0:
448,48,132829,2,0,L|448:160,1,92.0000017547608,8|0,0:2|0:0,0:0:0:0:
200,32,133204,2,0,L|304:32,1,92.0000017547608,8|0,0:2|3:2,0:0:0:0:
32,32,133579,6,0,L|224:32,1,184.000003509522,10|8,0:2|0:2,0:0:0:0:
32,32,134141,1,0,0:2:0:0:
288,184,134329,2,0,P|352:128|288:72,1,184.000003509522,10|8,0:2|0:2,0:0:0:0:
48,160,134891,6,0,L|48:48,1,92.0000017547608,2|8,3:2|0:2,0:0:0:0:
304,192,135266,2,0,L|408:192,1,92.0000017547608,2|8,0:2|0:2,0:0:0:0:
136,48,135641,2,0,L|136:152,1,92.0000017547608,2|8,0:2|0:2,0:0:0:0:
408,40,136016,2,0,L|504:40,2,92.0000017547608,2|10|0,3:2|0:2|0:2,0:0:0:0:
160,184,136579,5,10,3:2:0:0:
32,184,136766,1,10,3:2:0:0:
288,184,136954,1,10,3:2:0:0:
160,184,137141,1,10,3:2:0:0:
408,192,137329,1,10,3:2:0:0:
408,64,137516,1,10,3:2:0:0:
160,184,137704,1,10,3:2:0:0:
408,64,137891,1,10,3:2:0:0:
112,184,138079,6,0,P|64:224|112:264,1,138.000002632141,14|0,3:2|0:0,0:0:0:0:
288,192,138454,2,0,L|384:192,1,92.0000017547608,14|0,3:2|0:2,0:0:0:0:
200,112,138829,1,10,0:2:0:0:
256,112,138922,1,8,0:2:0:0:
312,112,139016,1,10,0:2:0:0:
144,72,139204,2,0,L|48:72,1,92.0000017547608,2|2,3:2|3:2,0:0:0:0:
360,120,139579,6,0,P|416:176|352:232,1,160,6|0,3:2|0:0,0:0:0:0:
256,112,140141,1,2,3:2:0:0:
136,112,140329,2,0,L|48:112,1,80,10|0,0:2|0:2,0:0:0:0:
224,48,140704,2,0,L|320:48,1,80,6|0,3:2|0:2,0:0:0:0:
56,48,141079,6,0,P|168:48|264:160,1,240,2|0,3:2|0:2,0:0:0:0:
88,80,141829,2,0,P|24:176|88:272,1,240,10|0,3:2|0:0,0:0:0:0:
256,152,142579,6,0,P|312:208|256:264,1,160,2|0,3:2|0:0,0:0:0:0:
104,152,143141,1,2,3:2:0:0:
224,152,143329,2,0,L|224:64,1,80,10|0,0:2|0:2,0:0:0:0:
104,152,143704,2,0,L|16:152,1,80,6|0,3:2|0:2,0:0:0:0:
272,152,144079,6,0,P|328:240|280:368,1,240,2|0,3:2|3:2,0:0:0:0:
120,120,144829,2,0,P|192:64|248:184,1,240,10|0,3:2|0:0,0:0:0:0:
88,192,145579,6,0,L|88:104,1,80,2|8,3:2|0:2,0:0:0:0:
248,88,145954,1,2,0:2:0:0:
144,192,146141,1,2,3:2:0:0:
312,80,146329,2,0,L|392:80,1,80,10|0,0:2|0:2,0:0:0:0:
232,80,146704,2,0,L|136:80,1,80,6|0,3:2|0:2,0:0:0:0:
400,232,147079,6,0,P|320:152|400:72,1,240,2|0,3:2|0:2,0:0:0:0:
232,48,147829,2,0,P|112:72|0:176,1,240,10|0,0:2|0:0,0:0:0:0:
272,192,148579,5,10,0:2:0:0:
160,192,148766,1,10,0:2:0:0:
280,192,148954,1,10,0:2:0:0:
144,192,149141,1,10,0:2:0:0:
392,128,149329,2,0,L|392:224,1,80,10|0,0:2|0:0,0:0:0:0:
208,40,149704,2,0,L|120:40,1,80,2|0,3:2|0:0,0:0:0:0:
376,98,150079,6,0,P|432:154|376:210,1,160,6|0,3:2|0:0,0:0:0:0:
224,98,150641,1,2,3:2:0:0:
104,98,150829,2,0,L|104:178,1,80,10|0,0:2|0:2,0:0:0:0:
224,98,151204,2,0,L|312:98,1,80,6|0,3:2|0:2,0:0:0:0:
40,104,151579,6,0,L|288:104,1,240,2|0,3:2|0:2,0:0:0:0:
112,320,152329,2,0,P|40:240|112:144,1,240,10|0,3:2|0:0,0:0:0:0:
280,88,153079,6,0,L|104:88,1,160,2|0,3:2|0:0,0:0:0:0:
240,208,153641,1,2,3:2:0:0:
360,144,153829,2,0,L|360:232,1,80,10|0,0:2|0:2,0:0:0:0:
192,208,154204,2,0,L|80:208,1,80,6|0,3:2|0:2,0:0:0:0:
368,144,154579,6,0,L|128:144,1,240,2|0,3:2|3:2,0:0:0:0:
304,168,155329,2,0,P|304:248|168:248,1,240,10|0,3:2|0:0,0:0:0:0:
48,96,156079,6,0,L|48:184,1,80,2|0,3:2|0:0,0:0:0:0:
208,96,156454,1,2,0:2:0:0:
88,96,156641,1,2,3:2:0:0:
256,96,156829,2,0,L|256:184,1,80,10|0,0:2|0:2,0:0:0:0:
136,40,157204,2,0,L|48:40,1,80,6|0,3:2|0:2,0:0:0:0:
304,64,157579,6,0,P|176:64|64:64,1,240,2|0,3:2|3:2,0:0:0:0:
240,136,158329,2,0,P|320:216|240:296,1,240,10|0,0:2|0:0,0:0:0:0:
96,112,159079,6,0,L|224:112,2,106.666666666667,10|10|10,3:2|3:2|3:2,0:0:0:0:
304,48,159829,2,0,L|392:48,1,80,10|0,3:2|0:0,0:0:0:0:
216,168,160204,2,0,L|128:168,1,80,2|0,3:2|0:0,0:0:0:0:
408,296,160579,5,6,3:2:0:0:
504,232,160766,1,0,0:2:0:0:
504,128,160954,1,8,3:2:0:0:
408,56,161141,1,10,3:2:0:0:
160,56,161329,1,10,3:2:0:0:
280,56,161516,1,8,3:2:0:0:
32,56,161704,1,8,3:2:0:0:
160,56,161891,1,8,3:2:0:0:
408,192,162079,6,0,L|408:272,1,80,10|8,3:2|3:2,0:0:0:0:
160,56,162454,2,0,L|72:56,1,80,8|10,3:2|3:2,0:0:0:0:
336,296,162829,1,10,3:2:0:0:
432,240,163016,1,8,3:2:0:0:
432,144,163204,1,8,3:2:0:0:
336,80,163391,1,8,3:2:0:0:
88,80,163579,6,0,P|16:152|88:224,1,200,6|10,3:2|3:2,0:0:0:0:
128,80,164047,1,8,3:2:0:0:
296,104,164141,2,0,L|360:104,1,50,8|8,3:2|3:2,0:0:0:0:
144,80,164329,2,0,L|344:80,1,200,6|10,3:2|3:2,0:0:0:0:
264,24,164797,1,8,3:2:0:0:
80,24,164891,2,0,L|16:24,1,50,8|8,3:2|3:2,0:0:0:0:
288,24,165079,6,0,P|360:96|288:168,1,200,6|10,3:2|3:2,0:0:0:0:
248,24,165547,1,8,3:2:0:0:
80,24,165641,2,0,L|16:24,1,50,8|8,3:2|3:2,0:0:0:0:
264,24,165829,2,0,L|368:24,1,100,6|0,3:2|3:2,0:0:0:0:
104,32,166204,2,0,L|0:32,1,100,2|0,3:2|3:2,0:0:0:0:
280,40,166579,5,6,3:2:0:0:
376,104,166766,1,0,0:2:0:0:
376,208,166954,1,8,3:2:0:0:
280,304,167141,1,10,3:2:0:0:
32,192,167329,2,0,L|32:96,1,80,10|8,3:2|3:2,0:0:0:0:
280,64,167704,2,0,L|192:64,1,80,8|8,3:2|3:2,0:0:0:0:
456,72,168079,5,10,3:2:0:0:
336,72,168266,1,8,3:2:0:0:
456,72,168454,1,8,3:2:0:0:
336,72,168641,1,10,3:2:0:0:
88,72,168829,2,0,L|184:72,1,80,10|8,3:2|3:2,0:0:0:0:
424,16,169204,2,0,L|472:16,1,40,10|8,3:2|3:2,0:0:0:0:
272,80,169391,2,0,L|216:80,1,40,10|8,3:2|3:2,0:0:0:0:
424,16,169579,6,0,P|480:72|432:120,1,160,6|8,3:2|0:2,0:0:0:0:
184,40,170141,2,0,L|360:40,1,160,6|2,3:2|3:2,0:0:0:0:
184,40,170704,1,8,0:2:0:0:
432,24,170891,6,0,P|488:80|432:136,1,160,6|2,3:2|3:2,0:0:0:0:
328,64,171454,1,8,0:2:0:0:
80,48,171641,2,0,L|248:48,1,160,6|2,3:2|3:2,0:0:0:0:
64,112,172204,2,0,L|64:16,1,80,10|0,0:2|0:2,0:0:0:0:
320,224,172579,5,10,3:2:0:0:
376,176,172672,1,10,0:0:0:0:
376,120,172766,1,10,3:2:0:0:
320,80,172860,1,10,3:2:0:0:
160,56,172954,2,0,L|104:56,1,40,10|0,3:2|3:2,0:0:0:0:
320,224,173141,2,0,L|368:224,1,40,10|0,3:2|3:2,0:0:0:0:
160,56,173329,6,0,L|72:56,1,80,8|0,3:2|0:2,0:0:0:0:
136,56,173610,1,8,0:0:0:0:
320,224,173704,2,8,L|360:224,1,40,10|0,0:0|0:0,0:0:0:0:
136,56,173891,2,8,L|80:56,1,40,10|0,0:0|0:0,0:0:0:0:
320,224,174079,5,6,3:2:0:0:
256,192,175579,5,0,0:0:0:0:
168,96,177079,5,2,3:2:0:0:
376,176,178579,6,0,P|432:120|376:64,1,160,8|0,0:0|0:0,0:0:0:0:
336,56,179047,1,2,0:0:0:0:
280,56,179141,2,0,L|224:56,1,40,2|2,0:0|0:0,0:0:0:0:
336,56,179329,2,0,L|376:56,1,40,2|2,0:0|0:0,0:0:0:0:
280,56,179516,2,0,L|224:56,1,40,2|2,0:0|0:0,0:0:0:0:
352,88,179704,2,0,L|440:88,1,80,10|0,0:2|0:2,0:0:0:0:
152,56,180079,5,2,3:2:0:0:
280,56,180266,1,0,3:2:0:0:
152,56,180454,1,2,3:2:0:0:
408,56,180641,1,0,3:2:0:0:
280,56,180829,1,2,3:2:0:0:
408,56,181016,1,0,3:2:0:0:
152,56,181204,2,0,L|40:56,1,80,2|0,3:2|3:2,0:0:0:0:
320,56,181579,5,2,3:2:0:0:
192,56,181766,1,0,3:2:0:0:
320,56,181954,1,2,3:2:0:0:
48,64,182141,1,0,3:2:0:0:
296,200,182329,5,2,3:2:0:0:
328,184,182375,1,0,0:0:0:0:
352,160,182422,1,0,0:0:0:0:
360,128,182469,1,0,0:0:0:0:
352,96,182516,1,0,3:2:0:0:
336,80,182563,1,0,0:0:0:0:
296,56,182610,1,0,0:0:0:0:
128,200,182704,5,2,3:2:0:0:
96,184,182750,1,0,0:0:0:0:
72,160,182797,1,0,3:2:0:0:
64,128,182844,1,0,0:0:0:0:
72,96,182891,1,0,3:2:0:0:
88,80,182938,1,0,0:0:0:0:
128,56,182985,1,0,0:0:0:0:
296,56,183079,6,0,L|424:56,1,92.0000017547608,14|0,3:2|0:2,0:0:0:0:
208,136,183454,2,0,L|328:136,1,92.0000017547608,8|0,0:2|3:2,0:0:0:0:
120,144,183829,2,0,L|120:40,1,92.0000017547608,8|0,0:2|3:2,0:0:0:0:
256,112,184204,1,10,0:2:0:0:
120,144,184391,1,2,3:2:0:0:
368,88,184579,6,0,L|248:88,1,92.0000017547608,8|0,0:2|0:2,0:0:0:0:
112,128,184954,2,0,L|112:24,1,92.0000017547608,8|0,0:2|3:2,0:0:0:0:
280,192,185329,2,0,L|176:192,1,92.0000017547608,8|0,0:2|3:2,0:0:0:0:
448,104,185704,2,0,L|448:208,1,92.0000017547608,10|0,0:2|3:2,0:0:0:0:
200,24,186079,6,0,L|304:24,1,92.0000017547608,10|0,0:2|3:2,0:0:0:0:
32,184,186454,2,0,L|32:72,1,92.0000017547608,10|0,0:2|3:2,0:0:0:0:
280,184,186829,2,0,L|280:72,1,92.0000017547608,10|0,0:2|3:2,0:0:0:0:
104,88,187204,1,10,0:2:0:0:
280,184,187391,1,2,3:2:0:0:
16,88,187579,6,0,L|128:88,1,92.0000017547608,8|0,0:2|0:2,0:0:0:0:
368,176,187954,2,0,L|368:80,1,92.0000017547608,8|0,0:2|3:2,0:0:0:0:
200,32,188329,2,0,L|320:32,1,92.0000017547608,8|0,0:2|3:2,0:0:0:0:
40,192,188704,2,0,L|40:88,1,92.0000017547608,10|0,0:2|3:2,0:0:0:0:
320,120,189079,6,0,L|416:120,1,92.0000017547608,10|0,0:2|0:2,0:0:0:0:
144,192,189454,2,0,L|48:192,1,92.0000017547608,10|0,0:2|0:2,0:0:0:0:
376,144,189829,2,0,L|272:144,1,92.0000017547608,10|0,0:2|3:2,0:0:0:0:
32,192,190204,2,0,L|32:96,1,92.0000017547608,10|0,0:2|3:2,0:0:0:0:
280,80,190579,6,0,L|160:80,1,92.0000017547608,10|0,0:2|0:2,0:0:0:0:
448,192,190954,2,0,L|448:96,1,92.0000017547608,10|0,0:2|0:2,0:0:0:0:
200,48,191329,2,0,L|96:48,1,92.0000017547608,10|0,0:2|3:2,0:0:0:0:
376,176,191704,2,0,L|376:64,1,92.0000017547608,10|0,0:2|3:2,0:0:0:0:
128,192,192079,5,2,3:2:0:0:
128,88,192266,1,0,3:2:0:0:
384,88,192454,1,0,3:2:0:0:
272,88,192641,1,0,3:2:0:0:
24,80,192829,1,0,3:2:0:0:
136,80,193016,1,0,3:2:0:0:
384,192,193204,1,0,3:2:0:0:
384,88,193391,1,0,3:2:0:0:
128,72,193579,5,8,3:2:0:0:
408,184,193766,1,8,3:2:0:0:
112,72,193954,1,8,3:2:0:0:
368,48,194141,1,8,3:2:0:0:
88,72,194329,2,0,L|24:72,1,40,10|8,0:2|0:2,0:0:0:0:
248,48,194516,2,0,L|312:48,1,40,10|0,0:2|0:0,0:0:0:0:
88,72,194704,1,2,3:2:0:0:
32,112,194797,1,2,0:0:0:0:
32,168,194891,1,2,3:2:0:0:
88,200,194985,1,2,0:0:0:0:
296,72,195079,6,0,L|400:72,1,92.0000017547608,14|0,0:2|0:2,0:0:0:0:
128,32,195454,2,0,L|24:32,1,92.0000017547608,10|0,0:2|0:2,0:0:0:0:
296,72,195829,1,10,0:2:0:0:
176,72,196016,1,2,3:2:0:0:
296,72,196204,1,10,0:2:0:0:
408,72,196391,1,2,3:2:0:0:
128,120,196579,6,0,L|24:120,1,92.0000017547608,10|0,0:2|0:0,0:0:0:0:
296,72,196954,2,0,L|392:72,1,92.0000017547608,8|0,0:2|0:2,0:0:0:0:
128,272,197329,1,10,0:2:0:0:
224,208,197516,1,0,3:2:0:0:
224,120,197704,1,10,0:2:0:0:
128,48,197891,1,2,3:2:0:0:
376,40,198079,6,0,L|480:40,1,92.0000017547608,10|0,0:2|0:2,0:0:0:0:
208,40,198454,2,0,L|112:40,1,92.0000017547608,10|0,0:2|0:2,0:0:0:0:
376,40,198829,1,10,0:2:0:0:
256,40,199016,1,2,3:2:0:0:
376,40,199204,1,10,0:2:0:0:
256,40,199391,1,2,3:2:0:0:
8,40,199579,6,0,L|8:152,1,92.0000017547608,10|0,0:2|0:2,0:0:0:0:
256,40,199954,2,0,L|352:40,1,92.0000017547608,8|0,0:2|0:2,0:0:0:0:
88,40,200329,1,8,0:2:0:0:
208,40,200516,1,0,3:2:0:0:
456,40,200704,1,8,0:2:0:0:
336,40,200891,1,0,3:2:0:0:
88,40,201079,6,0,L|272:40,1,184.000003509522,10|8,0:2|0:2,0:0:0:0:
88,40,201641,1,0,0:2:0:0:
344,48,201829,2,0,P|408:104|336:160,1,184.000003509522,10|8,0:2|0:2,0:0:0:0:
104,32,202391,6,0,L|8:32,1,92.0000017547608,2|8,3:2|0:2,0:0:0:0:
280,48,202766,2,0,L|376:48,1,92.0000017547608,2|8,0:2|0:2,0:0:0:0:
104,32,203141,2,0,L|8:32,1,92.0000017547608,2|8,0:2|0:2,0:0:0:0:
280,48,203516,2,0,L|160:48,2,92.0000017547608,2|10|0,3:2|0:2|0:2,0:0:0:0:
16,48,204079,5,10,0:2:0:0:
144,48,204266,1,10,0:2:0:0:
272,48,204454,1,10,0:2:0:0:
16,48,204641,1,10,0:2:0:0:
272,48,204829,1,10,0:2:0:0:
144,48,205016,1,10,0:2:0:0:
392,40,205204,1,10,0:2:0:0:
144,48,205391,1,10,0:2:0:0:
392,40,205579,6,0,P|440:88|392:136,1,138.000002632141,14|0,0:2|0:0,0:0:0:0:
208,48,205954,2,0,L|104:48,1,92.0000017547608,14|0,3:2|0:2,0:0:0:0:
304,136,206329,1,10,0:2:0:0:
248,136,206422,1,8,0:2:0:0:
192,136,206516,1,10,0:2:0:0:
376,40,206704,2,0,L|480:40,1,92.0000017547608,2|2,3:2|3:2,0:0:0:0:
216,56,207079,6,0,L|120:56,1,92.0000017547608,14|0,0:2|0:2,0:0:0:0:
400,40,207454,2,0,L|304:40,1,92.0000017547608,10|0,0:2|0:2,0:0:0:0:
64,256,207829,1,10,0:2:0:0:
160,208,208016,1,2,3:2:0:0:
160,104,208204,1,10,0:2:0:0:
64,48,208391,1,2,3:2:0:0:
328,48,208579,6,0,L|424:48,1,92.0000017547608,10|0,0:2|0:0,0:0:0:0:
160,104,208954,2,0,L|64:104,1,92.0000017547608,8|0,0:2|0:2,0:0:0:0:
328,48,209329,1,10,0:2:0:0:
208,48,209516,1,2,3:2:0:0:
328,48,209704,1,10,0:2:0:0:
208,48,209891,1,2,3:2:0:0:
464,48,210079,6,0,L|464:144,1,92.0000017547608,10|0,0:2|0:2,0:0:0:0:
208,48,210454,2,0,L|112:48,1,92.0000017547608,10|0,0:2|0:2,0:0:0:0:
376,312,210829,1,10,0:2:0:0:
248,312,211016,1,2,3:2:0:0:
376,312,211204,1,10,0:2:0:0:
504,312,211391,1,2,3:2:0:0:
240,128,211579,6,0,L|120:128,1,92.0000017547608,10|0,0:2|0:2,0:0:0:0:
408,32,211954,2,0,L|512:32,1,92.0000017547608,8|0,0:2|0:2,0:0:0:0:
240,48,212329,2,0,L|344:48,1,92.0000017547608,8|0,0:2|0:0,0:0:0:0:
72,72,212704,2,0,L|72:176,1,92.0000017547608,8|0,0:2|3:2,0:0:0:0:
384,200,213079,6,0,P|448:144|384:88,1,184.000003509522,10|8,0:2|0:2,0:0:0:0:
232,88,213641,1,0,0:2:0:0:
496,56,213829,2,0,L|312:56,1,184.000003509522,10|8,0:2|0:2,0:0:0:0:
64,48,214391,6,0,L|64:168,1,92.0000017547608,2|8,3:2|0:2,0:0:0:0:
328,48,214766,2,0,L|328:168,1,92.0000017547608,2|8,0:2|0:2,0:0:0:0:
168,40,215141,2,0,L|72:40,1,92.0000017547608,2|8,0:2|0:2,0:0:0:0:
336,40,215516,2,0,L|240:40,2,92.0000017547608,2|10|0,3:2|0:2|0:2,0:0:0:0:
88,192,216079,5,10,3:2:0:0:
88,80,216266,1,10,3:2:0:0:
344,56,216454,1,10,3:2:0:0:
224,56,216641,1,10,3:2:0:0:
472,48,216829,1,10,3:2:0:0:
472,168,217016,1,10,3:2:0:0:
224,56,217204,1,10,3:2:0:0:
344,56,217391,1,10,3:2:0:0:
80,40,217579,6,0,P|32:80|80:120,1,138.000002632141,14|0,3:2|0:0,0:0:0:0:
328,56,217954,2,0,L|432:56,1,92.0000017547608,14|0,3:2|0:2,0:0:0:0:
232,104,218329,1,10,0:2:0:0:
288,104,218422,1,8,0:2:0:0:
344,104,218516,1,10,0:2:0:0:
160,40,218704,2,0,L|64:40,1,92.0000017547608,2|2,3:2|3:2,0:0:0:0:
336,192,219079,5,10,3:2:0:0:
464,96,219266,1,10,3:2:0:0:
208,80,219454,1,10,3:2:0:0:
88,160,219641,1,10,3:2:0:0:
352,192,219829,1,10,3:2:0:0:
88,160,220016,1,10,3:2:0:0:
352,192,220204,1,10,3:2:0:0:
88,160,220391,1,10,3:2:0:0:
344,56,220579,6,0,P|392:96|344:136,1,138.000002632141,14|0,3:2|0:0,0:0:0:0:
144,56,220954,2,0,L|48:56,1,92.0000017547608,14|0,3:2|0:2,0:0:0:0:
240,152,221329,1,10,0:2:0:0:
184,152,221422,1,8,0:2:0:0:
128,152,221516,1,10,0:2:0:0:
312,64,221704,2,0,L|416:64,1,92.0000017547608,2|2,3:2|3:2,0:0:0:0:
144,320,222079,5,10,3:2:0:0:
24,216,222266,1,10,3:2:0:0:
304,192,222454,1,10,3:2:0:0:
424,96,222641,1,10,3:2:0:0:
144,120,222829,1,10,3:2:0:0:
424,96,223016,1,10,3:2:0:0:
144,120,223204,1,10,3:2:0:0:
424,96,223391,1,10,3:2:0:0:
144,56,223579,6,0,P|96:96|144:136,1,138.000002632141,14|0,3:2|0:0,0:0:0:0:
328,56,223954,2,0,L|432:56,1,92.0000017547608,14|0,3:2|0:2,0:0:0:0:
232,160,224329,1,10,0:2:0:0:
288,160,224422,1,8,0:2:0:0:
344,160,224516,1,10,0:2:0:0:
168,56,224704,2,0,L|72:56,1,92.0000017547608,2|2,3:2|3:2,0:0:0:0:
336,264,225079,6,0,P|392:208|336:152,1,160,6|0,3:2|0:2,0:0:0:0:
224,192,225641,1,10,0:2:0:0:
112,192,225829,2,0,L|112:96,1,80,10|0,0:2|0:2,0:0:0:0:
288,192,226204,1,10,0:2:0:0:
168,192,226391,2,0,L|296:64,1,160,0|0,0:0|0:0,0:0:0:0:
112,192,226954,6,0,L|112:112,1,80,2|0,3:2|3:2,0:0:0:0:
280,80,227329,2,0,L|192:80,1,80,10|0,0:2|0:0,0:0:0:0:
368,72,227704,1,8,0:2:0:0:
112,264,228079,6,0,P|56:208|112:152,1,160,2|0,3:2|0:2,0:0:0:0:
224,192,228641,1,2,3:2:0:0:
336,192,228829,2,0,L|336:96,1,80,10|0,0:2|0:2,0:0:0:0:
160,192,229204,1,10,0:2:0:0:
288,192,229391,2,2,L|160:64,1,160,0|8,3:2|0:2,0:0:0:0:
336,192,229954,6,0,L|336:112,1,80,2|0,3:2|3:2,0:0:0:0:
176,192,230329,2,0,L|176:296,1,80,10|0,0:2|3:2,0:0:0:0:
336,192,230704,1,8,0:2:0:0:
112,192,231079,6,0,P|64:120|112:64,1,160,2|0,3:2|0:2,0:0:0:0:
208,64,231641,1,2,3:2:0:0:
320,64,231829,2,0,L|320:144,1,80,10|0,0:2|0:2,0:0:0:0:
144,64,232204,1,10,0:2:0:0:
272,64,232391,2,10,L|136:200,1,160,0|8,3:2|0:2,0:0:0:0:
320,64,232954,6,0,L|320:176,1,80,2|0,3:2|3:2,0:0:0:0:
160,192,233329,2,0,L|248:192,1,80,10|0,0:2|3:2,0:0:0:0:
80,96,233704,1,8,0:2:0:0:
336,192,234079,6,0,P|392:136|336:80,1,160,10|0,0:2|0:0,0:0:0:0:
224,32,234641,1,10,0:2:0:0:
112,32,234829,2,0,L|8:32,1,80,10|0,0:2|0:0,0:0:0:0:
280,216,235204,2,0,L|328:216,1,40,10|0,3:2|0:0,0:0:0:0:
88,56,235391,2,0,L|40:56,1,40,10|8,3:2|3:2,0:0:0:0:
336,192,235579,5,10,3:2:0:0:
