osu file format v14

[General]
AudioFilename: audio.mp3
AudioLeadIn: 0
PreviewTime: 51923
Countdown: 0
SampleSet: Normal
StackLeniency: 0.7
Mode: 1
LetterboxInBreaks: 0
WidescreenStoryboard: 0

[Editor]
Bookmarks: 1580,12080,24080,39080,52580,64580,76580,88580
DistanceSpacing: 0.4
BeatDivisor: 4
GridSize: 32
TimelineZoom: 1.52

[Metadata]
Title:DORAEMON
TitleUnicode:ドラえもん
Artist:Amatsuki
ArtistUnicode:天月
Creator:Roger
Version:Oni
Source:映画ドラえもん のび太の宝島
Tags:taiko あまつき the movie: nobita's treasure island eiga nobita no takarajima 星野源 hoshino gen cover theme song fujiko f. fujio 藤子・f・不二雄 ][ -GH- ][ blackener
BeatmapID:2217747
BeatmapSetID:1058938

[Difficulty]
HPDrainRate:5
CircleSize:2
OverallDifficulty:5
ApproachRate:0
SliderMultiplier:1.4
SliderTickRate:1

[Events]
//Background and Video events
0,0,"bg.jpg",0,30
//Break Periods
//Storyboard Layer 0 (Background)
//Storyboard Layer 1 (Fail)
//Storyboard Layer 2 (Pass)
//Storyboard Layer 3 (Foreground)
//Storyboard Layer 4 (Overlay)
//Storyboard Sound Samples

[TimingPoints]
1580,375,4,1,0,70,1,0
1580,-125,4,1,0,70,0,0
4580,375,4,1,0,80,1,0
12080,375,4,1,0,85,1,0
39080,375,4,1,0,90,1,0
39455,-111.111111111111,4,1,0,90,0,0
39642,-109.170305676856,4,1,0,90,0,0
39830,-107.181136120043,4,1,0,90,0,0
40017,-105.263157894737,4,1,0,90,0,0
40205,-103.51966873706,4,1,0,90,0,0
40392,-101.729399796541,4,1,0,90,0,0
40580,-100,4,1,0,90,0,0
40767,-98.4251968503937,4,1,0,90,0,0
40955,-96.8054211035818,4,1,0,90,0,0
41142,-95.2380952380952,4,1,0,90,0,0
41330,-93.8086303939962,4,1,0,90,0,0
41517,-92.3361034164358,4,1,0,90,0,0
41705,-90.9090909090909,4,1,0,90,0,0
44517,-93.0232558139535,4,1,0,90,0,0
44705,-95.2380952380952,4,1,0,90,0,0
44892,-97.5609756097561,4,1,0,90,0,0
45080,-100,4,1,0,90,0,0
45455,-111.111111111111,4,1,0,90,0,0
45642,-109.098843552258,4,1,0,90,0,0
45830,-107.146683810136,4,1,0,90,0,0
46017,-105.263157894737,4,1,0,90,0,0
46205,-103.448989303375,4,1,0,90,0,0
46392,-101.694949727102,4,1,0,90,0,0
46580,-100,4,1,0,90,0,0
46767,-98.3671060397403,4,1,0,90,0,0
46955,-96.8054211035818,4,1,0,90,0,0
47142,-95.2380952380952,4,1,0,90,0,0
47330,-93.8086303939962,4,1,0,90,0,0
47517,-92.3079763322349,4,1,0,90,0,0
47705,-90.9090909090909,4,1,0,90,0,0
52580,375,4,1,0,100,1,1
52580,-83.3333333333333,4,1,0,100,0,1
61580,-82.4742268041237,4,1,0,100,0,1
61767,-81.6326530612245,4,1,0,100,0,1
61955,-80.8080808080808,4,1,0,100,0,1
62142,-80,4,1,0,100,0,1
62330,-79.2079207920792,4,1,0,100,0,1
62517,-78.4313725490196,4,1,0,100,0,1
62705,-77.6699029126214,4,1,0,100,0,1
62892,-76.9230769230769,4,1,0,100,0,1
63080,-66.6666666666667,4,1,0,100,0,1
63830,-75.187969924812,4,1,0,100,0,1
63923,-76.3358778625954,4,1,0,100,0,1
64017,-77.5193798449612,4,1,0,100,0,1
64205,-79.3650793650794,4,1,0,100,0,1
64392,-81.3008130081301,4,1,0,100,0,1
64486,-83.3333333333333,4,1,0,100,0,0
64580,-83.3333333333333,4,1,0,100,0,1
73580,-82.4742268041237,4,1,0,100,0,1
73767,-81.6326530612245,4,1,0,100,0,1
73955,-80.8080808080808,4,1,0,100,0,1
74142,-80,4,1,0,100,0,1
74330,-79.2079207920792,4,1,0,100,0,1
74517,-78.4313725490196,4,1,0,100,0,1
74705,-77.6699029126214,4,1,0,100,0,1
74892,-76.9230769230769,4,1,0,100,0,1
75080,-66.6666666666667,4,1,0,100,0,1
75830,-75.187969924812,4,1,0,100,0,1
75923,-76.3358778625954,4,1,0,100,0,1
76017,-77.5193798449612,4,1,0,100,0,1
76205,-79.3650793650794,4,1,0,100,0,1
76392,-81.3008130081301,4,1,0,100,0,1
76580,-83.3333333333333,4,1,0,90,0,0
76955,-90.9090909090909,4,1,0,90,0,0

[HitObjects]
256,192,1580,5,8,0:0:0:0:
256,192,2142,1,8,0:0:0:0:
256,192,2330,1,8,0:0:0:0:
256,192,2705,1,8,0:0:0:0:
256,192,3455,1,8,0:0:0:0:
256,192,3830,1,8,0:0:0:0:
256,192,4205,1,0,0:0:0:0:
256,192,4580,1,12,0:0:0:0:
256,192,4955,1,0,0:0:0:0:
256,192,5142,1,0,0:0:0:0:
256,192,5330,1,8,0:0:0:0:
256,192,5705,1,8,0:0:0:0:
256,192,5892,1,0,0:0:0:0:
256,192,6267,1,8,0:0:0:0:
256,192,6455,1,0,0:0:0:0:
256,192,6642,1,0,0:0:0:0:
256,192,6830,1,8,0:0:0:0:
256,192,7205,1,0,0:0:0:0:
256,192,7580,1,8,0:0:0:0:
256,192,7767,1,8,0:0:0:0:
256,192,8142,1,0,0:0:0:0:
256,192,8330,1,8,0:0:0:0:
256,192,8705,1,8,0:0:0:0:
256,192,8892,1,0,0:0:0:0:
256,192,9267,1,8,0:0:0:0:
256,192,9455,1,0,0:0:0:0:
256,192,9642,1,0,0:0:0:0:
256,192,9830,1,8,0:0:0:0:
256,192,10017,1,0,0:0:0:0:
256,192,10205,1,8,0:0:0:0:
256,192,10580,1,12,0:0:0:0:
256,192,11142,1,12,0:0:0:0:
256,192,11330,1,12,0:0:0:0:
256,192,11705,1,8,0:0:0:0:
256,192,11798,1,8,0:0:0:0:
256,192,11892,1,8,0:0:0:0:
256,192,11986,1,8,0:0:0:0:
256,192,12080,1,4,0:0:0:0:
256,192,12455,1,8,0:0:0:0:
256,192,12642,1,8,0:0:0:0:
256,192,12830,1,0,0:0:0:0:
256,192,13017,1,0,0:0:0:0:
256,192,13205,1,8,0:0:0:0:
256,192,13392,1,0,0:0:0:0:
256,192,13580,1,8,0:0:0:0:
256,192,13955,1,0,0:0:0:0:
256,192,14330,1,8,0:0:0:0:
256,192,14517,1,0,0:0:0:0:
256,192,14705,1,8,0:0:0:0:
256,192,15080,1,0,0:0:0:0:
256,192,15455,1,8,0:0:0:0:
256,192,15642,1,8,0:0:0:0:
256,192,15830,1,0,0:0:0:0:
256,192,16205,1,8,0:0:0:0:
256,192,16392,1,0,0:0:0:0:
256,192,16580,1,0,0:0:0:0:
256,192,16955,1,8,0:0:0:0:
256,192,17142,1,0,0:0:0:0:
256,192,17330,1,8,0:0:0:0:
256,192,17517,1,8,0:0:0:0:
256,192,17705,1,0,0:0:0:0:
256,192,18080,1,0,0:0:0:0:
256,192,18455,1,8,0:0:0:0:
256,192,18642,1,0,0:0:0:0:
256,192,18830,1,8,0:0:0:0:
256,192,19017,1,8,0:0:0:0:
256,192,19205,1,0,0:0:0:0:
256,192,19392,1,8,0:0:0:0:
256,192,19580,1,0,0:0:0:0:
256,192,19955,1,8,0:0:0:0:
256,192,20330,1,0,0:0:0:0:
256,192,20517,1,0,0:0:0:0:
256,192,20705,1,8,0:0:0:0:
256,192,21080,1,0,0:0:0:0:
256,192,21455,1,8,0:0:0:0:
256,192,21642,1,0,0:0:0:0:
256,192,21830,1,8,0:0:0:0:
256,192,22205,1,0,0:0:0:0:
256,192,22392,1,0,0:0:0:0:
256,192,22580,1,8,0:0:0:0:
256,192,22955,1,8,0:0:0:0:
256,192,23142,1,8,0:0:0:0:
256,192,23330,1,0,0:0:0:0:
256,192,23517,1,0,0:0:0:0:
256,192,23705,1,8,0:0:0:0:
256,192,24080,1,4,0:0:0:0:
256,192,24455,1,8,0:0:0:0:
256,192,24642,1,0,0:0:0:0:
256,192,24830,1,8,0:0:0:0:
256,192,25017,1,8,0:0:0:0:
256,192,25205,1,0,0:0:0:0:
256,192,25392,1,0,0:0:0:0:
256,192,25580,1,8,0:0:0:0:
256,192,25955,1,8,0:0:0:0:
256,192,26330,1,0,0:0:0:0:
256,192,26517,1,0,0:0:0:0:
256,192,26705,1,8,0:0:0:0:
256,192,27080,1,0,0:0:0:0:
256,192,27455,1,8,0:0:0:0:
256,192,27642,1,8,0:0:0:0:
256,192,27830,1,0,0:0:0:0:
256,192,28205,1,8,0:0:0:0:
256,192,28392,1,0,0:0:0:0:
256,192,28580,1,8,0:0:0:0:
256,192,28955,1,0,0:0:0:0:
256,192,29142,1,8,0:0:0:0:
256,192,29330,1,0,0:0:0:0:
256,192,29517,1,0,0:0:0:0:
256,192,29705,1,8,0:0:0:0:
256,192,30080,1,0,0:0:0:0:
256,192,30455,1,8,0:0:0:0:
256,192,30642,1,0,0:0:0:0:
256,192,30830,1,8,0:0:0:0:
256,192,31017,1,0,0:0:0:0:
256,192,31205,1,8,0:0:0:0:
256,192,31392,1,8,0:0:0:0:
256,192,31580,1,0,0:0:0:0:
256,192,31955,1,8,0:0:0:0:
256,192,32330,1,0,0:0:0:0:
256,192,32517,1,0,0:0:0:0:
256,192,32705,1,8,0:0:0:0:
256,192,33080,1,0,0:0:0:0:
256,192,33455,1,8,0:0:0:0:
256,192,33642,1,0,0:0:0:0:
256,192,33830,1,0,0:0:0:0:
256,192,34205,1,8,0:0:0:0:
256,192,34392,1,8,0:0:0:0:
256,192,34580,1,0,0:0:0:0:
256,192,34955,1,8,0:0:0:0:
256,192,35142,1,8,0:0:0:0:
256,192,35330,1,0,0:0:0:0:
256,192,35517,1,0,0:0:0:0:
256,192,35705,1,8,0:0:0:0:
256,192,36080,1,0,0:0:0:0:
256,192,36455,1,8,0:0:0:0:
256,192,36642,1,0,0:0:0:0:
256,192,36830,1,8,0:0:0:0:
256,192,37205,1,8,0:0:0:0:
256,192,37392,1,8,0:0:0:0:
256,192,37580,1,0,0:0:0:0:
256,192,37955,1,8,0:0:0:0:
256,192,38142,1,0,0:0:0:0:
256,192,38330,1,8,0:0:0:0:
256,192,38423,1,8,0:0:0:0:
256,192,38517,1,8,0:0:0:0:
256,192,38705,1,0,0:0:0:0:
256,192,38892,1,0,0:0:0:0:
256,192,39080,1,12,0:0:0:0:
256,192,39455,1,0,0:0:0:0:
256,192,39642,1,0,0:0:0:0:
256,192,39830,1,0,0:0:0:0:
256,192,40017,1,0,0:0:0:0:
256,192,40205,1,0,0:0:0:0:
256,192,40392,1,0,0:0:0:0:
256,192,40580,1,8,0:0:0:0:
256,192,40767,1,8,0:0:0:0:
256,192,40955,1,8,0:0:0:0:
256,192,41142,1,8,0:0:0:0:
256,192,41330,1,8,0:0:0:0:
256,192,41517,1,8,0:0:0:0:
256,192,41705,1,8,0:0:0:0:
256,192,41892,1,8,0:0:0:0:
256,192,41986,1,8,0:0:0:0:
256,192,42080,1,4,0:0:0:0:
256,192,42455,1,8,0:0:0:0:
256,192,42548,1,8,0:0:0:0:
256,192,42642,1,0,0:0:0:0:
256,192,42736,1,0,0:0:0:0:
256,192,42830,1,12,0:0:0:0:
256,192,43205,1,0,0:0:0:0:
256,192,43298,1,0,0:0:0:0:
256,192,43392,1,0,0:0:0:0:
256,192,43486,1,0,0:0:0:0:
256,192,43580,1,12,0:0:0:0:
256,192,43955,1,8,0:0:0:0:
256,192,44048,1,8,0:0:0:0:
256,192,44142,1,8,0:0:0:0:
256,192,44236,1,8,0:0:0:0:
256,192,44330,1,4,0:0:0:0:
256,192,44517,1,0,0:0:0:0:
256,192,44705,1,12,0:0:0:0:
256,192,44892,1,8,0:0:0:0:
256,192,45080,1,4,0:0:0:0:
256,192,45455,1,0,0:0:0:0:
256,192,45642,1,0,0:0:0:0:
256,192,45830,1,0,0:0:0:0:
256,192,46017,1,0,0:0:0:0:
256,192,46205,1,0,0:0:0:0:
256,192,46392,1,0,0:0:0:0:
256,192,46580,1,8,0:0:0:0:
256,192,46767,1,0,0:0:0:0:
256,192,46955,1,8,0:0:0:0:
256,192,47142,1,0,0:0:0:0:
256,192,47330,1,8,0:0:0:0:
256,192,47517,1,0,0:0:0:0:
256,192,47705,1,8,0:0:0:0:
256,192,47798,1,8,0:0:0:0:
256,192,47892,1,8,0:0:0:0:
256,192,47986,1,8,0:0:0:0:
256,192,48080,1,4,0:0:0:0:
256,192,48455,1,8,0:0:0:0:
256,192,48642,1,4,0:0:0:0:
256,192,49017,1,0,0:0:0:0:
256,192,49205,1,8,0:0:0:0:
256,192,49392,1,4,0:0:0:0:
256,192,49767,1,8,0:0:0:0:
256,192,49955,1,8,0:0:0:0:
256,192,50142,1,4,0:0:0:0:
256,192,50517,1,0,0:0:0:0:
256,192,50705,1,8,0:0:0:0:
256,192,51080,1,8,0:0:0:0:
256,192,51173,1,8,0:0:0:0:
256,192,51267,1,8,0:0:0:0:
256,192,51361,1,8,0:0:0:0:
256,192,51455,1,0,0:0:0:0:
256,192,51548,1,0,0:0:0:0:
256,192,51642,1,0,0:0:0:0:
256,192,51736,1,0,0:0:0:0:
256,192,51830,1,8,0:0:0:0:
256,192,52017,1,0,0:0:0:0:
256,192,52205,1,8,0:0:0:0:
256,192,52392,1,8,0:0:0:0:
256,192,52580,1,4,0:0:0:0:
256,192,52955,1,8,0:0:0:0:
256,192,53142,1,8,0:0:0:0:
256,192,53330,1,0,0:0:0:0:
256,192,53517,1,0,0:0:0:0:
256,192,53611,1,0,0:0:0:0:
256,192,53705,1,8,0:0:0:0:
256,192,53892,1,8,0:0:0:0:
256,192,54080,1,0,0:0:0:0:
256,192,54455,1,8,0:0:0:0:
256,192,54830,1,0,0:0:0:0:
256,192,55017,1,8,0:0:0:0:
256,192,55111,1,8,0:0:0:0:
256,192,55205,1,0,0:0:0:0:
256,192,55392,1,0,0:0:0:0:
256,192,55580,1,8,0:0:0:0:
256,192,55955,1,0,0:0:0:0:
256,192,56142,1,0,0:0:0:0:
256,192,56330,1,8,0:0:0:0:
256,192,56517,1,0,0:0:0:0:
256,192,56611,1,0,0:0:0:0:
256,192,56705,1,8,0:0:0:0:
256,192,56892,1,8,0:0:0:0:
256,192,57080,1,0,0:0:0:0:
256,192,57455,1,0,0:0:0:0:
256,192,57830,1,8,0:0:0:0:
256,192,58017,1,0,0:0:0:0:
256,192,58205,1,8,0:0:0:0:
256,192,58392,1,0,0:0:0:0:
256,192,58580,1,8,0:0:0:0:
256,192,58955,1,0,0:0:0:0:
256,192,59142,1,0,0:0:0:0:
256,192,59236,1,0,0:0:0:0:
256,192,59330,1,8,0:0:0:0:
256,192,59517,1,0,0:0:0:0:
256,192,59705,1,8,0:0:0:0:
256,192,59892,1,0,0:0:0:0:
256,192,60267,1,0,0:0:0:0:
256,192,60455,1,8,0:0:0:0:
256,192,60642,1,8,0:0:0:0:
256,192,60736,1,0,0:0:0:0:
256,192,60830,1,8,0:0:0:0:
256,192,61017,1,0,0:0:0:0:
256,192,61205,1,8,0:0:0:0:
256,192,61392,1,0,0:0:0:0:
256,192,61580,1,8,0:0:0:0:
256,192,61767,1,8,0:0:0:0:
256,192,61955,1,8,0:0:0:0:
256,192,62142,1,8,0:0:0:0:
256,192,62330,1,8,0:0:0:0:
256,192,62517,1,8,0:0:0:0:
256,192,62705,1,8,0:0:0:0:
256,192,62892,1,8,0:0:0:0:
256,192,63080,1,4,0:0:0:0:
256,192,63455,1,4,0:0:0:0:
256,192,63830,1,8,0:0:0:0:
256,192,63923,1,8,0:0:0:0:
256,192,64017,1,8,0:0:0:0:
256,192,64205,1,0,0:0:0:0:
256,192,64392,1,0,0:0:0:0:
256,192,64580,1,12,0:0:0:0:
256,192,64955,1,0,0:0:0:0:
256,192,65142,1,0,0:0:0:0:
256,192,65330,1,8,0:0:0:0:
256,192,65517,1,8,0:0:0:0:
256,192,65611,1,8,0:0:0:0:
256,192,65705,1,0,0:0:0:0:
256,192,65892,1,0,0:0:0:0:
256,192,66080,1,8,0:0:0:0:
256,192,66455,1,0,0:0:0:0:
256,192,66830,1,8,0:0:0:0:
256,192,67017,1,0,0:0:0:0:
256,192,67111,1,0,0:0:0:0:
256,192,67205,1,8,0:0:0:0:
256,192,67392,1,8,0:0:0:0:
256,192,67580,1,0,0:0:0:0:
256,192,67955,1,8,0:0:0:0:
256,192,68142,1,8,0:0:0:0:
256,192,68330,1,0,0:0:0:0:
256,192,68517,1,8,0:0:0:0:
256,192,68611,1,8,0:0:0:0:
256,192,68705,1,0,0:0:0:0:
256,192,68892,1,0,0:0:0:0:
256,192,69080,1,8,0:0:0:0:
256,192,69455,1,8,0:0:0:0:
256,192,69830,1,0,0:0:0:0:
256,192,70017,1,0,0:0:0:0:
256,192,70205,1,8,0:0:0:0:
256,192,70392,1,0,0:0:0:0:
256,192,70580,1,8,0:0:0:0:
256,192,70955,1,0,0:0:0:0:
256,192,71142,1,8,0:0:0:0:
256,192,71236,1,8,0:0:0:0:
256,192,71330,1,0,0:0:0:0:
256,192,71517,1,0,0:0:0:0:
256,192,71705,1,8,0:0:0:0:
256,192,71892,1,0,0:0:0:0:
256,192,72267,1,0,0:0:0:0:
256,192,72455,1,8,0:0:0:0:
256,192,72642,1,0,0:0:0:0:
256,192,72736,1,8,0:0:0:0:
256,192,72830,1,0,0:0:0:0:
256,192,73017,1,0,0:0:0:0:
256,192,73205,1,8,0:0:0:0:
256,192,73392,1,8,0:0:0:0:
256,192,73580,1,0,0:0:0:0:
256,192,73767,1,0,0:0:0:0:
256,192,73955,1,0,0:0:0:0:
256,192,74142,1,0,0:0:0:0:
256,192,74330,1,0,0:0:0:0:
256,192,74517,1,0,0:0:0:0:
256,192,74705,1,0,0:0:0:0:
256,192,74892,1,0,0:0:0:0:
256,192,75080,1,12,0:0:0:0:
256,192,75455,1,12,0:0:0:0:
256,192,75830,1,8,0:0:0:0:
256,192,75923,1,8,0:0:0:0:
256,192,76017,1,8,0:0:0:0:
256,192,76205,1,8,0:0:0:0:
256,192,76392,1,0,0:0:0:0:
256,192,76580,1,4,0:0:0:0:
256,192,76955,1,0,0:0:0:0:
256,192,77142,1,8,0:0:0:0:
256,192,77330,1,8,0:0:0:0:
256,192,77517,1,0,0:0:0:0:
256,192,77705,1,8,0:0:0:0:
256,192,77892,1,0,0:0:0:0:
256,192,78267,1,8,0:0:0:0:
256,192,78455,1,0,0:0:0:0:
256,192,78642,1,0,0:0:0:0:
256,192,78830,1,8,0:0:0:0:
256,192,79205,1,8,0:0:0:0:
256,192,79392,1,0,0:0:0:0:
256,192,79486,1,0,0:0:0:0:
256,192,79580,1,8,0:0:0:0:
256,192,79767,1,8,0:0:0:0:
256,192,80142,1,0,0:0:0:0:
256,192,80330,1,8,0:0:0:0:
256,192,80517,1,8,0:0:0:0:
256,192,80705,1,0,0:0:0:0:
256,192,80892,1,0,0:0:0:0:
256,192,81267,1,8,0:0:0:0:
256,192,81455,1,0,0:0:0:0:
256,192,81642,1,0,0:0:0:0:
256,192,81830,1,8,0:0:0:0:
256,192,82017,1,0,0:0:0:0:
256,192,82205,1,8,0:0:0:0:
256,192,82580,1,0,0:0:0:0:
256,192,82767,1,8,0:0:0:0:
256,192,83142,1,8,0:0:0:0:
256,192,83330,1,8,0:0:0:0:
256,192,83517,1,0,0:0:0:0:
256,192,83705,1,8,0:0:0:0:
256,192,83892,1,0,0:0:0:0:
256,192,84267,1,8,0:0:0:0:
256,192,84455,1,0,0:0:0:0:
256,192,84642,1,0,0:0:0:0:
256,192,84830,1,8,0:0:0:0:
256,192,85017,1,0,0:0:0:0:
256,192,85205,1,8,0:0:0:0:
256,192,85580,1,12,0:0:0:0:
256,192,86142,1,12,0:0:0:0:
256,192,86330,1,12,0:0:0:0:
256,192,86705,1,0,0:0:0:0:
256,192,86798,1,0,0:0:0:0:
256,192,86892,1,0,0:0:0:0:
256,192,86986,1,0,0:0:0:0:
256,192,87080,1,12,0:0:0:0:
