osu file format v14

[General]
AudioFilename: audio.mp3
AudioLeadIn: 0
PreviewTime: 52016
Countdown: 0
SampleSet: Soft
StackLeniency: 1
Mode: 0
LetterboxInBreaks: 0
WidescreenStoryboard: 1

[Editor]
DistanceSpacing: 1.2
BeatDivisor: 4
GridSize: 4
TimelineZoom: 1.8

[Metadata]
Title:DORAEMON
TitleUnicode:ドラえもん
Artist:Amatsuki
ArtistUnicode:天月
Creator:Ringer
Version:Doraemon
Source:映画ドラえもん のび太の宝島
Tags:the Movie: Nobita's Treasure Island Eiga Nobita no Takarajima 星野源 HOSHINO GEN Cover Theme Song fujiko f. fujio 藤子・f・不二雄
BeatmapID:1679286
BeatmapSetID:799899

[Difficulty]
HPDrainRate:5
CircleSize:4.3
OverallDifficulty:8.5
ApproachRate:9
SliderMultiplier:1.7
SliderTickRate:1

[Events]
//Background and Video events
0,0,"Konachan.com - 225117 building city clouds doraemon doraemon_(character) glasses leaves nobody ruins shade sky tetsukuzu_tetsuko water.jpg",0,0
//Break Periods
//Storyboard Layer 0 (Background)
//Storyboard Layer 1 (Fail)
//Storyboard Layer 2 (Pass)
//Storyboard Layer 3 (Foreground)
//Storyboard Sound Samples

[TimingPoints]
1579,375,4,2,1,30,1,0
1579,-133.333333333333,4,2,1,30,0,0
4204,-200,4,2,1,40,0,0
4485,-200,4,2,1,5,0,0
4579,-117.647058823529,4,2,1,40,0,0
7485,-117.647058823529,4,2,1,5,0,0
7579,-117.647058823529,4,2,1,40,0,0
10485,-117.647058823529,4,2,1,5,0,0
10579,-100,4,2,1,55,0,0
11704,-133.333333333333,4,2,1,55,0,0
12079,-100,4,2,1,60,0,0
38329,-133.333333333333,4,2,1,60,0,0
38329,-133.333333333333,4,2,1,65,0,0
38704,-100,4,2,1,65,0,0
39079,-100,4,2,1,44,0,0
39266,-100,4,2,1,46,0,0
39454,-100,4,2,1,48,0,0
39641,-100,4,2,1,50,0,0
39829,-100,4,2,1,52,0,0
40016,-100,4,2,1,54,0,0
40204,-100,4,2,1,56,0,0
40391,-100,4,2,1,58,0,0
40579,-100,4,2,1,60,0,0
40766,-100,4,2,1,62,0,0
40954,-100,4,2,1,64,0,0
41141,-100,4,2,1,66,0,0
41329,-100,4,2,1,68,0,0
41516,-100,4,2,1,70,0,0
42360,-100,4,2,1,5,0,0
42454,-133.333333333333,4,2,1,70,0,0
42829,-100,4,2,1,70,0,0
43110,-100,4,2,1,5,0,0
43204,-133.333333333333,4,2,1,70,0,0
43579,-100,4,2,1,70,0,0
45079,-100,4,2,1,44,0,0
45266,-100,4,2,1,46,0,0
45454,-100,4,2,1,48,0,0
45641,-100,4,2,1,50,0,0
45829,-100,4,2,1,52,0,0
46016,-100,4,2,1,54,0,0
46204,-100,4,2,1,56,0,0
46391,-100,4,2,1,58,0,0
46579,-100,4,2,1,60,0,0
46766,-100,4,2,1,62,0,0
46954,-100,4,2,1,64,0,0
47141,-100,4,2,1,66,0,0
47329,-100,4,2,1,68,0,0
47516,-100,4,2,1,70,0,0
48360,-100,4,2,1,5,0,0
48454,-100,4,2,1,70,0,0
50985,-100,4,2,1,5,0,0
51079,-100,4,2,1,60,0,0
51454,-100,4,2,1,65,0,0
51829,-100,4,2,1,70,0,0
52016,-133.333333333333,4,2,1,60,0,0
52579,-100,4,2,1,75,0,1
61579,-100,4,2,2,75,0,1
63079,-100,4,2,2,70,0,0
63829,-100,4,2,1,70,0,0
64016,-133.333333333333,4,2,1,60,0,0
64579,-100,4,2,1,75,0,1
73579,-100,4,2,2,75,0,1
75079,-100,4,2,2,70,0,0
75829,-100,4,2,1,60,0,0
76016,-133.333333333333,4,2,1,50,0,0
76579,-117.647058823529,4,2,1,50,0,0
79485,-117.647058823529,4,2,1,5,0,0
79579,-117.647058823529,4,2,1,50,0,0
82485,-117.647058823529,4,2,1,5,0,0
82579,-117.647058823529,4,2,1,50,0,0
85485,-117.647058823529,4,2,1,5,0,0
85579,-100,4,2,1,70,0,0
86704,-133.333333333333,4,2,1,70,0,0

[Colours]
Combo1 : 216,222,218
Combo2 : 21,191,255
Combo3 : 253,102,114

[HitObjects]
64,60,1579,5,0,0:0:0:0:
64,60,2141,1,0,0:0:0:0:
134,99,2329,2,0,P|72:140|16:124,1,127.500004863739
23,129,3454,6,0,L|17:192,1,63.7500024318696
96,212,3829,2,0,L|101:275,1,63.7500024318696
104,356,4204,2,0,P|143:345|167:322,1,63.75,8|0,0:0|0:0,0:0:0:0:
264,228,4579,5,4,0:0:0:0:
264,228,5141,1,0,0:0:0:0:
344,180,5329,2,0,P|296:140|195:164,1,144.500002756119
137,194,5891,2,0,P|89:234|-12:210,1,144.500002756119,0|8,0:0|0:0,0:0:0:0:
57,146,6454,6,0,P|48:107|64:52,1,72.2500013780594
140,104,6829,2,0,P|175:99|210:108,1,72.2500013780594
304,88,7204,2,0,P|316:144|296:204,1,108.375002067089,8|0,0:0|0:0,0:0:0:0:
255,326,7579,5,0,0:0:0:0:
344,360,7766,2,0,P|336:296|392:224,1,144.500002756119,8|0,0:0|0:0,0:0:0:0:
427,313,8329,2,0,P|467:265|443:164,1,144.500002756119
400,108,8891,2,0,B|320:144|320:68|228:112,1,144.500002756119,0|8,0:0|0:0,0:0:0:0:
176,141,9454,6,0,P|167:102|183:47,1,72.2500013780594
256,29,9829,2,0,P|265:68|249:123,1,72.2500013780594
254,192,10204,2,0,P|273:235|346:284,1,108.375002067089,8|0,0:0|0:0,0:0:0:0:
444,346,10579,5,8,0:0:0:0:
444,346,11141,1,8,0:0:0:0:
460,186,11329,2,0,B|436:122|476:62|476:62|448:82|408:82,1,170,8|8,0:0|0:0,0:0:0:0:
409,85,11797,1,8,0:0:0:0:
377,87,11891,1,8,0:0:0:0:
345,84,11985,1,8,0:0:0:0:
315,75,12079,6,0,P|243:43|159:91,1,170,12|8,0:0|0:0,0:0:0:0:
100,180,12641,1,0,0:0:0:0:
244,140,12829,1,0,0:0:0:0:
92,108,13016,1,0,0:0:0:0:
199,197,13204,2,0,P|248:216|288:200,1,85,8|0,0:0|0:0,0:0:0:0:
360,108,13579,6,0,L|352:195,1,85
284,292,13954,2,0,L|276:204,1,85,8|0,0:0|0:0,0:0:0:0:
208,108,14329,1,0,0:0:0:0:
156,216,14516,1,0,0:0:0:0:
349,243,14704,1,8,0:0:0:0:
327,125,14891,1,0,0:0:0:0:
242,299,15079,6,0,B|330:335|330:259|424:304,1,170,0|8,0:0|0:0,0:0:0:0:
511,347,15641,1,0,0:0:0:0:
471,203,15829,2,0,P|408:144|408:56,1,170,0|8,0:0|0:0,0:0:0:0:
508,100,16391,1,0,0:0:0:0:
300,28,16579,6,0,L|212:35,1,85
116,104,16954,2,0,L|203:111,1,85,8|0,0:0|0:0,0:0:0:0:
300,180,17329,2,0,L|212:187,1,85
116,256,17704,2,0,L|203:263,1,85,8|0,0:0|0:0,0:0:0:0:
384,324,18079,6,0,L|200:340,1,170,0|8,0:0|0:0,0:0:0:0:
100,348,18641,1,0,0:0:0:0:
242,272,18829,1,0,0:0:0:0:
73,280,19016,1,0,0:0:0:0:
214,338,19204,2,0,P|266:343|300:317,1,85,8|0,0:0|0:0,0:0:0:0:
346,210,19579,6,0,P|354:110|354:110,1,85
422,26,19954,2,0,L|429:113,1,85,8|0,0:0|0:0,0:0:0:0:
498,210,20329,1,0,0:0:0:0:
421,301,20516,1,0,0:0:0:0:
314,137,20704,1,8,0:0:0:0:
431,107,20891,1,0,0:0:0:0:
309,258,21079,6,0,B|221:294|221:218|127:263,1,170,0|8,0:0|0:0,0:0:0:0:
40,306,21641,1,0,0:0:0:0:
80,162,21829,2,0,P|143:103|143:15,1,170,0|8,0:0|0:0,0:0:0:0:
43,59,22391,1,0,0:0:0:0:
249,59,22579,6,0,L|336:66,1,85
433,135,22954,2,0,L|345:142,1,85,8|0,0:0|0:0,0:0:0:0:
249,211,23329,1,0,0:0:0:0:
348,294,23516,1,0,0:0:0:0:
371,167,23704,1,8,0:0:0:0:
224,336,23891,1,0,0:0:0:0:
224,336,23985,1,0,0:0:0:0:
224,336,24079,6,0,P|172:364|72:320,1,170,4|8,0:0|0:0,0:0:0:0:
11,233,24641,1,0,0:0:0:0:
118,129,24829,1,0,0:0:0:0:
155,273,25016,1,0,0:0:0:0:
262,169,25204,2,0,P|322:175|360:152,1,85,8|0,0:0|0:0,0:0:0:0:
292,16,25579,6,0,L|299:99,1,85
335,251,25954,2,0,L|342:167,1,85,8|0,0:0|0:0,0:0:0:0:
393,59,26329,1,0,0:0:0:0:
460,156,26516,1,0,0:0:0:0:
264,171,26704,1,8,0:0:0:0:
147,149,26891,1,0,0:0:0:0:
228,0,27079,6,0,B|192:88|268:88|223:182,1,170,0|8,0:0|0:0,0:0:0:0:
180,269,27641,1,0,0:0:0:0:
335,251,27829,2,0,P|417:276|493:232,1,170,0|8,0:0|0:0,0:0:0:0:
406,164,28391,1,0,0:0:0:0:
264,338,28579,6,0,L|176:331,1,85
80,262,28954,2,0,P|116:244|176:256,1,85,8|0,0:0|0:0,0:0:0:0:
284,254,29329,2,0,L|291:166,1,85
360,70,29704,2,0,L|367:157,1,85,8|0,0:0|0:0,0:0:0:0:
428,338,30079,6,0,L|444:154,1,170,0|8,0:0|0:0,0:0:0:0:
453,54,30641,1,0,0:0:0:0:
366,154,30829,1,0,0:0:0:0:
322,28,31016,1,0,0:0:0:0:
234,127,31204,2,0,P|222:167|231:209,1,85,8|0,0:0|0:0,0:0:0:0:
381,259,31579,6,0,L|298:252,1,85
146,216,31954,2,0,L|230:209,1,85,8|0,0:0|0:0,0:0:0:0:
338,158,32329,1,0,0:0:0:0:
241,91,32516,1,0,0:0:0:0:
156,269,32704,1,8,0:0:0:0:
59,336,32891,1,0,0:0:0:0:
144,158,33079,6,0,B|232:194|232:118|326:163,1,170,0|8,0:0|0:0,0:0:0:0:
413,206,33641,1,0,0:0:0:0:
308,312,33829,2,0,P|234:266|149:289,1,170,0|8,0:0|0:0,0:0:0:0:
217,373,34391,1,0,0:0:0:0:
97,193,34579,6,0,L|104:105,1,85
173,9,34954,2,0,L|180:96,1,85,8|0,0:0|0:0,0:0:0:0:
249,193,35329,1,0,0:0:0:0:
332,94,35516,1,0,0:0:0:0:
374,218,35704,1,8,0:0:0:0:
291,317,35891,1,0,0:0:0:0:
179,93,36079,6,0,B|267:129|267:53|361:98,1,170,0|8,0:0|0:0,0:0:0:0:
448,141,36641,1,0,0:0:0:0:
343,247,36829,2,0,P|256:244|194:306,1,170,0|8,0:0|0:0,0:0:0:0:
294,345,37391,1,0,0:0:0:0:
100,249,37579,6,0,L|107:161,1,85
176,65,37954,2,0,L|183:152,1,85,8|0,0:0|0:0,0:0:0:0:
198,297,38329,1,8,0:0:0:0:
216,270,38422,1,8,0:0:0:0:
240,251,38516,1,8,0:0:0:0:
270,239,38610,1,8,0:0:0:0:
302,235,38704,2,0,P|352:232|392:204,1,85,8|0,0:0|0:0,0:0:0:0:
320,144,39079,5,12,0:0:0:0:
228,161,39266,1,8,0:0:0:0:
302,235,39454,1,8,0:0:0:0:
246,70,39641,1,8,0:0:0:0:
132,201,39829,1,8,0:0:0:0:
188,366,40016,1,8,0:0:0:0:
394,218,40204,1,8,0:0:0:0:
163,114,40391,1,8,0:0:0:0:
18,332,40579,5,8,0:0:0:0:
302,235,40766,1,8,0:0:0:0:
76,38,40954,1,8,0:0:0:0:
188,366,41141,1,8,0:0:0:0:
417,106,41329,1,8,0:0:0:0:
36,241,41516,1,8,0:0:0:0:
417,376,41704,2,0,L|425:284,1,85,8|8,0:0|0:0,0:0:0:0:
452,36,42079,6,0,P|392:32|340:88,1,127.5,12|0,0:0|0:0,0:0:0:0:
331,103,42453,1,8,0:0:0:0:
308,126,42547,1,8,0:0:0:0:
280,139,42641,1,8,0:0:0:0:
248,142,42735,1,8,0:0:0:0:
217,134,42829,6,0,P|157:138|105:82,1,127.5,12|0,0:0|0:0,0:0:0:0:
100,76,43204,1,8,0:0:0:0:
96,107,43298,1,8,0:0:0:0:
92,139,43392,1,8,0:0:0:0:
88,170,43485,1,8,0:0:0:0:
84,201,43579,2,0,P|128:202|164:226,1,85,12|0,0:0|0:0,0:0:0:0:
256,344,43954,1,12,0:0:0:0:
287,314,44047,1,8,0:0:0:0:
318,285,44141,1,8,0:0:0:0:
412,155,44329,2,0,P|376:134|334:135,1,85,4|0,0:0|0:0,0:0:0:0:
210,235,44704,2,0,P|160:232|120:204,1,85,4|0,0:0|0:0,0:0:0:0:
192,144,45079,5,12,0:0:0:0:
284,161,45266,1,8,0:0:0:0:
210,235,45454,1,8,0:0:0:0:
266,70,45641,1,8,0:0:0:0:
380,201,45829,1,8,0:0:0:0:
324,366,46016,1,8,0:0:0:0:
118,218,46204,1,8,0:0:0:0:
349,114,46391,1,8,0:0:0:0:
494,332,46579,5,8,0:0:0:0:
210,235,46766,1,8,0:0:0:0:
436,38,46954,1,8,0:0:0:0:
324,366,47141,1,8,0:0:0:0:
95,106,47329,1,8,0:0:0:0:
476,241,47516,1,8,0:0:0:0:
95,376,47704,1,8,0:0:0:0:
90,333,47797,1,8,0:0:0:0:
86,291,47891,1,8,0:0:0:0:
81,249,47985,1,8,0:0:0:0:
77,206,48079,6,0,P|72:156|132:76,1,127.5,12|0,0:0|0:0,0:0:0:0:
186,35,48454,1,0,0:0:0:0:
164,168,48641,2,0,P|208:208|324:180,1,170,4|0,0:0|0:0,0:0:0:0:
461,82,49204,1,0,0:0:0:0:
248,124,49391,6,0,L|232:299,1,170,4|0,0:0|0:0,0:0:0:0:
73,324,49954,1,0,0:0:0:0:
126,169,50141,2,0,P|140:88|248:40,1,170,4|0,0:0|0:0,0:0:0:0:
248,124,50704,2,0,P|292:164|392:152,1,127.5
332,80,51079,5,8,0:0:0:0:
316,119,51172,1,8,0:0:0:0:
300,159,51266,1,8,0:0:0:0:
285,198,51360,1,8,0:0:0:0:
269,238,51454,1,8,0:0:0:0:
240,268,51547,1,8,0:0:0:0:
200,283,51641,1,8,0:0:0:0:
158,279,51735,1,8,0:0:0:0:
122,258,51829,1,12,0:0:0:0:
192,192,52016,2,0,B|204:104,2,63.7500024318696
122,258,52579,6,0,P|168:284|212:284,1,85,12|0,0:0|0:0,0:0:0:0:
390,258,52954,1,8,0:0:0:0:
328,113,53141,1,0,0:0:0:0:
380,343,53329,5,8,0:0:0:0:
466,211,53516,1,0,0:0:0:0:
310,292,53704,5,8,0:0:0:0:
249,147,53891,1,0,0:0:0:0:
300,377,54079,6,0,P|256:360|228:308,1,85,8|0,0:0|0:0,0:0:0:0:
122,126,54454,1,8,0:0:0:0:
184,271,54641,1,0,0:0:0:0:
132,41,54829,5,10,0:0:0:0:
46,173,55016,1,0,0:0:0:0:
202,92,55204,5,8,0:0:0:0:
263,237,55391,1,0,0:0:0:0:
212,7,55579,6,0,P|256:24|284:76,1,85,10|0,0:0|0:0,0:0:0:0:
339,275,55954,2,0,P|312:308|273:322,1,85,10|0,0:0|0:0,0:0:0:0:
105,305,56329,1,10,0:0:0:0:
263,237,56516,1,0,0:0:0:0:
94,219,56704,1,10,0:0:0:0:
203,373,56891,1,0,0:0:0:0:
163,167,57079,6,0,P|206:147|262:164,1,85,10|0,0:0|0:0,0:0:0:0:
424,213,57454,1,8,0:0:0:0:
338,345,57641,1,0,0:0:0:0:
429,128,57829,5,10,0:0:0:0:
491,273,58016,1,0,0:0:0:0:
352,166,58204,5,10,0:0:0:0:
266,298,58391,1,0,0:0:0:0:
356,80,58579,6,0,P|309:89|273:135,1,85,10|0,0:0|0:0,0:0:0:0:
138,296,58954,1,8,0:0:0:0:
224,164,59141,1,0,0:0:0:0:
133,382,59329,5,10,0:0:0:0:
71,237,59516,1,0,0:0:0:0:
210,344,59704,5,10,0:0:0:0:
296,212,59891,2,0,P|327:239|369:246,1,85,0|10,0:0|0:0,0:0:0:0:
429,114,60266,2,0,P|397:86|355:79,1,85,0|10,0:0|0:0,0:0:0:0:
222,177,60641,2,0,P|253:204|295:211,1,85,0|10,0:0|0:0,0:0:0:0:
281,44,61016,1,0,0:0:0:0:
148,144,61204,1,10,0:0:0:0:
295,211,61391,1,0,0:0:0:0:
429,112,61579,5,8,0:0:0:0:
285,218,61766,1,8,0:0:0:0:
438,104,61954,5,8,0:0:0:0:
274,225,62141,1,8,0:0:0:0:
449,97,62329,5,8,0:0:0:0:
264,233,62516,1,8,0:0:0:0:
459,89,62704,5,8,0:0:0:0:
253,240,62891,1,8,0:0:0:0:
469,81,63079,6,0,B|381:45|381:121|287:76,1,170,12|0,0:0|0:0,0:0:0:0:
320,192,63829,1,8,0:0:0:0:
320,192,63922,1,8,0:0:0:0:
320,192,64016,2,0,B|308:104,2,63.7500024318696,8|0|0,0:0|0:0|0:0,0:0:0:0:
390,258,64579,6,0,P|344:284|300:284,1,85,12|0,0:0|0:0,0:0:0:0:
122,258,64954,1,8,0:0:0:0:
184,113,65141,1,0,0:0:0:0:
132,343,65329,5,8,0:0:0:0:
46,211,65516,1,0,0:0:0:0:
202,292,65704,5,8,0:0:0:0:
263,147,65891,1,0,0:0:0:0:
212,377,66079,6,0,P|256:360|284:308,1,85,10|0,0:0|0:0,0:0:0:0:
390,126,66454,1,10,0:0:0:0:
328,271,66641,1,0,0:0:0:0:
380,41,66829,5,10,0:0:0:0:
466,173,67016,1,0,0:0:0:0:
310,92,67204,5,8,0:0:0:0:
249,237,67391,1,0,0:0:0:0:
300,7,67579,6,0,P|256:24|228:76,1,85,8|0,0:0|0:0,0:0:0:0:
172,275,67954,2,0,P|199:308|239:322,1,85,8|0,0:0|0:0,0:0:0:0:
407,305,68329,1,8,0:0:0:0:
249,237,68516,1,0,0:0:0:0:
418,219,68704,1,8,0:0:0:0:
309,373,68891,1,0,0:0:0:0:
349,167,69079,6,0,P|305:147|249:164,1,85,8|0,0:0|0:0,0:0:0:0:
88,213,69454,1,8,0:0:0:0:
174,345,69641,1,0,0:0:0:0:
83,128,69829,5,8,0:0:0:0:
21,273,70016,1,0,0:0:0:0:
160,166,70204,5,8,0:0:0:0:
246,298,70391,1,0,0:0:0:0:
156,80,70579,6,0,P|202:89|238:135,1,85,8|0,0:0|0:0,0:0:0:0:
374,296,70954,1,8,0:0:0:0:
288,164,71141,1,0,0:0:0:0:
379,382,71329,5,8,0:0:0:0:
441,237,71516,1,0,0:0:0:0:
302,344,71704,5,8,0:0:0:0:
216,212,71891,2,0,P|184:239|142:246,1,85,0|10,0:0|0:0,0:0:0:0:
83,114,72266,2,0,P|114:86|156:79,1,85,0|10,0:0|0:0,0:0:0:0:
290,177,72641,2,0,P|258:204|216:211,1,85,0|10,0:0|0:0,0:0:0:0:
230,44,73016,1,0,0:0:0:0:
364,144,73204,1,10,0:0:0:0:
217,211,73391,1,0,0:0:0:0:
83,112,73579,5,8,0:0:0:0:
226,218,73766,1,8,0:0:0:0:
73,104,73954,5,8,0:0:0:0:
237,225,74141,1,8,0:0:0:0:
62,97,74329,5,8,0:0:0:0:
247,233,74516,1,8,0:0:0:0:
52,89,74704,5,8,0:0:0:0:
259,240,74891,1,8,0:0:0:0:
43,81,75079,6,0,B|131:45|131:121|225:76,1,170,14|0,0:0|0:0,0:0:0:0:
320,192,75829,1,8,0:0:0:0:
320,192,75922,1,8,0:0:0:0:
320,192,76016,2,0,B|308:104,2,63.7500024318696,8|0|0,0:0|0:0|0:0,0:0:0:0:
390,258,76579,5,4,0:0:0:0:
390,258,77141,1,0,0:0:0:0:
470,306,77329,2,0,P|422:346|321:322,1,144.500002756119
265,290,77891,2,0,P|217:250|116:274,1,144.500002756119,0|8,0:0|0:0,0:0:0:0:
54,296,78454,6,0,P|45:257|61:202,1,72.2500013780594
120,163,78829,2,0,P|129:124|113:69,1,72.2500013780594
36,124,79204,2,0,L|164:124,1,108.375002067089,8|0,0:0|0:0,0:0:0:0:
244,24,79579,5,0,0:0:0:0:
336,1,79766,2,0,P|294:57|303:127,1,144.500002756119,8|0,0:0|0:0,0:0:0:0:
385,81,80329,2,0,P|394:151|352:208,1,144.500002756119
284,264,80891,2,0,B|204:300|204:224|112:268,1,144.500002756119,0|8,0:0|0:0,0:0:0:0:
60,297,81454,6,0,P|51:258|67:203,1,72.2500013780594
140,185,81829,2,0,P|149:224|133:279,1,72.2500013780594
138,348,82204,2,0,L|266:348,1,108.375002067089,8|0,0:0|0:0,0:0:0:0:
256,180,82579,5,0,0:0:0:0:
313,251,82766,2,0,P|341:316|406:344,1,144.500002756119,8|0,0:0|0:0,0:0:0:0:
500,342,83329,2,0,P|472:277|407:249,1,144.500002756119
320,252,83891,2,0,P|347:187|412:159,1,144.500002756119,0|8,0:0|0:0,0:0:0:0:
496,201,84454,6,0,P|505:162|489:107,1,72.2500013780594
432,76,84829,2,0,P|393:85|338:69,1,72.2500013780594
256,40,85204,2,0,L|256:168,1,108.375002067089,8|0,0:0|0:0,0:0:0:0:
260,308,85579,5,8,0:0:0:0:
260,308,86141,5,8,0:0:0:0:
332,92,86329,2,0,B|256:16|172:96,1,170,8|8,0:0|0:0,0:0:0:0:
177,118,86797,1,8,0:0:0:0:
173,150,86891,1,8,0:0:0:0:
169,181,86985,1,8,0:0:0:0:
166,213,87079,1,12,0:0:0:0:
