osu file format v14

[General]
AudioFilename: audio.mp3
AudioLeadIn: 0
PreviewTime: 52036
Countdown: 0
SampleSet: Soft
StackLeniency: 0.7
Mode: 3
LetterboxInBreaks: 0
SpecialStyle: 0
WidescreenStoryboard: 1

[Editor]
Bookmarks: 85297
DistanceSpacing: 1.4
BeatDivisor: 4
GridSize: 32
TimelineZoom: 1.5

[Metadata]
Title:DORAEMON (Cut Ver.)
TitleUnicode:ドラえもん (Cut Ver.)
Artist:Amatsuki
ArtistUnicode:天月
Creator:Kibitz
Version:Hard
Source:映画ドラえもん のび太の宝島
Tags:the Movie: Nobita's Treasure Island Eiga Nobita no Takarajima HOSHINO GEN Cover theme song fujiko f. fujio kirishima- 星野源 japanese pop jpop j-pop cut short ver. version anime あまつき 藤子・F・不二雄 藤子 F 不二雄 藤子F不二雄 chrisse
BeatmapID:4275311
BeatmapSetID:2045471

[Difficulty]
HPDrainRate:7.5
CircleSize:4
OverallDifficulty:7.5
ApproachRate:5
SliderMultiplier:1.4
SliderTickRate:1

[Events]
//Background and Video events
0,0,"doraemon.jpg",0,0
//Break Periods
//Storyboard Layer 0 (Background)
//Storyboard Layer 1 (Fail)
//Storyboard Layer 2 (Pass)
//Storyboard Layer 3 (Foreground)
//Storyboard Layer 4 (Overlay)
//Storyboard Sound Samples

[TimingPoints]
1599,375,4,2,1,50,1,0
52599,-100,4,2,1,50,0,1
63099,-100,4,2,1,50,0,0
64599,-100,4,2,1,50,0,1
82599,-100,4,2,1,50,0,0

[HitObjects]
64,192,1599,5,8,0:0:0:0:
320,192,1599,1,0,0:0:0:0:
448,192,1599,1,0,0:0:0:0:
64,192,2161,1,8,0:0:0:0:
192,192,2161,1,0,0:0:0:0:
320,192,2349,1,8,0:0:0:0:
448,192,2349,1,0,0:0:0:0:
320,192,2724,1,8,0:0:0:0:
448,192,2724,1,0,0:0:0:0:
64,192,3474,1,8,0:0:0:0:
192,192,3474,1,0,0:0:0:0:
64,192,3849,1,8,0:0:0:0:
192,192,3849,1,0,0:0:0:0:
64,192,4224,1,0,0:0:0:45:Tom3.wav
448,192,4224,1,0,0:0:0:0:
192,192,4599,1,2,0:0:0:0:
320,192,4599,1,4,0:0:0:0:
448,192,4599,1,0,0:0:0:0:
64,192,5161,1,8,0:0:0:0:
320,192,5161,1,0,0:0:0:0:
448,192,5161,1,0,0:0:0:0:
64,192,5349,1,8,0:0:0:0:
192,192,5349,1,0,0:0:0:55:Hat open.wav
64,192,5724,1,8,0:0:0:0:
192,192,5724,1,0,0:0:0:55:Hat open.wav
320,192,5911,1,2,0:0:0:0:
448,192,5911,1,0,0:0:0:0:
64,192,6286,1,8,0:0:0:0:
192,192,6286,1,0,0:0:0:0:
320,192,6474,1,0,0:0:0:55:Hat open.wav
448,192,6474,1,0,0:0:0:0:
64,192,6661,1,2,0:0:0:0:
320,192,6849,1,8,0:0:0:0:
448,192,6849,1,0,0:0:0:55:Hat open.wav
192,192,7224,1,8,0:0:0:0:
320,192,7224,1,0,0:0:0:55:Hat open.wav
64,192,7599,1,2,0:0:0:0:
192,192,7599,1,0,0:0:0:55:Hat open.wav
448,192,7599,1,0,0:0:0:0:
320,192,7786,1,8,0:0:0:0:
448,192,7786,1,0,0:0:0:0:
64,192,8161,1,2,0:0:0:0:
192,192,8161,1,0,0:0:0:0:
320,192,8349,1,8,0:0:0:0:
448,192,8349,1,0,0:0:0:55:Hat open.wav
320,192,8724,1,8,0:0:0:0:
448,192,8724,1,0,0:0:0:55:Hat open.wav
64,192,8911,1,2,0:0:0:0:
192,192,8911,1,0,0:0:0:0:
320,192,9286,1,8,0:0:0:0:
448,192,9286,1,0,0:0:0:0:
64,192,9474,1,0,0:0:0:55:Hat open.wav
192,192,9474,1,0,0:0:0:0:
448,192,9661,1,2,0:0:0:0:
64,192,9849,1,8,0:0:0:0:
192,192,9849,1,0,0:0:0:55:Hat open.wav
320,192,10036,1,0,0:0:0:0:
320,192,10224,1,8,0:0:0:0:
448,192,10224,1,0,0:0:0:55:Hat open.wav
64,192,10599,1,8,0:0:0:0:
192,192,10599,1,0,0:0:0:55:Hat open.wav
448,192,10599,1,0,0:0:0:0:
64,192,11161,1,8,0:0:0:0:
192,192,11161,1,0,0:0:0:0:
320,192,11349,1,8,0:0:0:0:
448,192,11349,1,0,0:0:0:0:
64,192,11724,1,8,0:0:0:0:
192,192,11817,1,8,0:0:0:0:
448,192,11911,1,8,0:0:0:0:
320,192,12005,1,8,0:0:0:0:
64,192,12099,128,2,12474:0:0:0:0:
192,192,12099,1,4,0:0:0:0:
320,192,12474,1,8,0:0:0:0:
448,192,12474,1,0,0:0:0:0:
64,192,12661,1,2,0:0:0:0:
192,192,12661,1,0,0:0:0:0:
320,192,12849,1,2,0:0:0:0:
448,192,12849,1,0,0:0:0:0:
448,192,13036,1,0,0:0:0:0:
64,192,13224,1,8,0:0:0:0:
192,192,13224,1,0,0:0:0:0:
320,192,13411,1,2,0:0:0:0:
448,192,13411,1,0,0:0:0:0:
64,192,13599,128,2,13786:0:0:0:0:
192,192,13599,1,0,0:0:0:0:
320,192,13974,1,8,0:0:0:0:
448,192,13974,128,0,14161:0:0:0:0:
64,192,14349,1,2,0:0:0:0:
192,192,14349,128,0,14536:0:0:0:0:
320,192,14536,1,2,0:0:0:0:
64,192,14724,1,8,0:0:0:0:
448,192,14724,1,0,0:0:0:0:
320,192,15099,1,2,0:0:0:0:
448,192,15099,128,0,15474:0:0:0:0:
64,192,15474,1,8,0:0:0:0:
192,192,15474,1,0,0:0:0:0:
320,192,15661,1,2,0:0:0:0:
448,192,15661,1,0,0:0:0:0:
64,192,15849,1,2,0:0:0:0:
192,192,15849,1,0,0:0:0:0:
64,192,16036,1,0,0:0:0:0:
320,192,16224,1,8,0:0:0:0:
448,192,16224,1,0,0:0:0:0:
64,192,16411,1,2,0:0:0:0:
192,192,16411,1,0,0:0:0:0:
320,192,16599,1,2,0:0:0:0:
448,192,16599,128,0,16786:0:0:0:0:
192,192,16974,1,8,0:0:0:0:
320,192,16974,128,0,17161:0:0:0:0:
448,192,17161,1,2,0:0:0:0:
64,192,17349,1,2,0:0:0:0:
192,192,17349,128,0,17536:0:0:0:0:
64,192,17724,128,8,18099:0:0:0:0:
448,192,17724,1,0,0:0:0:0:
320,192,18099,1,2,0:0:0:0:
448,192,18099,128,0,18474:0:0:0:0:
64,192,18474,1,8,0:0:0:0:
192,192,18474,1,0,0:0:0:0:
320,192,18661,1,2,0:0:0:0:
448,192,18661,1,0,0:0:0:0:
64,192,18849,1,2,0:0:0:0:
192,192,18849,1,0,0:0:0:0:
64,192,19036,1,0,0:0:0:0:
320,192,19224,1,8,0:0:0:0:
448,192,19224,1,0,0:0:0:0:
64,192,19411,1,2,0:0:0:0:
192,192,19411,1,0,0:0:0:0:
320,192,19599,1,2,0:0:0:0:
448,192,19599,128,0,19786:0:0:0:0:
64,192,19974,128,8,20161:0:0:0:0:
192,192,19974,1,0,0:0:0:0:
320,192,20349,128,2,20536:0:0:0:0:
448,192,20349,1,0,0:0:0:0:
192,192,20536,1,2,0:0:0:0:
64,192,20724,1,8,0:0:0:0:
448,192,20724,1,0,0:0:0:0:
64,192,21099,128,2,21474:0:0:0:0:
192,192,21099,1,0,0:0:0:0:
320,192,21474,1,8,0:0:0:0:
448,192,21474,1,0,0:0:0:0:
64,192,21661,1,2,0:0:0:0:
192,192,21661,1,0,0:0:0:0:
320,192,21849,1,2,0:0:0:0:
448,192,21849,1,0,0:0:0:0:
448,192,22036,1,0,0:0:0:0:
64,192,22224,1,8,0:0:0:0:
192,192,22224,1,0,0:0:0:0:
320,192,22411,1,2,0:0:0:0:
448,192,22411,1,0,0:0:0:0:
64,192,22599,128,2,22786:0:0:0:0:
192,192,22599,1,0,0:0:0:0:
192,192,22974,128,8,23161:0:0:0:0:
320,192,22974,1,0,0:0:0:0:
320,192,23349,128,2,23536:0:0:0:0:
448,192,23349,1,0,0:0:0:0:
192,192,23536,1,2,0:0:0:0:
64,192,23724,1,8,0:0:0:0:
448,192,23724,1,0,0:0:0:0:
320,192,23911,1,0,0:0:0:0:
64,192,24099,128,2,24474:0:0:0:0:
192,192,24099,1,4,0:0:0:0:
320,192,24474,1,8,0:0:0:0:
448,192,24474,1,0,0:0:0:0:
64,192,24661,1,2,0:0:0:0:
192,192,24661,1,0,0:0:0:0:
320,192,24849,1,2,0:0:0:0:
448,192,24849,1,0,0:0:0:0:
448,192,25036,1,0,0:0:0:0:
64,192,25224,1,8,0:0:0:0:
192,192,25224,1,0,0:0:0:0:
320,192,25411,1,2,0:0:0:0:
448,192,25411,1,0,0:0:0:0:
64,192,25599,1,2,0:0:0:0:
192,192,25599,128,0,25786:0:0:0:0:
320,192,25974,128,8,26161:0:0:0:0:
448,192,25974,1,0,0:0:0:0:
64,192,26349,128,2,26536:0:0:0:0:
192,192,26349,1,0,0:0:0:0:
448,192,26536,1,2,0:0:0:0:
192,192,26724,1,8,0:0:0:0:
320,192,26724,1,0,0:0:0:0:
320,192,27099,1,2,0:0:0:0:
448,192,27099,128,0,27474:0:0:0:0:
64,192,27474,1,8,0:0:0:0:
192,192,27474,1,0,0:0:0:0:
320,192,27661,1,2,0:0:0:0:
448,192,27661,1,0,0:0:0:0:
64,192,27849,1,2,0:0:0:0:
192,192,27849,1,0,0:0:0:0:
320,192,28224,1,8,0:0:0:0:
448,192,28224,1,0,0:0:0:0:
64,192,28411,1,2,0:0:0:0:
192,192,28411,1,0,0:0:0:0:
320,192,28599,128,2,28786:0:0:0:0:
448,192,28599,1,0,0:0:0:0:
192,192,28974,128,8,29161:0:0:0:0:
320,192,28974,1,0,0:0:0:0:
448,192,29161,1,2,0:0:0:0:
64,192,29349,128,2,29536:0:0:0:0:
192,192,29349,1,0,0:0:0:0:
320,192,29724,1,8,0:0:0:0:
448,192,29724,128,0,30099:0:0:0:0:
64,192,30099,128,2,30474:0:0:0:0:
192,192,30099,1,0,0:0:0:0:
320,192,30474,1,8,0:0:0:0:
448,192,30474,1,0,0:0:0:0:
64,192,30661,1,2,0:0:0:0:
192,192,30661,1,0,0:0:0:0:
320,192,30849,1,2,0:0:0:0:
448,192,30849,1,0,0:0:0:0:
448,192,31036,1,0,0:0:0:0:
64,192,31224,1,8,0:0:0:0:
192,192,31224,1,0,0:0:0:0:
320,192,31411,1,2,0:0:0:0:
448,192,31411,1,0,0:0:0:0:
64,192,31599,128,2,31786:0:0:0:0:
192,192,31599,1,0,0:0:0:0:
320,192,31974,1,8,0:0:0:0:
448,192,31974,128,0,32161:0:0:0:0:
64,192,32349,1,2,0:0:0:0:
192,192,32349,128,0,32536:0:0:0:0:
320,192,32536,1,2,0:0:0:0:
64,192,32724,1,8,0:0:0:0:
448,192,32724,1,0,0:0:0:0:
320,192,33099,1,2,0:0:0:0:
448,192,33099,128,0,33474:0:0:0:0:
64,192,33474,1,8,0:0:0:0:
192,192,33474,1,0,0:0:0:0:
320,192,33661,1,2,0:0:0:0:
448,192,33661,1,0,0:0:0:0:
64,192,33849,1,2,0:0:0:0:
192,192,33849,1,0,0:0:0:0:
320,192,34224,1,8,0:0:0:0:
448,192,34224,1,0,0:0:0:0:
64,192,34411,1,2,0:0:0:0:
192,192,34411,1,0,0:0:0:0:
320,192,34599,1,2,0:0:0:0:
448,192,34599,128,0,34786:0:0:0:0:
192,192,34974,1,8,0:0:0:0:
320,192,34974,128,0,35161:0:0:0:0:
448,192,35161,1,0,0:0:0:0:
64,192,35349,1,2,0:0:0:0:
192,192,35349,128,0,35536:0:0:0:0:
320,192,35536,1,2,0:0:0:0:
64,192,35724,1,8,0:0:0:0:
448,192,35724,1,0,0:0:0:0:
192,192,36099,1,2,0:0:0:0:
320,192,36099,128,0,36474:0:0:0:0:
64,192,36474,1,8,0:0:0:0:
448,192,36474,1,0,0:0:0:0:
64,192,36661,1,2,0:0:0:0:
192,192,36661,1,0,0:0:0:0:
320,192,36849,1,2,0:0:0:0:
448,192,36849,1,0,0:0:0:0:
64,192,37224,1,8,0:0:0:0:
192,192,37224,1,0,0:0:0:0:
320,192,37411,1,2,0:0:0:0:
448,192,37411,1,0,0:0:0:0:
320,192,37599,1,2,0:0:0:0:
448,192,37599,128,0,37786:0:0:0:0:
192,192,37974,1,8,0:0:0:0:
320,192,37974,128,0,38161:0:0:0:0:
64,192,38349,1,8,0:0:0:0:
192,192,38349,1,0,0:0:0:0:
320,192,38442,1,8,0:0:0:0:
64,192,38536,1,8,0:0:0:0:
192,192,38536,1,0,0:0:0:0:
320,192,38724,1,0,0:0:0:45:Tom1.wav
448,192,38724,1,0,0:0:0:0:
320,192,38911,1,0,0:0:0:45:Tom2.wav
448,192,38911,1,0,0:0:0:0:
64,192,39099,1,6,0:0:0:0:
192,192,39099,1,0,0:0:0:45:Tom3.wav
320,192,39286,1,0,0:0:0:0:
448,192,39286,1,0,0:0:0:0:
64,192,39474,1,0,0:0:0:35:soft-hitwhistle.wav
192,192,39474,1,0,0:0:0:35:soft-hitclap.wav
320,192,39661,1,0,0:0:0:35:soft-hitclap.wav
448,192,39661,1,0,0:0:0:0:
64,192,39849,1,0,0:0:0:35:soft-hitwhistle.wav
192,192,39849,1,0,0:0:0:35:soft-hitclap.wav
192,192,40036,1,0,0:0:0:35:soft-hitclap.wav
320,192,40224,1,0,0:0:0:35:soft-hitwhistle.wav
448,192,40224,1,0,0:0:0:35:soft-hitclap.wav
320,192,40411,1,8,0:0:0:35:soft-hitclap.wav
64,192,40599,1,0,0:0:0:45:soft-hitwhistle.wav
448,192,40599,1,0,0:0:0:45:soft-hitclap.wav
192,192,40786,1,0,0:0:0:45:soft-hitclap.wav
320,192,40786,1,0,0:0:0:0:
64,192,40974,1,0,0:0:0:45:soft-hitwhistle.wav
448,192,40974,1,0,0:0:0:45:soft-hitclap.wav
192,192,41161,1,0,0:0:0:45:soft-hitclap.wav
320,192,41161,1,0,0:0:0:0:
64,192,41349,1,2,0:0:0:0:
448,192,41349,1,8,0:0:0:0:
448,192,41536,1,8,0:0:0:0:
64,192,41724,1,2,0:0:0:0:
320,192,41724,1,8,0:0:0:0:
64,192,41911,1,8,0:0:0:0:
192,192,42099,1,2,0:0:0:0:
448,192,42099,1,4,0:0:0:0:
192,192,42474,1,8,0:0:0:0:
448,192,42474,1,0,0:0:0:0:
320,192,42567,1,8,0:0:0:0:
64,192,42661,1,8,0:0:0:0:
192,192,42755,1,8,0:0:0:0:
448,192,42849,1,4,0:0:0:0:
320,192,42849,1,2,0:0:0:0:
64,192,43224,1,8,0:0:0:0:
320,192,43224,1,0,0:0:0:0:
192,192,43317,1,8,0:0:0:0:
448,192,43411,1,8,0:0:0:0:
320,192,43505,1,8,0:0:0:0:
192,192,43599,1,4,0:0:0:0:
64,192,43599,1,2,0:0:0:0:
64,192,43974,1,8,0:0:0:0:
320,192,43974,1,0,0:0:0:0:
192,192,44067,1,8,0:0:0:0:
448,192,44161,1,8,0:0:0:0:
320,192,44255,1,8,0:0:0:0:
64,192,44349,1,4,0:0:0:0:
192,192,44349,1,2,0:0:0:0:
320,192,44536,1,0,0:0:0:45:Tom1.wav
448,192,44536,1,0,0:0:0:0:
192,192,44724,1,0,0:0:0:45:Tom2.wav
320,192,44724,1,0,0:0:0:0:
64,192,44911,1,0,0:0:0:45:Tom3.wav
192,192,44911,1,0,0:0:0:0:
320,192,45099,1,4,0:0:0:0:
448,192,45099,1,0,0:0:0:55:Hat open.wav
64,192,45286,1,0,0:0:0:0:
192,192,45286,1,0,0:0:0:0:
320,192,45474,1,0,0:0:0:35:soft-hitwhistle.wav
448,192,45474,1,0,0:0:0:35:soft-hitclap.wav
64,192,45661,1,0,0:0:0:35:soft-hitclap.wav
192,192,45661,1,0,0:0:0:0:
320,192,45849,1,0,0:0:0:35:soft-hitwhistle.wav
448,192,45849,1,0,0:0:0:35:soft-hitclap.wav
320,192,46036,1,0,0:0:0:35:soft-hitclap.wav
64,192,46224,1,0,0:0:0:35:soft-hitwhistle.wav
192,192,46224,1,0,0:0:0:35:soft-hitclap.wav
192,192,46411,1,8,0:0:0:35:soft-hitclap.wav
64,192,46599,1,0,0:0:0:45:soft-hitwhistle.wav
448,192,46599,1,0,0:0:0:45:soft-hitclap.wav
192,192,46786,1,0,0:0:0:45:soft-hitclap.wav
320,192,46786,1,0,0:0:0:0:
64,192,46974,1,0,0:0:0:45:soft-hitwhistle.wav
448,192,46974,1,0,0:0:0:45:soft-hitclap.wav
192,192,47161,1,0,0:0:0:45:soft-hitclap.wav
320,192,47161,1,0,0:0:0:0:
64,192,47349,1,2,0:0:0:0:
448,192,47349,1,8,0:0:0:0:
64,192,47536,1,8,0:0:0:0:
192,192,47724,1,8,0:0:0:0:
448,192,47724,1,2,0:0:0:0:
320,192,47817,1,8,0:0:0:0:
64,192,47911,1,8,0:0:0:0:
192,192,47911,1,0,0:0:0:0:
448,192,48005,1,8,0:0:0:0:
64,192,48099,1,4,0:0:0:0:
320,192,48099,128,2,48474:0:0:0:0:
64,192,48474,1,8,0:0:0:0:
448,192,48474,1,0,0:0:0:0:
192,192,48661,128,2,49036:0:0:0:0:
320,192,48661,1,4,0:0:0:0:
448,192,49036,128,2,49224:0:0:0:0:
64,192,49224,1,8,0:0:0:0:
192,192,49224,1,0,0:0:0:0:
320,192,49411,128,2,49786:0:0:0:0:
448,192,49411,1,0,0:0:0:55:Hat open.wav
192,192,49786,128,2,49974:0:0:0:0:
320,192,49974,1,8,0:0:0:0:
448,192,49974,1,0,0:0:0:0:
64,192,50161,128,4,50536:0:0:0:0:
192,192,50161,1,2,0:0:0:0:
448,192,50536,128,2,50724:0:0:0:0:
192,192,50724,1,8,0:0:0:0:
320,192,50724,128,0,51099:0:0:0:0:
64,192,51099,1,8,0:0:0:0:
448,192,51099,1,0,0:0:0:0:
192,192,51192,1,8,0:0:0:0:
320,192,51286,1,8,0:0:0:0:
192,192,51380,1,8,0:0:0:0:
64,192,51474,1,8,0:0:0:0:
448,192,51567,1,8,0:0:0:0:
192,192,51661,1,8,0:0:0:0:
320,192,51755,1,8,0:0:0:0:
64,192,51849,1,8,0:0:0:0:
448,192,51849,1,2,0:0:0:0:
192,192,52036,128,0,52224:0:0:0:0:
320,192,52224,128,0,52411:0:0:0:0:
448,192,52411,128,0,52599:0:0:0:0:
64,192,52599,1,4,0:0:0:0:
192,192,52599,1,2,0:0:0:0:
64,192,52786,1,0,0:0:0:0:
320,192,52974,1,8,0:0:0:0:
448,192,52974,1,0,0:0:0:55:Hat open.wav
448,192,53161,1,0,0:0:0:0:
64,192,53349,1,8,0:0:0:0:
192,192,53349,1,0,0:0:0:55:Hat open.wav
192,192,53536,1,2,0:0:0:0:
320,192,53536,1,0,0:0:0:0:
320,192,53724,1,8,0:0:0:0:
448,192,53724,1,0,0:0:0:55:Hat open.wav
64,192,53911,1,2,0:0:0:0:
448,192,53911,1,0,0:0:0:0:
64,192,54099,1,8,0:0:0:0:
192,192,54099,1,0,0:0:0:55:Hat open.wav
192,192,54286,1,0,0:0:0:0:
320,192,54474,1,8,0:0:0:0:
448,192,54474,1,0,0:0:0:55:Hat open.wav
448,192,54661,1,0,0:0:0:0:
64,192,54849,1,8,0:0:0:0:
192,192,54849,1,0,0:0:0:55:Hat open.wav
64,192,55036,1,2,0:0:0:0:
192,192,55036,1,0,0:0:0:0:
320,192,55224,1,8,0:0:0:0:
448,192,55224,1,0,0:0:0:55:Hat open.wav
320,192,55411,1,2,0:0:0:0:
448,192,55411,1,0,0:0:0:0:
64,192,55599,1,8,0:0:0:0:
192,192,55599,1,0,0:0:0:55:Hat open.wav
192,192,55786,1,0,0:0:0:0:
320,192,55974,1,8,0:0:0:0:
448,192,55974,1,0,0:0:0:55:Hat open.wav
320,192,56161,1,0,0:0:0:0:
64,192,56349,1,8,0:0:0:0:
192,192,56349,1,0,0:0:0:55:Hat open.wav
192,192,56536,1,2,0:0:0:0:
320,192,56536,1,0,0:0:0:0:
320,192,56724,1,8,0:0:0:0:
448,192,56724,1,0,0:0:0:55:Hat open.wav
64,192,56911,1,2,0:0:0:0:
192,192,56911,1,0,0:0:0:0:
320,192,57099,1,8,0:0:0:0:
448,192,57099,1,0,0:0:0:55:Hat open.wav
448,192,57286,1,0,0:0:0:0:
64,192,57474,1,8,0:0:0:0:
192,192,57474,1,0,0:0:0:55:Hat open.wav
64,192,57661,1,0,0:0:0:0:
192,192,57849,1,8,0:0:0:0:
448,192,57849,1,0,0:0:0:55:Hat open.wav
320,192,58036,1,2,0:0:0:0:
448,192,58036,1,0,0:0:0:0:
64,192,58224,1,8,0:0:0:0:
192,192,58224,1,0,0:0:0:55:Hat open.wav
64,192,58411,1,2,0:0:0:0:
448,192,58411,1,0,0:0:0:0:
192,192,58599,1,8,0:0:0:0:
320,192,58599,1,0,0:0:0:55:Hat open.wav
320,192,58786,1,0,0:0:0:0:
64,192,58974,1,8,0:0:0:0:
448,192,58974,1,0,0:0:0:55:Hat open.wav
448,192,59161,1,0,0:0:0:0:
192,192,59349,1,8,0:0:0:0:
320,192,59349,1,0,0:0:0:55:Hat open.wav
320,192,59536,1,2,0:0:0:0:
64,192,59724,1,8,0:0:0:0:
448,192,59724,1,0,0:0:0:55:Hat open.wav
64,192,59911,1,2,0:0:0:0:
192,192,59911,1,0,0:0:0:0:
64,192,60099,1,8,0:0:0:0:
192,192,60099,1,0,0:0:0:55:Hat open.wav
320,192,60286,1,0,0:0:0:0:
448,192,60286,1,0,0:0:0:0:
320,192,60474,1,8,0:0:0:0:
448,192,60474,1,0,0:0:0:55:Hat open.wav
64,192,60661,1,0,0:0:0:0:
192,192,60661,1,0,0:0:0:0:
64,192,60849,1,8,0:0:0:0:
448,192,60849,1,0,0:0:0:55:Hat open.wav
320,192,61036,1,2,0:0:0:0:
448,192,61036,1,0,0:0:0:0:
192,192,61224,1,8,0:0:0:0:
320,192,61224,1,0,0:0:0:55:Hat open.wav
64,192,61411,1,2,0:0:0:0:
192,192,61411,1,0,0:0:0:0:
320,192,61599,1,8,0:0:0:0:
448,192,61599,1,0,0:0:0:0:
320,192,61786,1,8,0:0:0:0:
448,192,61786,1,0,0:0:0:0:
64,192,61974,1,8,0:0:0:0:
192,192,61974,1,2,0:0:0:0:
64,192,62161,1,8,0:0:0:0:
192,192,62161,1,0,0:0:0:0:
320,192,62349,1,8,0:0:0:0:
448,192,62349,1,2,0:0:0:0:
320,192,62536,1,8,0:0:0:0:
448,192,62536,1,0,0:0:0:0:
64,192,62724,1,8,0:0:0:0:
192,192,62724,1,2,0:0:0:0:
64,192,62911,1,8,0:0:0:0:
192,192,62911,1,0,0:0:0:0:
64,192,63099,128,8,63380:0:0:0:0:
192,192,63099,128,4,63380:0:0:0:0:
448,192,63099,128,0,63380:0:0:0:0:
64,192,63474,128,4,63755:0:0:0:0:
192,192,63474,128,8,63755:0:0:0:0:
448,192,63474,128,2,63755:0:0:0:0:
64,192,63849,1,8,0:0:0:0:
192,192,63849,1,0,0:0:0:0:
320,192,63942,1,8,0:0:0:0:
448,192,63942,1,0,0:0:0:0:
64,192,64036,1,8,0:0:0:0:
192,192,64036,1,0,0:0:0:0:
320,192,64224,1,2,0:0:0:0:
448,192,64224,1,0,0:0:0:0:
64,192,64411,1,0,0:0:0:45:Tom3.wav
192,192,64411,1,0,0:0:0:0:
320,192,64599,1,4,0:0:0:0:
448,192,64599,1,2,0:0:0:0:
448,192,64786,1,0,0:0:0:0:
64,192,64974,1,8,0:0:0:0:
192,192,64974,1,0,0:0:0:55:Hat open.wav
64,192,65161,1,0,0:0:0:0:
320,192,65349,1,8,0:0:0:0:
448,192,65349,1,0,0:0:0:55:Hat open.wav
192,192,65536,1,2,0:0:0:0:
320,192,65536,1,0,0:0:0:0:
64,192,65724,1,8,0:0:0:0:
192,192,65724,1,0,0:0:0:55:Hat open.wav
64,192,65911,1,2,0:0:0:0:
448,192,65911,1,0,0:0:0:0:
320,192,66099,1,8,0:0:0:0:
448,192,66099,1,0,0:0:0:55:Hat open.wav
320,192,66286,1,0,0:0:0:0:
64,192,66474,1,8,0:0:0:0:
192,192,66474,1,0,0:0:0:55:Hat open.wav
64,192,66661,1,0,0:0:0:0:
320,192,66849,1,8,0:0:0:0:
448,192,66849,1,0,0:0:0:55:Hat open.wav
320,192,67036,1,2,0:0:0:0:
448,192,67036,1,0,0:0:0:0:
64,192,67224,1,8,0:0:0:0:
192,192,67224,1,0,0:0:0:55:Hat open.wav
64,192,67411,1,2,0:0:0:0:
192,192,67411,1,0,0:0:0:0:
320,192,67599,1,8,0:0:0:0:
448,192,67599,1,0,0:0:0:55:Hat open.wav
320,192,67786,1,0,0:0:0:0:
64,192,67974,1,8,0:0:0:0:
192,192,67974,1,0,0:0:0:55:Hat open.wav
192,192,68161,1,0,0:0:0:0:
320,192,68349,1,8,0:0:0:0:
448,192,68349,1,0,0:0:0:55:Hat open.wav
192,192,68536,1,2,0:0:0:0:
320,192,68536,1,0,0:0:0:0:
64,192,68724,1,8,0:0:0:0:
192,192,68724,1,0,0:0:0:55:Hat open.wav
320,192,68911,1,2,0:0:0:0:
448,192,68911,1,0,0:0:0:0:
64,192,69099,1,8,0:0:0:0:
192,192,69099,1,0,0:0:0:55:Hat open.wav
64,192,69286,1,0,0:0:0:0:
320,192,69474,1,8,0:0:0:0:
448,192,69474,1,0,0:0:0:55:Hat open.wav
448,192,69661,1,0,0:0:0:0:
64,192,69849,1,8,0:0:0:0:
320,192,69849,1,0,0:0:0:55:Hat open.wav
64,192,70036,1,2,0:0:0:0:
192,192,70036,1,0,0:0:0:0:
320,192,70224,1,8,0:0:0:0:
448,192,70224,1,0,0:0:0:55:Hat open.wav
64,192,70411,1,2,0:0:0:0:
448,192,70411,1,0,0:0:0:0:
192,192,70599,1,8,0:0:0:0:
320,192,70599,1,0,0:0:0:55:Hat open.wav
192,192,70786,1,0,0:0:0:0:
64,192,70974,1,8,0:0:0:0:
448,192,70974,1,0,0:0:0:55:Hat open.wav
64,192,71161,1,0,0:0:0:0:
192,192,71349,1,8,0:0:0:0:
320,192,71349,1,0,0:0:0:55:Hat open.wav
192,192,71536,1,2,0:0:0:0:
64,192,71724,1,8,0:0:0:0:
448,192,71724,1,0,0:0:0:55:Hat open.wav
320,192,71911,1,2,0:0:0:0:
448,192,71911,1,0,0:0:0:0:
320,192,72099,1,8,0:0:0:0:
448,192,72099,1,0,0:0:0:55:Hat open.wav
64,192,72286,1,0,0:0:0:0:
192,192,72286,1,0,0:0:0:0:
64,192,72474,1,8,0:0:0:0:
192,192,72474,1,0,0:0:0:55:Hat open.wav
320,192,72661,1,0,0:0:0:0:
448,192,72661,1,0,0:0:0:0:
64,192,72849,1,8,0:0:0:0:
448,192,72849,1,0,0:0:0:55:Hat open.wav
64,192,73036,1,2,0:0:0:0:
192,192,73036,1,0,0:0:0:0:
192,192,73224,1,8,0:0:0:0:
320,192,73224,1,0,0:0:0:55:Hat open.wav
320,192,73411,1,2,0:0:0:0:
448,192,73411,1,0,0:0:0:0:
64,192,73599,1,8,0:0:0:0:
192,192,73599,1,2,0:0:0:0:
64,192,73786,1,8,0:0:0:0:
192,192,73786,1,0,0:0:0:0:
320,192,73974,1,8,0:0:0:0:
448,192,73974,1,2,0:0:0:0:
320,192,74161,1,8,0:0:0:0:
448,192,74161,1,0,0:0:0:0:
64,192,74349,1,8,0:0:0:0:
192,192,74349,1,2,0:0:0:0:
64,192,74536,1,8,0:0:0:0:
192,192,74536,1,0,0:0:0:0:
320,192,74724,1,8,0:0:0:0:
448,192,74724,1,2,0:0:0:0:
320,192,74911,1,8,0:0:0:0:
448,192,74911,1,0,0:0:0:0:
64,192,75099,128,4,75380:0:0:0:0:
192,192,75099,128,8,75380:0:0:0:0:
448,192,75099,128,0,75380:0:0:0:0:
64,192,75474,128,2,75755:0:0:0:0:
192,192,75474,128,4,75755:0:0:0:0:
448,192,75474,128,8,75755:0:0:0:0:
64,192,75849,1,8,0:0:0:0:
192,192,75849,1,0,0:0:0:0:
320,192,75942,1,0,0:0:0:45:Tom1.wav
448,192,75942,1,0,0:0:0:0:
64,192,76036,1,0,0:0:0:45:Tom1.wav
192,192,76036,1,0,0:0:0:0:
320,192,76224,1,0,0:0:0:45:Tom3.wav
448,192,76224,1,0,0:0:0:0:
64,192,76411,1,0,0:0:0:45:Tom3.wav
192,192,76411,1,0,0:0:0:0:
320,192,76599,1,8,0:0:0:0:
448,192,76599,1,2,0:0:0:0:
320,192,76786,1,8,0:0:0:0:
448,192,76786,1,0,0:0:0:0:
64,192,76974,1,8,0:0:0:0:
192,192,76974,1,2,0:0:0:0:
64,192,77161,1,8,0:0:0:0:
192,192,77161,1,0,0:0:0:0:
320,192,77349,1,8,0:0:0:0:
448,192,77349,1,2,0:0:0:0:
320,192,77536,1,8,0:0:0:0:
448,192,77536,1,0,0:0:0:0:
64,192,77724,1,8,0:0:0:0:
192,192,77724,1,2,0:0:0:0:
64,192,77911,1,8,0:0:0:0:
192,192,77911,1,0,0:0:0:0:
64,192,78099,128,4,78380:0:0:0:0:
320,192,78099,128,8,78380:0:0:0:0:
448,192,78099,128,0,78380:0:0:0:0:
64,192,78474,128,2,78755:0:0:0:0:
320,192,78474,128,8,78755:0:0:0:0:
448,192,78474,128,4,78755:0:0:0:0:
320,192,78849,1,8,0:0:0:0:
448,192,78849,1,0,0:0:0:0:
64,192,78942,1,8,0:0:0:0:
192,192,78942,1,0,0:0:0:0:
320,192,79036,1,8,0:0:0:0:
448,192,79036,1,0,0:0:0:0:
64,192,79224,1,0,0:0:0:45:Tom2.wav
192,192,79224,1,0,0:0:0:0:
320,192,79411,1,0,0:0:0:45:Tom3.wav
448,192,79411,1,0,0:0:0:0:
64,192,79599,1,8,0:0:0:0:
192,192,79599,1,2,0:0:0:0:
64,192,79786,1,8,0:0:0:0:
192,192,79786,1,0,0:0:0:0:
64,192,79974,1,8,0:0:0:0:
192,192,79974,1,2,0:0:0:0:
64,192,80161,1,8,0:0:0:0:
192,192,80161,1,0,0:0:0:0:
320,192,80349,1,8,0:0:0:0:
448,192,80349,1,2,0:0:0:0:
320,192,80536,1,8,0:0:0:0:
448,192,80536,1,0,0:0:0:0:
320,192,80724,1,8,0:0:0:0:
448,192,80724,1,2,0:0:0:0:
320,192,80911,1,8,0:0:0:0:
448,192,80911,1,0,0:0:0:0:
64,192,81099,128,8,81380:0:0:0:0:
192,192,81099,128,4,81380:0:0:0:0:
448,192,81099,128,0,81380:0:0:0:0:
64,192,81474,128,2,81755:0:0:0:0:
192,192,81474,128,8,81755:0:0:0:0:
448,192,81474,128,4,81755:0:0:0:0:
320,192,81849,1,8,0:0:0:0:
448,192,81849,1,0,0:0:0:45:Tom1.wav
64,192,81942,1,0,0:0:0:45:Tom1.wav
192,192,81942,1,0,0:0:0:0:
320,192,82036,1,0,0:0:0:45:Tom1.wav
448,192,82036,1,0,0:0:0:0:
64,192,82224,1,0,0:0:0:45:Tom3.wav
192,192,82224,1,0,0:0:0:0:
320,192,82411,1,0,0:0:0:45:Tom3.wav
448,192,82411,1,0,0:0:0:0:
64,192,82599,1,4,0:0:0:0:
192,192,82599,1,2,0:0:0:0:
448,192,82599,1,0,0:0:0:0:
64,192,83161,1,8,0:0:0:0:
192,192,83161,1,0,0:0:0:0:
320,192,83349,1,8,0:0:0:0:
448,192,83349,1,0,0:0:0:0:
320,192,83724,1,8,0:0:0:0:
448,192,83724,1,0,0:0:0:0:
64,192,83911,1,2,0:0:0:0:
192,192,83911,1,0,0:0:0:0:
320,192,84286,1,8,0:0:0:0:
448,192,84286,1,0,0:0:0:0:
64,192,84474,1,2,0:0:0:0:
192,192,84474,1,0,0:0:0:0:
448,192,84661,1,2,0:0:0:0:
64,192,84849,1,8,0:0:0:0:
192,192,84849,1,0,0:0:0:0:
64,192,85224,1,8,0:0:0:0:
448,192,85224,1,0,0:0:0:0:
192,192,85599,1,2,0:0:0:0:
320,192,85599,1,0,0:0:0:0:
448,192,85599,1,0,0:0:0:0:
320,192,85786,1,8,0:0:0:0:
448,192,85786,1,0,0:0:0:0:
320,192,86161,1,2,0:0:0:0:
448,192,86161,1,0,0:0:0:0:
64,192,86349,1,8,0:0:0:0:
192,192,86349,1,0,0:0:0:55:Hat open.wav
64,192,86724,1,8,0:0:0:0:
192,192,86724,1,0,0:0:0:55:Hat open.wav
320,192,86911,1,0,0:0:0:0:
448,192,86911,1,0,0:0:0:0:
64,192,87286,1,8,0:0:0:0:
192,192,87286,1,0,0:0:0:0:
320,192,87474,1,2,0:0:0:0:
448,192,87474,1,0,0:0:0:55:Hat open.wav
64,192,87661,1,2,0:0:0:0:
320,192,87849,1,8,0:0:0:0:
448,192,87849,1,0,0:0:0:55:Hat open.wav
192,192,88224,1,8,0:0:0:0:
320,192,88224,1,0,0:0:0:55:Hat open.wav
64,192,88599,1,2,0:0:0:0:
192,192,88599,1,0,0:0:0:55:Hat open.wav
448,192,88599,1,0,0:0:0:0:
320,192,88786,1,8,0:0:0:0:
448,192,88786,1,0,0:0:0:0:
64,192,89161,1,2,0:0:0:0:
192,192,89161,1,0,0:0:0:0:
320,192,89349,1,8,0:0:0:0:
448,192,89349,1,0,0:0:0:55:Hat open.wav
320,192,89724,1,8,0:0:0:0:
448,192,89724,1,0,0:0:0:55:Hat open.wav
64,192,89911,1,2,0:0:0:0:
192,192,89911,1,0,0:0:0:0:
320,192,90286,1,8,0:0:0:0:
448,192,90286,1,0,0:0:0:0:
64,192,90474,1,2,0:0:0:0:
192,192,90474,1,0,0:0:0:55:Hat open.wav
448,192,90661,1,2,0:0:0:0:
64,192,90849,1,8,0:0:0:0:
192,192,90849,1,0,0:0:0:55:Hat open.wav
320,192,91224,1,8,0:0:0:0:
448,192,91224,1,0,0:0:0:55:Hat open.wav
64,192,91599,1,8,0:0:0:0:
192,192,91599,1,0,0:0:0:0:
448,192,91599,1,0,0:0:0:0:
64,192,92161,1,8,0:0:0:0:
192,192,92161,1,0,0:0:0:0:
448,192,92161,1,0,0:0:0:0:
64,192,92349,1,8,0:0:0:0:
320,192,92349,1,0,0:0:0:0:
448,192,92349,1,0,0:0:0:0:
320,192,92724,1,8,0:0:0:0:
448,192,92724,1,0,0:0:0:0:
192,192,92817,1,0,0:0:0:0:
64,192,92911,1,8,0:0:0:0:
448,192,92911,1,0,0:0:0:0:
320,192,93005,1,8,0:0:0:0:
64,192,93099,1,8,0:0:0:0:
192,192,93099,1,2,0:0:0:0:
