osu file format v14

[General]
AudioFilename: chiisana.mp3
AudioLeadIn: 0
PreviewTime: 70909
Countdown: 0
SampleSet: Soft
StackLeniency: 0.7
Mode: 0
LetterboxInBreaks: 0
WidescreenStoryboard: 0

[Editor]
DistanceSpacing: 0.2
BeatDivisor: 4
GridSize: 32
TimelineZoom: 3.799998

[Metadata]
Title:Chiisana Koi no Uta
TitleUnicode:小さな恋のうた
Artist:Amatsuki
ArtistUnicode:天月
Creator:Logic Agent
Version:Together
Source:
Tags:MONGOL800 utaite male vocal battle thzz happyrocket88 みっ君 Song of a Small Love
BeatmapID:1169701
BeatmapSetID:534788

[Difficulty]
HPDrainRate:6
CircleSize:4
OverallDifficulty:9.3
ApproachRate:9.5
SliderMultiplier:1.9
SliderTickRate:1

[Events]
//Background and Video events
Video,-56,"chiisana.avi"
0,0,"hora.png",0,0
//Break Periods
2,131177,134856
2,135581,138709
2,180719,184397
2,202537,210269
2,218150,219076
//Storyboard Layer 0 (Background)
//Storyboard Layer 1 (Fail)
//Storyboard Layer 2 (Pass)
//Storyboard Layer 3 (Foreground)
//Storyboard Sound Samples

[TimingPoints]
21987,275.229357798165,4,2,1,60,1,0
23087,-142.857142857143,4,2,1,60,0,0
31895,-125,4,2,1,60,0,0
40702,-111.111111111111,4,2,2,60,0,0
41390,-111.111111111111,4,2,1,60,0,0
59418,-142.857142857143,4,2,1,60,0,0
65473,-333.333333333332,4,2,1,60,0,0
67124,-111.111111111111,4,2,1,70,0,0
70977,-200,4,2,1,70,0,0
71459,-200,4,2,1,70,0,0
71528,-100,4,2,2,70,0,1
71665,-100,4,2,1,70,0,1
79234,-90.9090909090909,4,2,1,70,0,1
80335,-100,4,2,1,70,0,1
88042,-90.9090909090909,4,2,1,70,0,1
89142,-100,4,2,1,70,0,0
97950,-76.9230769230769,4,2,1,80,0,1
102353,-166.666666666667,4,2,1,70,0,1
104486,-166.666666666667,4,2,1,5,0,1
104555,-125,4,2,1,60,0,0
112743,-333.333333333332,4,2,1,60,0,0
113294,-333.333333333332,4,2,1,5,0,0
113363,-111.111111111111,4,2,1,60,0,0
139234,-333.333333333332,4,2,1,60,0,0
139716,-333.333333333332,4,2,1,5,0,0
139785,-166.666666666666,4,2,1,60,0,0
142812,-142.857142857143,4,2,1,70,0,0
143087,-111.111111111111,4,2,1,70,0,0
146941,-200,4,2,1,70,0,0
147422,-200,4,2,1,70,0,0
147491,-100,4,2,2,70,0,1
147629,-100,4,2,1,70,0,1
155198,-90.9090909090909,4,2,1,70,0,1
156298,-100,4,2,1,70,0,1
164005,-90.9090909090909,4,2,1,70,0,1
165106,-100,4,2,1,70,0,0
173913,-76.9230769230769,4,2,1,80,0,1
178592,-166.666666666667,4,2,1,80,0,1
180450,-76.9230769230769,4,2,1,5,0,1
180519,-125,4,2,1,70,0,0
184922,-166.666666666667,4,2,1,40,0,0
193179,-200,4,2,1,40,0,0
194005,-166.666666666667,4,2,1,30,0,0
194831,-166.666666666667,4,2,1,40,0,0
195931,-166.666666666667,4,2,1,50,0,0
197032,-166.666666666667,4,2,1,60,0,0
198133,-200,4,2,1,60,0,0
199234,-166.666666666667,4,2,1,60,0,0
199509,-166.666666666667,4,2,1,20,0,0
199647,-166.666666666667,4,2,1,30,0,0
199785,-166.666666666667,4,2,1,40,0,0
199922,-166.666666666667,4,2,1,50,0,0
200060,-166.666666666667,4,2,1,60,0,0
200198,-166.666666666667,4,2,1,70,0,0
200335,-166.666666666667,4,2,1,60,0,0
202537,-166.666666666667,4,2,1,60,0,0
210794,-333.333333333332,4,2,1,60,0,0
211344,-200,4,2,1,60,0,0
217881,-200,4,2,1,5,0,0
219601,-100,4,2,1,70,0,0
220152,-100,4,2,2,70,0,1
220289,-100,4,2,1,70,0,1
227858,-90.9090909090909,4,2,1,70,0,1
228959,-100,4,2,1,70,0,1
236665,-90.9090909090909,4,2,1,70,0,1
237766,-100,4,2,1,70,0,0
246574,-76.9230769230769,4,2,1,80,0,1
250977,-166.666666666667,4,2,1,70,0,1
253110,-166.666666666667,4,2,1,5,0,1
253179,-111.111111111111,4,2,2,70,0,0

[Colours]
Combo1 : 184,124,184
Combo2 : 216,165,190
Combo3 : 255,156,108
Combo4 : 255,223,164
SliderBorder : 255,255,204

[HitObjects]
29,124,22537,5,4,0:0:0:0:
36,141,22812,1,4,0:0:0:0:
43,158,23087,6,0,P|50:203|56:237,1,66.4999979705811,4|0,0:0|0:0,0:0:0:0:
147,132,23363,2,0,P|141:174|134:206,1,66.4999979705811,4|0,0:0|0:0,0:0:0:0:
231,225,23638,2,0,P|154:238|121:310,1,132.999995941162,4|4,0:0|0:0,0:0:0:0:
158,359,24051,1,0,0:0:0:0:
358,257,24188,6,0,L|440:253,1,66.4999979705811,4|0,0:0|0:0,0:0:0:0:
476,135,24464,2,0,L|418:166,1,66.4999979705811,0|0,0:0|0:0,0:0:0:0:
305,332,24739,2,0,P|278:304|268:268,1,66.4999979705811,4|0,0:0|0:0,0:0:0:0:
339,122,25014,2,0,P|329:158|303:186,1,66.4999979705811,4|0,0:0|0:0,0:0:0:0:
180,120,25289,6,0,P|212:113|246:114,1,66.4999979705811,4|0,0:0|0:0,0:0:0:0:
365,33,25564,2,0,P|327:39|290:39,1,66.4999979705811,4|0,0:0|0:0,0:0:0:0:
135,39,25840,2,0,P|87:113|104:177,1,132.999995941162,4|4,0:0|0:0,0:0:0:0:
180,120,26253,1,0,0:0:0:0:
342,243,26390,6,0,P|312:245|255:240,1,66.4999979705811,4|0,0:0|0:0,0:0:0:0:
393,165,26665,2,0,P|430:162|468:165,1,66.4999979705811,0|0,0:0|0:0,0:0:0:0:
390,339,26941,2,0,P|352:341|314:339,1,66.4999979705811,4|0,0:0|0:0,0:0:0:0:
244,305,27216,1,4,0:0:0:0:
167,344,27353,1,0,0:0:0:0:
189,139,27491,6,0,L|187:214,1,66.4999979705811,4|0,0:0|0:0,0:0:0:0:
272,103,27766,2,0,L|270:178,1,66.4999979705811,4|0,0:0|0:0,0:0:0:0:
383,74,28042,2,0,B|352:111|352:111|352:215,1,132.999995941162,4|4,0:0|0:0,0:0:0:0:
402,265,28454,1,0,0:0:0:0:
134,264,28592,6,0,P|153:232|186:210,1,66.4999979705811,4|0,0:0|0:0,0:0:0:0:
96,350,28867,2,0,P|64:325|47:294,1,66.4999979705811,0|0,0:0|0:0,0:0:0:0:
220,298,29142,2,0,P|264:292|310:292,1,66.4999979705811,4|0,0:0|0:0,0:0:0:0:
374,213,29418,2,0,P|336:211|298:206,1,66.4999979705811,4|0,0:0|0:0,0:0:0:0:
413,299,29693,6,0,P|463:239|455:166,1,132.999995941162,4|4,0:0|0:0,0:0:0:0:
374,213,30106,1,4,0:0:0:0:
302,165,30243,2,0,P|294:134|296:80,1,66.4999979705811,0|4,0:0|0:0,0:0:0:0:
352,35,30519,1,0,0:0:0:0:
408,100,30656,1,4,0:0:0:0:
212,163,30794,6,0,P|177:162|136:165,1,66.4999979705811,0|0,0:0|0:0,0:0:0:0:
59,170,31069,1,0,0:0:0:0:
59,170,31207,1,0,0:0:0:0:
244,251,31344,2,0,P|282:226|299:190,1,66.4999979705811,4|0,0:0|0:0,0:0:0:0:
212,163,31620,1,4,0:0:0:0:
212,163,31758,1,0,0:0:0:0:
30,103,31895,6,0,P|36:147|43:192,1,76,2|0,0:0|0:0,0:0:0:0:
148,229,32170,2,0,P|140:273|135:318,1,76,2|0,0:0|0:0,0:0:0:0:
6,72,32445,2,0,P|15:148|30:241,1,152,2|2,0:0|0:0,0:0:0:0:
50,334,32858,1,0,0:0:0:0:
227,211,32996,6,0,P|282:202|319:210,1,76,2|0,0:0|0:0,0:0:0:0:
204,288,33271,2,0,P|161:258|146:213,1,76,2|0,0:0|0:0,0:0:0:0:
313,129,33546,2,0,P|304:173|300:217,1,76,2|0,0:0|0:0,0:0:0:0:
182,46,33821,2,0,P|189:83|194:120,1,76,2|0,0:0|0:0,0:0:0:0:
129,303,34097,6,0,P|172:293|212:286,1,76,2|0,0:0|0:0,0:0:0:0:
227,211,34372,2,0,P|271:224|307:238,1,76,2|0,0:0|0:0,0:0:0:0:
379,362,34647,2,0,P|376:291|378:192,1,152,2|2,0:0|0:0,0:0:0:0:
374,95,35060,1,0,0:0:0:0:
227,211,35198,6,0,P|180:186|158:152,1,76,2|0,0:0|0:0,0:0:0:0:
249,114,35473,1,2,0:0:0:0:
249,114,35610,1,0,0:0:0:0:
261,357,35748,2,0,P|282:308|281:264,1,76,2|0,0:0|0:0,0:0:0:0:
183,197,36023,1,2,0:0:0:0:
183,197,36161,1,0,0:0:0:0:
38,294,36298,6,0,P|92:299|136:278,1,76,2|0,0:0|0:0,0:0:0:0:
186,361,36574,2,0,P|227:352|269:359,1,76,2|0,0:0|0:0,0:0:0:0:
415,346,36848,2,0,P|353:325|317:232,1,152,2|2,0:0|0:0,0:0:0:0:
418,243,37262,1,0,0:0:0:0:
224,125,37399,6,0,P|232:176|234:209,1,76,2|0,0:0|0:0,0:0:0:0:
150,358,37675,2,0,P|142:320|139:273,1,76,2|0,0:0|0:0,0:0:0:0:
136,168,37950,1,2,0:0:0:0:
232,200,38087,1,0,0:0:0:0:
313,100,38225,2,0,P|293:60|245:36,1,76,2|0,0:0|0:0,0:0:0:0:
232,200,38500,6,0,P|322:190|402:188,1,152,2|2,0:0|0:0,0:0:0:0:
471,299,38913,2,0,P|426:294|386:293,1,76,0|2,0:0|0:0,0:0:0:0:
277,330,39188,1,4,0:0:0:0:
277,330,39257,1,4,0:0:0:0:
277,330,39326,1,6,0:0:0:0:
313,100,39464,1,0,0:0:0:0:
124,131,39601,6,0,P|142:183|149:227,1,76,10|8,0:3|0:3,0:0:0:0:
28,101,39876,1,10,0:3:0:0:
28,340,40014,2,0,P|113:362|168:298,1,152,4|4,0:3|0:3,0:0:0:0:
124,131,40426,1,6,0:3:0:0:
88,286,40563,1,4,0:3:0:0:
92,56,40701,5,14,0:0:0:0:
92,56,41390,5,2,0:0:0:0:
240,150,41528,1,8,0:0:0:0:
256,159,41803,6,0,P|239:200|231:248,1,85.4999973907472,6|0,0:1|0:0,0:0:0:0:
294,371,42078,1,8,0:0:0:0:
335,217,42216,1,0,0:0:0:0:
173,312,42353,2,0,P|131:304|91:287,1,85.4999973907472,2|2,0:0|0:0,0:0:0:0:
86,106,42629,1,8,0:0:0:0:
7,195,42766,1,0,0:0:0:0:
200,67,42904,6,0,B|253:101|253:101|356:69,1,170.999994781494,2|8,0:0|0:0,0:0:0:0:
335,217,43316,1,0,0:0:0:0:
447,82,43454,2,0,P|445:39|421:4,1,85.4999973907472,2|2,0:0|0:0,0:0:0:0:
394,149,43730,1,8,0:0:0:0:
264,18,43867,1,0,0:0:0:0:
275,289,44005,6,0,P|250:255|242:214,1,85.4999973907472,2|0,0:0|0:0,0:0:0:0:
257,381,44280,2,0,P|214:360|190:331,1,85.4999973907472,8|0,0:0|0:0,0:0:0:0:
353,133,44555,2,0,P|343:182|332:229,1,85.4999973907472,2|2,0:0|0:0,0:0:0:0:
175,149,44831,1,8,0:0:0:0:
190,331,44968,1,0,0:0:0:0:
0,193,45106,6,0,P|51:172|87:176,1,85.4999973907472,2|0,0:0|0:0,0:0:0:0:
261,113,45381,2,0,P|190:56|98:98,1,170.999994781494,8|2,0:0|0:0,0:0:0:0:
59,265,45794,1,2,0:0:0:0:
175,149,45931,2,0,P|184:203|194:237,1,85.4999973907472,8|0,0:0|0:0,0:0:0:0:
431,215,46207,6,0,P|391:198|342:189,1,85.4999973907472,6|0,0:0|0:0,0:0:0:0:
160,270,46482,2,0,P|199:253|241:244,1,85.4999973907472,8|0,0:0|0:0,0:0:0:0:
446,308,46757,2,0,P|485:290|513:258,1,85.4999973907472,2|2,0:0|0:0,0:0:0:0:
473,100,47032,1,8,0:0:0:0:
349,189,47170,1,0,0:0:0:0:
188,64,47308,6,0,P|177:123|174:150,1,85.4999973907472,2|2,0:0|0:0,0:0:0:0:
39,287,47583,2,0,P|33:244|25:202,1,85.4999973907472,8|0,0:0|0:0,0:0:0:0:
64,97,47858,1,2,0:0:0:0:
191,265,47996,1,2,0:0:0:0:
349,189,48133,2,0,P|337:145|321:98,1,85.4999973907472,8|0,0:0|0:0,0:0:0:0:
329,294,48409,6,0,P|385:290|455:196,1,170.999994781494,2|8,0:0|0:0,0:0:0:0:
325,107,48821,1,0,0:0:0:0:
214,274,48959,2,0,P|226:322|252:368,1,85.4999973907472,2|2,0:0|0:0,0:0:0:0:
269,190,49234,1,8,0:0:0:0:
56,71,49372,6,0,P|82:162|95:258,1,170.999994781494,0|2,0:0|0:0,0:0:0:0:
36,349,49785,1,8,0:0:0:0:
242,353,49922,2,0,P|289:339|349:331,1,85.4999973907472,8|6,0:0|0:0,0:0:0:0:
174,263,50198,1,2,0:0:0:0:
351,210,50335,2,0,P|304:196|244:188,1,85.4999973907472,12|0,0:0|0:0,0:0:0:0:
10,153,50610,6,0,P|74:163|151:62,1,170.999994781494,6|8,0:1|0:0,0:0:0:0:
232,21,51023,1,0,0:0:0:0:
268,189,51161,2,0,P|255:238|251:280,1,85.4999973907472,2|2,0:0|0:0,0:0:0:0:
443,166,51436,2,0,P|394:153|352:149,1,85.4999973907472,8|0,0:0|0:0,0:0:0:0:
128,177,51711,5,2,0:0:0:0:
254,47,51849,1,0,0:0:0:0:
251,272,51986,1,8,0:0:0:0:
147,95,52123,1,0,0:0:0:0:
104,275,52262,2,0,P|123:317|137:360,1,85.4999973907472,2|2,0:0|0:0,0:0:0:0:
359,149,52537,2,0,P|340:191|326:234,1,85.4999973907472,8|0,0:0|0:0,0:0:0:0:
0,139,52812,6,0,P|79:160|148:93,1,170.999994781494,2|8,0:0|0:0,0:0:0:0:
59,67,53226,1,0,0:0:0:0:
36,261,53363,2,0,P|56:303|71:347,1,85.4999973907472,2|2,0:0|0:0,0:0:0:0:
189,224,53638,2,0,P|203:183|221:145,1,85.4999973907472,8|0,0:0|0:0,0:0:0:0:
427,320,53913,5,2,0:0:0:0:
359,149,54051,1,0,0:0:0:0:
216,315,54188,2,0,P|149:308|119:287,1,85.4999973907472,8|0,0:0|0:0,0:0:0:0:
221,145,54464,1,2,0:0:0:0:
303,246,54601,1,2,0:0:0:0:
350,64,54739,2,0,P|359:120|361:168,1,85.4999973907472,8|0,0:0|0:0,0:0:0:0:
216,315,55014,6,0,P|179:281|157:236,1,85.4999973907472,6|0,0:0|0:0,0:0:0:0:
190,82,55289,2,0,P|179:131|150:173,1,85.4999973907472,8|0,0:0|0:0,0:0:0:0:
2,215,55564,2,0,P|49:200|101:204,1,85.4999973907472,2|2,0:0|0:0,0:0:0:0:
216,315,55840,1,8,0:0:0:0:
297,158,55977,1,0,0:0:0:0:
386,352,56115,6,0,P|466:364|509:268,1,170.999994781494,2|8,0:0|0:0,0:0:0:0:
421,126,56528,1,0,0:0:0:0:
303,246,56665,1,2,0:0:0:0:
240,67,56803,1,2,0:0:0:0:
165,182,56941,2,0,P|208:177|263:176,1,85.4999973907472,8|0,0:0|0:0,0:0:0:0:
95,249,57216,6,0,P|68:187|86:138,1,85.4999973907472,2|0,0:0|0:0,0:0:0:0:
152,92,57491,1,8,0:0:0:0:
219,335,57629,2,0,P|143:337|41:343,1,170.999994781494,12|2,0:1|0:0,0:0:0:0:
69,171,58042,1,12,0:1:0:0:
176,259,58179,1,0,0:0:0:0:
281,119,58317,6,0,P|325:110|365:107,1,85.4999973907472,10|8,0:3|0:3,0:0:0:0:
318,252,58592,1,4,0:3:0:0:
200,143,58730,1,4,0:3:0:0:
220,331,58867,1,6,0:0:0:0:
248,207,59005,1,0,0:0:0:0:
312,361,59142,1,6,0:0:0:0:
176,259,59280,1,0,0:0:0:0:
356,42,59418,6,0,P|363:84|366:111,1,66.4999979705811,6|0,0:1|0:0,0:0:0:0:
274,100,59693,2,0,P|267:142|264:169,1,66.4999979705811,2|0,0:0|0:0,0:0:0:0:
174,165,59968,2,0,P|181:207|184:234,1,66.4999979705811,2|0,0:0|0:0,0:0:0:0:
89,128,60243,1,2,0:0:0:0:
89,128,60381,1,0,0:0:0:0:
282,239,60519,6,0,P|328:233|349:229,1,66.4999979705811,6|0,0:0|0:0,0:0:0:0:
271,160,60794,1,2,0:0:0:0:
271,160,60931,1,0,0:0:0:0:
172,229,61069,2,0,P|176:261|183:296,1,66.4999979705811,2|0,0:0|0:0,0:0:0:0:
282,239,61344,1,2,0:0:0:0:
282,239,61481,1,0,0:0:0:0:
380,321,61620,6,0,P|423:318|447:317,1,66.4999979705811,6|0,0:0|0:0,0:0:0:0:
309,376,61895,1,2,0:0:0:0:
182,294,62032,2,0,P|149:293|116:299,1,66.4999979705811,0|2,0:0|0:0,0:0:0:0:
42,199,62308,2,0,P|75:200|108:194,1,66.4999979705811,0|2,0:0|0:0,0:0:0:0:
24,297,62583,1,0,0:0:0:0:
164,136,62720,6,0,P|187:182|186:210,1,66.4999979705811,6|0,0:0|0:0,0:0:0:0:
70,120,62996,1,2,0:0:0:0:
70,120,63133,1,0,0:0:0:0:
151,30,63271,2,0,P|189:26|230:27,1,66.4999979705811,2|8,0:0|0:0,0:0:0:0:
280,159,63546,1,10,0:0:0:0:
280,159,63683,1,0,0:0:0:0:
134,22,63821,5,4,0:0:0:0:
209,101,64922,5,4,0:0:0:0:
284,180,66023,6,0,P|372:123|434:142,1,170.999994781494,4|0,0:0|0:0,0:0:0:0:
384,355,66986,1,0,0:0:0:0:
384,355,67055,1,0,0:0:0:0:
384,355,67124,6,0,P|304:329|209:316,1,170.999994781494,12|2,0:1|0:0,0:0:0:0:
18,187,67537,2,0,P|73:221|143:130,1,170.999994781494,12|2,0:1|0:0,0:0:0:0:
310,37,67950,6,0,P|293:116|281:220,1,170.999994781494,12|2,0:1|0:0,0:0:0:0:
491,89,68363,2,0,P|485:46|476:4,1,85.4999973907472,8|2,0:3|0:0,0:0:0:0:
370,139,68638,1,2,0:0:0:0:
422,332,68775,2,0,P|468:326|522:324,1,85.4999973907472,8|2,0:0|0:0,0:0:0:0:
327,216,69051,2,0,P|284:210|241:208,1,85.4999973907472,8|2,0:0|0:0,0:0:0:0:
29,320,69326,5,6,0:1:0:0:
147,109,69463,1,8,0:3:0:0:
151,101,69532,1,8,0:3:0:0:
155,93,69601,1,8,0:3:0:0:
176,282,69739,1,4,0:3:0:0:
5,49,69876,1,4,0:3:0:0:
86,274,70014,1,4,0:3:0:0:
294,111,70152,1,2,0:0:0:0:
92,170,70289,1,2,0:0:0:0:
373,170,70427,5,10,0:0:0:0:
88,31,70564,1,10,0:0:0:0:
451,340,70977,6,0,P|403:288|306:315,1,166.25,4|0,0:0|0:0,0:0:0:0:
234,374,71528,6,0,P|216:222|210:181,1,190,14|8,0:0|0:0,0:0:0:0:
140,21,71941,1,0,0:0:0:0:
25,225,72078,2,0,P|81:210|124:201,1,95,2|2,0:0|0:0,0:0:0:0:
2,69,72353,1,12,0:0:0:0:
120,306,72491,1,0,0:0:0:0:
399,187,72629,6,0,P|346:142|227:199,1,190,6|8,0:0|0:0,0:0:0:0:
381,319,73042,2,0,P|445:304|493:300,1,95,4|2,0:0|0:0,0:0:0:0:
315,230,73317,1,6,0:0:0:0:
172,347,73454,2,0,P|156:275|153:235,1,95,8|0,0:0|0:0,0:0:0:0:
293,64,73730,6,0,P|281:151|271:273,1,190,6|8,0:0|0:0,0:0:0:0:
400,81,74142,1,0,0:0:0:0:
467,295,74280,2,0,P|462:247|456:200,1,95,2|2,0:0|0:0,0:0:0:0:
322,28,74555,2,0,P|315:75|311:122,1,95,12|0,0:0|0:0,0:0:0:0:
262,333,74831,6,0,P|214:355|144:330,1,95,6|0,0:0|0:0,0:0:0:0:
102,189,75106,1,8,0:0:0:0:
318,217,75243,2,0,P|314:182|309:102,1,95,4|2,0:0|0:0,0:0:0:0:
459,349,75519,2,0,P|463:314|468:234,1,95,6|8,0:0|0:0,0:0:0:0:
196,374,75794,6,0,P|100:371|-10:374,1,190,6|2,0:0|0:0,0:0:0:0:
148,222,76207,2,0,P|196:222|243:222,1,95,12|0,0:0|0:0,0:0:0:0:
117,347,76482,1,2,0:0:0:0:
163,101,76620,1,2,0:0:0:0:
290,304,76757,2,0,P|326:266|336:223,1,95,12|0,0:0|0:0,0:0:0:0:
205,35,77032,6,0,P|224:127|242:221,1,190,6|8,0:0|0:0,0:0:0:0:
324,74,77445,1,0,0:0:0:0:
148,222,77583,2,0,P|91:214|31:212,1,95,6|2,0:0|0:0,0:0:0:0:
153,38,77858,2,0,P|210:30|270:28,1,95,8|2,0:0|0:0,0:0:0:0:
335,225,78133,5,6,0:0:0:0:
149,329,78271,1,8,0:3:0:0:
152,337,78340,1,8,0:3:0:0:
156,346,78409,1,8,0:0:0:0:
230,124,78546,1,0,0:0:0:0:
282,358,78684,1,6,0:0:0:0:
381,168,78821,1,2,0:0:0:0:
198,234,78959,1,12,0:1:0:0:
430,384,79097,1,8,0:3:0:0:
434,171,79234,6,0,L|381:168,1,52.2500015945435,2|0,0:0|0:0,0:0:0:0:
198,234,79372,2,0,L|250:236,1,52.2500015945435,8|8,0:3|0:3,0:0:0:0:
435,288,79509,2,0,L|382:285,1,52.2500015945435,6|0,0:3|0:3,0:0:0:0:
199,351,79647,2,0,L|251:353,1,52.2500015945435,2|0,0:0|0:0,0:0:0:0:
431,384,79785,5,10,0:0:0:0:
163,217,79922,1,10,0:0:0:0:
153,242,80198,1,0,0:0:0:0:
153,242,80266,1,0,0:0:0:0:
153,242,80335,6,0,P|105:239|58:234,1,95,6|0,0:1|0:0,0:0:0:0:
140,98,80610,1,8,0:0:0:0:
193,334,80748,1,0,0:0:0:0:
389,188,80886,2,0,P|387:235|382:283,1,95,2|2,0:0|0:0,0:0:0:0:
285,107,81161,1,12,0:0:0:0:
236,233,81298,1,0,0:0:0:0:
469,192,81436,6,0,P|453:138|395:109,1,95,6|2,0:0|0:0,0:0:0:0:
383,283,81711,1,8,0:0:0:0:
252,139,81849,2,0,P|242:184|236:232,1,95,6|0,0:0|0:0,0:0:0:0:
423,115,82124,2,0,P|417:67|407:21,1,95,6|8,0:0|0:0,0:0:0:0:
324,173,82399,1,0,0:0:0:0:
62,84,82537,6,0,P|144:107|218:37,1,190,6|8,0:0|0:0,0:0:0:0:
319,88,82950,1,0,0:0:0:0:
161,248,83087,1,2,0:0:0:0:
127,15,83225,1,2,0:0:0:0:
335,205,83363,2,0,P|381:200|429:198,1,95,12|0,0:0|0:0,0:0:0:0:
246,350,83638,6,0,P|194:349|151:343,1,95,6|0,0:0|0:0,0:0:0:0:
23,281,83913,1,8,0:0:0:0:
198,191,84051,2,0,P|146:192|103:198,1,95,6|0,0:0|0:0,0:0:0:0:
311,73,84326,2,0,P|259:72|216:66,1,95,6|8,0:0|0:0,0:0:0:0:
364,162,84601,6,0,P|411:103|384:-1,1,190,4|0,0:0|0:0,0:0:0:0:
198,191,85014,2,0,P|211:243|231:297,1,95,12|0,0:0|0:0,0:0:0:0:
243,72,85289,1,2,0:0:0:0:
103,197,85427,1,2,0:0:0:0:
317,258,85564,2,0,P|366:250|420:249,1,95,12|0,0:0|0:0,0:0:0:0:
256,367,85840,6,0,P|204:377|153:376,1,95,6|2,0:0|0:0,0:0:0:0:
103,198,86115,1,8,0:0:0:0:
3,342,86253,1,0,0:0:0:0:
223,264,86390,2,0,P|278:259|349:260,1,95,6|2,0:0|0:0,0:0:0:0:
431,104,86665,2,0,P|372:91|323:115,1,95,8|0,0:0|0:0,0:0:0:0:
286,374,86941,5,6,0:0:0:0:
384,184,87078,1,2,0:0:0:0:
381,193,87147,1,0,0:0:0:0:
378,202,87216,1,12,0:1:0:0:
222,263,87353,1,0,0:0:0:0:
426,379,87491,1,6,0:0:0:0:
294,123,87629,1,2,0:0:0:0:
210,344,87766,1,12,0:1:0:0:
479,262,87904,1,8,0:3:0:0:
374,82,88042,6,0,L|370:134,1,52.2500015945435,10|0,0:3|0:0,0:0:0:0:
248,191,88179,2,0,L|251:243,1,52.2500015945435,8|0,0:3|0:0,0:0:0:0:
381,224,88317,2,0,L|377:276,1,52.2500015945435,6|0,0:3|0:0,0:0:0:0:
252,332,88454,2,0,L|255:384,1,52.2500015945435,4|0,0:3|0:0,0:0:0:0:
459,344,88592,5,10,0:0:0:0:
478,304,88660,1,8,0:0:0:0:
479,262,88729,1,8,0:0:0:0:
463,222,88798,1,8,0:0:0:0:
429,194,88867,1,14,0:0:0:0:
413,155,88936,1,8,0:0:0:0:
414,112,89005,1,12,0:0:0:0:
434,73,89073,1,8,0:0:0:0:
489,139,89142,6,0,L|356:141,1,95,6|0,0:1|0:0,0:0:0:0:
251,243,89418,1,8,0:0:0:0:
285,95,89555,1,0,0:0:0:0:
321,325,89693,2,0,P|288:321|207:321,1,95,2|2,0:0|0:0,0:0:0:0:
41,245,89968,2,0,P|74:241|155:241,1,95,8|0,0:0|0:0,0:0:0:0:
34,365,90243,5,2,0:0:0:0:
92,148,90381,1,2,0:0:0:0:
251,243,90519,2,0,P|255:295|262:342,1,95,8|0,0:0|0:0,0:0:0:0:
494,238,90794,2,0,P|443:254|362:161,1,190,2|8,0:0|0:0,0:0:0:0:
476,115,91207,1,0,0:0:0:0:
355,344,91344,6,0,P|307:342|241:336,1,95,2|0,0:0|0:0,0:0:0:0:
176,198,91620,1,8,0:0:0:0:
91,350,91757,1,0,0:0:0:0:
188,208,91895,2,0,P|236:198|284:196,1,95,2|2,0:0|0:0,0:0:0:0:
122,94,92170,2,0,P|74:84|26:82,1,95,8|0,0:0|0:0,0:0:0:0:
92,246,92445,5,2,0:0:0:0:
198,52,92583,1,0,0:0:0:0:
291,293,92720,2,0,P|297:253|302:193,1,95,8|2,0:0|0:0,0:0:0:0:
198,297,92996,2,0,P|216:347|273:385,1,95,0|2,0:0|0:0,0:0:0:0:
324,170,93271,1,8,0:0:0:0:
392,316,93409,1,0,0:0:0:0:
122,94,93546,6,0,P|108:243|106:302,2,190,6|8|2,0:1|0:0|0:0,0:0:0:0:
219,223,94234,1,2,0:0:0:0:
405,121,94372,2,0,P|362:84|308:78,1,95,8|0,0:0|0:0,0:0:0:0:
408,286,94647,5,2,0:0:0:0:
423,12,94785,1,2,0:0:0:0:
324,170,94922,2,0,P|314:229|310:264,1,95,8|0,0:0|0:0,0:0:0:0:
135,187,95198,6,0,P|129:139|121:93,1,95,0|2,0:0|0:0,0:0:0:0:
0,307,95473,2,0,P|5:259|13:213,1,95,8|0,0:0|0:0,0:0:0:0:
125,365,95748,2,0,P|177:332|309:345,1,190,2|8,0:0|0:0,0:0:0:0:
361,230,96161,1,0,0:0:0:0:
454,354,96298,2,0,P|464:303|467:248,1,95,2|2,0:0|0:0,0:0:0:0:
344,96,96574,1,12,0:1:0:0:
296,280,96711,1,0,0:0:0:0:
145,140,96849,6,0,P|112:134|32:131,1,95,2|2,0:0|0:0,0:0:0:0:
134,285,97124,1,8,0:0:0:0:
216,53,97262,1,0,0:0:0:0:
297,281,97399,6,0,L|288:234,1,47.5,2|0,0:0|0:0,0:0:0:0:
344,96,97537,2,0,L|353:143,1,47.5,8|8,0:0|0:0,0:0:0:0:
420,275,97675,2,0,L|411:228,1,47.5,8|8,0:0|0:0,0:0:0:0:
467,90,97813,2,0,L|476:137,1,47.5,8|8,0:0|0:0,0:0:0:0:
263,26,97950,6,0,P|200:25|109:30,1,123.499994346619,6|0,0:1|0:0,0:0:0:0:
10,284,98225,2,0,P|76:278|164:280,1,123.499994346619,12|2,0:0|0:0,0:0:0:0:
273,138,98500,1,12,0:0:0:0:
329,354,98638,1,2,0:0:0:0:
400,62,98775,1,12,0:0:0:0:
452,315,98913,1,2,0:0:0:0:
206,190,99051,6,0,P|189:128|222:65,1,123.499994346619,12|2,0:0|0:0,0:0:0:0:
457,200,99326,2,0,P|474:262|441:325,1,123.499994346619,12|0,0:0|0:0,0:0:0:0:
319,71,99601,1,12,0:0:0:0:
226,276,99739,1,2,0:0:0:0:
139,29,99876,1,12,0:0:0:0:
349,192,100014,1,2,0:0:0:0:
47,348,100152,6,0,B|179:333,1,123.499994346619,6|0,0:1|0:0,0:0:0:0:
444,84,100427,2,0,B|312:69,1,123.499994346619,12|0,0:0|0:0,0:0:0:0:
226,277,100702,1,12,0:0:0:0:
131,97,100840,1,2,0:0:0:0:
192,367,100977,1,12,0:0:0:0:
349,192,101115,1,2,0:0:0:0:
53,115,101253,6,0,P|76:37|130:15,1,123.499994346619,6|0,0:1|0:0,0:0:0:0:
349,192,101528,2,0,P|337:263|332:327,1,123.499994346619,2|8,0:0|0:3,0:0:0:0:
460,143,101803,1,10,0:3:0:0:
226,277,101941,1,8,0:3:0:0:
226,277,102009,1,8,0:3:0:0:
226,277,102078,1,6,0:3:0:0:
342,68,102216,1,4,0:3:0:0:
375,384,102353,5,6,0:1:0:0:
223,277,102629,2,0,P|328:297|397:204,1,227.999993041992,4|0,0:0|0:0,0:0:0:0:
291,196,103454,5,10,0:0:0:0:
24,84,104005,2,0,P|52:179|73:281,1,199.499993911743,4|0,0:0|0:0,0:0:0:0:
82,297,104555,6,0,P|150:322|210:280,1,152,6|2,0:1|0:0,0:0:0:0:
164,70,105106,1,8,0:0:0:0:
302,108,105381,2,0,P|338:108|394:110,1,76,0|0,0:0|0:0,0:0:0:0:
288,187,105656,6,0,P|216:187|103:192,1,152,2|2,0:0|0:0,0:0:0:0:
350,275,106207,2,0,P|387:230|379:131,1,152,8|0,0:0|0:0,0:0:0:0:
319,74,106620,1,0,0:0:0:0:
319,74,106757,5,2,0:0:0:0:
228,357,107032,1,2,0:0:0:0:
149,94,107308,1,8,0:0:0:0:
101,262,107583,1,0,0:0:0:0:
309,84,107858,6,0,P|302:165|300:238,1,152,2|2,0:0|0:0,0:0:0:0:
157,352,108409,1,8,0:0:0:0:
202,275,108684,2,0,P|233:301|242:351,1,76,0|4,0:0|0:0,0:0:0:0:
241,341,108890,1,4,0:0:0:0:
239,348,108959,6,0,P|323:334|395:328,1,152,2|2,0:0|0:0,0:0:0:0:
203,127,109509,2,0,P|153:180|66:156,1,152,8|0,0:0|0:0,0:0:0:0:
402,22,110060,6,0,P|392:93|388:183,1,152,2|2,0:0|0:0,0:0:0:0:
415,244,110473,1,0,0:0:0:0:
414,243,110610,2,0,P|370:186|294:180,1,152,8|0,0:0|0:0,0:0:0:0:
20,328,111161,6,0,P|86:355|155:322,1,152,2|2,0:0|0:0,0:0:0:0:
226,199,111574,2,0,P|249:273|267:348,1,152,4|4,0:0|0:0,0:0:0:0:
148,210,111986,1,2,0:0:0:0:
83,261,112124,1,4,0:0:0:0:
362,106,112812,6,0,P|305:120|265:108,1,99.7499969558717,4|0,0:0|0:0,0:0:0:0:
208,46,113363,6,0,P|230:145|241:219,1,170.999994781494,6|8,0:1|0:0,0:0:0:0:
103,155,113775,1,2,0:0:0:0:
53,259,113913,2,0,P|60:301|71:343,1,85.4999973907472,0|2,0:0|0:0,0:0:0:0:
216,266,114188,2,0,P|223:223|233:182,1,85.4999973907472,8|0,0:0|0:0,0:0:0:0:
421,83,114464,6,0,P|428:131|428:183,1,85.4999973907472,2|0,0:0|0:0,0:0:0:0:
404,324,114739,1,8,0:0:0:0:
499,243,114876,1,0,0:0:0:0:
318,176,115014,2,0,P|275:177|233:183,1,85.4999973907472,2|2,0:0|0:0,0:0:0:0:
84,280,115289,2,0,P|126:273|168:272,1,85.4999973907472,8|0,0:0|0:0,0:0:0:0:
368,251,115564,6,0,P|407:203|362:98,1,170.999994781494,2|8,0:0|0:0,0:0:0:0:
275,59,115977,1,0,0:0:0:0:
175,225,116115,2,0,P|177:182|183:139,1,85.4999973907472,0|2,0:0|0:0,0:0:0:0:
275,59,116390,2,0,P|281:118|283:144,1,85.4999973907472,8|0,0:0|0:0,0:0:0:0:
356,329,116665,6,0,P|398:323|433:298,1,85.4999973907472,2|0,0:0|0:0,0:0:0:0:
268,294,116941,1,8,0:0:0:0:
268,294,117078,1,0,0:0:0:0:
369,139,117216,2,0,P|361:195|359:224,1,85.4999973907472,2|2,0:0|0:0,0:0:0:0:
283,144,117491,1,8,0:0:0:0:
283,144,117630,1,0,0:0:0:0:
107,115,117766,6,0,P|75:88|61:49,1,85.4999973907472,6|0,0:0|0:0,0:0:0:0:
170,187,118042,2,0,P|160:228|132:260,1,85.4999973907472,8|0,0:0|0:0,0:0:0:0:
203,100,118317,2,0,P|230:67|270:52,1,85.4999973907472,2|2,0:0|0:0,0:0:0:0:
317,239,118592,1,8,0:0:0:0:
384,113,118730,1,0,0:0:0:0:
446,324,118867,6,0,P|449:281|447:222,1,85.4999973907472,2|2,0:0|0:0,0:0:0:0:
348,29,119142,2,0,P|314:55|295:93,1,85.4999973907472,8|0,0:0|0:0,0:0:0:0:
384,113,119418,1,2,0:0:0:0:
210,12,119555,1,2,0:0:0:0:
103,109,119693,2,0,P|112:157|117:197,1,85.4999973907472,8|0,0:0|0:0,0:0:0:0:
14,266,119968,6,0,P|70:215|171:250,1,170.999994781494,2|8,0:0|0:0,0:0:0:0:
226,329,120381,1,0,0:0:0:0:
362,239,120519,2,0,P|404:238|462:233,1,85.4999973907472,2|2,0:0|0:0,0:0:0:0:
383,146,120794,1,8,0:0:0:0:
315,355,120931,1,0,0:0:0:0:
171,196,121069,6,0,L|85:190,1,85.4999973907472,2|0,0:0|0:0,0:0:0:0:
37,60,121344,1,4,0:0:0:0:
72,200,121482,1,8,0:0:0:0:
187,103,121620,2,0,P|237:98|287:97,1,85.4999973907472,4|2,0:0|0:0,0:0:0:0:
344,242,121895,2,0,P|295:237|226:235,1,85.4999973907472,8|0,0:0|0:0,0:0:0:0:
426,79,122170,6,0,P|435:163|436:249,1,170.999994781494,6|8,0:1|0:0,0:0:0:0:
346,347,122583,1,0,0:0:0:0:
273,176,122720,2,0,P|268:221|267:267,1,85.4999973907472,2|2,0:0|0:0,0:0:0:0:
135,374,122996,2,0,P|135:331|140:288,1,85.4999973907472,8|0,0:0|0:0,0:0:0:0:
293,100,123271,6,0,P|254:145|143:117,1,170.999994781494,2|8,0:0|0:0,0:0:0:0:
71,41,123684,1,0,0:0:0:0:
15,217,123821,2,0,P|66:207|107:204,1,85.4999973907472,2|2,0:0|0:0,0:0:0:0:
217,293,124097,2,0,P|261:289|301:280,1,85.4999973907472,8|0,0:0|0:0,0:0:0:0:
412,119,124372,6,0,P|417:164|419:204,1,85.4999973907472,2|0,0:0|0:0,0:0:0:0:
318,74,124647,2,0,P|313:116|310:159,1,85.4999973907472,8|0,0:0|0:0,0:0:0:0:
215,25,124922,2,0,P|220:70|222:110,1,85.4999973907472,2|2,0:0|0:0,0:0:0:0:
217,293,125198,1,8,0:0:0:0:
110,158,125335,1,0,0:0:0:0:
18,271,125473,6,0,P|24:317|36:363,1,85.4999973907472,2|2,0:0|0:0,0:0:0:0:
217,293,125749,2,0,P|183:245|128:230,1,85.4999973907472,8|0,0:0|0:0,0:0:0:0:
126,324,126023,1,2,0:0:0:0:
298,199,126161,1,2,0:0:0:0:
402,327,126298,2,0,P|455:322|497:315,1,85.4999973907472,8|0,0:0|0:0,0:0:0:0:
382,189,126574,6,0,P|339:192|297:199,1,85.4999973907472,6|0,0:0|0:0,0:0:0:0:
176,290,126849,2,0,P|218:293|260:300,1,85.4999973907472,8|0,0:0|0:0,0:0:0:0:
213,104,127124,2,0,P|219:146|223:188,1,85.4999973907472,2|2,0:0|0:0,0:0:0:0:
120,357,127399,2,0,P|91:308|96:258,1,85.4999973907472,8|0,0:0|0:0,0:0:0:0:
223,188,127675,6,0,P|276:161|295:113,1,85.4999973907472,2|2,0:0|0:0,0:0:0:0:
136,137,127950,1,8,0:0:0:0:
136,137,128087,1,0,0:0:0:0:
176,290,128225,2,0,P|222:288|267:282,1,85.4999973907472,2|2,0:0|0:0,0:0:0:0:
394,205,128500,1,8,0:0:0:0:
369,359,128638,1,0,0:0:0:0:
308,173,128775,6,0,P|353:122|459:137,1,170.999994781494,2|8,0:0|0:0,0:0:0:0:
335,282,129188,1,8,0:0:0:0:
223,215,129326,2,0,P|217:167|208:130,1,85.4999973907472,4|2,0:0|0:0,0:0:0:0:
57,233,129601,2,0,P|47:274|42:317,1,85.4999973907472,12|0,0:1|0:0,0:0:0:0:
152,330,129876,5,8,0:3:0:0:
127,109,130014,1,0,0:0:0:0:
2,299,130152,1,4,0:3:0:0:
223,215,130289,1,0,0:0:0:0:
20,148,130427,2,0,P|7:106|5:60,1,85.4999973907472,2|0,0:0|0:0,0:0:0:0:
228,162,130702,2,0,P|225:204|212:245,1,85.4999973907472,2|0,0:0|0:0,0:0:0:0:
2,299,130977,5,6,0:1:0:0:
64,98,135381,5,4,0:1:0:0:
405,295,139234,6,0,P|374:277|306:281,1,99.7499969558717,4|0,0:0|0:0,0:0:0:0:
276,337,139785,6,0,P|272:278|262:213,1,113.999996520996,6|0,0:1|0:0,0:0:0:0:
59,96,140335,2,0,P|50:152|47:209,1,113.999996520996,4|0,0:0|0:0,0:0:0:0:
195,48,140886,5,4,0:0:0:0:
174,178,141161,1,2,0:0:0:0:
412,101,141436,2,0,P|355:130|302:99,1,113.999996520996,4|2,0:0|0:0,0:0:0:0:
244,59,141849,1,0,0:0:0:0:
159,65,141986,6,0,P|165:134|176:189,1,113.999996520996,6|0,0:0|0:0,0:0:0:0:
321,220,142399,2,0,P|257:248|225:295,1,113.999996520996,4|2,0:0|0:0,0:0:0:0:
230,281,142743,1,2,0:0:0:0:
230,281,142812,1,12,0:1:0:0:
481,249,142950,1,0,0:0:0:0:
335,338,143087,6,0,P|261:340|164:346,1,170.999994781494,12|2,0:1|0:0,0:0:0:0:
2,133,143500,2,0,P|25:88|155:84,1,170.999994781494,12|2,0:1|0:0,0:0:0:0:
321,220,143913,2,0,P|323:172|327:126,1,85.4999973907472,12|0,0:1|0:0,0:0:0:0:
166,223,144188,1,2,0:0:0:0:
365,367,144326,2,0,P|408:363|450:360,1,85.4999973907472,8|0,0:3|0:0,0:0:0:0:
451,176,144601,1,2,0:0:0:0:
239,258,144739,6,0,P|193:225|140:228,1,85.4999973907472,12|0,0:0|0:0,0:0:0:0:
5,100,145014,2,0,P|61:95|100:59,1,85.4999973907472,12|0,0:0|0:0,0:0:0:0:
45,240,145289,5,2,0:0:0:0:
184,80,145427,1,8,0:3:0:0:
187,72,145496,1,2,0:0:0:0:
190,64,145564,1,8,0:3:0:0:
239,258,145702,1,4,0:3:0:0:
78,84,145840,1,4,0:3:0:0:
146,277,145977,1,4,0:3:0:0:
279,108,146115,1,2,0:0:0:0:
45,240,146253,1,2,0:0:0:0:
133,16,146390,5,10,0:0:0:0:
244,358,146528,1,10,0:0:0:0:
19,358,146941,6,0,P|7:268|-1:186,1,166.25,4|0,0:0|0:0,0:0:0:0:
45,88,147491,6,0,P|94:148|205:118,1,190,14|8,0:0|0:0,0:0:0:0:
280,25,147904,1,0,0:0:0:0:
333,183,148042,2,0,P|314:236|301:302,1,95,2|2,0:0|0:0,0:0:0:0:
440,288,148317,1,12,0:0:0:0:
383,92,148454,1,0,0:0:0:0:
356,348,148592,6,0,P|297:312|171:320,1,190,6|8,0:0|0:0,0:0:0:0:
29,374,149005,2,0,P|12:327|3:277,1,95,6|0,0:0|0:0,0:0:0:0:
93,139,149280,1,6,0:0:0:0:
239,211,149418,2,0,P|285:201|330:185,1,95,8|0,0:0|0:0,0:0:0:0:
174,68,149693,6,0,P|75:36|2:84,1,190,6|8,0:0|0:0,0:0:0:0:
139,216,150106,1,0,0:0:0:0:
15,276,150243,2,0,P|10:321|7:377,1,95,2|2,0:0|0:0,0:0:0:0:
239,211,150519,2,0,P|236:163|231:116,1,95,12|0,0:0|0:0,0:0:0:0:
114,340,150794,6,0,P|161:334|208:333,1,95,6|0,0:0|0:0,0:0:0:0:
346,249,151069,1,8,0:0:0:0:
146,108,151207,2,0,P|98:107|51:110,1,95,6|0,0:0|0:0,0:0:0:0:
296,36,151482,2,0,P|248:30|201:29,1,95,6|8,0:0|0:0,0:0:0:0:
312,168,151757,6,0,P|384:133|426:23,1,190,4|0,0:0|0:0,0:0:0:0:
156,115,152170,2,0,P|169:165|182:206,1,95,12|0,0:0|0:0,0:0:0:0:
308,253,152445,1,2,0:0:0:0:
244,38,152583,1,2,0:0:0:0:
106,230,152720,2,0,P|137:274|186:285,1,95,12|0,0:0|0:0,0:0:0:0:
355,158,152996,6,0,P|335:257|327:359,1,190,6|8,0:0|0:0,0:0:0:0:
453,238,153409,1,0,0:0:0:0:
251,113,153546,2,0,P|210:111|152:114,1,95,4|2,0:0|0:0,0:0:0:0:
116,292,153821,1,8,0:0:0:0:
27,158,153959,1,0,0:0:0:0:
44,362,154097,5,4,0:3:0:0:
156,113,154234,1,8,0:3:0:0:
159,121,154303,1,8,0:3:0:0:
163,130,154372,1,8,0:0:0:0:
116,292,154509,1,0,0:0:0:0:
73,79,154647,1,6,0:0:0:0:
0,255,154785,1,2,0:0:0:0:
238,135,154922,1,12,0:1:0:0:
149,381,155060,1,2,0:0:0:0:
238,135,155198,6,0,L|232:75,1,52.2500015945435,8|0,0:3|0:0,0:0:0:0:
401,11,155335,2,0,L|395:62,1,52.2500015945435,8|0,0:3|0:0,0:0:0:0:
336,239,155473,2,0,L|330:179,1,52.2500015945435,4|0,0:3|0:0,0:0:0:0:
499,115,155610,2,0,L|493:166,1,52.2500015945435,4|0,0:3|0:0,0:0:0:0:
353,345,155748,5,10,0:0:0:0:
300,12,155886,1,10,0:0:0:0:
504,261,156161,1,0,0:0:0:0:
504,261,156230,1,0,0:0:0:0:
504,261,156298,6,0,P|499:203|491:155,1,95,6|0,0:1|0:0,0:0:0:0:
402,11,156574,1,8,0:0:0:0:
275,142,156711,1,4,0:0:0:0:
95,56,156849,2,0,P|146:48|196:44,1,95,0|2,0:0|0:0,0:0:0:0:
143,242,157124,1,12,0:0:0:0:
40,138,157262,1,0,0:0:0:0:
310,231,157399,6,0,P|368:157|331:68,1,190,6|12,0:0|0:0,0:0:0:0:
143,242,157812,2,0,P|162:289|181:356,1,95,6|0,0:0|0:0,0:0:0:0:
15,233,158087,1,6,0:0:0:0:
182,160,158225,2,0,P|228:149|275:143,1,95,8|0,0:0|2:0,2:0:0:0:
488,275,158500,6,0,P|441:264|394:258,1,95,6|0,0:0|0:0,2:0:0:0:
200,371,158776,1,8,0:0:0:0:
310,231,158913,1,0,0:0:0:0:
403,363,159051,2,0,P|448:348|494:338,1,95,2|2,0:0|0:0,2:0:0:0:
286,313,159326,2,0,P|240:298|194:288,1,95,12|0,0:0|0:0,2:0:0:0:
0,186,159601,6,0,P|89:211|146:103,1,190,6|8,0:0|0:0,0:0:0:0:
278,61,160014,2,0,P|234:50|179:41,1,95,6|0,0:0|0:0,0:0:0:0:
367,150,160289,2,0,P|320:157|274:169,1,95,6|8,0:0|0:0,0:0:0:0:
2,336,160564,6,0,P|92:323|196:320,1,190,4|0,0:0|0:0,0:0:0:0:
333,368,160977,2,0,P|356:327|353:279,1,95,12|0,0:0|0:0,0:0:0:0:
249,146,161253,1,0,0:0:0:0:
190,319,161390,1,2,0:0:0:0:
318,208,161528,2,0,P|341:167|338:119,1,95,12|0,0:0|0:0,0:0:0:0:
92,285,161803,6,0,P|105:341|126:401,1,95,6|0,0:0|0:0,0:0:0:0:
167,212,162078,1,8,0:0:0:0:
2,336,162216,1,0,0:0:0:0:
264,370,162353,2,0,P|350:362|364:362,1,95,6|2,0:0|0:0,0:0:0:0:
468,210,162629,2,0,P|382:202|368:202,1,95,8|2,0:0|0:0,0:0:0:0:
167,211,162904,5,6,0:0:0:0:
267,361,163042,1,0,0:0:0:0:
271,352,163110,1,0,0:0:0:0:
274,343,163179,1,12,0:1:0:0:
348,134,163317,1,0,0:0:0:0:
253,260,163454,1,2,0:0:0:0:
250,41,163592,1,2,0:0:0:0:
343,294,163730,1,12,0:1:0:0:
180,111,163867,1,8,0:3:0:0:
177,371,164005,6,0,L|187:305,1,52.2500015945435,2|0,0:3|0:0,0:0:0:0:
26,221,164142,2,0,L|34:273,1,52.2500015945435,8|8,0:3|0:3,0:0:0:0:
174,163,164280,2,0,L|181:111,1,52.2500015945435,10|0,0:3|0:0,0:0:0:0:
23,13,164417,2,0,L|31:65,1,52.2500015945435,8|0,0:3|0:0,0:0:0:0:
108,226,164555,5,10,0:0:0:0:
148,245,164623,1,8,0:0:0:0:
190,246,164692,1,8,0:0:0:0:
230,230,164761,1,8,0:0:0:0:
258,196,164830,1,8,0:0:0:0:
297,180,164899,1,8,0:0:0:0:
340,181,164968,1,8,0:0:0:0:
379,201,165036,1,8,0:0:0:0:
313,256,165105,6,0,L|311:151,1,104.500003189087,6|0,0:1|0:0,0:0:0:0:
240,3,165381,1,8,0:0:0:0:
174,163,165519,1,0,0:0:0:0:
387,99,165656,2,0,P|357:69|300:61,1,95,2|2,0:0|0:0,0:0:0:0:
193,244,165931,2,0,P|205:305|217:348,1,95,8|0,0:0|0:0,0:0:0:0:
379,201,166207,5,2,0:0:0:0:
283,372,166344,1,2,0:0:0:0:
159,138,166482,2,0,P|107:131|41:143,1,95,8|0,0:0|0:0,0:0:0:0:
0,351,166757,2,0,P|52:301|190:344,1,190,2|8,0:0|0:0,0:0:0:0:
283,372,167170,1,0,0:0:0:0:
431,242,167308,6,0,P|431:183|425:133,1,95,2|2,0:0|0:0,0:0:0:0:
327,78,167583,1,8,0:0:0:0:
272,251,167720,1,0,0:0:0:0:
406,62,167858,2,0,P|366:8|315:-1,1,95,2|2,0:0|0:0,0:0:0:0:
172,123,168133,2,0,P|191:174|203:229,1,95,8|0,0:0|0:0,0:0:0:0:
90,295,168409,5,2,0:0:0:0:
97,81,168546,1,0,0:0:0:0:
277,285,168684,2,0,P|341:269|403:266,1,95,8|0,0:0|0:0,0:0:0:0:
498,173,168959,2,0,P|434:157|372:154,1,95,2|0,0:0|0:0,0:0:0:0:
234,96,169234,2,0,P|298:80|360:77,1,95,8|0,0:0|0:0,0:0:0:0:
370,343,169509,6,0,P|275:334|172:328,2,190,6|8|2,0:1|0:0|0:0,0:0:0:0:
283,182,170198,1,2,0:0:0:0:
92,317,170335,1,8,0:0:0:0:
137,101,170473,1,0,0:0:0:0:
278,275,170610,6,0,P|344:253|369:214,1,95,2|2,0:0|0:0,0:0:0:0:
143,241,170886,2,0,P|172:299|185:355,1,95,8|0,0:0|0:0,0:0:0:0:
0,159,171161,2,0,B|68:178|68:178|196:104,1,190,2|8,0:0|0:0,0:0:0:0:
278,40,171574,1,0,0:0:0:0:
382,273,171711,6,0,P|372:314|363:374,1,95,2|2,0:0|0:0,0:0:0:0:
477,185,171986,1,8,0:0:0:0:
278,275,172124,1,0,0:0:0:0:
248,115,172262,2,0,P|240:68|229:21,1,95,2|2,0:0|0:0,0:0:0:0:
77,208,172537,2,0,P|84:254|95:301,1,95,12|0,0:1|0:0,0:0:0:0:
401,296,172812,6,0,P|427:243|416:203,1,95,2|2,0:0|0:0,0:0:0:0:
183,355,173087,1,12,0:1:0:0:
248,115,173225,1,0,0:0:0:0:
230,352,173363,6,0,L|183:355,1,47.5,2|0,0:0|0:0,0:0:0:0:
4,288,173501,2,0,L|52:287,1,47.5,8|8,0:0|0:0,0:0:0:0:
231,235,173638,2,0,L|184:238,1,47.5,8|8,0:0|0:0,0:0:0:0:
5,171,173776,2,0,L|53:170,1,47.5,8|8,0:0|0:0,0:0:0:0:
157,20,173913,6,0,P|170:88|172:154,1,123.499994346619,6|0,0:1|0:0,0:0:0:0:
392,355,174188,2,0,P|395:293|407:232,1,123.499994346619,12|0,0:0|0:0,0:0:0:0:
428,21,174464,1,12,0:0:0:0:
231,236,174601,1,2,0:0:0:0:
157,20,174739,1,12,0:0:0:0:
434,127,174876,1,2,0:0:0:0:
196,167,175014,6,0,P|139:170|89:131,1,123.499994346619,12|2,0:0|0:0,0:0:0:0:
402,40,175289,2,0,P|459:37|511:74,1,123.499994346619,12|0,0:0|0:0,0:0:0:0:
374,285,175564,1,12,0:0:0:0:
271,83,175702,1,2,0:0:0:0:
196,354,175840,1,12,0:0:0:0:
434,127,175977,1,2,0:0:0:0:
157,20,176115,6,0,L|-7:13,1,123.499994346619,6|0,0:1|0:0,0:0:0:0:
74,376,176390,2,0,L|203:351,1,123.499994346619,12|0,0:0|0:0,0:0:0:0:
271,83,176665,1,12,0:0:0:0:
425,349,176803,1,2,0:0:0:0:
434,127,176941,1,12,0:0:0:0:
240,271,177078,1,2,0:0:0:0:
54,101,177216,6,0,P|114:69|188:94,1,123.499994346619,6|0,0:1|0:0,0:0:0:0:
363,268,177491,2,0,P|293:267|211:273,1,123.499994346619,2|8,0:0|0:0,0:0:0:0:
84,350,177766,1,10,0:3:0:0:
322,123,177904,1,8,0:3:0:0:
322,123,177973,1,8,0:3:0:0:
322,123,178042,1,6,0:3:0:0:
423,334,178179,1,4,0:3:0:0:
166,78,178317,5,6,0:1:0:0:
26,201,178592,2,0,B|93:229|93:229|243:173,1,227.999993041992,4|0,0:0|0:0,0:0:0:0:
355,106,179418,5,6,0:1:0:0:
467,293,179968,2,0,P|418:267|294:333,1,199.499993911743,4|0,0:0|0:0,0:0:0:0:
291,346,180519,5,6,0:1:0:0:
31,168,184922,6,0,P|88:163|122:117,1,113.999996520996,4|0,0:0|0:0,0:0:0:0:
243,49,185473,2,0,P|227:105|217:185,1,113.999996520996
350,300,186023,2,0,P|341:243|325:188,2,113.999996520996,0|4|0,0:0|0:0|0:0,0:0:0:0:
417,134,186849,1,0,0:0:0:0:
163,313,187124,6,0,P|214:289|276:303,1,113.999996520996,4|0,0:0|0:0,0:0:0:0:
421,227,187537,2,0,P|366:212|328:161,1,113.999996520996,4|0,0:0|0:0,0:0:0:0:
366,333,187950,1,4,0:0:0:0:
417,134,188500,1,4,0:0:0:0:
354,348,188775,2,0,P|297:338|240:330,1,113.999996520996
8,225,189326,6,0,P|65:215|122:207,1,113.999996520996,4|0,0:0|0:0,0:0:0:0:
206,74,189876,2,0,P|216:131|224:188,1,113.999996520996,0|4,0:0|0:0,0:0:0:0:
241,330,190427,2,0,P|277:295|358:291,2,113.999996520996,0|4|0,0:0|0:0|0:0,0:0:0:0:
448,366,191253,1,0,0:0:0:0:
441,135,191528,6,0,P|430:78|414:12,1,113.999996520996,4|0,0:0|0:0,0:0:0:0:
248,149,191941,2,0,P|295:116|370:128,1,113.999996520996,4|0,0:0|0:0,0:0:0:0:
215,233,192353,1,4,0:0:0:0:
246,46,192904,1,0,0:0:0:0:
203,249,193179,6,0,P|167:203|86:229,1,142.5
16,285,193730,5,6,0:1:0:0:
9,254,194005,1,6,0:3:0:0:
16,222,194280,1,6,0:3:0:0:
9,191,194555,1,6,0:3:0:0:
295,69,194831,5,6,0:3:0:0:
246,46,195106,1,6,0:3:0:0:
195,62,195381,1,6,0:3:0:0:
171,109,195656,1,6,0:3:0:0:
460,283,195931,5,6,0:3:0:0:
449,208,196207,1,6,0:3:0:0:
460,134,196482,1,6,0:3:0:0:
449,60,196757,1,6,0:3:0:0:
274,139,197032,6,0,P|212:138|171:109,1,113.999996520996,6|6,0:3|0:3,0:0:0:0:
244,51,197583,1,10,0:0:0:0:
76,173,197858,2,0,P|97:225|101:251,1,56.9999982604981,6|6,0:3|0:3,0:3:0:0:
65,319,198133,6,0,P|161:226|286:276,1,285,6|4,0:1|0:0,0:0:0:0:
434,369,199234,2,0,P|431:298|427:255,1,113.999996520996,6|8,0:0|0:0,0:0:0:0:
371,94,199647,1,8,0:0:0:0:
341,207,199785,1,2,0:0:0:0:
236,78,199922,1,8,0:0:0:0:
287,277,200060,1,8,0:0:0:0:
315,24,200198,1,8,0:0:0:0:
427,255,200335,5,6,0:1:0:0:
30,341,210794,6,0,P|6:290|13:239,1,99.7499969558717,4|0,0:0|0:0,0:0:0:0:
40,329,211344,5,4,0:1:0:0:
117,317,211620,1,0,0:0:0:0:
195,329,211895,1,0,0:0:0:0:
272,317,212170,1,4,0:0:0:0:
442,190,212445,6,0,P|439:239|437:307,1,95,4|0,0:0|0:0,0:0:0:0:
278,364,212858,2,0,P|275:340|272:317,1,47.5,4|0,0:0|0:0,0:0:0:0:
370,383,213133,2,0,P|359:331|354:289,1,95,4|0,0:0|0:0,0:0:0:0:
246,157,213547,5,4,0:0:0:0:
230,207,213821,1,0,0:0:0:0:
183,232,214097,1,0,0:0:0:0:
130,217,214372,1,4,0:0:0:0:
232,90,214647,6,0,P|260:129|316:146,1,95,4|0,0:0|0:0,0:0:0:0:
405,43,215060,2,0,P|359:35|317:54,2,95,4|4|4,0:0|0:0|0:0,0:0:0:0:
394,150,215748,6,0,P|412:186|417:203,1,47.5,0|0,0:0|0:0,0:0:0:0:
407,223,216023,1,4,0:0:0:0:
400,255,216298,1,0,0:0:0:0:
407,286,216574,1,4,0:0:0:0:
196,205,216849,6,0,P|239:198|290:193,1,95,4|0,0:0|0:0,0:0:0:0:
167,280,217399,2,0,P|130:248|149:140,1,166.25,4|0,0:0|0:0,0:0:0:0:
196,205,217950,5,0,0:0:0:0:
217,349,219601,5,10,0:0:0:0:
143,45,219739,1,10,0:0:0:0:
143,45,220152,6,0,P|129:96|139:142,1,95,14|0,0:0|0:0,0:0:0:0:
258,268,220427,1,8,0:0:0:0:
221,102,220564,1,0,0:0:0:0:
38,221,220702,2,0,P|54:269|67:319,1,95,2|2,0:0|0:0,0:0:0:0:
193,192,220977,2,0,P|204:146|220:101,1,95,12|0,0:0|0:0,0:0:0:0:
473,193,221253,6,0,B|419:220|419:220|289:169,1,190,6|8,0:0|0:0,0:0:0:0:
204,299,221665,2,0,P|268:271|313:286,1,95,6|0,0:0|0:0,0:0:0:0:
393,341,221941,1,6,0:0:0:0:
176,377,222078,2,0,P|127:373|56:363,1,95,8|0,0:0|0:0,0:0:0:0:
0,125,222353,6,0,P|99:164|177:84,1,190,6|8,0:0|0:0,0:0:0:0:
237,25,222766,1,0,0:0:0:0:
315,183,222904,2,0,P|299:235|288:285,1,95,2|2,0:0|0:0,0:0:0:0:
161,121,223179,2,0,P|175:166|186:212,1,95,12|0,0:0|0:0,0:0:0:0:
408,188,223454,6,0,P|392:130|359:100,1,95,6|0,0:0|0:0,0:0:0:0:
237,25,223730,1,8,0:0:0:0:
166,260,223867,2,0,P|156:222|146:157,1,95,6|0,0:0|0:0,0:0:0:0:
327,322,224142,2,0,P|338:275|346:229,1,95,6|8,0:0|0:0,0:0:0:0:
158,355,224418,6,0,P|138:279|118:149,1,190,4|4,0:0|0:0,0:0:0:0:
239,79,224831,2,0,P|203:42|146:31,1,95,12|0,0:0|0:0,0:0:0:0:
210,167,225106,1,2,0:0:0:0:
311,19,225243,1,2,0:0:0:0:
394,245,225381,2,0,P|441:238|503:216,1,95,12|0,0:0|0:0,0:0:0:0:
396,57,225656,6,0,P|336:109|221:44,1,190,6|8,0:0|0:0,0:0:0:0:
143,213,226069,1,0,0:0:0:0:
11,57,226207,2,0,P|3:109|-1:158,1,95,6|2,0:0|0:0,0:0:0:0:
132,308,226482,2,0,P|140:256|144:207,1,95,8|0,0:0|0:0,0:0:0:0:
283,45,226757,5,6,0:0:0:0:
86,134,226895,1,8,0:3:0:0:
94,129,226964,1,8,0:3:0:0:
102,124,227032,1,12,0:1:0:0:
253,254,227170,1,0,0:0:0:0:
171,21,227308,1,2,0:0:0:0:
157,213,227445,1,2,0:0:0:0:
293,63,227583,1,12,0:1:0:0:
311,346,227720,1,0,0:0:0:0:
451,120,227858,6,0,P|458:96|461:68,1,52.2500015945435,8|0,0:3|0:0,0:0:0:0:
351,199,227996,2,0,P|343:173|340:147,1,52.2500015945435,8|8,0:3|0:3,0:0:0:0:
461,285,228133,2,0,P|469:257|471:233,1,52.2500015945435,4|0,0:3|0:0,0:0:0:0:
356,357,228271,2,0,P|349:333|345:305,1,52.2500015945435,4|0,0:3|0:0,0:0:0:0:
215,85,228409,1,6,0:0:0:0:
50,271,228546,5,8,0:0:0:0:
74,237,228614,1,8,0:0:0:0:
109,213,228683,1,8,0:0:0:0:
149,201,228752,1,8,0:0:0:0:
191,202,228821,1,8,0:0:0:0:
232,217,228890,1,8,0:0:0:0:
267,240,228959,6,0,P|271:188|274:113,1,95,6|0,0:1|0:0,0:0:0:0:
74,237,229234,2,0,P|69:290|67:364,1,95,8|0,0:0|0:0,0:0:0:0:
191,202,229509,1,2,0:0:0:0:
271,345,229647,1,2,0:0:0:0:
447,205,229785,2,0,P|404:199|347:199,1,95,12|0,0:0|0:0,0:0:0:0:
127,269,230060,6,0,P|101:218|115:155,1,95,6|0,0:0|0:0,0:0:0:0:
215,103,230335,1,8,0:0:0:0:
194,330,230473,2,0,P|143:356|80:342,1,95,6|0,0:0|0:0,0:0:0:0:
270,178,230748,1,6,0:0:0:0:
331,361,230886,1,8,0:0:0:0:
385,104,231023,1,0,0:0:0:0:
13,85,231161,6,0,B|71:109|71:109|202:66,1,190,6|8,0:0|0:0,0:0:0:0:
325,40,231574,1,0,0:0:0:0:
177,197,231711,2,0,P|221:181|268:175,1,95,2|2,0:0|0:0,0:0:0:0:
504,235,231986,2,0,P|445:244|404:260,1,95,12|0,0:0|0:0,0:0:0:0:
191,370,232262,6,0,P|235:354|282:348,1,95,6|0,0:0|0:0,0:0:0:0:
420,369,232537,1,8,0:0:0:0:
486,143,232675,2,0,P|501:204|505:249,1,95,6|0,0:0|0:0,0:0:0:0:
363,76,232950,2,0,P|348:137|344:182,1,95,6|8,0:0|0:0,0:0:0:0:
95,322,233225,6,0,P|137:240|227:221,1,190,4|2,0:0|0:0,0:0:0:0:
372,311,233638,2,0,P|330:315|262:309,1,95,12|0,0:0|0:0,0:0:0:0:
344,168,233913,1,2,0:0:0:0:
277,311,234051,1,2,0:0:0:0:
90,152,234188,2,0,P|90:199|98:246,1,95,12|0,0:0|0:0,0:0:0:0:
230,84,234464,6,0,P|296:154|393:112,1,190,6|8,0:0|0:0,0:0:0:0:
227,221,234876,1,0,0:0:0:0:
481,78,235014,2,0,P|452:175|444:263,1,190,6|8,0:0|0:0,0:0:0:0:
315,63,235426,1,0,0:0:0:0:
203,311,235564,6,0,P|150:271|137:218,1,95,6|2,0:0|0:0,0:0:0:0:
230,84,235840,1,12,0:1:0:0:
315,362,235977,1,0,0:0:0:0:
311,353,236046,1,0,0:0:0:0:
306,344,236115,1,2,0:0:0:0:
75,168,236253,1,2,0:0:0:0:
0,384,236390,1,12,0:1:0:0:
253,224,236528,1,8,0:3:0:0:
0,37,236665,6,0,L|61:27,1,52.2500015945435,10|0,0:3|0:0,0:0:0:0:
230,84,236803,2,0,L|169:74,1,52.2500015945435,8|0,0:3|0:0,0:0:0:0:
24,177,236940,2,0,L|85:167,1,52.2500015945435,10|0,0:3|0:0,0:0:0:0:
254,224,237078,2,0,L|193:214,1,52.2500015945435,8|0,0:3|0:0,0:0:0:0:
109,344,237216,5,10,0:0:0:0:
149,363,237284,1,8,0:0:0:0:
191,364,237353,1,8,0:0:0:0:
231,348,237422,1,8,0:0:0:0:
259,314,237491,1,8,0:0:0:0:
298,298,237560,1,8,0:0:0:0:
341,299,237629,1,8,0:0:0:0:
380,319,237698,1,8,0:0:0:0:
314,374,237766,6,0,L|313:279,1,95,6|0,0:1|0:0,0:0:0:0:
273,127,238042,1,8,0:0:0:0:
178,284,238179,1,0,0:0:0:0:
365,117,238317,2,0,P|352:77|302:38,1,95,2|2,0:0|0:0,0:0:0:0:
165,189,238592,2,0,P|169:236|177:283,1,95,8|0,0:0|0:0,0:0:0:0:
471,234,238867,6,0,P|414:201|297:234,1,190,2|8,0:0|0:0,0:0:0:0:
147,363,239280,1,0,0:0:0:0:
35,219,239418,2,0,P|26:178|21:116,1,95,2|0,0:0|0:0,0:0:0:0:
177,283,239693,2,0,P|186:242|191:180,1,95,8|0,0:0|0:0,0:0:0:0:
101,73,239968,6,0,P|199:57|316:49,1,190,2|8,0:0|0:0,0:0:0:0:
414,1,240381,1,0,0:0:0:0:
460,172,240519,2,0,P|386:149|340:166,1,95,2|2,0:0|0:0,0:0:0:0:
258,348,240794,1,8,0:0:0:0:
399,242,240931,1,0,0:0:0:0:
187,131,241069,6,0,P|191:186|203:241,1,95,2|0,0:0|0:0,0:0:0:0:
382,57,241344,2,0,P|378:112|366:167,1,95,8|0,0:0|0:0,0:0:0:0:
256,34,241620,1,2,0:0:0:0:
190,259,241757,1,2,0:0:0:0:
30,54,241895,2,0,P|84:46|144:40,1,95,8|0,0:0|0:0,0:0:0:0:
285,305,242170,6,0,P|201:290|75:279,1,190,6|8,0:1|0:0,0:0:0:0:
256,184,242583,1,0,0:0:0:0:
377,301,242720,2,0,P|368:347|338:383,1,95,2|2,0:0|0:0,0:0:0:0:
143,288,242996,2,0,P|142:243|132:172,1,95,8|0,0:0|0:0,0:0:0:0:
95,47,243271,5,2,0:0:0:0:
0,197,243409,1,2,0:0:0:0:
255,184,243546,2,0,P|302:173|349:170,1,95,8|0,0:0|0:0,0:0:0:0:
239,311,243821,2,0,P|157:293|36:291,1,190,2|8,0:0|0:0,0:0:0:0:
136,193,244234,1,0,0:0:0:0:
370,276,244372,6,0,P|421:249|452:201,1,95,2|2,0:0|0:0,0:0:0:0:
232,92,244647,2,0,P|245:134|254:205,1,95,8|0,0:0|0:0,0:0:0:0:
239,311,244922,1,2,0:0:0:0:
348,168,245060,1,2,0:0:0:0:
140,228,245198,2,0,P|87:222|8:220,1,95,12|0,0:1|0:0,0:0:0:0:
0,36,245473,6,0,P|54:34|132:28,1,95,2|2,0:0|0:0,0:0:0:0:
246,34,245748,1,8,0:0:0:0:
45,222,245886,1,0,0:0:0:0:
188,306,246023,6,0,L|179:259,1,47.5,2|0,0:0|0:0,0:0:0:0:
235,121,246161,2,0,L|244:168,1,47.5,8|8,0:0|0:0,0:0:0:0:
311,300,246299,2,0,L|302:253,1,47.5,8|8,0:0|0:0,0:0:0:0:
358,115,246437,2,0,L|367:162,1,47.5,8|8,0:0|0:0,0:0:0:0:
246,34,246574,6,0,P|186:46|150:95,1,123.499994346619,6|0,0:1|0:0,0:0:0:0:
311,300,246849,2,0,P|377:299|436:289,1,123.499994346619,12|0,0:0|0:0,0:0:0:0:
491,114,247124,1,12,0:0:0:0:
382,381,247262,1,2,0:0:0:0:
235,121,247399,1,12,0:0:0:0:
433,289,247537,1,2,0:0:0:0:
195,352,247675,6,0,L|74:376,1,123.499994346619,12|2,0:0|0:0,0:0:0:0:
33,14,247950,2,0,L|157:20,1,123.499994346619,12|0,0:0|0:0,0:0:0:0:
413,155,248225,1,12,0:0:0:0:
195,278,248363,1,2,0:0:0:0:
344,29,248500,1,12,0:0:0:0:
432,288,248638,1,2,0:0:0:0:
235,121,248775,6,0,P|228:61|208:-17,1,123.499994346619,6|0,0:1|0:0,0:0:0:0:
15,255,249051,2,0,P|22:315|42:393,1,123.499994346619,12|0,0:0|0:0,0:0:0:0:
149,92,249326,1,12,0:0:0:0:
178,359,249464,1,2,0:0:0:0:
49,38,249601,1,12,0:0:0:0:
15,255,249739,1,2,0:0:0:0:
242,182,249876,6,0,P|291:240|350:243,1,123.499994346619,6|0,0:1|0:0,0:0:0:0:
470,89,250152,2,0,P|456:146|450:210,1,123.499994346619,2|8,0:0|0:0,0:0:0:0:
474,350,250427,1,10,0:3:0:0:
339,96,250564,1,8,0:3:0:0:
339,96,250633,1,8,0:3:0:0:
339,96,250702,1,4,0:3:0:0:
296,348,250840,1,6,0:3:0:0:
31,258,250977,5,6,0:1:0:0:
91,113,251253,2,0,P|180:145|272:47,1,227.999993041992,4|0,0:0|0:0,0:0:0:0:
166,40,252078,5,6,0:1:0:0:
428,302,252629,2,0,P|391:236|265:248,1,199.499993911743,4|0,0:0|0:0,0:0:0:0:
262,254,253179,5,14,0:0:0:0:
