osu file format v14

[General]
AudioFilename: chiisana.mp3
AudioLeadIn: 0
PreviewTime: 70909
Countdown: 0
SampleSet: Soft
StackLeniency: 0.9
Mode: 0
LetterboxInBreaks: 0
WidescreenStoryboard: 0

[Editor]
Bookmarks: 104561,184378,202543,219607,237772,253185
DistanceSpacing: 0.6
BeatDivisor: 4
GridSize: 4
TimelineZoom: 2.999999

[Metadata]
Title:Chiisana Koi no Uta
TitleUnicode:小さな恋のうた
Artist:Amatsuki
ArtistUnicode:天月
Creator:Logic Agent
Version:Agenthzz's Insane
Source:
Tags:MONGOL800 utaite male vocal battle thzz happyrocket88 みっ君 Song of a Small Love
BeatmapID:1147609
BeatmapSetID:534788

[Difficulty]
HPDrainRate:5.6
CircleSize:4
OverallDifficulty:7
ApproachRate:9
SliderMultiplier:1.5
SliderTickRate:1

[Events]
//Background and Video events
Video,-56,"chiisana.avi"
0,0,"hora.png",0,0
//Break Periods
2,131177,134781
2,135581,138634
2,184938,192579
2,218150,219001
//Storyboard Layer 0 (Background)
//Storyboard Layer 1 (Fail)
//Storyboard Layer 2 (Pass)
//Storyboard Layer 3 (Foreground)
//Storyboard Sound Samples

[TimingPoints]
21987,275.229357798165,4,2,1,60,1,0
22537,-125,4,2,1,60,0,0
40702,-125,4,2,2,60,0,0
41390,-125,4,2,1,60,0,0
41803,-111.111111111111,4,2,1,60,0,0
66849,-100,4,2,1,60,0,0
67124,-90.9090909090909,4,2,1,70,0,0
69326,-100,4,2,1,70,0,0
70977,-166.666666666667,4,2,1,70,0,0
71459,-166.666666666667,4,2,1,5,0,0
71528,-90.9090909090909,4,2,2,70,0,1
71665,-90.9090909090909,4,2,1,70,0,1
89142,-100,4,2,1,70,0,0
97950,-90.9090909090909,4,2,1,80,0,1
102353,-90.9090909090909,4,2,1,70,0,1
102629,-166.666666666667,4,2,1,70,0,1
104555,-125,4,2,1,60,0,0
112812,-200,4,2,1,60,0,0
113363,-100,4,2,1,60,0,0
139234,-200,4,2,1,60,0,0
139785,-100,4,2,1,60,0,0
142812,-100,4,2,1,70,0,0
146941,-166.666666666667,4,2,1,70,0,0
147491,-100,4,2,2,70,0,1
147629,-100,4,2,1,70,0,1
165106,-100,4,2,1,70,0,0
173913,-100,4,2,1,80,0,1
178317,-100,4,2,1,70,0,1
178454,-166.666666666667,4,2,1,70,0,1
180519,-100,4,2,1,70,0,0
184922,-100,4,2,1,40,0,0
193179,-166.666666666667,4,2,1,40,0,0
194005,-166.666666666667,4,2,1,30,0,0
194831,-166.666666666667,4,2,1,40,0,0
195931,-166.666666666667,4,2,1,50,0,0
197032,-166.666666666667,4,2,1,60,0,0
199509,-166.666666666667,4,2,1,20,0,0
199647,-166.666666666667,4,2,1,30,0,0
199785,-166.666666666667,4,2,1,40,0,0
199922,-166.666666666667,4,2,1,50,0,0
200060,-166.666666666667,4,2,1,60,0,0
200198,-166.666666666667,4,2,1,70,0,0
200335,-166.666666666667,4,2,1,60,0,0
217881,-166.666666666667,4,2,1,5,0,0
219601,-166.666666666667,4,2,1,70,0,0
220152,-90.9090909090909,4,2,2,70,0,1
220289,-90.9090909090909,4,2,1,70,0,1
237766,-100,4,2,1,70,0,0
246574,-90.9090909090909,4,2,1,80,0,1
250977,-90.9090909090909,4,2,1,70,0,1
251046,-166.666666666667,4,2,1,70,0,1
253179,-100,4,2,2,70,0,0

[Colours]
Combo1 : 184,124,184
Combo2 : 216,165,190
Combo3 : 255,156,108
Combo4 : 255,223,164
SliderBorder : 255,255,204

[HitObjects]
98,135,22537,5,0,0:0:0:0:
98,135,22812,1,0,0:0:0:0:
98,134,23087,2,0,P|127:127|156:122,1,60,4|0,0:0|0:0,0:0:0:0:
221,169,23363,2,0,P|250:164|279:157,1,60,4|0,0:0|0:0,0:0:0:0:
207,246,23638,2,0,B|268:257|268:257|319:228,1,120,4|4,0:0|0:0,0:0:0:0:
477,162,24188,6,0,L|487:222,1,60,4|0,0:0|0:0,0:0:0:0:
387,139,24464,2,0,L|397:199,1,60
327,343,24739,2,0,B|337:269|337:269|318:227,1,120,4|4,0:0|0:0,0:0:0:0:
232,97,25289,6,0,P|202:98|174:109,1,60,4|0,0:0|0:0,0:0:0:0:
121,19,25564,2,0,P|108:46|103:76,1,60,4|0,0:0|0:0,0:0:0:0:
37,217,25840,2,0,B|18:175|18:175|28:101,2,120,4|4|4,0:0|0:0|0:0,0:0:0:0:
105,254,26528,5,0,0:0:0:0:
105,254,26665,2,0,P|104:294|101:325,1,60,0|0,0:0|0:0,0:0:0:0:
166,359,26941,2,0,P|195:357|224:349,1,60,4|0,0:0|0:0,0:0:0:0:
343,308,27216,2,0,P|313:306|285:299,1,60,4|0,0:0|0:0,0:0:0:0:
233,239,27491,6,0,P|238:175|244:114,1,120,4|4,0:0|0:0,0:0:0:0:
169,57,27904,1,0,0:0:0:0:
169,57,28042,2,0,P|165:87|165:117,1,60,4|0,0:0|0:0,0:0:0:0:
320,161,28317,2,0,P|324:131|324:101,1,60,4|0,0:0|0:0,0:0:0:0:
369,37,28592,6,0,P|431:38|493:45,1,120,4|0,0:0|0:0,0:0:0:0:
448,194,29142,2,0,L|508:202,1,60,4|0,0:0|0:0,0:0:0:0:
391,264,29418,2,0,L|451:272,1,60,4|0,0:0|0:0,0:0:0:0:
347,150,29693,6,0,P|287:151|227:154,1,120,4|4,0:0|0:0,0:0:0:0:
153,183,30106,2,0,P|133:162|125:133,1,60,4|0,0:0|0:0,0:0:0:0:
230,29,30381,2,0,P|250:50|258:79,1,60,4|0,0:0|0:0,0:0:0:0:
218,236,30656,6,0,B|252:271|252:271|313:282|377:242,1,180,4|0,0:0|0:0,0:0:0:0:
401,86,31344,2,0,P|429:77|459:73,1,60,4|0,0:0|0:0,0:0:0:0:
333,127,31620,2,0,P|304:117|274:113,1,60,4|0,0:0|0:0,0:0:0:0:
184,153,31895,6,0,L|167:34,2,120,2|2|2,0:0|0:0|0:0,0:0:0:0:
39,95,32720,1,2,0:0:0:0:
98,239,32996,6,0,L|156:227,1,60,2|0,0:0|0:0,0:0:0:0:
242,164,33271,2,0,L|184:153,1,60,2|0,0:0|0:0,0:0:0:0:
274,242,33546,2,0,B|350:229|350:229|389:244,1,120,2|2,0:0|0:0,0:0:0:0:
512,150,34097,6,0,B|436:163|436:163|397:148,1,120,2|2,0:0|0:0,0:0:0:0:
285,10,34647,2,0,P|270:35|263:64,1,60,2|0,0:0|0:0,0:0:0:0:
229,174,34922,2,0,P|222:145|207:120,1,60,2|0,0:0|0:0,0:0:0:0:
35,191,35198,6,0,B|118:166|118:166|151:175,1,120,2|2,0:0|0:0,0:0:0:0:
190,240,35610,1,0,0:0:0:0:
190,240,35748,2,0,L|183:308,1,60,2|0,0:0|0:0,0:0:0:0:
41,250,36023,2,0,L|34:190,1,60,2|0,0:0|0:0,0:0:0:0:
62,56,36298,6,0,P|114:84|172:78,1,120,2|2,0:0|0:0,0:0:0:0:
384,11,36849,2,0,L|379:79,1,60,2|0,0:0|0:0,0:0:0:0:
451,103,37124,2,0,L|456:171,1,60,2|0,0:0|0:0,0:0:0:0:
484,286,37399,6,0,P|430:263|370:259,1,120,2|2,0:0|0:0,0:0:0:0:
287,321,37812,1,0,0:0:0:0:
287,321,37950,2,0,P|316:329|346:334,1,60,2|0,0:0|0:0,0:0:0:0:
386,177,38225,2,0,P|356:180|327:188,1,60,2|0,0:0|0:0,0:0:0:0:
263,116,38500,6,0,B|216:104|216:104|182:118|182:118|147:111,1,120,2|2,0:0|0:0,0:0:0:0:
74,84,38913,2,0,P|75:55|82:26,1,60,0|2,0:0|0:0,0:0:0:0:
86,162,39188,2,0,P|84:195|77:221,1,60,4|6,0:0|0:0,0:0:0:0:
0,239,39464,6,0,P|31:288|88:298,1,120,8|8,0:3|0:3,0:0:0:0:
210,241,39876,1,10,0:3:0:0:
210,241,40014,1,8,0:3:0:0:
273,283,40152,2,0,P|275:313|272:343,1,60,6|4,0:3|0:3,0:0:0:0:
149,191,40427,2,0,P|147:161|150:131,1,60,6|4,0:3|0:3,0:0:0:0:
315,197,40702,5,14,0:0:0:0:
256,192,40771,12,6,41803,0:1:0:0:
257,46,42078,6,0,P|250:79|247:112,1,67.4999979400635,8|0,0:0|0:0,0:0:0:0:
327,149,42353,2,0,P|333:182|336:215,1,67.4999979400635,2|2,0:0|0:0,0:0:0:0:
297,295,42629,1,8,0:0:0:0:
46,199,42904,6,0,B|101:214|101:214|139:192|176:196,1,134.999995880127,2|8,0:0|0:0,0:0:0:0:
57,295,43317,1,0,0:0:0:0:
165,349,43454,2,0,L|159:273,1,67.4999979400635,2|2,0:0|0:0,0:0:0:0:
51,131,43730,2,0,L|45:198,1,67.4999979400635,8|0,0:0|0:0,0:0:0:0:
142,138,44005,6,0,P|197:100|262:112,1,134.999995880127,2|8,0:0|0:0,0:0:0:0:
325,173,44418,1,0,0:0:0:0:
325,173,44555,2,0,P|365:169|401:153,1,67.4999979400635,2|0,0:0|0:0,0:0:0:0:
265,14,44831,2,0,P|253:45|251:79,1,67.4999979400635,8|0,0:0|0:0,0:0:0:0:
235,252,45106,6,0,P|298:232|324:172,1,134.999995880127,2|8,0:0|0:0,0:0:0:0:
250,78,45519,1,0,0:0:0:0:
173,184,45656,2,0,P|207:179|239:168,1,67.4999979400635,2|2,0:0|0:0,0:0:0:0:
398,80,45931,2,0,P|365:69|332:64,1,67.4999979400635,8|0,0:0|0:0,0:0:0:0:
166,35,46207,6,0,B|185:5|185:5|192:104,1,134.999995880127,6|8,0:0|0:0,0:0:0:0:
94,209,46620,1,0,0:0:0:0:
163,262,46757,2,0,P|202:254|244:248,1,67.4999979400635,2|2,0:0|0:0,0:0:0:0:
66,297,47032,2,0,P|32:291|0:284,1,67.4999979400635,8|0,0:0|0:0,0:0:0:0:
41,136,47308,6,0,B|94:112|144:112|144:112|168:126,1,134.999995880127,2|8,0:0|0:0,0:0:0:0:
302,238,47720,1,0,0:0:0:0:
302,238,47858,2,0,P|336:233|368:222,1,67.4999979400635,2|2,0:0|0:0,0:0:0:0:
425,115,48133,2,0,P|394:105|360:100,1,67.4999979400635,8|0,0:0|0:0,0:0:0:0:
234,183,48409,6,0,B|216:243|216:243|229:314,1,134.999995880127,2|8,0:0|0:0,0:0:0:0:
354,328,48821,2,0,L|343:261,1,67.4999979400635,0|2,0:0|0:0,0:0:0:0:
223,116,49097,2,0,L|233:182,1,67.4999979400635,2|8,0:0|0:0,0:0:0:0:
296,68,49372,2,0,P|242:30|177:40,1,134.999995880127,0|2,0:0|0:0,0:0:0:0:
72,97,49785,6,0,P|102:112|136:118,1,67.4999979400635,8|8,0:0|0:0,0:0:0:0:
296,162,50060,2,0,P|265:177|232:182,1,67.4999979400635,6|2,0:0|0:0,0:0:0:0:
40,199,50335,2,0,P|70:214|103:219,1,67.4999979400635,12|0,0:0|0:0,0:0:0:0:
235,317,50610,6,0,P|234:249|232:182,2,134.999995880127,6|8|2,0:1|0:0|0:0,0:0:0:0:
164,369,51298,1,2,0:0:0:0:
319,342,51437,2,0,L|394:353,1,67.4999979400635,8|0,0:0|0:0,0:0:0:0:
472,275,51711,6,0,P|451:215|389:219,1,134.999995880127,2|8,0:0|0:0,0:0:0:0:
178,215,52262,2,0,P|181:248|184:282,1,67.4999979400635,2|2,0:0|0:0,0:0:0:0:
261,184,52537,2,0,P|258:148|255:111,1,67.4999979400635,8|0,0:0|0:0,0:0:0:0:
471,124,52812,6,0,P|404:126|339:144,1,134.999995880127,2|8,0:0|0:0,0:0:0:0:
276,214,53226,1,0,0:0:0:0:
178,215,53363,2,0,P|138:207|105:198,1,67.4999979400635,2|2,0:0|0:0,0:0:0:0:
228,313,53638,2,0,P|260:304|293:298,1,67.4999979400635,8|0,0:0|0:0,0:0:0:0:
390,358,53913,6,0,P|399:291|410:224,1,134.999995880127,2|8,0:0|0:0,0:0:0:0:
275,157,54326,1,0,0:0:0:0:
343,212,54464,2,0,P|388:222|423:224,1,67.4999979400635,2|2,0:0|0:0,0:0:0:0:
296,76,54739,2,0,P|262:79|229:87,1,67.4999979400635,8|0,0:0|0:0,0:0:0:0:
392,142,55014,6,0,P|437:95|501:107,1,134.999995880127,6|8,0:0|0:0,0:0:0:0:
496,210,55427,1,0,0:0:0:0:
456,288,55564,2,0,P|455:326|455:356,1,67.4999979400635,2|2,0:0|0:0,0:0:0:0:
345,283,55840,2,0,P|346:245|346:215,1,67.4999979400635,8|0,0:0|0:0,0:0:0:0:
237,295,56115,6,0,P|236:328|235:362,1,67.4999979400635,2|0,0:0|0:0,0:0:0:0:
103,281,56390,2,0,P|168:244|223:272,1,134.999995880127,8|2,0:0|0:0,0:0:0:0:
55,212,56803,1,2,0:0:0:0:
165,319,56941,2,0,P|159:352|147:384,1,67.4999979400635,8|0,0:0|0:0,0:0:0:0:
249,249,57216,6,0,P|316:244|383:244,1,134.999995880127,2|8,0:0|0:0,0:0:0:0:
288,65,57629,2,0,P|220:69|153:69,1,134.999995880127,12|2,0:1|0:0,0:0:0:0:
57,162,58042,2,0,P|90:152|124:153,1,67.4999979400635,12|0,0:1|0:0,0:0:0:0:
196,249,58317,6,0,L|205:183,1,67.4999979400635,10|8,0:3|0:3,0:0:0:0:
280,289,58592,2,0,L|288:222,1,67.4999979400635,4|4,0:3|0:3,0:0:0:0:
379,254,58867,1,6,0:0:0:0:
379,254,59142,1,6,0:0:0:0:
488,343,59418,6,0,P|420:343|353:354,1,134.999995880127,6|2,0:1|0:0,0:0:0:0:
196,249,59968,1,2,0:0:0:0:
342,181,60243,1,2,0:0:0:0:
232,328,60519,6,0,P|166:331|117:288,1,134.999995880127,2|2,0:0|0:0,0:0:0:0:
124,200,60931,1,0,0:0:0:0:
83,122,61069,2,0,P|81:84|78:47,1,67.4999979400635,2|0,0:0|0:0,0:0:0:0:
11,192,61344,2,0,P|13:230|16:267,1,67.4999979400635,2|0,0:0|0:0,0:0:0:0:
124,200,61620,6,0,P|199:174|259:173,1,134.999995880127,2|2,0:0|0:0,0:0:0:0:
326,221,62032,2,0,P|358:230|391:235,1,67.4999979400635,0|2,0:0|0:0,0:0:0:0:
348,312,62308,2,0,B|252:316|252:316|217:333,1,134.999995880127,4|4,0:0|0:0,0:0:0:0:
120,243,62720,6,0,L|188:251,1,67.4999979400635,2|0,0:0|0:0,0:0:0:0:
321,164,62996,2,0,L|253:171,1,67.4999979400635,2|0,0:0|0:0,0:0:0:0:
175,130,63271,5,2,0:0:0:0:
291,63,63409,1,8,0:0:0:0:
346,186,63546,1,10,0:0:0:0:
82,103,63821,5,4,0:0:0:0:
82,103,64922,5,4,0:0:0:0:
82,103,66023,5,4,0:0:0:0:
44,177,66849,2,0,B|91:185|91:185|128:169|128:169|152:173,1,112.5,0|0,0:0|0:0,0:0:0:0:
212,226,67124,6,0,B|255:188|299:187|340:209|340:209|319:225,1,165.000005035401,12|2,0:1|0:0,0:0:0:0:
499,275,67537,2,0,B|456:313|412:314|371:292|371:292|391:275,1,165.000005035401,12|2,0:1|0:0,0:0:0:0:
473,159,67950,6,0,P|418:101|341:117,1,165.000005035401,12|2,0:1|0:0,0:0:0:0:
282,315,68363,2,0,P|351:291|319:225,1,165.000005035401,8|2,0:3|0:0,0:0:0:0:
130,216,68775,6,0,P|172:223|218:225,1,82.5000025177003,8|2,0:0|0:0,0:0:0:0:
363,51,69051,2,0,P|321:44|275:42,1,82.5000025177003,8|2,0:0|0:0,0:0:0:0:
143,82,69326,5,6,0:1:0:0:
224,151,69464,1,8,0:3:0:0:
224,151,69532,1,8,0:3:0:0:
224,151,69601,2,0,L|211:228,1,75,8|4,0:3|0:3,0:0:0:0:
244,317,69876,1,4,0:3:0:0:
130,265,70014,1,4,0:3:0:0:
67,339,70152,2,0,P|100:356|137:362,1,75,2|2,0:0|0:0,0:0:0:0:
304,244,70427,5,10,0:0:0:0:
64,183,70564,1,10,0:0:0:0:
64,182,70977,6,0,P|137:155|215:153,1,157.499995193482,4|0,0:0|0:0,0:0:0:0:
267,168,71528,6,0,P|266:127|263:86,1,82.5000025177003,14|0,0:0|0:0,0:0:0:0:
149,31,71803,2,0,P|146:72|145:113,1,82.5000025177003,8|0,0:0|0:0,0:0:0:0:
176,216,72078,1,2,0:0:0:0:
68,182,72216,1,2,0:0:0:0:
148,328,72353,2,0,P|147:277|146:237,1,82.5000025177003,12|0,0:0|0:0,0:0:0:0:
267,168,72629,6,0,P|266:209|265:250,1,82.5000025177003,6|2,0:0|0:0,0:0:0:0:
360,299,72904,1,8,0:0:0:0:
148,328,73042,2,0,P|213:376|292:363,1,165.000005035401,4|6,0:0|0:0,0:0:0:0:
378,189,73454,2,0,P|383:229|390:270,1,82.5000025177003,8|0,0:0|0:0,0:0:0:0:
469,130,73730,5,6,0:0:0:0:
469,130,73867,1,0,0:0:0:0:
300,162,74005,2,0,P|337:179|377:188,1,82.5000025177003,8|0,0:0|0:0,0:0:0:0:
310,63,74280,2,0,P|269:71|232:89,1,82.5000025177003,2|2,0:0|0:0,0:0:0:0:
135,152,74555,2,0,L|126:71,1,82.5000025177003,12|0,0:0|0:0,0:0:0:0:
91,252,74831,6,0,B|155:280|202:237|202:237|246:247,1,165.000005035401,6|8,0:0|0:0,0:0:0:0:
300,345,75243,2,0,L|219:326,1,82.5000025177003,4|2,0:0|0:0,0:0:0:0:
330,266,75519,2,0,L|410:247,1,82.5000025177003,6|8,0:0|0:0,0:0:0:0:
465,137,75794,6,0,P|423:69|341:89,1,165.000005035401,6|2,0:0|0:0,0:0:0:0:
245,102,76207,2,0,P|284:114|326:116,1,82.5000025177003,12|0,0:0|0:0,0:0:0:0:
148,55,76482,1,2,0:0:0:0:
295,31,76620,1,2,0:0:0:0:
188,162,76757,2,0,L|195:244,1,82.5000025177003,12|0,0:0|0:0,0:0:0:0:
123,335,77032,6,0,B|92:364|92:364|81:242,1,165.000005035401,6|8,0:0|0:0,0:0:0:0:
249,329,77445,1,0,0:0:0:0:
273,230,77583,2,0,P|233:227|195:243,1,82.5000025177003,6|2,0:0|0:0,0:0:0:0:
377,304,77859,2,0,P|417:307|455:291,1,82.5000025177003,8|0,0:0|0:0,0:0:0:0:
388,117,78134,6,0,L|399:199,1,82.5000025177003,6|8,0:0|0:3,0:0:0:0:
263,311,78409,2,0,L|273:229,1,82.5000025177003,8|0,0:0|0:0,0:0:0:0:
128,153,78685,2,0,L|138:234,1,82.5000025177003,6|0,0:0|0:0,0:0:0:0:
235,34,78960,2,0,L|224:115,1,82.5000025177003,12|8,0:1|0:3,0:0:0:0:
163,266,79235,5,8,0:3:0:0:
163,266,79373,1,8,0:3:0:0:
225,211,79509,2,0,P|265:202|306:200,1,82.5000025177003,6|0,0:3|0:0,0:0:0:0:
409,232,79785,5,10,0:0:0:0:
223,115,79922,1,10,0:0:0:0:
148,184,80198,5,0,0:0:0:0:
148,184,80267,1,0,0:0:0:0:
148,184,80336,2,0,L|163:268,1,82.5000025177003,6|0,0:1|0:0,0:0:0:0:
306,200,80611,2,0,L|320:118,1,82.5000025177003,8|0,0:0|0:0,0:0:0:0:
402,49,80886,1,2,0:0:0:0:
240,66,81024,1,2,0:0:0:0:
391,173,81162,2,0,P|441:165|483:146,1,82.5000025177003,12|0,0:0|0:0,0:0:0:0:
360,272,81437,6,0,B|298:304|247:258|247:258|187:268,1,165.000005035401,6|8,0:0|0:0,0:0:0:0:
71,183,81849,2,0,P|112:188|152:201,1,82.5000025177003,6|0,0:0|0:0,0:0:0:0:
241,337,82124,1,6,0:0:0:0:
104,349,82262,2,0,L|97:266,1,82.5000025177003,8|0,0:0|0:0,0:0:0:0:
176,90,82537,6,0,L|182:172,1,82.5000025177003,6|2,0:0|0:0,0:0:0:0:
259,247,82812,1,8,0:0:0:0:
61,263,82950,2,0,P|120:316|200:306,1,165.000005035401,0|2,0:0|0:0,0:0:0:0:
373,234,83363,2,0,L|286:221,1,82.5000025177003,12|0,0:0|0:0,0:0:0:0:
176,90,83638,6,0,B|283:107|283:107|226:142,1,165.000005035401,6|8,0:0|0:0,0:0:0:0:
86,114,84051,2,0,L|78:30,1,82.5000025177003,6|0,0:0|0:0,0:0:0:0:
145,173,84326,2,0,L|137:255,1,82.5000025177003,6|8,0:0|0:0,0:0:0:0:
231,222,84601,1,4,0:0:0:0:
79,323,84739,6,0,P|58:289|52:248,1,82.5000025177003,2|0,0:0|0:0,0:0:0:0:
174,98,85014,2,0,P|167:138|146:173,1,82.5000025177003,12|0,0:0|0:0,0:0:0:0:
28,210,85289,1,2,0:0:0:0:
86,114,85427,1,2,0:0:0:0:
222,202,85564,2,0,L|208:293,1,82.5000025177003,12|0,0:0|0:0,0:0:0:0:
404,268,85840,6,0,B|427:240|427:240|383:226|343:232|302:252,1,165.000005035401,6|8,0:0|0:0,0:0:0:0:
183,315,86253,1,0,0:0:0:0:
290,333,86390,2,0,L|302:251,1,82.5000025177003,6|2,0:0|0:0,0:0:0:0:
317,133,86666,2,0,P|282:106|231:97,1,82.5000025177003,8|0,0:0|0:0,0:0:0:0:
400,69,86941,6,0,P|435:42|486:33,1,82.5000025177003,6|2,0:0|0:0,0:0:0:0:
429,262,87216,2,0,P|353:257|273:209,1,165.000005035401,12|6,0:1|0:0,0:0:0:0:
245,96,87629,1,2,0:0:0:0:
404,173,87766,2,0,L|485:162,1,82.5000025177003,12|8,0:1|0:3,0:0:0:0:
375,40,88042,6,0,L|293:29,1,82.5000025177003,10|8,0:3|0:3,0:0:0:0:
131,132,88317,2,0,L|212:121,1,82.5000025177003,6|4,0:3|0:3,0:0:0:0:
366,157,88592,1,6,0:3:0:0:
202,231,88730,1,8,0:3:0:0:
291,311,88867,2,0,L|298:228,1,82.5000025177003,6|4,0:3|0:3,0:0:0:0:
212,121,89142,6,0,P|142:94|62:101,1,150,6|8,0:1|0:0,0:0:0:0:
224,242,89555,2,0,L|298:228,1,75,0|2,0:0|0:0,0:0:0:0:
366,157,89831,1,2,0:0:0:0:
216,46,89968,2,0,P|214:83|211:120,1,75,8|0,0:0|0:0,0:0:0:0:
146,194,90243,6,0,P|99:189|67:178,1,75,2|2,0:0|0:0,0:0:0:0:
171,310,90519,2,0,P|218:315|250:326,1,75,8|0,0:0|0:0,0:0:0:0:
297,228,90794,2,0,L|282:72,2,150,2|8|2,0:0|0:0|0:0,0:0:0:0:
387,149,91482,5,0,0:0:0:0:
222,221,91620,2,0,P|259:221|296:227,1,75,8|0,0:0|0:0,0:0:0:0:
443,283,91895,2,0,P|405:283|368:289,1,75,2|2,0:0|0:0,0:0:0:0:
242,324,92170,2,0,P|186:320|144:284,1,112.5,8|0,0:0|0:0,0:0:0:0:
124,240,92445,6,0,L|49:246,1,75,2|0,0:0|0:0,0:0:0:0:
232,149,92720,1,8,0:0:0:0:
103,136,92858,1,2,0:0:0:0:
248,251,92996,2,0,L|256:177,1,75,0|2,0:0|0:0,0:0:0:0:
117,31,93271,2,0,L|124:105,1,75,8|0,0:0|0:0,0:0:0:0:
220,57,93546,6,0,B|266:33|320:39|320:39|357:66,1,150,6|8,0:1|0:0,0:0:0:0:
386,160,93959,1,0,0:0:0:0:
466,20,94097,2,0,L|459:95,1,75,2|2,0:0|0:0,0:0:0:0:
297,191,94372,2,0,L|290:117,1,75,8|0,0:0|0:0,0:0:0:0:
366,262,94647,6,0,P|402:251|439:247,1,75,2|2,0:0|0:0,0:0:0:0:
284,323,94922,2,0,P|247:312|210:308,1,75,8|0,0:0|0:0,0:0:0:0:
153,189,95198,2,0,B|239:171|239:171|297:191,2,150,2|8|2,0:0|0:0|0:0,0:0:0:0:
66,233,95886,1,0,0:0:0:0:
10,153,96023,2,0,P|10:115|19:79,1,75,8|0,0:0|0:0,0:0:0:0:
118,32,96298,5,2,0:0:0:0:
232,116,96436,1,2,0:0:0:0:
155,264,96574,2,0,L|153:186,1,75,12|0,0:1|0:0,0:0:0:0:
248,224,96849,6,0,P|285:227|321:238,1,75,2|2,0:0|0:0,0:0:0:0:
474,159,97124,2,0,P|436:162|400:173,1,75,8|0,0:0|0:0,0:0:0:0:
392,341,97399,2,0,P|402:304|406:267,1,75,2|0,0:0|0:0,0:0:0:0:
311,146,97675,1,8,0:0:0:0:
311,146,97812,1,8,0:0:0:0:
508,241,97950,5,6,0:1:0:0:
242,311,98225,2,0,P|280:297|321:292,1,82.5000025177003,12|2,0:0|0:0,0:0:0:0:
181,194,98500,2,0,P|149:167|125:134,1,82.5000025177003,12|2,0:0|0:0,0:0:0:0:
114,300,98775,2,0,P|106:340|90:378,1,82.5000025177003,12|2,0:0|0:0,0:0:0:0:
75,187,99051,6,0,B|199:160|199:160|180:193,1,165.000005035401,12|12,0:0|0:0,0:0:0:0:
31,318,99464,1,0,0:0:0:0:
212,347,99601,2,0,L|223:260,1,82.5000025177003,12|2,0:0|0:0,0:0:0:0:
85,105,99876,2,0,L|74:186,1,82.5000025177003,12|2,0:0|0:0,0:0:0:0:
151,44,100152,6,0,P|114:24|74:16,1,82.5000025177003,6|0,0:1|0:0,0:0:0:0:
247,94,100427,2,0,P|285:74|329:66,1,82.5000025177003,12|0,0:0|0:0,0:0:0:0:
435,113,100702,1,12,0:0:0:0:
435,113,100840,1,2,0:0:0:0:
387,280,100977,2,0,L|376:198,1,82.5000025177003,12|2,0:0|0:0,0:0:0:0:
301,346,101253,6,0,P|221:350|169:287,1,165.000005035401,6|2,0:1|0:0,0:0:0:0:
94,367,101665,1,8,0:3:0:0:
255,272,101803,2,0,L|266:191,1,82.5000025177003,10|8,0:3|0:3,0:0:0:0:
78,129,102078,2,0,L|88:210,1,82.5000025177003,6|4,0:3|0:3,0:0:0:0:
181,64,102353,5,6,0:1:0:0:
182,64,102629,2,0,B|266:102|267:28|356:68,1,179.999994506836,4|0,0:0|0:0,0:0:0:0:
507,168,103454,6,0,P|462:169|424:146,1,89.9999972534181,10|0,0:0|0:0,0:0:0:0:
321,345,104005,2,0,L|312:210,1,134.999995880127,4|0,0:1|0:0,0:0:0:0:
280,138,104555,5,6,0:1:0:0:
236,76,104831,1,2,0:0:0:0:
168,210,105106,1,8,0:0:0:0:
119,153,105381,1,0,0:0:0:0:
59,316,105656,6,0,P|121:311|195:311,1,120,2|2,0:0|0:0,0:0:0:0:
420,244,106207,2,0,P|365:276|299:255,1,120,8|0,0:0|0:0,0:0:0:0:
284,242,106620,1,0,0:0:0:0:
265,211,106757,5,2,0:0:0:0:
407,101,107032,1,2,0:0:0:0:
244,94,107308,2,0,P|254:139|268:235,1,120,8|0,0:0|0:0,0:0:0:0:
159,73,107858,6,0,P|177:38|265:6,2,120,2|2|8,0:0|0:0|0:0,0:0:0:0:
32,140,108684,1,0,0:0:0:0:
146,221,108959,6,0,P|203:218|286:209,1,120,2|2,0:0|0:0,0:0:0:0:
416,159,109509,2,0,P|422:218|425:278,1,120,8|0,0:0|0:0,0:0:0:0:
347,244,110060,5,2,0:0:0:0:
297,311,110335,1,2,0:0:0:0:
146,221,110610,1,8,0:0:0:0:
163,303,110886,1,0,0:0:0:0:
366,182,111161,6,0,P|323:220|246:192,1,120,2|2,0:0|0:0,0:0:0:0:
160,128,111711,1,8,0:0:0:0:
75,267,111986,6,0,P|67:233|65:201,1,60,0|4,0:0|0:0,0:0:0:0:
263,213,112812,2,0,P|289:167|354:163,1,112.5,4|0,0:0|0:0,0:0:0:0:
353,168,113294,1,0,0:0:0:0:
363,176,113363,6,0,L|373:90,1,75,6|0,0:1|0:0,0:0:0:0:
458,56,113638,2,0,L|466:130,1,75,8|2,0:0|0:0,0:0:0:0:
434,250,113913,1,0,0:0:0:0:
363,176,114051,1,2,0:0:0:0:
263,213,114188,2,0,P|233:205|179:205,1,75,8|0,0:0|0:0,0:0:0:0:
48,292,114464,6,0,P|36:236|31:130,1,150,2|8,0:0|0:0,0:0:0:0:
104,80,114876,1,0,0:0:0:0:
169,152,115014,2,0,P|224:140|249:137,1,75,2|2,0:0|0:0,0:0:0:0:
379,77,115289,2,0,P|343:68|306:63,1,75,8|0,0:0|0:0,0:0:0:0:
169,152,115564,6,0,L|188:248,1,75,2|0,0:0|0:0,0:0:0:0:
281,229,115840,2,0,L|262:325,1,75,8|0,0:0|0:0,0:0:0:0:
49,358,116115,2,0,P|102:328|198:360,1,150,0|8,0:0|0:0,0:0:0:0:
382,337,116665,6,0,P|374:298|372:248,2,75,2|0|8,0:0|0:0|0:0,0:0:0:0:
496,154,117216,2,0,P|493:191|485:228,1,75,2|2,0:0|0:0,0:0:0:0:
389,104,117491,2,0,P|392:142|400:179,1,75,8|0,0:0|0:0,0:0:0:0:
392,349,117766,6,0,B|320:320|320:384|229:347,1,150,6|8,0:0|0:0,0:0:0:0:
165,297,118179,1,0,0:0:0:0:
67,300,118317,2,0,L|76:378,1,75,2|2,0:0|0:0,0:0:0:0:
165,297,118592,2,0,L|173:222,1,75,8|0,0:0|0:0,0:0:0:0:
155,84,118867,6,0,P|120:138|16:114,1,150,2|8,0:0|0:0,0:0:0:0:
258,40,119418,2,0,P|298:35|354:34,1,75,2|2,0:0|0:0,0:0:0:0:
462,126,119693,2,0,P|422:117|366:111,1,75,8|0,0:0|0:0,0:0:0:0:
236,181,119968,6,0,P|245:228|258:338,1,150,2|8,0:0|0:0,0:0:0:0:
165,297,120381,1,0,0:0:0:0:
327,245,120519,2,0,P|360:227|398:226,2,75,2|2|8,0:0|0:0|0:0,0:0:0:0:
257,329,120931,1,0,0:0:0:0:
417,379,121069,6,0,P|393:350|382:315,1,75,2|0,0:0|0:0,0:0:0:0:
419,144,121344,1,4,0:0:0:0:
328,245,121482,1,8,0:0:0:0:
248,187,121620,2,0,P|208:181|156:187,1,75,4|2,0:0|0:0,0:0:0:0:
26,252,121895,2,0,P|64:254|101:249,1,75,8|0,0:0|0:0,0:0:0:0:
211,110,122170,6,0,P|207:185|207:260,2,150,6|8|2,0:1|0:0|0:0,0:0:0:0:
286,47,122858,1,2,0:0:0:0:
361,108,122996,2,0,P|358:152|358:197,1,75,8|0,0:0|0:0,0:0:0:0:
460,99,123271,6,0,P|454:62|429:34,1,75,2|0,0:0|0:0,0:0:0:0:
361,108,123546,1,8,0:0:0:0:
393,200,123684,1,0,0:0:0:0:
279,278,123821,2,0,L|268:182,2,75,2|2|8,0:0|0:0|0:0,0:0:0:0:
29,181,124372,6,0,P|66:171|123:164,1,75,2|0,0:0|0:0,0:0:0:0:
270,203,124647,2,0,P|234:193|197:188,1,75,8|0,0:0|0:0,0:0:0:0:
92,261,124922,2,0,L|109:333,1,75,2|2,0:0|0:0,0:0:0:0:
253,276,125198,2,0,L|270:203,1,75,8|0,0:0|0:0,0:0:0:0:
395,93,125473,6,0,P|349:62|250:105,1,150,2|8,0:0|0:0,0:0:0:0:
472,194,126023,2,0,P|483:145|483:105,1,75,2|2,0:0|0:0,0:0:0:0:
376,265,126298,2,0,P|365:216|365:176,1,75,8|0,0:0|0:0,0:0:0:0:
478,352,126574,6,0,P|433:347|295:350,1,150,6|8,0:0|0:0,0:0:0:0:
234,369,126986,1,0,0:0:0:0:
153,313,127124,2,0,L|135:228,1,75,2|2,0:0|0:0,0:0:0:0:
52,191,127399,2,0,L|36:264,1,75,8|0,0:0|0:0,0:0:0:0:
232,284,127675,6,0,L|305:268,1,75,2|2,0:0|0:0,0:0:0:0:
448,215,127950,2,0,L|375:200,1,75,8|0,0:0|0:0,0:0:0:0:
242,122,128225,2,0,P|254:163|261:209,1,75,2|2,0:0|0:0,0:0:0:0:
140,126,128500,2,0,P|146:89|157:53,1,75,8|2,0:0|0:0,0:0:0:0:
358,110,128775,6,0,P|421:123|475:58,1,150,2|8,0:0|0:0,0:0:0:0:
398,5,129188,1,8,0:0:0:0:
252,91,129326,2,0,L|274:179,1,75,4|2,0:0|0:0,0:0:0:0:
250,258,129601,1,12,0:1:0:0:
172,202,129739,1,0,0:0:0:0:
76,328,129876,6,0,P|64:286|58:246,2,75,8|0|4,0:3|0:0|0:3,0:0:0:0:
167,293,130289,1,0,0:0:0:0:
244,352,130427,2,0,P|280:345|316:334,2,75,2|0|2,0:0|0:0|0:0,0:0:0:0:
250,258,130840,1,0,0:0:0:0:
145,378,130977,5,6,0:1:0:0:
128,357,135381,5,4,0:1:0:0:
72,129,139234,6,0,P|138:141|186:88,1,131.25,4|0,0:0|0:0,0:0:0:0:
212,37,139785,6,0,P|202:98|198:202,1,150,6|0,0:1|0:0,0:0:0:0:
395,274,140335,2,0,P|360:221|274:244,1,150,4|0,0:0|0:0,0:0:0:0:
233,289,140748,1,0,0:0:0:0:
157,285,140886,6,0,P|137:254|131:207,1,75,4|0,0:0|0:0,0:0:0:0:
201,184,141161,1,2,0:0:0:0:
102,354,141436,1,4,0:0:0:0:
201,184,141711,1,2,0:0:0:0:
395,274,141986,6,0,L|387:92,1,150,6|0,0:0|0:0,0:0:0:0:
342,64,142399,1,4,0:0:0:0:
272,168,142537,2,0,P|277:211|295:274,1,75,0|2,0:0|0:0,0:0:0:0:
354,137,142812,2,0,P|349:94|330:30,1,75,12|0,0:1|0:0,0:0:0:0:
48,106,143087,6,0,P|113:81|205:71,1,150,12|2,0:1|0:0,0:0:0:0:
302,191,143500,2,0,P|256:192|229:280,1,150,12|2,0:1|0:0,0:0:0:0:
454,366,143913,6,0,P|453:332|460:283,2,75,12|0|2,0:1|0:0|0:0,0:0:0:0:
350,296,144326,2,0,P|348:262|336:213,1,75,8|0,0:3|0:0,0:0:0:0:
258,166,144601,1,2,0:0:0:0:
154,290,144739,2,0,L|228:278,1,75,12|0,0:0|0:0,0:0:0:0:
148,208,145014,2,0,L|65:195,1,75,12|0,0:0|0:0,0:0:0:0:
220,360,145290,6,0,L|294:348,1,75,2|8,0:0|0:3,0:0:0:0:
311,333,145496,1,2,0:0:0:0:
329,320,145564,1,8,0:3:0:0:
258,166,145702,1,4,0:3:0:0:
436,188,145840,6,0,P|435:154|427:113,1,75,4|4,0:3|0:3,0:0:0:0:
244,180,146115,2,0,P|245:214|253:255,1,75,2|2,0:0|0:0,0:0:0:0:
311,85,146390,5,10,0:0:0:0:
434,266,146528,1,10,0:0:0:0:
434,266,146941,6,0,P|362:263|269:286,1,157.499995193482,4|0,0:0|0:0,0:0:0:0:
244,316,147491,6,0,L|213:234,1,75,14|0,0:0|0:0,0:0:0:0:
142,182,147766,1,8,0:0:0:0:
68,246,147904,1,0,0:0:0:0:
1,174,148042,2,0,P|-9:139|-9:97,1,75,2|2,0:0|0:0,0:0:0:0:
97,37,148317,2,0,P|97:75|87:111,1,75,12|0,0:0|0:0,0:0:0:0:
0,299,148592,6,0,B|79:259|79:322|163:279,1,150,6|8,0:0|0:0,0:0:0:0:
240,265,149005,2,0,L|245:363,1,75,6|0,0:0|0:0,0:0:0:0:
332,298,149280,1,2,0:0:0:0:
403,231,149418,2,0,P|448:237|499:221,1,75,8|0,0:0|0:0,0:0:0:0:
450,64,149693,6,0,L|442:139,1,75,6|0,0:0|0:0,0:0:0:0:
354,95,149968,1,8,0:0:0:0:
304,179,150106,2,0,L|229:170,2,75,0|2|2,0:0|0:0|0:0,0:0:0:0:
157,222,150518,2,0,P|140:176|151:128,1,75,12|0,0:0|0:0,0:0:0:0:
230,43,150794,6,0,P|169:97|76:86,1,150,6|8,0:0|0:0,0:0:0:0:
25,205,151207,2,0,P|14:169|11:132,1,75,6|0,0:0|0:0,0:0:0:0:
146,257,151482,2,0,P|158:217|160:176,1,75,6|8,0:0|0:0,0:0:0:0:
28,303,151757,6,0,P|5:231|0:156,1,150,4|0,0:0|0:0,0:0:0:0:
70,90,152170,2,0,P|117:87|158:73,1,75,12|0,0:0|0:0,0:0:0:0:
229,31,152445,1,2,0:0:0:0:
284,111,152583,1,2,0:0:0:0:
378,90,152720,2,0,L|392:9,1,75,12|0,0:0|0:0,0:0:0:0:
456,150,152996,6,0,L|428:303,2,150,6|8|4,0:0|0:0|0:0,0:0:0:0:
378,90,153684,1,2,0:0:0:0:
284,111,153821,2,0,L|302:210,1,75,8|0,0:0|0:0,0:0:0:0:
287,300,154097,6,0,P|245:293|189:307,1,75,4|8,0:3|0:3,0:0:0:0:
135,356,154372,2,0,P|97:360|61:353,1,75,8|0,0:0|0:0,0:0:0:0:
0,196,154647,2,0,L|16:277,1,75,2|2,0:0|0:0,0:0:0:0:
146,153,154922,2,0,L|130:234,1,75,12|0,0:1|0:0,0:0:0:0:
135,356,155198,6,0,B|187:336|187:336|234:349|234:349|294:331,1,150,8|4,0:3|0:3,0:0:0:0:
356,280,155610,1,0,0:0:0:0:
226,167,155748,5,10,0:0:0:0:
284,350,155886,1,10,0:0:0:0:
356,280,156161,1,0,0:0:0:0:
356,280,156230,1,0,0:0:0:0:
356,280,156298,6,0,L|272:266,1,75,6|0,0:1|0:0,0:0:0:0:
321,177,156574,2,0,L|405:163,1,75,8|0,0:0|0:0,0:0:0:0:
460,92,156849,1,0,0:0:0:0:
383,32,156986,1,2,0:0:0:0:
302,87,157124,2,0,P|264:52|256:28,1,75,12|0,0:0|0:0,0:0:0:0:
110,36,157399,6,0,P|127:102|141:188,1,150,6|12,0:0|0:0,0:0:0:0:
35,271,157812,2,0,P|58:232|161:242,1,150,6|6,0:0|0:0,0:0:0:0:
216,307,158225,2,0,L|125:327,1,75,8|0,0:0|0:0,0:0:0:0:
284,367,158500,6,0,L|375:347,1,75,6|0,0:0|0:0,0:0:0:0:
414,271,158775,1,8,0:0:0:0:
505,304,158913,2,0,L|485:395,2,75,0|2|2,0:0|0:0|0:0,0:0:0:0:
439,203,159326,2,0,P|399:237|369:243,1,75,12|0,0:0|0:0,0:0:0:0:
217,172,159601,6,0,L|365:153,1,150,6|8,0:0|0:0,0:0:0:0:
339,68,160014,2,0,L|261:64,1,75,6|0,0:0|0:0,0:0:0:0:
438,135,160289,2,0,L|363:153,1,75,6|8,0:0|0:0,0:0:0:0:
166,227,160564,6,0,P|207:205|300:269,1,150,4|0,0:0|0:0,0:0:0:0:
265,341,160977,2,0,L|348:337,1,75,12|0,0:0|0:0,0:0:0:0:
395,256,161253,1,0,0:0:0:0:
459,328,161390,1,2,0:0:0:0:
387,245,161528,2,0,L|383:165,1,75,12|0,0:0|0:0,0:0:0:0:
341,48,161803,6,0,P|275:53|184:54,1,150,6|8,0:0|0:0,0:0:0:0:
97,24,162216,1,0,0:0:0:0:
0,129,162353,2,0,P|53:181|125:155,1,150,6|8,0:0|0:0,0:0:0:0:
182,87,162766,1,0,0:0:0:0:
257,199,162904,6,0,L|359:187,1,75,6|0,0:0|0:0,0:0:0:0:
302,311,163179,2,0,L|117:289,1,150,12|2,0:1|0:0,0:0:0:0:
81,227,163592,1,2,0:0:0:0:
11,295,163730,2,0,P|11:327|27:371,1,75,12|8,0:1|0:3,0:0:0:0:
195,329,164005,6,0,L|202:237,1,75,2|8,0:3|0:3,0:0:0:0:
338,190,164280,2,0,L|331:282,1,75,10|8,0:3|0:3,0:0:0:0:
412,357,164555,1,6,0:3:0:0:
325,280,164693,1,4,0:3:0:0:
195,329,164831,2,0,L|120:323,1,75,2|2,0:0|0:0,0:0:0:0:
0,232,165106,6,0,P|42:190|141:201,1,150,6|8,0:1|0:0,0:0:0:0:
208,248,165519,1,0,0:0:0:0:
268,171,165656,2,0,L|350:161,1,75,2|2,0:0|0:0,0:0:0:0:
435,253,165931,2,0,L|353:243,1,75,8|0,0:0|0:0,0:0:0:0:
231,239,166207,2,0,L|228:320,1,75,2|2,0:0|0:0,0:0:0:0:
131,205,166482,2,0,L|134:286,1,75,8|0,0:0|0:0,0:0:0:0:
46,170,166757,6,0,P|91:123|183:131,2,150,2|8|2,0:0|0:0|0:0,0:0:0:0:
96,253,167445,1,0,0:0:0:0:
189,223,167583,2,0,L|263:221,1,75,8|0,0:0|0:0,0:0:0:0:
350,274,167858,2,0,P|365:229|360:194,1,75,2|2,0:0|0:0,0:0:0:0:
350,105,168133,1,8,0:0:0:0:
260,143,168271,1,0,0:0:0:0:
422,160,168409,6,0,P|439:114|436:78,1,75,2|0,0:0|0:0,0:0:0:0:
450,244,168684,2,0,P|487:212|503:179,1,75,8|0,0:0|0:0,0:0:0:0:
435,329,168959,2,0,P|483:320|513:300,1,75,2|0,0:0|0:0,0:0:0:0:
350,274,169234,2,0,P|301:282|271:302,1,75,8|0,0:0|0:0,0:0:0:0:
175,362,169509,6,0,B|135:377|135:377|13:361,2,150,6|8|2,0:1|0:0|0:0,0:0:0:0:
196,265,170198,1,2,0:0:0:0:
101,219,170335,2,0,L|92:295,1,75,8|0,0:0|0:0,0:0:0:0:
12,236,170610,6,0,P|1:210|3:161,1,75,2|2,0:0|0:0,0:0:0:0:
60,84,170886,1,8,0:0:0:0:
142,135,171023,1,0,0:0:0:0:
211,77,171161,2,0,P|255:70|290:70,1,75,2|0,0:0|0:0,0:0:0:0:
370,173,171436,2,0,P|333:166|296:166,1,75,8|0,0:0|0:0,0:0:0:0:
190,250,171711,6,0,P|279:252|365:271,2,150,2|8|2,0:0|0:0|0:0,0:0:0:0:
117,316,172399,1,2,0:0:0:0:
59,237,172537,2,0,L|43:145,1,75,12|0,0:1|0:0,0:0:0:0:
135,65,172812,6,0,P|170:63|217:50,1,75,2|2,0:0|0:0,0:0:0:0:
304,73,173087,2,0,P|281:103|265:136,1,75,12|0,0:1|0:0,0:0:0:0:
401,115,173363,2,0,L|397:33,1,75,2|8,0:0|0:0,0:0:0:0:
489,177,173638,2,0,L|500:95,1,75,8|8,0:0|0:0,0:0:0:0:
391,218,173913,5,6,0:1:0:0:
225,273,174188,2,0,L|150:263,1,75,12|0,0:0|0:0,0:0:0:0:
33,146,174464,2,0,L|123:134,1,75,12|2,0:0|0:0,0:0:0:0:
97,334,174738,2,0,P|67:292|62:254,1,75,12|2,0:0|0:0,0:0:0:0:
262,206,175014,6,0,P|246:270|227:360,2,150,12|12|12,0:0|0:0|0:0,0:0:0:0:
332,138,175702,1,2,0:0:0:0:
433,265,175840,2,0,P|438:227|431:176,1,75,12|2,0:0|0:0,0:0:0:0:
295,320,176115,6,0,L|195:312,1,75,6|0,0:1|0:0,0:0:0:0:
129,195,176390,2,0,L|229:187,1,75,12|0,0:0|0:0,0:0:0:0:
332,138,176665,1,12,0:0:0:0:
332,138,176803,1,2,0:0:0:0:
202,42,176941,2,0,L|123:53,1,75,12|2,0:0|0:0,0:0:0:0:
6,150,177216,6,0,P|56:132|95:134,1,75,6|0,0:1|0:0,0:0:0:0:
129,195,177491,1,2,0:0:0:0:
201,154,177629,1,8,0:0:0:0:
275,261,177766,2,0,P|266:308|264:344,2,75,10|8|6,0:3|0:3|0:3,0:0:0:0:
339,208,178179,1,4,0:3:0:0:
400,263,178317,5,6,0:1:0:0:
411,281,178592,2,0,P|361:276|229:312,1,179.999994506836,4|0,0:0|0:0,0:0:0:0:
143,364,179418,6,0,L|51:356,1,89.9999972534181,6|0,0:1|0:0,0:0:0:0:
146,225,179968,2,0,P|194:245|257:184,1,134.999995880127,4|0,0:0|0:0,0:0:0:0:
264,116,180519,5,6,0:1:0:0:
329,76,182583,6,0,L|337:34,2,37.5,0|0|0,0:0|0:0|0:0,0:0:0:0:
257,67,193179,6,0,B|224:142|290:143|246:225,1,157.499995193482,6|0,0:3|0:0,0:0:0:0:
232,251,193730,5,6,0:1:0:0:
144,179,194005,2,0,P|101:169|56:160,2,89.9999972534181,6|6|6,0:3|0:3|0:3,0:0:0:0:
327,230,194831,5,6,0:3:0:0:
169,282,195106,1,6,0:3:0:0:
302,348,195381,2,0,L|309:251,1,89.9999972534181,6|6,0:3|0:3,0:0:0:0:
476,336,195931,6,0,P|437:315|393:307,1,89.9999972534181,6|6,0:3|0:3,0:0:0:0:
263,168,196482,2,0,P|302:146|346:138,1,89.9999972534181,6|6,0:3|0:3,0:0:0:0:
448,163,197032,5,6,0:3:0:0:
327,230,197308,1,6,0:3:0:0:
351,48,197583,1,10,0:0:0:0:
250,120,197858,5,4,0:3:0:0:
250,120,197996,1,4,0:3:0:0:
249,120,198133,2,0,B|198:148|142:141|93:108|93:108|78:151|115:209,1,269.999991760254,6|0,0:1|0:0,0:0:0:0:
152,290,199234,6,0,P|108:299|67:284,1,89.9999972534181,0|8,0:0|0:0,0:0:0:0:
231,245,199647,1,0,0:0:0:0:
312,284,199785,1,2,0:0:0:0:
312,284,199922,1,8,0:0:0:0:
353,203,200060,2,0,L|359:146,1,44.999998626709,8|8,0:0|0:0,0:0:0:0:
370,50,200335,5,6,0:1:0:0:
256,192,200404,12,4,202537,0:0:0:0:
95,158,202812,5,0,0:0:0:0:
48,223,203087,1,0,0:0:0:0:
89,293,203363,1,4,0:0:0:0:
187,245,203638,6,0,P|225:237|281:243,1,89.9999972534181,4|0,0:0|0:0,0:0:0:0:
324,306,204051,1,4,0:0:0:0:
433,144,204326,2,0,L|436:278,1,134.999995880127,4|4,0:0|0:0,0:0:0:0:
353,162,205014,5,0,0:0:0:0:
344,81,205289,1,0,0:0:0:0:
335,0,205564,1,4,0:0:0:0:
198,95,205840,6,0,P|150:88|99:92,1,89.9999972534181,4|0,0:0|0:0,0:0:0:0:
49,145,206252,2,0,P|64:198|68:239,1,89.9999972534181,4|4,0:0|0:0,0:0:0:0:
0,325,206803,6,0,P|30:297|124:297,1,134.999995880127,4|4,0:0|0:0,0:0:0:0:
253,364,207491,1,0,0:0:0:0:
333,352,207766,1,4,0:0:0:0:
413,364,208042,6,0,P|419:320|418:269,1,89.9999972534181,4|0,0:0|0:0,0:0:0:0:
313,60,208592,2,0,P|312:104|319:149,1,89.9999972534181,4|0,0:0|0:0,0:0:0:0:
386,23,209142,5,4,0:0:0:0:
313,60,209418,1,4,0:0:0:0:
232,60,209693,1,0,0:0:0:0:
159,23,209969,1,4,0:0:0:0:
57,76,210243,6,0,P|96:67|159:73,2,89.9999972534181,4|0|4,0:0|0:0|0:0,0:0:0:0:
17,147,211069,1,0,0:0:0:0:
106,272,211344,5,4,0:1:0:0:
166,217,211620,1,0,0:0:0:0:
245,199,211895,1,0,0:0:0:0:
324,216,212170,1,4,0:0:0:0:
261,316,212445,6,0,P|220:304|167:307,1,89.9999972534181,4|0,0:0|0:0,0:0:0:0:
109,355,212858,2,0,P|64:356|21:344,1,89.9999972534181,4|4,0:0|0:0,0:0:0:0:
5,264,213272,1,0,0:0:0:0:
110,74,213546,5,4,0:0:0:0:
131,151,213821,1,0,0:0:0:0:
152,228,214097,1,0,0:0:0:0:
172,304,214372,1,4,0:0:0:0:
300,215,214647,6,0,P|281:172|274:123,1,89.9999972534181,4|0,0:0|0:0,0:0:0:0:
371,165,215060,2,0,P|399:140|465:154,1,89.9999972534181,4|0,0:0|0:0,0:0:0:0:
512,204,215473,1,4,0:0:0:0:
238,317,215748,6,0,P|168:318|144:324,2,89.9999972534181,4|4|0,0:0|0:0|0:0,0:0:0:0:
314,345,216574,1,4,0:0:0:0:
440,270,216849,6,0,P|375:308|284:246,1,179.999994506836,4|4,0:0|0:0,0:0:0:0:
379,71,217950,5,0,0:0:0:0:
241,102,219601,5,10,0:0:0:0:
463,155,219739,1,10,0:0:0:0:
463,155,220152,6,0,P|460:196|456:237,1,82.5000025177003,14|0,0:0|0:0,0:0:0:0:
373,349,220427,2,0,P|368:307|366:266,1,82.5000025177003,8|0,0:0|0:0,0:0:0:0:
317,174,220702,2,0,P|250:132|172:151,1,165.000005035401,2|12,0:0|0:0,0:0:0:0:
112,220,221115,1,0,0:0:0:0:
225,297,221253,6,0,L|234:215,1,82.5000025177003,6|2,0:0|0:0,0:0:0:0:
188,49,221528,1,8,0:0:0:0:
52,138,221665,2,0,P|93:134|135:131,1,82.5000025177003,6|0,0:0|0:0,0:0:0:0:
313,227,221941,2,0,P|273:229|234:215,1,82.5000025177003,2|8,0:0|0:0,0:0:0:0:
172,151,222216,1,0,0:0:0:0:
375,114,222353,5,6,0:0:0:0:
375,114,222491,1,0,0:0:0:0:
283,155,222629,2,0,L|275:72,1,82.5000025177003,8|0,0:0|0:0,0:0:0:0:
415,6,222904,2,0,L|407:89,1,82.5000025177003,2|2,0:0|0:0,0:0:0:0:
312,227,223179,6,0,B|358:240|358:240|408:195|467:220,2,165.000005035401,12|6|8,0:0|0:0|0:0,0:0:0:0:
349,324,223867,2,0,P|390:321|425:300,1,82.5000025177003,6|0,0:0|0:0,0:0:0:0:
328,145,224142,2,0,P|287:148|252:169,1,82.5000025177003,6|8,0:0|0:0,0:0:0:0:
221,276,224418,6,0,P|216:193|207:111,1,165.000005035401,4|4,0:0|0:0,0:0:0:0:
143,27,224831,2,0,P|103:19|62:14,1,82.5000025177003,12|0,0:0|0:0,0:0:0:0:
0,140,225106,2,0,P|40:132|81:127,1,82.5000025177003,2|2,0:0|0:0,0:0:0:0:
280,182,225381,2,0,P|242:197|203:209,1,82.5000025177003,12|0,0:0|0:0,0:0:0:0:
242,88,225656,6,0,P|322:94|375:154,1,165.000005035401,6|8,0:0|0:0,0:0:0:0:
341,287,226069,1,0,0:0:0:0:
419,233,226207,2,0,P|460:229|501:224,1,82.5000025177003,6|2,0:0|0:0,0:0:0:0:
309,311,226482,2,0,P|268:306|227:303,1,82.5000025177003,8|0,0:0|0:0,0:0:0:0:
111,234,226757,6,0,P|98:196|97:154,1,82.5000025177003,6|8,0:0|0:3,0:0:0:0:
242,89,227032,2,0,P|255:127|256:169,1,82.5000025177003,12|0,0:1|0:0,0:0:0:0:
144,323,227308,2,0,P|103:313|62:308,1,82.5000025177003,2|2,0:0|0:0,0:0:0:0:
16,169,227583,2,0,P|56:159|97:154,1,82.5000025177003,12|0,0:1|0:0,0:0:0:0:
188,233,227858,5,8,0:3:0:0:
188,233,227996,1,8,0:3:0:0:
256,169,228133,2,0,P|299:185|340:190,1,82.5000025177003,4|4,0:3|0:3,0:0:0:0:
440,132,228409,1,6,0:0:0:0:
303,47,228546,6,0,L|288:86,5,41.2500012588501,8|8|8|8|8|8,0:0|0:0|0:0|0:0|0:0|0:0,0:0:0:0:
217,139,228959,6,0,P|178:129|137:125,1,82.5000025177003,6|0,0:1|0:0,0:0:0:0:
10,192,229234,1,8,0:0:0:0:
48,286,229372,2,0,P|102:226|101:145,1,165.000005035401,0|2,0:0|0:0,0:0:0:0:
26,66,229785,2,0,P|66:60|107:55,1,82.5000025177003,12|0,0:0|0:0,0:0:0:0:
209,20,230060,6,0,P|249:26|286:45,1,82.5000025177003,6|0,0:0|0:0,0:0:0:0:
414,94,230335,1,8,0:0:0:0:
251,160,230473,2,0,P|287:142|328:135,1,82.5000025177003,6|0,0:0|0:0,0:0:0:0:
456,270,230748,2,0,P|375:264|311:215,1,165.000005035401,6|0,0:0|0:0,0:0:0:0:
228,85,231161,6,0,L|139:102,1,82.5000025177003,6|0,0:0|0:0,0:0:0:0:
28,160,231436,1,8,0:0:0:0:
153,271,231574,2,0,P|163:231|169:190,2,82.5000025177003,0|2|0,0:0|0:0|0:0,0:0:0:0:
75,329,231986,2,0,P|105:356|144:365,1,82.5000025177003,12|0,0:0|0:0,0:0:0:0:
248,324,232263,6,0,B|292:289|292:289|348:289|388:335,1,165.000005035401,6|8,0:0|0:0,0:0:0:0:
470,243,232675,2,0,P|478:194|484:152,1,82.5000025177003,6|0,0:0|0:0,0:0:0:0:
383,72,232950,2,0,P|378:113|371:154,1,82.5000025177003,6|8,0:0|0:0,0:0:0:0:
359,39,233225,6,0,P|283:16|226:71,1,165.000005035401,4|2,0:0|0:0,0:0:0:0:
191,210,233638,2,0,P|158:234|118:242,1,82.5000025177003,12|0,0:0|0:0,0:0:0:0:
0,140,233913,1,2,0:0:0:0:
30,280,234051,1,2,0:0:0:0:
123,162,234188,2,0,L|131:76,1,82.5000025177003,12|0,0:0|0:0,0:0:0:0:
283,38,234464,6,0,B|321:2|321:2|311:114,1,165.000005035401,6|8,0:0|0:0,0:0:0:0:
261,199,234876,1,0,0:0:0:0:
383,164,235014,2,0,P|428:158|475:152,1,82.5000025177003,6|0,0:0|0:0,0:0:0:0:
364,48,235289,2,0,P|323:42|282:37,1,82.5000025177003,8|0,0:0|0:0,0:0:0:0:
189,95,235564,5,6,0:0:0:0:
96,52,235702,1,2,0:0:0:0:
123,244,235840,2,0,P|181:188|260:198,1,165.000005035401,12|2,0:1|0:0,0:0:0:0:
341,274,236253,1,2,0:0:0:0:
212,348,236390,2,0,P|213:306|206:266,1,82.5000025177003,12|8,0:1|0:3,0:0:0:0:
119,124,236665,5,10,0:3:0:0:
119,124,236803,1,8,0:3:0:0:
42,254,236941,2,0,L|125:243,1,82.5000025177003,10|8,0:3|0:3,0:0:0:0:
284,152,237216,2,0,L|202:162,1,82.5000025177003,6|4,0:3|0:3,0:0:0:0:
2,123,237491,2,0,L|83:112,1,82.5000025177,2|2,0:3|0:0,0:0:0:0:
247,71,237766,6,0,P|292:45|389:60,1,150,6|8,0:1|0:0,0:0:0:0:
442,137,238179,1,0,0:0:0:0:
355,256,238317,2,0,P|315:252|281:254,1,75,2|2,0:0|0:0,0:0:0:0:
150,340,238592,2,0,P|190:344|224:342,1,75,8|0,0:0|0:0,0:0:0:0:
102,214,238867,6,0,L|120:373,1,150,2|8,0:0|0:0,0:0:0:0:
21,303,239280,1,0,0:0:0:0:
189,210,239418,2,0,L|273:200,1,75,2|0,0:0|0:0,0:0:0:0:
428,260,239693,2,0,L|344:250,1,75,8|0,0:0|0:0,0:0:0:0:
161,111,239968,6,0,P|213:74|299:109,1,150,2|8,0:0|0:0,0:0:0:0:
351,174,240381,1,0,0:0:0:0:
426,111,240519,2,0,L|434:22,1,75,2|2,0:0|0:0,0:0:0:0:
351,174,240794,2,0,L|357:248,1,75,8|0,0:0|0:0,0:0:0:0:
221,328,241069,6,0,L|146:325,2,75,2|0|8,0:0|0:0|0:0,0:0:0:0:
193,229,241482,1,0,0:0:0:0:
67,368,241619,2,0,P|56:330|66:284,1,75,2|2,0:0|0:0,0:0:0:0:
148,249,241895,2,0,P|159:211|149:165,1,75,8|0,0:0|0:0,0:0:0:0:
22,78,242170,6,0,P|39:162|50:242,2,150,6|8|2,0:1|0:0|0:0,0:0:0:0:
96,14,242858,1,2,0:0:0:0:
153,93,242996,2,0,P|196:82|242:78,1,75,8|0,0:0|0:0,0:0:0:0:
326,141,243271,6,0,L|315:237,1,75,2|2,0:0|0:0,0:0:0:0:
416,105,243546,2,0,L|425:180,1,75,8|0,0:0|0:0,0:0:0:0:
361,301,243821,2,0,P|293:258|208:284,1,150,2|8,0:0|0:0,0:0:0:0:
165,344,244234,1,0,0:0:0:0:
20,252,244372,6,0,B|67:228|67:228|120:232|120:232|174:206,1,150,2|8,0:0|0:0,0:0:0:0:
208,128,244785,1,0,0:0:0:0:
296,196,244922,2,0,L|286:274,1,75,2|2,0:0|0:0,0:0:0:0:
399,233,245198,2,0,L|389:158,1,75,12|0,0:1|0:0,0:0:0:0:
304,34,245473,6,0,L|220:56,1,75,2|2,0:0|0:0,0:0:0:0:
68,90,245748,2,0,P|106:45|136:37,1,75,8|0,0:0|0:0,0:0:0:0:
208,128,246023,2,0,L|187:223,1,75,2|8,0:0|0:0,0:0:0:0:
130,334,246298,2,0,L|114:261,1,75,8|8,0:0|0:0,0:0:0:0:
258,257,246574,5,6,0:1:0:0:
362,84,246849,2,0,P|330:71|268:66,1,82.5000025177003,12|0,0:0|0:0,0:0:0:0:
392,182,247124,2,0,P|424:169|486:164,1,82.5000025177003,12|2,0:0|0:0,0:0:0:0:
337,275,247399,2,0,P|305:262|243:257,1,82.5000025177003,12|2,0:0|0:0,0:0:0:0:
4,317,247675,6,0,P|50:285|161:316,1,165.000005035401,12|12,0:0|0:0,0:0:0:0:
237,367,248087,1,0,0:0:0:0:
336,325,248225,2,0,L|338:229,1,82.5000025177003,12|2,0:0|0:0,0:0:0:0:
206,150,248500,2,0,L|225:230,1,82.5000025177003,12|2,0:0|0:0,0:0:0:0:
326,99,248775,6,0,P|403:115|470:41,2,165.000005035401,6|12|12,0:1|0:0|0:0,0:0:0:0:
240,31,249464,1,2,0:0:0:0:
120,116,249601,2,0,L|135:211,1,82.5000025177003,12|2,0:0|0:0,0:0:0:0:
295,197,249876,5,6,0:1:0:0:
217,320,250014,1,0,0:0:0:0:
202,150,250152,1,2,0:0:0:0:
311,282,250289,1,8,0:0:0:0:
371,165,250427,2,0,P|414:157|468:158,1,82.5000025177003,10|8,0:3|0:3,0:0:0:0:
311,282,250702,2,0,P|270:274|229:273,1,82.5000025177003,4|6,0:3|0:3,0:0:0:0:
140,334,250977,5,6,0:1:0:0:
130,340,251253,2,0,L|109:160,1,179.999994506836,4|0,0:0|0:0,0:0:0:0:
183,78,252078,6,0,P|226:66|270:87,1,89.9999972534181,6|0,0:1|0:0,0:0:0:0:
286,197,252629,2,0,L|306:49,1,134.999995880127,4|0,0:0|0:0,0:0:0:0:
376,18,253179,5,14,0:0:0:0:
