osu file format v14

[General]
AudioFilename: audio.mp3
AudioLeadIn: 2000
PreviewTime: 108707
Countdown: 0
SampleSet: Normal
StackLeniency: 0.4
Mode: 0
LetterboxInBreaks: 1
WidescreenStoryboard: 1

[Editor]
Bookmarks: 119411,168549,178446
DistanceSpacing: 1.2
BeatDivisor: 8
GridSize: 4
TimelineZoom: 2.4

[Metadata]
Title:Caramel Heaven
TitleUnicode:アマツキヘヴン
Artist:Amatsuki
ArtistUnicode:Amatsuki
Creator:Maruyu
Version:how very unheaventful...
Source:
Tags:
BeatmapID:2066647
BeatmapSetID:987861

[Difficulty]
HPDrainRate:7
CircleSize:4.5
OverallDifficulty:8
ApproachRate:9.3
SliderMultiplier:1.6
SliderTickRate:2

[Events]
//Background and Video events
0,0,"BG.jpg",0,0
//Break Periods
2,72253,78906
2,168748,177891
2,210810,212530
//Storyboard Layer 0 (Background)
//Storyboard Layer 1 (Fail)
//Storyboard Layer 2 (Pass)
//Storyboard Layer 3 (Foreground)
//Storyboard Layer 4 (Overlay)
//Storyboard Sound Samples

[TimingPoints]
301,309.278350515464,4,1,1,50,1,0
8342,-333.333333333333,4,1,1,50,0,0
8496,-333.333333333333,4,1,1,30,0,0
8651,-333.333333333333,4,1,1,50,0,0
8806,-100,4,1,1,30,0,0
8960,-100,4,1,1,70,0,0
20094,-125,4,1,1,70,0,0
29218,-166.666666666667,4,1,1,70,0,0
29527,-500,4,1,1,70,0,0
29837,-125,4,1,1,70,0,0
39888,-166.666666666667,4,1,1,70,0,0
49785,-100,4,1,1,70,0,1
59643,-100,4,1,1,70,0,0
59682,-100,4,1,1,70,0,1
69579,-100,4,1,1,70,0,0
79476,-166.666666666667,4,1,1,70,0,0
88136,-125,4,1,1,70,0,0
88909,-500.000000000003,4,1,1,70,0,0
89218,-125,4,1,1,70,0,0
89373,-125,4,1,1,70,0,0
99270,-100,4,1,1,70,0,0
99424,-166.666666666667,4,1,1,70,0,0
104218,-125,4,1,1,70,0,0
108239,-100,4,1,1,70,0,0
109166,-100,4,1,1,70,0,1
128960,-100,4,1,1,70,0,0
148754,-166.666666666667,4,1,1,70,0,0
158651,-125,4,1,1,70,0,0
178445,-166.666666666667,4,1,1,70,0,0
188032,-100,4,1,1,70,0,0
208136,-100,4,1,1,70,0,0

[Colours]
Combo1 : 255,157,157
Combo2 : 225,225,225
Combo3 : 162,208,255
Combo4 : 113,255,184

[HitObjects]
126,67,301,5,0,0:0:0:0:
109,185,455,1,0,0:0:0:0:
109,185,2775,5,0,0:0:0:0:
126,67,2929,1,0,0:0:0:0:
376,343,5249,5,0,0:0:0:0:
393,225,5403,1,0,0:0:0:0:
393,225,7723,5,0,0:0:0:0:
376,343,7877,1,0,0:0:0:0:
376,343,8342,6,0,L|348:353,1,23.9999992675781
264,301,8651,2,0,L|292:311,1,23.9999992675781
423,261,8960,6,0,P|411:222|410:181,1,80
426,153,9192,1,0,0:0:0:0:
426,153,9270,1,0,0:0:0:0:
306,90,9424,1,0,0:0:0:0:
256,251,9579,1,0,0:0:0:0:
225,260,9656,1,0,0:0:0:0:
193,262,9733,1,0,0:0:0:0:
162,252,9811,1,0,0:0:0:0:
132,235,9888,2,0,P|94:225|54:225,1,80
206,157,10197,5,0,0:0:0:0:
199,142,10275,1,0,0:0:0:0:
193,127,10352,1,0,0:0:0:0:
84,305,10507,1,0,0:0:0:0:
256,251,10661,1,0,0:0:0:0:
120,279,10816,2,0,P|118:319|130:357,1,80
320,293,11125,1,0,0:0:0:0:
200,309,11280,1,0,0:0:0:0:
320,293,11435,5,0,0:0:0:0:
231,151,11589,1,0,0:0:0:0:
121,279,11744,1,0,0:0:0:0:
256,233,11898,1,0,0:0:0:0:
106,154,12053,1,0,0:0:0:0:
9,291,12208,1,0,0:0:0:0:
10,307,12285,1,0,0:0:0:0:
11,323,12362,1,0,0:0:0:0:
227,325,12517,6,0,P|170:274|96:295,1,160
263,145,12981,2,0,L|255:224,1,80
352,330,13290,1,0,0:0:0:0:
368,327,13368,1,0,0:0:0:0:
384,325,13445,1,0,0:0:0:0:
362,217,13599,1,0,0:0:0:0:
283,364,13754,1,0,0:0:0:0:
438,215,13909,6,0,P|427:177|398:150,1,80
267,261,14218,1,0,0:0:0:0:
367,295,14373,1,0,0:0:0:0:
437,97,14527,2,0,L|342:100,1,80
187,263,14837,2,0,L|266:260,1,80
256,60,15146,5,0,0:0:0:0:
246,72,15223,1,0,0:0:0:0:
236,85,15301,1,0,0:0:0:0:
155,49,15455,1,0,0:0:0:0:
328,31,15610,1,0,0:0:0:0:
255,154,15765,1,0,0:0:0:0:
155,49,15919,1,0,0:0:0:0:
255,154,16074,1,0,0:0:0:0:
89,216,16228,1,0,0:0:0:0:
174,131,16383,5,0,0:0:0:0:
22,41,16538,1,0,0:0:0:0:
31,257,16692,2,0,P|61:282|100:287,1,80
240,248,17002,1,0,0:0:0:0:
183,379,17156,1,0,0:0:0:0:
180,363,17233,1,0,0:0:0:0:
178,347,17311,1,0,0:0:0:0:
330,182,17465,6,0,P|351:257|319:328,1,160
240,248,17929,1,0,0:0:0:0:
319,99,18084,1,0,0:0:0:0:
451,204,18239,1,0,0:0:0:0:
453,220,18316,1,0,0:0:0:0:
453,236,18393,1,0,0:0:0:0:
245,155,18548,1,0,0:0:0:0:
468,52,18703,6,0,P|430:38|391:41,1,80
264,142,19012,1,0,0:0:0:0:
420,113,19166,1,0,0:0:0:0:
363,272,19321,2,0,P|350:234|352:194,1,80
420,113,19630,1,0,0:0:0:0:
408,357,19785,1,0,0:0:0:0:
376,351,19862,1,0,0:0:0:0:
345,344,19940,1,0,0:0:0:0:
313,337,20017,1,0,0:0:0:0:
280,329,20094,6,0,P|249:334|223:352,1,64
206,163,20404,2,0,P|200:194|209:225,1,64
31,303,20713,2,0,L|107:299,1,64
124,302,20945,1,0,0:0:0:0:
124,302,21022,1,0,0:0:0:0:
59,214,21177,1,0,0:0:0:0:
178,90,21331,6,0,P|205:85|251:97,2,64
209,225,21795,1,0,0:0:0:0:
100,32,21950,2,0,L|106:127,1,96
73,197,22259,1,0,0:0:0:0:
178,90,22414,1,0,0:0:0:0:
209,225,22569,6,0,L|204:292,1,64
344,186,22878,2,0,L|339:122,1,64
404,331,23187,2,0,P|438:322|470:325,1,64
490,333,23419,1,0,0:0:0:0:
490,333,23496,1,0,0:0:0:0:
323,357,23651,1,0,0:0:0:0:
428,184,23806,6,0,P|431:216|427:248,1,64
341,214,24115,1,0,0:0:0:0:
502,129,24270,1,0,0:0:0:0:
288,52,24424,2,0,P|322:57|359:54,1,64
374,43,24656,1,0,0:0:0:0:
374,43,24733,1,0,0:0:0:0:
249,154,24888,1,0,0:0:0:0:
110,30,25043,6,0,L|104:105,1,64
244,217,25352,2,0,L|249:153,1,64
35,56,25661,2,0,L|29:131,1,64
33,145,25893,1,0,0:0:0:0:
33,145,25971,1,0,0:0:0:0:
123,322,26125,6,0,P|62:310|4:335,1,128
135,196,26589,2,0,P|104:205|81:226,1,64
316,332,26898,1,0,0:0:0:0:
293,187,27053,1,0,0:0:0:0:
167,264,27208,1,0,0:0:0:0:
347,345,27362,1,0,0:0:0:0:
472,190,27517,6,0,L|461:126,2,64
217,150,27981,2,0,P|266:106|329:110,1,128
346,122,28368,1,0,0:0:0:0:
346,122,28445,1,0,0:0:0:0:
276,213,28599,1,0,0:0:0:0:
381,44,28754,5,0,0:0:0:0:
413,181,28909,1,0,0:0:0:0:
244,76,29064,1,0,0:0:0:0:
276,213,29218,2,0,B|281:237|281:237|290:212,1,47.9999985351563
381,44,29527,6,0,L|373:12,1,32
349,4,29914,1,0,0:0:0:0:
349,4,29991,6,0,P|386:19|420:9,1,64
256,65,30301,2,0,P|229:82|216:111,1,64
368,235,30610,2,0,L|372:171,1,64
368,132,30842,1,0,0:0:0:0:
368,132,30920,1,0,0:0:0:0:
278,288,31074,1,0,0:0:0:0:
460,302,31228,6,0,P|477:272|482:239,1,64
278,288,31538,2,0,P|283:319|300:346,1,64
371,171,31847,1,0,0:0:0:0:
178,264,32002,2,0,L|182:327,1,64
274,217,32311,1,0,0:0:0:0:
120,171,32465,6,0,L|88:165,1,32
5,213,32620,2,0,L|36:219,1,32
89,166,32775,2,0,L|83:102,1,64
0,23,33084,2,0,L|5:86,1,64
199,43,33393,2,0,P|168:36|137:42,1,64
311,131,33703,5,0,0:0:0:0:
274,20,33857,1,0,0:0:0:0:
224,163,34012,1,0,0:0:0:0:
369,51,34166,1,0,0:0:0:0:
295,220,34321,2,0,P|295:254|305:294,1,64
485,363,34630,1,0,0:0:0:0:
379,243,34785,1,0,0:0:0:0:
243,328,34940,5,0,0:0:0:0:
394,260,35094,1,0,0:0:0:0:
201,227,35249,1,0,0:0:0:0:
394,260,35404,1,0,0:0:0:0:
284,90,35558,2,0,P|278:121|284:153,1,64
295,175,35790,1,0,0:0:0:0:
295,175,35868,1,0,0:0:0:0:
485,136,36022,6,0,L|358:122,1,128
153,63,36486,2,0,L|216:55,1,64
331,42,36795,1,0,0:0:0:0:
193,133,36950,1,0,0:0:0:0:
354,28,37105,2,0,P|362:58|360:93,1,64
256,204,37414,6,0,P|247:234|249:266,2,64
448,192,37878,2,0,L|384:195,1,64
507,127,38187,1,0,0:0:0:0:
423,327,38342,2,0,P|417:296|420:265,1,64
475,59,38651,6,0,P|481:90|478:121,1,64
330,363,38960,2,0,P|327:332|334:301,1,64
391,168,39270,5,0,0:0:0:0:
353,174,39347,1,0,0:0:0:0:
315,180,39424,1,0,0:0:0:0:
277,188,39502,1,0,0:0:0:0:
252,217,39579,5,0,0:0:0:0:
228,206,39656,1,0,0:0:0:0:
205,194,39733,1,0,0:0:0:0:
182,181,39811,1,0,0:0:0:0:
160,168,39888,6,0,L|165:270,1,95.9999970703126
126,330,40352,1,0,0:0:0:0:
76,148,40507,2,0,L|78:195,1,47.9999985351563
133,96,40816,1,0,0:0:0:0:
46,13,40971,2,0,P|17:47|17:97,1,95.9999970703126
76,148,41435,2,0,P|101:146|129:138,1,47.9999985351563
256,37,41744,2,0,P|245:59|238:87,1,47.9999985351563
262,248,42053,2,0,P|247:227|226:207,1,47.9999985351563
331,152,42362,6,0,L|428:157,1,95.9999970703126
375,225,42826,1,0,0:0:0:0:
251,122,42981,2,0,P|278:84|322:66,1,95.9999970703126
375,225,43445,2,0,B|386:273|364:272|375:320,1,95.9999970703126
448,297,43909,1,0,0:0:0:0:
301,247,44063,1,0,0:0:0:0:
201,321,44218,2,0,P|200:345|203:369,1,47.9999985351563
301,247,44527,1,0,0:0:0:0:
287,232,44605,1,0,0:0:0:0:
270,221,44682,1,0,0:0:0:0:
252,214,44759,1,0,0:0:0:0:
232,213,44837,6,0,L|128:212,1,95.9999970703126
89,273,45301,1,0,0:0:0:0:
185,149,45455,2,0,P|187:101|184:53,1,95.9999970703126
47,20,45919,2,0,P|63:63|109:73,1,95.9999970703126
184,53,46383,2,0,P|206:46|231:45,1,47.9999985351563
333,131,46692,2,0,P|309:129|287:122,1,47.9999985351563
404,42,47002,2,0,L|399:90,1,47.9999985351563
329,55,47311,5,0,0:0:0:0:
367,230,47465,1,0,0:0:0:0:
399,90,47620,5,0,0:0:0:0:
361,265,47774,1,0,0:0:0:0:
256,131,47929,5,0,0:0:0:0:
294,306,48083,1,0,0:0:0:0:
481,84,48239,5,0,0:0:0:0:
478,341,48393,1,0,0:0:0:0:
449,332,48471,1,0,0:0:0:0:
419,322,48548,1,0,0:0:0:0:
271,44,49321,5,0,0:0:0:0:
268,58,49398,1,0,0:0:0:0:
265,72,49476,1,0,0:0:0:0:
263,86,49553,1,0,0:0:0:0:
261,100,49630,1,0,0:0:0:0:
260,114,49708,1,0,0:0:0:0:
258,128,49785,6,0,P|185:149|126:100,1,160
110,21,50249,1,0,0:0:0:0:
0,169,50404,2,0,L|88:166,1,80
334,102,50713,1,0,0:0:0:0:
334,102,50868,2,0,P|275:52|201:74,1,160
396,207,51331,1,0,0:0:0:0:
428,50,51486,1,0,0:0:0:0:
290,285,51641,1,0,0:0:0:0:
258,128,51795,1,0,0:0:0:0:
258,128,51873,1,0,0:0:0:0:
258,128,51950,1,0,0:0:0:0:
109,305,52105,6,0,B|229:292|229:292|266:303,1,160
285,329,52491,1,0,0:0:0:0:
303,355,52569,1,0,0:0:0:0:
357,192,52723,1,0,0:0:0:0:
361,223,52801,1,0,0:0:0:0:
365,254,52878,1,0,0:0:0:0:
502,215,53032,1,0,0:0:0:0:
491,244,53110,1,0,0:0:0:0:
480,273,53187,1,0,0:0:0:0:
412,108,53342,6,0,P|336:91|272:138,1,160
250,213,53806,1,0,0:0:0:0:
152,99,53960,2,0,L|163:19,1,80
250,213,54270,2,0,L|196:220,1,40
90,188,54424,2,0,L|130:183,1,40
240,283,54579,1,0,0:0:0:0:
252,312,54656,1,0,0:0:0:0:
244,343,54733,6,0,P|175:306|97:318,1,160
30,361,55197,1,0,0:0:0:0:
122,162,55352,1,0,0:0:0:0:
60,247,55507,1,0,0:0:0:0:
19,88,55661,1,0,0:0:0:0:
224,49,55816,2,0,L|384:59,1,160
256,156,56280,1,0,0:0:0:0:
407,223,56435,1,0,0:0:0:0:
372,29,56589,1,0,0:0:0:0:
311,257,56744,1,0,0:0:0:0:
311,257,56821,1,0,0:0:0:0:
311,257,56898,1,0,0:0:0:0:
489,120,57053,6,0,P|413:121|370:57,1,160
224,13,57517,1,0,0:0:0:0:
228,44,57594,1,0,0:0:0:0:
232,76,57672,1,0,0:0:0:0:
236,107,57749,1,0,0:0:0:0:
240,138,57826,1,0,0:0:0:0:
372,29,57981,1,0,0:0:0:0:
331,192,58136,1,0,0:0:0:0:
157,80,58290,6,0,P|105:51|41:58,1,120
12,78,58599,1,0,0:0:0:0:
228,44,58754,1,0,0:0:0:0:
87,134,58909,2,0,L|104:293,1,160
281,316,59373,1,0,0:0:0:0:
314,309,59450,1,0,0:0:0:0:
345,304,59527,1,0,0:0:0:0:
376,298,59605,1,0,0:0:0:0:
407,293,59682,6,0,L|425:134,1,160
394,59,60146,1,0,0:0:0:0:
329,205,60301,1,0,0:0:0:0:
512,150,60455,1,0,0:0:0:0:
378,23,60610,1,0,0:0:0:0:
311,229,60765,2,0,L|151:220,1,160
72,287,61228,1,0,0:0:0:0:
236,146,61383,1,0,0:0:0:0:
150,337,61538,1,0,0:0:0:0:
154,104,61692,1,0,0:0:0:0:
154,104,61770,1,0,0:0:0:0:
154,104,61847,1,0,0:0:0:0:
230,287,62002,6,0,P|160:321|86:298,1,160
58,168,62465,1,0,0:0:0:0:
49,137,62543,1,0,0:0:0:0:
40,107,62620,1,0,0:0:0:0:
172,43,62775,1,0,0:0:0:0:
163,73,62852,1,0,0:0:0:0:
154,104,62930,1,0,0:0:0:0:
195,172,63084,1,0,0:0:0:0:
375,157,63239,6,0,P|328:99|256:120,1,160
281,212,63703,1,0,0:0:0:0:
433,251,63857,2,0,P|472:246|507:227,1,80
511,147,64166,1,0,0:0:0:0:
305,193,64321,1,0,0:0:0:0:
306,224,64398,1,0,0:0:0:0:
308,256,64475,1,0,0:0:0:0:
310,288,64552,1,0,0:0:0:0:
312,320,64630,6,0,B|235:345|235:294|156:312,1,160
86,351,65094,1,0,0:0:0:0:
100,157,65249,1,0,0:0:0:0:
19,249,65404,1,0,0:0:0:0:
86,351,65558,1,0,0:0:0:0:
256,238,65713,2,0,P|179:221|104:247,1,160
91,77,66177,2,0,P|101:116|124:149,1,80
271,212,66486,1,0,0:0:0:0:
104,246,66641,1,0,0:0:0:0:
104,246,66718,1,0,0:0:0:0:
104,246,66795,1,0,0:0:0:0:
218,61,66950,6,0,P|291:40|346:93,1,160
360,237,67414,2,0,L|351:322,1,80
485,343,67723,1,0,0:0:0:0:
481,311,67800,1,0,0:0:0:0:
478,279,67877,1,0,0:0:0:0:
474,247,67954,1,0,0:0:0:0:
471,215,68032,1,0,0:0:0:0:
346,93,68187,6,0,P|419:113|474:60,1,160
255,36,68651,1,0,0:0:0:0:
225,247,68806,1,0,0:0:0:0:
168,66,68960,1,0,0:0:0:0:
317,180,69115,1,0,0:0:0:0:
150,317,69270,5,0,0:0:0:0:
119,311,69347,1,0,0:0:0:0:
88,305,69424,1,0,0:0:0:0:
57,298,69502,1,0,0:0:0:0:
27,292,69579,1,0,0:0:0:0:
256,192,69618,12,0,72053,0:0:0:0:
81,93,79476,6,0,P|127:93|167:59,1,95.9999970703126
333,161,79940,1,0,0:0:0:0:
333,161,80094,2,0,P|285:160|249:130,1,95.9999970703126
164,177,80558,1,0,0:0:0:0:
164,177,80713,2,0,L|169:275,1,95.9999970703126
172,369,81177,1,0,0:0:0:0:
172,369,81331,1,0,0:0:0:0:
33,235,81641,1,0,0:0:0:0:
33,235,81795,1,0,0:0:0:0:
33,235,81950,6,0,L|135:226,1,95.9999970703126
224,221,82414,1,0,0:0:0:0:
224,221,82569,2,0,P|247:262|249:309,1,95.9999970703126
303,192,83032,1,0,0:0:0:0:
303,192,83187,2,0,P|305:144|328:103,1,95.9999970703126
416,62,83651,1,0,0:0:0:0:
416,62,83806,1,0,0:0:0:0:
486,240,84115,1,0,0:0:0:0:
486,240,84270,1,0,0:0:0:0:
486,240,84424,6,0,L|383:227,1,95.9999970703126
428,316,84888,1,0,0:0:0:0:
428,316,85043,2,0,L|376:309,2,47.9999985351563
256,244,85507,1,0,0:0:0:0:
255,244,85661,2,0,P|237:287|241:335,1,95.9999970703126
136,273,86125,1,0,0:0:0:0:
136,273,86280,2,0,L|125:217,2,47.9999985351563
67,341,86744,1,0,0:0:0:0:
24,255,86898,6,0,L|39:150,1,95.9999970703126
114,48,87362,2,0,L|111:24,4,23.9999992675781
208,167,87826,1,0,0:0:0:0:
241,160,87904,1,0,0:0:0:0:
273,154,87981,1,0,0:0:0:0:
306,149,88058,1,0,0:0:0:0:
339,143,88136,5,0,0:0:0:0:
287,337,88290,1,0,0:0:0:0:
339,143,88445,1,0,0:0:0:0:
287,337,88599,2,0,B|268:353|268:353|249:318,1,64
406,263,88909,2,0,L|438:266,1,32
464,251,89295,1,0,0:0:0:0:
464,251,89373,6,0,L|456:327,1,64
385,192,89682,2,0,L|378:128,1,64
307,252,89992,2,0,P|275:255|244:248,1,64
203,228,90224,1,0,0:0:0:0:
203,228,90302,1,0,0:0:0:0:
256,344,90456,1,0,0:0:0:0:
280,167,90610,6,0,L|274:98,1,64
194,33,90920,2,0,P|225:31|256:21,1,64
404,55,91228,2,0,P|372:53|341:43,1,64
202,142,91538,1,0,0:0:0:0:
358,128,91693,1,0,0:0:0:0:
202,142,91847,6,0,L|172:173,1,32
83,184,92002,2,0,L|105:206,1,32
169,308,92157,2,0,L|176:244,1,64
112,49,92465,2,0,L|119:113,1,64
79,277,92775,2,0,P|47:283|16:277,1,64
24,98,93084,5,0,0:0:0:0:
127,75,93239,1,0,0:0:0:0:
47,201,93394,1,0,0:0:0:0:
62,27,93548,1,0,0:0:0:0:
150,178,93703,2,0,P|181:179|210:166,1,64
288,38,94012,2,0,P|291:69|308:96,1,64
464,160,94322,5,0,0:0:0:0:
303,191,94476,1,0,0:0:0:0:
464,160,94631,1,0,0:0:0:0:
369,42,94786,1,0,0:0:0:0:
397,244,94940,2,0,P|399:275|390:306,1,64
377,327,95172,1,0,0:0:0:0:
377,327,95250,1,0,0:0:0:0:
285,167,95404,6,0,P|221:168|162:193,1,128
47,313,95868,2,0,L|40:249,1,64
102,51,96177,1,0,0:0:0:0:
162,193,96332,1,0,0:0:0:0:
0,154,96486,2,0,P|31:148|63:149,1,64
263,89,96795,6,0,P|231:94|199:94,1,64
309,26,97105,1,0,0:0:0:0:
388,158,97259,2,0,P|356:158|324:152,1,64
447,113,97569,1,0,0:0:0:0:
298,240,97723,2,0,P|269:224|246:199,1,64
396,301,98032,6,0,P|424:283|457:276,1,64
223,284,98342,2,0,P|195:300|164:308,1,64
319,330,98652,5,0,0:0:0:0:
312,292,98729,1,0,0:0:0:0:
307,254,98806,1,0,0:0:0:0:
299,216,98884,1,0,0:0:0:0:
267,195,98961,5,0,0:0:0:0:
271,168,99038,1,0,0:0:0:0:
277,143,99115,1,0,0:0:0:0:
283,118,99193,1,0,0:0:0:0:
289,92,99270,6,0,L|192:86,1,80
280,26,100043,6,0,L|225:21,1,47.9999985351563
106,18,100353,2,0,L|113:121,1,95.9999970703126
121,208,100816,1,0,0:0:0:0:
121,208,101280,5,0,0:0:0:0:
81,273,101435,2,0,L|33:267,1,47.9999985351563
121,208,101744,5,0,0:0:0:0:
130,331,101898,1,0,0:0:0:0:
254,49,102517,6,0,L|259:97,1,47.9999985351563
248,191,102826,2,0,P|260:145|259:97,1,95.9999970703126
352,19,103291,1,0,0:0:0:0:
336,93,103445,1,0,0:0:0:0:
426,35,103599,1,0,0:0:0:0:
410,109,103754,2,0,P|417:131|429:152,1,47.9999985351563
447,163,103987,1,0,0:0:0:0:
446,183,104064,1,0,0:0:0:0:
445,203,104141,1,0,0:0:0:0:
444,220,104219,6,0,L|456:288,1,64
337,345,104527,2,0,L|348:281,1,64
284,192,104837,1,0,0:0:0:0:
205,349,104991,1,0,0:0:0:0:
205,349,105069,1,0,0:0:0:0:
205,349,105146,1,0,0:0:0:0:
252,109,105301,6,0,P|314:108|368:161,1,128
168,81,105765,2,0,P|161:49|161:17,1,64
284,192,106074,2,0,P|314:201|341:218,1,64
129,236,106383,2,0,P|105:257|77:273,1,64
267,94,106692,5,0,0:0:0:0:
239,281,106847,1,0,0:0:0:0:
205,50,107002,5,0,0:0:0:0:
301,325,107156,1,0,0:0:0:0:
138,196,107311,5,0,0:0:0:0:
367,178,107466,1,0,0:0:0:0:
121,101,107621,5,0,0:0:0:0:
364,254,107775,1,0,0:0:0:0:
393,245,107853,1,0,0:0:0:0:
423,235,107930,1,0,0:0:0:0:
255,28,108239,5,0,0:0:0:0:
261,67,108316,1,0,0:0:0:0:
266,106,108393,2,0,L|255:146,3,40
231,232,108703,5,0,0:0:0:0:
193,245,108780,1,0,0:0:0:0:
152,247,108858,1,0,0:0:0:0:
115,230,108935,1,0,0:0:0:0:
77,217,109012,1,0,0:0:0:0:
37,223,109090,1,0,0:0:0:0:
2,241,109166,6,0,P|78:224|104:146,1,160
102,73,109630,1,0,0:0:0:0:
0,19,109785,2,0,P|0:58|14:96,1,80
260,53,110094,1,0,0:0:0:0:
260,53,110249,2,0,L|88:74,1,160
319,129,110712,1,0,0:0:0:0:
421,12,110867,1,0,0:0:0:0:
471,192,111022,1,0,0:0:0:0:
340,44,111176,1,0,0:0:0:0:
340,44,111254,1,0,0:0:0:0:
340,44,111331,1,0,0:0:0:0:
235,239,111486,6,0,B|181:232|181:232|146:201|146:201|87:193,1,160
58,206,111872,1,0,0:0:0:0:
30,223,111950,1,0,0:0:0:0:
122,367,112104,1,0,0:0:0:0:
118,336,112181,1,0,0:0:0:0:
114,305,112259,1,0,0:0:0:0:
284,305,112414,1,0,0:0:0:0:
253,301,112491,1,0,0:0:0:0:
223,297,112569,1,0,0:0:0:0:
459,351,112723,6,0,P|465:272|456:193,1,160
422,121,113187,1,0,0:0:0:0:
299,214,113341,2,0,P|338:220|378:219,1,80
422,121,113651,2,0,L|368:128,1,40
299,52,113806,2,0,L|339:58,1,40
232,96,113960,1,0,0:0:0:0:
201,104,114037,1,0,0:0:0:0:
169,112,114114,6,0,P|94:100|61:32,1,160
142,36,114578,1,0,0:0:0:0:
110,192,114733,1,0,0:0:0:0:
31,51,114888,1,0,0:0:0:0:
198,128,115042,1,0,0:0:0:0:
45,281,115197,2,0,P|5:211|24:122,1,160
142,36,115661,1,0,0:0:0:0:
110,192,115816,1,0,0:0:0:0:
130,18,115970,1,0,0:0:0:0:
211,262,116125,1,0,0:0:0:0:
211,262,116202,1,0,0:0:0:0:
211,262,116279,1,0,0:0:0:0:
339,58,116434,6,0,P|415:57|458:121,1,160
305,279,116898,1,0,0:0:0:0:
274,273,116975,1,0,0:0:0:0:
242,268,117053,1,0,0:0:0:0:
211,262,117130,1,0,0:0:0:0:
180,257,117207,1,0,0:0:0:0:
307,155,117362,1,0,0:0:0:0:
356,357,117517,1,0,0:0:0:0:
483,231,117672,6,0,B|397:220|397:220|359:231,1,120
328,244,117980,1,0,0:0:0:0:
286,63,118135,1,0,0:0:0:0:
307,155,118290,2,0,L|178:145,1,120
149,160,118599,2,0,L|158:203,1,40
84,234,118754,2,0,L|75:277,1,40
180,273,118909,1,0,0:0:0:0:
186,304,118986,1,0,0:0:0:0:
193,334,119063,6,0,P|121:305|47:330,1,160
130,137,119527,1,0,0:0:0:0:
32,192,119682,1,0,0:0:0:0:
105,28,119836,1,0,0:0:0:0:
7,83,119991,1,0,0:0:0:0:
214,59,120146,2,0,P|285:86|302:161,1,160
265,343,120610,2,0,P|254:305|261:266,1,80
410,192,120919,1,0,0:0:0:0:
347,308,121074,1,0,0:0:0:0:
347,308,121151,1,0,0:0:0:0:
347,308,121228,1,0,0:0:0:0:
225,139,121383,6,0,L|65:153,1,160
190,232,121847,1,0,0:0:0:0:
158,234,121924,1,0,0:0:0:0:
126,237,122001,1,0,0:0:0:0:
17,352,122156,1,0,0:0:0:0:
49,355,122233,1,0,0:0:0:0:
81,357,122310,1,0,0:0:0:0:
209,370,122465,1,0,0:0:0:0:
169,172,122620,6,0,P|102:161|49:243,1,160
297,88,123084,1,0,0:0:0:0:
297,88,123238,2,0,P|334:74|374:75,1,80
512,157,123547,1,0,0:0:0:0:
462,19,123702,1,0,0:0:0:0:
463,50,123779,1,0,0:0:0:0:
465,82,123856,1,0,0:0:0:0:
467,114,123933,1,0,0:0:0:0:
469,146,124011,6,0,B|467:207|467:207|445:239|445:239|444:298,1,160
500,367,124475,1,0,0:0:0:0:
392,182,124630,1,0,0:0:0:0:
363,323,124785,1,0,0:0:0:0:
512,261,124939,1,0,0:0:0:0:
296,239,125094,2,0,L|133:247,1,160
216,72,125558,2,0,L|297:76,1,80
253,151,125867,1,0,0:0:0:0:
137,36,126022,1,0,0:0:0:0:
137,36,126099,1,0,0:0:0:0:
137,36,126176,1,0,0:0:0:0:
20,224,126331,6,0,B|136:248|136:248|172:228,1,160
131,69,126795,1,0,0:0:0:0:
123,149,126950,1,0,0:0:0:0:
250,279,127105,1,0,0:0:0:0:
262,249,127182,1,0,0:0:0:0:
264,217,127259,1,0,0:0:0:0:
255,187,127336,1,0,0:0:0:0:
236,161,127414,1,0,0:0:0:0:
255,36,127569,6,0,P|331:59|410:57,1,160
484,27,128032,1,0,0:0:0:0:
462,210,128187,1,0,0:0:0:0:
332,87,128342,1,0,0:0:0:0:
354,270,128497,1,0,0:0:0:0:
166,43,128651,5,0,0:0:0:0:
161,74,128728,1,0,0:0:0:0:
156,105,128805,1,0,0:0:0:0:
150,136,128883,1,0,0:0:0:0:
145,166,128960,6,0,P|87:176|62:166,1,80
288,115,129270,2,0,P|308:59|329:43,1,80
260,264,129579,1,0,0:0:0:0:
110,109,129733,1,0,0:0:0:0:
110,109,129811,1,0,0:0:0:0:
110,109,129888,1,0,0:0:0:0:
238,192,130043,6,0,L|218:356,1,160
368,114,130507,2,0,P|426:103|451:113,1,80
253,68,130816,1,0,0:0:0:0:
416,185,130970,1,0,0:0:0:0:
416,185,131048,1,0,0:0:0:0:
416,185,131125,1,0,0:0:0:0:
238,192,131280,6,0,L|218:28,1,160
98,241,131744,6,0,P|94:267|83:291,2,53.3333333333333
64,129,132053,2,0,P|43:112|27:90,2,53.3333333333333
177,156,132362,2,0,P|201:146|228:143,2,53.3333333333333
218,297,132672,6,0,P|291:257|355:290,1,160
506,92,133136,2,0,P|433:132|369:99,1,160
301,34,133599,1,0,0:0:0:0:
269,38,133677,1,0,0:0:0:0:
237,44,133754,1,0,0:0:0:0:
205,47,133831,1,0,0:0:0:0:
173,56,133909,5,0,0:0:0:0:
300,152,134063,1,0,0:0:0:0:
147,149,134218,1,0,0:0:0:0:
314,130,134373,1,0,0:0:0:0:
202,226,134527,1,0,0:0:0:0:
206,258,134605,1,0,0:0:0:0:
211,289,134682,1,0,0:0:0:0:
288,129,134837,1,0,0:0:0:0:
145,318,134991,6,0,P|218:361|279:313,1,160
80,224,135455,1,0,0:0:0:0:
42,365,135610,1,0,0:0:0:0:
187,218,135764,1,0,0:0:0:0:
40,71,135919,1,0,0:0:0:0:
30,101,135996,1,0,0:0:0:0:
19,131,136074,1,0,0:0:0:0:
187,218,136228,6,0,L|356:201,1,160
256,103,136692,1,0,0:0:0:0:
422,28,136847,1,0,0:0:0:0:
418,59,136924,1,0,0:0:0:0:
416,91,137002,2,0,P|421:131|444:162,1,80
491,332,137311,1,0,0:0:0:0:
373,282,137465,1,0,0:0:0:0:
261,344,137620,6,0,P|196:342|150:306,1,120
136,240,137929,1,0,0:0:0:0:
136,240,138084,1,0,0:0:0:0:
63,345,138239,1,0,0:0:0:0:
227,264,138393,1,0,0:0:0:0:
75,163,138548,1,0,0:0:0:0:
75,163,138625,1,0,0:0:0:0:
75,163,138703,1,0,0:0:0:0:
75,163,138780,1,0,0:0:0:0:
75,163,138857,5,0,0:0:0:0:
136,240,139012,1,0,0:0:0:0:
172,149,139166,1,0,0:0:0:0:
55,179,139321,5,0,0:0:0:0:
159,248,139476,1,0,0:0:0:0:
167,124,139630,1,0,0:0:0:0:
79,258,139785,5,0,0:0:0:0:
217,189,139940,1,0,0:0:0:0:
203,22,140094,5,0,0:0:0:0:
128,184,140249,1,0,0:0:0:0:
306,168,140404,1,0,0:0:0:0:
174,10,140558,5,0,0:0:0:0:
132,213,140713,1,0,0:0:0:0:
329,149,140868,1,0,0:0:0:0:
105,101,141022,5,0,0:0:0:0:
245,229,141177,1,0,0:0:0:0:
256,14,141331,5,0,0:0:0:0:
234,245,141486,1,0,0:0:0:0:
174,10,141641,5,0,0:0:0:0:
304,193,141796,1,0,0:0:0:0:
339,21,141950,5,0,0:0:0:0:
245,229,142105,1,0,0:0:0:0:
115,69,142259,5,0,0:0:0:0:
164,304,142414,1,0,0:0:0:0:
386,91,142569,5,0,0:0:0:0:
338,339,142724,1,0,0:0:0:0:
299,85,142878,5,0,0:0:0:0:
420,321,143033,1,0,0:0:0:0:
463,48,143187,5,0,0:0:0:0:
287,267,143342,1,0,0:0:0:0:
124,65,143496,5,0,0:0:0:0:
124,65,143574,1,0,0:0:0:0:
124,65,143651,1,0,0:0:0:0:
124,65,143728,1,0,0:0:0:0:
124,65,143806,6,0,P|146:141|108:212,1,160
42,252,144270,1,0,0:0:0:0:
182,343,144424,2,0,L|176:263,1,80
256,143,144733,2,0,L|261:222,1,80
364,309,145043,6,0,P|422:303|450:246,2,120
256,143,145661,2,0,L|248:23,2,120
225,285,146280,6,0,L|144:280,1,80
325,192,146589,2,0,L|406:197,1,80
184,149,146898,2,0,L|91:144,1,80
318,24,147207,2,0,L|411:29,1,80
149,79,147517,6,0,P|137:41|141:1,1,80
325,192,147826,2,0,P|336:229|333:269,1,80
222,344,148136,5,0,0:0:0:0:
184,338,148213,1,0,0:0:0:0:
146,332,148290,1,0,0:0:0:0:
108,324,148368,1,0,0:0:0:0:
71,334,148445,5,0,0:0:0:0:
66,307,148522,1,0,0:0:0:0:
63,281,148599,1,0,0:0:0:0:
61,255,148677,1,0,0:0:0:0:
59,229,148754,6,0,L|57:123,1,95.9999970703126
97,67,149218,1,0,0:0:0:0:
155,179,149373,2,0,P|201:170|239:141,1,95.9999970703126
181,29,149837,2,0,P|134:37|97:67,1,95.9999970703126
239,141,150301,2,0,L|295:135,1,47.9999985351563
398,192,150610,6,0,P|441:164|494:171,2,95.9999970703126
405,199,151538,1,0,0:0:0:0:
405,199,151692,1,0,0:0:0:0:
405,199,151847,2,0,L|398:294,1,95.9999970703126
251,323,152311,2,0,P|299:321|339:344,1,95.9999970703126
184,353,152775,1,0,0:0:0:0:
191,276,152929,1,0,0:0:0:0:
191,276,153007,1,0,0:0:0:0:
191,276,153084,2,0,L|189:221,1,47.9999985351563
130,178,153393,1,0,0:0:0:0:
130,157,153470,1,0,0:0:0:0:
131,137,153547,1,0,0:0:0:0:
132,116,153624,1,0,0:0:0:0:
132,96,153703,6,0,P|81:79|41:82,1,95.9999970703126
198,136,154166,1,0,0:0:0:0:
198,136,154321,2,0,P|245:138|290:121,1,95.9999970703126
369,76,154785,2,0,L|365:181,1,95.9999970703126
325,237,155249,1,0,0:0:0:0:
360,305,155404,1,0,0:0:0:0:
360,305,155481,1,0,0:0:0:0:
360,304,155558,2,0,P|383:299|407:300,1,47.9999985351563
300,354,155868,2,0,P|276:355|252:349,1,47.9999985351563
194,299,156177,6,0,L|95:301,1,95.9999970703126
45,244,156641,1,0,0:0:0:0:
44,243,156795,2,0,P|23:234|8:216,1,47.9999985351563
84,117,157105,2,0,L|78:165,1,47.9999985351563
163,77,157414,2,0,L|157:29,2,47.9999985351563
254,146,157878,1,0,0:0:0:0:
254,146,157955,1,0,0:0:0:0:
254,146,158032,2,0,L|311:141,1,47.9999985351563
379,38,158342,1,0,0:0:0:0:
392,53,158420,1,0,0:0:0:0:
409,66,158497,1,0,0:0:0:0:
427,74,158574,1,0,0:0:0:0:
447,78,158651,6,0,L|459:146,1,64
389,269,158959,2,0,P|360:256|329:253,1,64
257,284,159269,1,0,0:0:0:0:
439,341,159423,1,0,0:0:0:0:
439,341,159501,1,0,0:0:0:0:
439,341,159578,1,0,0:0:0:0:
195,222,159733,6,0,P|169:278|197:349,1,128
285,139,160197,2,0,P|281:106|271:75,1,64
281,237,160507,1,0,0:0:0:0:
281,237,160661,1,0,0:0:0:0:
178,128,160816,2,0,P|148:114|116:107,1,64
284,14,161125,6,0,P|274:44|271:76,1,64
363,131,161435,2,0,P|394:124|423:110,1,64
457,42,161744,1,0,0:0:0:0:
490,215,161898,1,0,0:0:0:0:
490,215,161976,1,0,0:0:0:0:
490,215,162053,1,0,0:0:0:0:
284,203,162208,6,0,L|271:76,1,128
358,243,162672,2,0,P|357:274|348:305,1,64
283,263,162981,1,0,0:0:0:0:
434,291,163136,1,0,0:0:0:0:
296,363,163290,1,0,0:0:0:0:
142,333,163445,1,0,0:0:0:0:
142,333,163522,1,0,0:0:0:0:
142,333,163599,6,0,P|80:317|17:329,1,128
101,141,164063,1,0,0:0:0:0:
56,234,164218,1,0,0:0:0:0:
196,199,164373,1,0,0:0:0:0:
196,199,164450,1,0,0:0:0:0:
196,199,164527,1,0,0:0:0:0:
115,13,164682,6,0,L|101:141,1,128
270,113,165146,2,0,P|263:83|246:56,1,64
196,199,165455,1,0,0:0:0:0:
396,155,165610,1,0,0:0:0:0:
396,155,165687,1,0,0:0:0:0:
396,155,165764,2,0,P|426:147|453:130,1,64
271,41,166074,5,0,0:0:0:0:
209,222,166228,1,0,0:0:0:0:
397,186,166383,1,0,0:0:0:0:
254,32,166538,5,0,0:0:0:0:
262,270,166692,1,0,0:0:0:0:
465,144,166847,1,0,0:0:0:0:
239,23,167002,5,0,0:0:0:0:
397,186,167156,1,0,0:0:0:0:
104,241,167311,1,0,0:0:0:0:
104,241,168548,5,0,0:0:0:0:
147,64,178445,6,0,L|155:164,1,95.9999970703126
119,228,178909,1,0,0:0:0:0:
87,297,179063,2,0,L|91:347,1,47.9999985351563
162,315,179373,1,0,0:0:0:0:
162,314,179527,2,0,P|206:297|254:299,1,95.9999970703126
413,351,179991,2,0,P|365:353|321:336,1,95.9999970703126
319,259,180455,1,0,0:0:0:0:
319,259,180764,6,0,L|332:153,1,95.9999970703126
378,103,181228,2,0,L|403:96,2,23.9999992675781
301,91,181538,2,0,P|292:69|288:46,1,47.9999985351563
219,13,181847,1,0,0:0:0:0:
149,46,182002,2,0,P|146:93|128:138,1,95.9999970703126
82,198,182465,1,0,0:0:0:0:
82,198,182620,2,0,P|64:243|61:291,1,95.9999970703126
158,208,183084,2,0,L|256:199,1,95.9999970703126
253,199,183703,5,0,0:0:0:0:
253,199,184012,2,0,L|246:254,1,47.9999985351563
240,323,184321,1,0,0:0:0:0:
396,321,184476,2,0,P|357:294|310:291,1,95.9999970703126
240,323,184940,2,0,L|191:333,1,47.9999985351563
130,288,185249,2,0,L|81:278,2,47.9999985351563
122,211,185713,6,0,L|111:115,1,95.9999970703126
135,42,186177,2,0,P|156:30|179:26,1,47.9999985351563
256,30,186486,2,0,L|286:21,2,23.9999992675781
215,95,186795,1,0,0:0:0:0:
236,169,186950,1,0,0:0:0:0:
305,202,187105,5,0,0:0:0:0:
85,101,187259,1,0,0:0:0:0:
444,30,187569,5,0,0:0:0:0:
345,355,187723,1,0,0:0:0:0:
181,24,188032,5,0,0:0:0:0:
186,72,188110,1,0,0:0:0:0:
193,119,188187,1,0,0:0:0:0:
200,166,188264,1,0,0:0:0:0:
207,213,188342,6,0,L|198:294,1,80
42,103,188651,2,0,P|82:97|120:105,1,80
219,241,188960,1,0,0:0:0:0:
79,176,189115,1,0,0:0:0:0:
207,43,189270,1,0,0:0:0:0:
339,192,189424,2,0,L|321:350,1,160
412,159,189888,1,0,0:0:0:0:
236,259,190043,1,0,0:0:0:0:
337,88,190198,1,0,0:0:0:0:
444,329,190352,1,0,0:0:0:0:
444,329,190430,1,0,0:0:0:0:
444,329,190507,1,0,0:0:0:0:
215,101,190662,6,0,B|335:88|335:88|372:99,1,160
389,72,191048,1,0,0:0:0:0:
405,44,191126,1,0,0:0:0:0:
485,191,191280,1,0,0:0:0:0:
469,163,191358,1,0,0:0:0:0:
453,135,191435,1,0,0:0:0:0:
366,278,191589,1,0,0:0:0:0:
382,250,191667,1,0,0:0:0:0:
398,222,191744,1,0,0:0:0:0:
424,353,191898,6,0,P|348:370|285:324,1,160
250,213,192363,1,0,0:0:0:0:
94,348,192517,2,0,L|173:341,1,80
250,213,192827,2,0,L|199:201,1,40
99,182,192981,2,0,L|138:173,1,40
204,117,193136,1,0,0:0:0:0:
210,86,193213,1,0,0:0:0:0:
218,55,193290,6,0,L|54:38,1,160
130,124,193754,1,0,0:0:0:0:
295,45,193909,1,0,0:0:0:0:
204,205,194064,1,0,0:0:0:0:
277,18,194218,1,0,0:0:0:0:
438,147,194373,6,0,P|361:149|305:94,1,160
395,60,194837,1,0,0:0:0:0:
336,223,194992,1,0,0:0:0:0:
381,30,195146,1,0,0:0:0:0:
471,237,195301,1,0,0:0:0:0:
471,237,195378,1,0,0:0:0:0:
471,237,195455,1,0,0:0:0:0:
304,93,195610,6,0,P|231:65|154:83,1,160
208,307,196074,1,0,0:0:0:0:
212,276,196151,1,0,0:0:0:0:
216,244,196229,1,0,0:0:0:0:
220,213,196306,1,0,0:0:0:0:
224,182,196383,1,0,0:0:0:0:
129,242,196538,1,0,0:0:0:0:
299,349,196693,1,0,0:0:0:0:
449,218,196847,6,0,P|389:221|335:186,1,120
317,156,197156,1,0,0:0:0:0:
415,122,197311,1,0,0:0:0:0:
258,277,197465,6,0,P|207:248|148:248,1,120
117,258,197775,2,0,L|125:218,1,40
196,167,197929,2,0,L|188:127,1,40
119,73,198084,1,0,0:0:0:0:
132,44,198162,1,0,0:0:0:0:
145,15,198239,6,0,P|218:45|297:36,1,160
373,13,198703,1,0,0:0:0:0:
307,194,198857,2,0,B|289:156|295:116,1,80
416,133,199167,1,0,0:0:0:0:
354,310,199322,2,0,P|294:269|203:274,1,160
74,332,199785,1,0,0:0:0:0:
204,292,199940,1,0,0:0:0:0:
78,169,200095,1,0,0:0:0:0:
159,361,200249,1,0,0:0:0:0:
159,361,200327,1,0,0:0:0:0:
159,361,200404,1,0,0:0:0:0:
219,143,200559,6,0,P|143:126|78:168,1,160
305,200,201022,1,0,0:0:0:0:
314,169,201100,1,0,0:0:0:0:
323,139,201177,1,0,0:0:0:0:
191,36,201332,1,0,0:0:0:0:
200,66,201409,1,0,0:0:0:0:
209,97,201487,1,0,0:0:0:0:
284,70,201641,1,0,0:0:0:0:
191,36,201795,6,0,L|29:58,1,160
123,140,202260,1,0,0:0:0:0:
284,70,202414,2,0,L|363:80,1,80
229,162,202723,1,0,0:0:0:0:
361,326,202878,1,0,0:0:0:0:
385,305,202955,1,0,0:0:0:0:
397,275,203032,1,0,0:0:0:0:
394,242,203110,1,0,0:0:0:0:
384,211,203187,6,0,B|279:188|279:188|227:199,1,160
171,256,203651,1,0,0:0:0:0:
241,359,203806,1,0,0:0:0:0:
102,321,203961,1,0,0:0:0:0:
280,258,204115,1,0,0:0:0:0:
162,92,204270,2,0,P|125:160|150:234,1,160,0|0,2:0|0:0,0:0:0:0:
261,39,204734,2,0,P|257:78|269:116,1,80
346,199,205043,1,0,0:0:0:0:
184,13,205198,1,0,0:0:0:0:
184,13,205275,1,0,0:0:0:0:
184,13,205352,1,0,0:0:0:0:
344,69,205507,6,0,P|417:89|472:36,1,160
322,192,205971,2,0,P|279:188|234:213,1,80
165,331,206280,1,0,0:0:0:0:
133,323,206357,1,0,0:0:0:0:
101,317,206434,1,0,0:0:0:0:
70,310,206511,1,0,0:0:0:0:
39,304,206589,1,0,0:0:0:0:
49,88,206744,6,0,P|122:68|177:121,1,160
308,25,207208,1,0,0:0:0:0:
256,254,207363,1,0,0:0:0:0:
204,25,207517,1,0,0:0:0:0:
275,339,207672,1,0,0:0:0:0:
493,93,207827,5,0,0:0:0:0:
462,99,207904,1,0,0:0:0:0:
431,105,207981,1,0,0:0:0:0:
400,112,208059,1,0,0:0:0:0:
370,118,208136,1,0,0:0:0:0:
256,192,208174,12,0,210610,0:0:0:0:
206,157,213084,5,0,0:0:0:0:
199,142,213162,1,0,0:0:0:0:
193,127,213239,1,0,0:0:0:0:
143,206,213394,1,0,0:0:0:0:
237,44,213548,1,0,0:0:0:0:
143,206,213703,2,0,P|141:246|153:284,1,80
271,172,214012,1,0,0:0:0:0:
109,78,214166,1,0,0:0:0:0:
271,172,214322,5,0,0:0:0:0:
131,91,214476,1,0,0:0:0:0:
259,34,214631,1,0,0:0:0:0:
156,104,214785,1,0,0:0:0:0:
342,95,214940,1,0,0:0:0:0:
185,39,215095,1,0,0:0:0:0:
173,28,215172,1,0,0:0:0:0:
168,12,215249,1,0,0:0:0:0:
271,172,215404,6,0,L|112:152,1,160
337,234,215868,2,0,P|369:212|408:208,1,80
499,322,216177,1,0,0:0:0:0:
495,337,216255,1,0,0:0:0:0:
490,353,216332,1,0,0:0:0:0:
498,210,216486,1,0,0:0:0:0:
389,349,216641,6,0,P|356:326|317:322,1,80
260,199,216950,1,0,0:0:0:0:
214,334,217105,1,0,0:0:0:0:
366,294,217259,2,0,L|360:215,1,80
323,124,217569,1,0,0:0:0:0:
177,246,217724,1,0,0:0:0:0:
146,254,217801,1,0,0:0:0:0:
114,254,217878,1,0,0:0:0:0:
84,244,217955,1,0,0:0:0:0:
56,228,218033,5,0,0:0:0:0:
56,212,218110,1,0,0:0:0:0:
58,196,218188,1,0,0:0:0:0:
114,32,218342,1,0,0:0:0:0:
133,154,218497,1,0,0:0:0:0:
256,47,218652,1,0,0:0:0:0:
148,141,218806,1,0,0:0:0:0:
316,125,218961,1,0,0:0:0:0:
89,216,219115,1,0,0:0:0:0:
189,7,219270,5,0,0:0:0:0:
239,189,219425,1,0,0:0:0:0:
83,100,219579,1,0,0:0:0:0:
287,28,219733,1,0,0:0:0:0:
227,229,219889,1,0,0:0:0:0:
392,117,220043,1,0,0:0:0:0:
389,101,220120,1,0,0:0:0:0:
387,85,220198,1,0,0:0:0:0:
364,207,220352,6,0,L|453:196,1,80
316,125,220661,1,0,0:0:0:0:
412,269,220816,1,0,0:0:0:0:
489,119,220971,1,0,0:0:0:0:
310,233,221126,1,0,0:0:0:0:
308,249,221203,1,0,0:0:0:0:
308,265,221280,1,0,0:0:0:0:
415,353,221435,1,0,0:0:0:0:
232,249,221589,1,0,0:0:0:0:
383,363,221744,5,0,0:0:0:0:
316,125,221899,1,0,0:0:0:0:
307,285,222053,5,0,0:0:0:0:
374,47,222208,1,0,0:0:0:0:
220,196,222362,5,0,0:0:0:0:
460,135,222517,1,0,0:0:0:0:
197,125,222672,5,0,0:0:0:0:
483,206,222827,1,0,0:0:0:0:
267,46,222981,5,0,0:0:0:0:
263,30,223058,1,0,0:0:0:0:
259,14,223136,1,0,0:0:0:0:
220,196,223290,5,0,0:0:0:0:
361,77,223445,1,0,0:0:0:0:
176,39,223599,5,0,0:0:0:0:
208,220,223754,1,0,0:0:0:0:
186,21,223909,5,0,0:0:0:0:
119,129,224063,1,0,0:0:0:0:
317,182,224218,5,0,0:0:0:0:
111,153,224373,1,0,0:0:0:0:
263,30,224527,5,0,0:0:0:0:
201,247,224682,1,0,0:0:0:0:
104,48,224837,5,0,0:0:0:0:
47,275,224991,1,0,0:0:0:0:
49,291,225069,1,0,0:0:0:0:
51,306,225146,1,0,0:0:0:0:
3,29,225301,6,0,P|39:43|79:38,1,80
174,19,225610,1,0,0:0:0:0:
117,246,225764,1,0,0:0:0:0:
31,110,225919,1,0,0:0:0:0:
265,166,226074,1,0,0:0:0:0:
270,180,226151,1,0,0:0:0:0:
275,194,226228,5,0,0:0:0:0:
281,146,226306,1,0,0:0:0:0:
289,98,226383,1,0,0:0:0:0:
210,43,226538,1,0,0:0:0:0:
217,260,226692,5,0,0:0:0:0:
259,280,226769,1,0,0:0:0:0:
306,275,226846,1,0,0:0:0:0:
344,246,226923,1,0,0:0:0:0:
361,202,227001,1,0,0:0:0:0:
394,166,227079,1,0,0:0:0:0:
441,165,227156,1,0,0:0:0:0:
468,203,227233,1,0,0:0:0:0:
457,250,227311,5,0,0:0:0:0:
409,255,227388,1,0,0:0:0:0:
385,213,227465,1,0,0:0:0:0:
394,166,227543,1,0,0:0:0:0:
417,124,227620,1,0,0:0:0:0:
414,76,227697,1,0,0:0:0:0:
397,30,227775,5,0,0:0:0:0:
256,192,227852,12,0,236435,0:0:0:0:
