osu file format v14

[General]
AudioFilename: audio.mp3
AudioLeadIn: 0
PreviewTime: 48348
Countdown: 0
SampleSet: Soft
StackLeniency: 0.4
Mode: 0
LetterboxInBreaks: 0
WidescreenStoryboard: 1

[Editor]
Bookmarks: 2699,7888,13077,18267,33834,39023,49402,59780,75348,80537,88159
DistanceSpacing: 0.6
BeatDivisor: 4
GridSize: 16
TimelineZoom: 2.3

[Metadata]
Title:Astro Lost (Cut Ver.)
TitleUnicode:アストロスト (Cut Ver.)
Artist:Amatsuki
ArtistUnicode:天月
Creator:Guanineso
Version:jasontime's Hard
Source:
Tags:japanese pop j-pop jpop male utaite short cut ver version それはきっと恋でした。 sore wa kitto koi deshita. it must have been love. レフティーモンスターP leftymonster logic_agent logic agent hakashii wanpachi cycopton jasontime12345 reform kujinn anfeargorm ABSOLUTE_EPIC_4 ABSOLUTE EPIC 4
BeatmapID:2459741
BeatmapSetID:1173442

[Difficulty]
HPDrainRate:4
CircleSize:3.8
OverallDifficulty:7
ApproachRate:8
SliderMultiplier:1.35
SliderTickRate:1

[Events]
//Background and Video events
0,0,"bg.jpg",0,0
//Break Periods
//Storyboard Layer 0 (Background)
//Storyboard Layer 1 (Fail)
//Storyboard Layer 2 (Pass)
//Storyboard Layer 3 (Foreground)
//Storyboard Layer 4 (Overlay)
//Storyboard Sound Samples

[TimingPoints]
105,324.324324324324,4,2,85,100,1,0
1726,-133.333333333333,4,2,85,100,0,0
2699,-200,4,2,85,55,0,0
4321,-133.333333333333,4,2,85,55,0,0
5618,-200,4,2,85,55,0,0
6267,-400,4,2,85,55,0,0
7888,-100,4,2,85,95,0,0
10077,-100,4,2,85,5,0,0
10159,-100,4,2,85,95,0,0
15591,-100,4,2,85,5,0,0
15672,-100,4,2,85,95,0,0
18267,-133.333333333333,4,2,85,75,0,0
28645,-133.333333333333,4,2,85,75,0,0
33834,-117.647058823529,4,2,85,75,0,0
37645,-117.647058823529,4,2,85,5,0,0
37726,-117.647058823529,4,2,85,75,0,0
39023,-142.857142857143,4,2,85,75,0,0
44213,-250,4,2,85,55,0,0
46564,-133.333333333333,4,2,85,55,0,0
46807,-100,4,2,85,75,0,0
48104,-200,4,2,85,75,0,0
48429,-500,4,2,85,75,0,0
49402,-100,4,2,85,95,0,1
49726,-83.3333333333333,4,2,85,95,0,1
54915,-83.3333333333333,4,2,85,95,0,1
60104,-83.3333333333333,4,2,85,95,0,1
65618,-90.9090909090909,4,2,85,95,0,1
70159,-100,4,2,85,95,0,1
72996,-100,4,2,85,5,0,1
73077,-100,4,2,85,95,0,1
75348,-100,4,2,85,85,0,0
77537,-100,4,2,85,5,0,0
77618,-100,4,2,85,85,0,0
83050,-100,4,2,85,5,0,0
83132,-100,4,2,85,85,0,0
87672,-100,4,2,85,95,0,0

[Colours]
Combo1 : 128,0,255
Combo2 : 0,0,255
Combo3 : 0,128,192
Combo4 : 0,128,255
Combo5 : 128,128,255
Combo6 : 128,128,192

[HitObjects]
110,64,1726,6,0,P|159:72|223:90,1,101.250003862381,2|2,0:0|0:0,0:0:0:0:
306,165,2375,1,2,0:0:0:0:
315,157,2699,6,0,B|308:112|351:69|351:69|266:107|251:198|305:248|354:219,1,337.5,2|2,0:0|0:0,0:0:0:0:
426,121,4645,5,2,0:0:0:0:
504,215,4969,1,2,0:0:0:0:
451,268,5132,1,2,0:0:0:0:
491,331,5294,6,0,L|480:392,1,50.6250019311906,2|0,0:0|0:0,0:0:0:0:
322,189,5780,6,0,L|312:146,1,33.75,2|0,0:0|0:0,0:0:0:0:
152,249,6267,6,0,B|119:328|119:328|156:361,1,135,2|0,0:0|1:0,0:0:0:0:
99,152,7888,6,0,P|66:141|48:109,1,67.5,14|0,0:0|1:0,0:0:0:0:
64,39,8213,1,0,1:0:0:0:
140,6,8375,6,0,L|226:26,1,67.5,14|0,0:0|1:0,0:0:0:0:
260,73,8699,1,0,1:0:0:0:
317,126,8861,6,0,L|395:105,1,67.5,14|0,0:0|1:0,0:0:0:0:
435,38,9186,1,0,1:0:0:0:
512,79,9348,6,0,P|503:38|493:14,2,67.5,14|0|0,0:0|1:0|1:0,0:0:0:0:
463,158,9834,2,0,P|402:137|350:128,1,101.25,14|0,0:0|0:0,0:0:0:0:
349,141,10159,1,10,0:0:0:0:
341,154,10240,1,8,0:0:0:0:
335,166,10321,1,8,0:0:0:0:
265,254,10483,6,0,L|234:177,1,67.5,6|0,1:2|1:0,0:0:0:0:
120,232,10807,1,8,0:0:0:0:
159,157,10969,2,0,P|169:124|175:91,1,67.5,6|0,1:2|1:0,0:0:0:0:
144,9,11294,1,8,0:0:0:0:
159,15,11375,1,8,0:0:0:0:
176,21,11456,2,0,P|217:19|249:-16,1,67.5,6|0,1:2|1:0,0:0:0:0:
324,30,11780,1,8,0:0:0:0:
417,7,11942,6,0,P|403:72|390:157,1,135,6|8,1:2|0:0,0:0:0:0:
416,213,12429,2,0,P|389:185|353:182,1,67.5,6|8,1:2|0:0,0:0:0:0:
299,240,12753,2,0,P|257:261|220:268,1,67.5,2|8,1:2|0:0,0:0:0:0:
152,226,13077,6,0,B|143:189|143:189|105:180,1,67.5,10|2,3:2|1:2,0:0:0:0:
49,115,13402,1,10,0:0:0:0:
105,42,13564,6,0,P|172:50|255:67,1,135,2|2,1:2|1:2,0:0:0:0:
312,110,14050,1,10,0:0:0:0:
387,65,14213,2,0,L|477:46,1,67.5,2|2,0:2|0:0,0:0:0:0:
512,108,14537,1,2,1:2:0:0:
458,174,14699,6,0,P|403:184|366:266,1,135,10|2,0:0|1:2,0:0:0:0:
414,313,15186,1,0,1:2:0:0:
365,379,15348,2,0,L|247:357,1,101.25,10|0,0:0|0:0,0:0:0:0:
214,298,15672,5,2,1:2:0:0:
132,320,15834,1,2,1:2:0:0:
53,345,15996,1,10,0:0:0:0:
0,284,16159,2,0,P|1:242|26:209,1,67.5,2|2,1:2|0:0,0:0:0:0:
75,167,16483,1,2,1:2:0:0:
28,99,16645,2,0,P|43:154|64:242,1,135,10|2,0:0|0:0,0:0:0:0:
135,275,17132,5,6,1:2:0:0:
213,247,17294,1,10,0:0:0:0:
293,226,17456,1,10,0:0:0:0:
374,221,17618,6,0,P|325:206|314:180,1,67.5,6|10,1:2|0:0,0:0:0:0:
264,113,17942,2,0,P|246:141|231:172,1,67.5,6|10,1:2|0:0,0:0:0:0:
147,155,18267,5,6,1:2:0:0:
136,143,18591,6,8,P|105:132|79:131,1,50.6250019311906,10|0,0:0|0:0,0:0:0:0:
21,85,18915,2,0,P|39:128|52:186,1,101.250003862381,2|10,1:2|0:0,0:0:0:0:
18,256,19402,2,0,L|3:315,2,50.6250019311906,2|0|2,1:2|1:0|1:2,0:0:0:0:
100,288,19888,1,8,0:0:0:0:
209,224,20213,6,0,L|277:211,1,50.6250019311906,0|2,1:0|1:2,0:0:0:0:
328,168,20537,2,0,L|396:188,1,50.6250019311906,10|2,0:0|0:0,0:0:0:0:
415,250,20861,2,0,P|357:280|342:317,1,101.250003862381,2|10,1:2|0:0,0:0:0:0:
389,376,21348,2,0,L|446:362,1,50.6250019311906,2|0,0:0|1:0,0:0:0:0:
512,329,21672,1,2,1:2:0:0:
501,252,21834,2,0,P|482:127|472:43,1,202.500007724762,10|8,0:0|0:0,0:0:0:0:
285,66,22807,5,2,1:2:0:0:
239,2,22969,1,2,1:2:0:0:
164,22,23132,2,0,P|156:42|150:73,1,50.6250019311906,10|2,0:0|1:2,0:0:0:0:
69,108,23456,2,0,P|86:171|105:264,1,151.875005793572,2|2,1:2|0:0,0:0:0:0:
67,324,24104,2,0,P|88:253|156:226,1,151.875005793572,2|2,1:2|1:2,0:0:0:0:
226,279,24753,2,0,P|269:299|320:316,1,101.250003862381,2|8,1:2|0:0,0:0:0:0:
497,189,25402,5,2,1:2:0:0:
430,228,25564,1,2,1:2:0:0:
469,296,25726,2,0,P|434:286|411:258,1,50.6250019311906,10|2,0:0|0:0,0:0:0:0:
345,229,26050,2,0,P|363:179|375:124,1,101.250003862381,2|8,1:2|0:0,0:0:0:0:
221,0,26699,2,0,P|254:17|284:76,1,101.250003862381,2|8,1:2|0:0,0:0:0:0:
216,134,27186,1,2,1:2:0:0:
153,80,27348,6,0,L|35:64,1,101.250003862381,2|10,1:2|0:0,0:0:0:0:
0,148,27834,1,2,0:0:0:0:
64,195,27996,2,0,L|78:246,1,50.6250019311906,2|2,1:2|1:2,0:0:0:0:
40,341,28321,2,0,L|12:336,2,25.3125009655953,8|8|8,0:0|0:0|0:0,0:0:0:0:
119,384,28645,6,0,L|190:370,1,50.6250019311906,4|0,1:2|1:0,0:0:0:0:
242,294,28969,1,10,0:0:0:0:
226,281,29294,6,0,L|206:218,2,50.6250019311906,2|10|2,1:2|0:0|0:2,0:0:0:0:
314,332,29780,2,0,P|356:314|377:262,1,101.250003862381,10|2,0:0|1:2,0:0:0:0:
332,191,30267,1,8,0:0:0:0:
467,133,30591,6,0,L|480:71,1,50.6250019311906,0|2,1:0|1:2,0:0:0:0:
434,20,30915,1,10,0:0:0:0:
260,9,31240,6,0,L|155:25,1,101.250003862381,2|10,1:2|0:0,0:0:0:0:
92,71,31726,2,0,P|82:97|75:134,1,50.6250019311906,2|0,0:0|1:0,0:0:0:0:
168,169,32050,2,0,P|163:139|157:119,2,50.6250019311906,10|2|10,0:0|1:2|0:0,0:0:0:0:
125,242,32537,2,0,P|75:250|43:290,1,101.250003862381,2|8,0:0|0:0,0:0:0:0:
51,365,33023,1,0,1:0:0:0:
126,384,33186,6,0,L|186:369,1,50.6250019311906,2|2,1:2|1:2,0:0:0:0:
223,297,33510,2,0,L|278:317,1,50.6250019311906,10|10,0:0|0:0,0:0:0:0:
323,384,33834,6,0,P|370:379|414:321,1,114.750002188683,6|8,1:2|0:0,0:0:0:0:
386,251,34321,1,2,0:0:0:0:
426,176,34483,2,0,P|453:167|488:162,1,57.3750010943413,2|0,0:0|1:0,0:0:0:0:
466,78,34807,2,0,P|439:87|404:92,1,57.3750010943413,8|2,0:0|0:0,0:0:0:0:
317,66,35132,6,0,P|295:17|233:1,1,114.750002188683,2|8,1:2|0:0,0:0:0:0:
167,53,35618,1,2,0:0:0:0:
215,117,35780,2,0,L|225:193,1,57.3750010943413,2|2,1:2|1:2,0:0:0:0:
158,238,36104,1,10,0:0:0:0:
168,231,36429,6,0,B|136:198|136:198|11:225,1,172.125003283024,6|2,1:2|1:2,0:0:0:0:
39,298,37077,6,0,P|68:304|108:318,1,57.3750010943413,2|0,1:2|1:0,0:0:0:0:
165,383,37402,2,0,P|207:367|223:319,1,86.0625016415119,8|0,0:0|0:0,0:0:0:0:
200,258,37726,5,2,1:2:0:0:
275,187,37888,1,8,0:0:0:0:
278,197,37969,1,8,0:0:0:0:
281,208,38050,1,10,0:2:0:0:
403,340,38375,5,2,1:2:0:0:
421,263,38537,1,10,0:0:0:0:
460,194,38699,1,2,1:2:0:0:
391,267,39023,6,0,L|357:124,1,141.749995674133,6|0,1:2|1:0,0:0:0:0:
368,46,39672,1,10,0:0:0:0:
153,140,39996,5,2,1:2:0:0:
95,93,40159,2,0,P|44:84|-6:79,2,94.4999971160889,2|10|2,1:2|0:0|0:0,0:0:0:0:
160,157,40969,6,0,P|153:181|144:220,1,47.2499985580445,10|2,0:0|0:0,0:0:0:0:
81,260,41294,1,2,1:2:0:0:
223,369,41618,6,0,P|266:354|330:337,1,94.4999971160889,6|2,1:2|0:2,0:0:0:0:
368,274,42104,2,0,P|360:244|331:223,1,47.2499985580445,2|8,1:2|0:0,0:0:0:0:
452,101,42591,5,0,1:0:0:0:
423,31,42753,2,0,P|412:75|398:122,1,94.4999971160889,2|10,1:2|0:0,0:0:0:0:
319,141,43240,1,0,1:0:0:0:
308,131,43564,5,8,1:2:0:0:
223,105,43726,1,8,0:0:0:0:
167,57,43888,1,10,1:2:0:0:
134,30,44050,1,2,1:2:0:0:
116,32,44213,5,2,0:0:0:0:
116,32,46645,6,0,L|109:61,1,25.3125009655953,0|0,1:0|1:0,0:0:0:0:
98,68,46807,6,0,L|163:340,1,270,10|8,0:0|0:0,0:0:0:0:
235,372,47618,1,8,0:0:0:0:
238,363,47699,1,8,0:0:0:0:
242,354,47780,2,0,P|268:335|318:324,1,67.5,8|8,0:0|0:0,0:0:0:0:
373,269,48104,1,6,0:2:0:0:
491,354,48429,6,0,L|476:303,1,54,2|2,0:0|0:0,0:0:0:0:
512,172,49402,6,0,P|492:198|459:206,1,67.5,6|0,1:3|1:0,0:0:0:0:
399,135,49726,2,0,P|315:111|225:100,1,161.999995056153,10|0,1:2|1:0,0:0:0:0:
164,138,50213,1,0,1:0:0:0:
77,123,50375,2,0,P|95:179|103:208,1,80.9999975280763,8|0,0:0|0:0,0:0:0:0:
79,290,50699,5,0,1:0:0:0:
95,305,51023,6,0,P|166:289|271:270,2,161.999995056153,10|2|10,0:0|1:2|0:0,0:0:0:0:
283,348,51996,6,0,P|325:355|377:369,1,80.9999975280763,2|0,1:2|1:0,0:0:0:0:
416,289,52321,2,0,P|358:248|357:150,1,161.999995056153,10|0,0:0|1:0,0:0:0:0:
422,109,52807,1,0,1:0:0:0:
382,33,52969,2,0,P|340:21|293:14,1,80.9999975280763,8|0,0:0|0:0,0:0:0:0:
219,41,53294,5,0,1:0:0:0:
204,51,53618,6,0,L|188:137,1,80.9999975280763,10|2,0:0|0:0,0:0:0:0:
121,194,53942,2,0,P|153:214|174:280,1,80.9999975280763,2|0,1:2|1:0,0:0:0:0:
199,346,54267,1,10,0:0:0:0:
281,320,54429,2,0,P|360:305|459:296,1,161.999995056153,2|0,0:2|1:0,0:0:0:0:
495,349,54915,6,0,P|504:298|516:261,1,80.9999975280763,10|2,0:0|0:0,0:0:0:0:
448,188,55240,2,0,P|406:215|368:224,1,80.9999975280763,2|0,1:2|1:0,0:0:0:0:
280,187,55564,2,0,P|300:141|311:101,1,80.9999975280763,10|0,0:0|0:2,0:0:0:0:
262,31,55888,6,0,P|339:20|423:-1,2,161.999995056153,2|10|2,1:2|0:0|1:2,0:0:0:0:
181,12,56699,1,0,1:0:0:0:
112,58,56861,1,10,0:0:0:0:
104,73,57186,6,0,L|129:162,1,80.9999975280763,6|0,1:2|1:0,0:0:0:0:
82,232,57510,1,10,0:0:0:0:
78,243,57591,1,8,0:0:0:0:
74,254,57672,2,0,P|111:240|164:240,1,80.9999975280763,6|0,1:2|1:0,0:0:0:0:
208,299,57996,1,10,0:0:0:0:
287,267,58159,6,0,L|455:303,1,161.999995056153,6|8,1:2|0:0,0:0:0:0:
508,234,58645,1,8,0:0:0:0:
505,223,58726,1,8,0:0:0:0:
501,213,58807,2,0,L|419:195,1,80.9999975280763,10|8,0:0|0:0,0:0:0:0:
341,127,59132,5,10,0:0:0:0:
426,99,59294,1,0,1:0:0:0:
330,140,59456,2,8,P|287:134|267:99,1,80.9999975280763,10|8,0:0|0:0,0:0:0:0:
183,28,59780,6,0,P|170:65|160:122,1,80.9999975280763,6|0,1:3|1:0,0:0:0:0:
74,156,60104,2,0,P|91:224|125:338,1,161.999995056153,10|0,0:0|1:0,0:0:0:0:
193,357,60591,1,0,1:0:0:0:
256,299,60753,2,0,P|295:286|346:279,1,80.9999975280763,8|0,0:0|0:0,0:0:0:0:
426,318,61077,1,0,1:0:0:0:
415,304,61402,6,0,P|387:196|373:131,2,161.999995056153,10|2|10,0:0|1:2|0:0,0:0:0:0:
479,153,62375,6,0,P|496:98|509:72,1,80.9999975280763,6|0,1:2|1:0,0:0:0:0:
448,4,62699,2,0,P|401:62|323:39,1,161.999995056153,10|0,0:0|1:0,0:0:0:0:
238,24,63186,1,0,1:0:0:0:
163,71,63348,2,0,P|180:123|189:170,1,80.9999975280763,8|0,0:0|0:0,0:0:0:0:
145,229,63672,5,0,1:0:0:0:
133,239,63996,6,8,P|81:236|38:225,1,80.9999975280763,8|0,0:0|0:0,0:0:0:0:
8,155,64321,1,2,1:2:0:0:
47,371,64645,1,10,0:0:0:0:
117,319,64807,2,0,P|156:322|288:347,1,161.999995056153,2|0,0:2|1:0,0:0:0:0:
347,384,65294,2,0,P|383:361|392:320,1,80.9999975280763,10|2,0:0|0:0,0:0:0:0:
347,257,65618,2,0,P|353:214|367:169,1,74.2500022659302,2|0,1:2|1:0,0:0:0:0:
417,129,65942,1,10,0:0:0:0:
403,137,66267,6,0,P|316:120|238:104,2,148.50000453186,2|10|2,1:2|0:0|1:2,0:0:0:0:
198,217,67240,5,10,0:0:0:0:
129,176,67402,1,2,0:0:0:0:
53,195,67564,2,0,P|37:118|19:50,1,148.50000453186,6|10,1:2|0:0,0:0:0:0:
80,0,68050,2,0,P|138:-3|203:71,1,148.50000453186,6|10,1:2|0:0,0:0:0:0:
288,105,68537,1,6,1:2:0:0:
234,169,68699,2,0,P|224:203|214:249,1,74.2500022659302,8|8,0:0|0:0,0:0:0:0:
137,226,69023,6,0,P|64:257|-3:299,1,148.50000453186,10|8,0:0|0:0,0:0:0:0:
167,310,69510,2,0,P|210:324|243:339,1,74.2500022659302,10|0,0:0|1:0,0:0:0:0:
325,384,69834,1,8,0:0:0:0:
394,332,69996,1,2,1:2:0:0:
316,373,70159,6,0,L|295:231,1,135,6|2,1:2|1:2,0:0:0:0:
400,191,70645,2,0,L|315:308,1,135,14|0,0:0|1:0,0:0:0:0:
209,189,71132,2,0,L|289:217,1,67.5,8|2,0:0|0:0,0:0:0:0:
417,200,71456,6,0,P|442:125|472:54,1,135,6|2,1:2|0:2,0:0:0:0:
397,22,71942,2,0,P|332:53|270:73,1,135,14|0,0:0|1:0,0:0:0:0:
271,162,72429,2,0,P|307:184|332:211,1,67.5,14|0,0:0|0:0,0:0:0:0:
301,294,72753,5,6,1:2:0:0:
284,289,73077,5,2,1:2:0:0:
209,334,73240,2,0,P|172:340|131:351,1,67.5,2|8,1:2|1:2,0:0:0:0:
57,380,73564,1,10,1:2:0:0:
9,315,73726,1,8,1:2:0:0:
37,238,73888,6,0,P|23:159|9:95,1,135,14|0,1:2|0:0,0:0:0:0:
56,33,74375,5,2,0:0:0:0:
215,72,74699,1,2,0:0:0:0:
376,110,75023,1,2,0:0:0:0:
364,100,75348,6,0,P|331:111|313:143,1,67.5,14|0,0:0|1:0,0:0:0:0:
352,203,75673,1,0,1:0:0:0:
430,196,75835,6,0,L|446:269,1,67.5,14|0,0:0|1:0,0:0:0:0:
512,305,76159,1,0,1:0:0:0:
458,369,76321,6,0,P|420:370|397:344,1,67.5,14|0,0:0|1:0,0:0:0:0:
323,330,76646,1,0,1:0:0:0:
259,281,76807,6,0,P|300:272|324:262,2,67.5,14|0|0,0:0|1:0|1:0,0:0:0:0:
198,343,77294,2,0,P|137:322|85:313,1,101.25,14|0,0:0|0:0,0:0:0:0:
81,323,77619,1,10,0:0:0:0:
85,335,77700,1,8,0:0:0:0:
89,350,77781,1,8,0:0:0:0:
152,277,77943,6,0,P|161:233|173:197,1,67.5,6|0,1:2|1:0,0:0:0:0:
220,148,78267,1,8,0:0:0:0:
205,71,78429,2,0,P|233:80|278:88,1,67.5,6|0,1:2|1:0,0:0:0:0:
328,150,78754,1,8,0:0:0:0:
335,139,78835,1,8,0:0:0:0:
346,130,78915,2,0,P|383:122|429:115,1,67.5,6|0,1:2|1:0,0:0:0:0:
494,86,79240,1,8,0:0:0:0:
481,3,79402,6,0,P|467:68|454:153,1,135,6|8,1:2|0:0,0:0:0:0:
484,213,79888,2,0,P|457:185|421:182,1,67.5,6|8,1:2|0:0,0:0:0:0:
365,236,80213,2,0,P|323:257|286:264,1,67.5,2|8,1:2|0:0,0:0:0:0:
223,241,80537,6,0,B|192:244|192:244|183:280,1,67.5,10|2,3:2|1:2,0:0:0:0:
118,350,80862,1,10,0:0:0:0:
31,310,81023,6,0,P|23:243|6:160,1,135,2|2,1:2|1:2,0:0:0:0:
49,99,81510,1,10,0:0:0:0:
127,142,81672,2,0,P|132:179|142:215,1,67.5,2|2,1:2|0:0,0:0:0:0:
219,246,81997,1,2,1:2:0:0:
298,208,82159,6,0,P|353:218|390:300,1,135,10|2,0:0|1:2,0:0:0:0:
463,320,82646,1,2,1:2:0:0:
512,248,82808,2,0,L|493:148,1,101.25,10|0,0:0|0:0,0:0:0:0:
477,139,83132,5,2,1:2:0:0:
389,115,83294,1,2,1:2:0:0:
304,87,83456,1,10,0:0:0:0:
220,66,83619,6,0,P|178:67|145:92,1,67.5,2|2,1:2|0:0,0:0:0:0:
122,163,83943,1,2,1:2:0:0:
205,143,84105,2,0,P|260:158|349:188,1,135,10|2,0:0|0:0,0:0:0:0:
389,236,84592,5,6,1:2:0:0:
311,261,84754,1,10,0:0:0:0:
239,299,84916,1,2,1:2:0:0:
204,362,85078,6,0,P|250:348|261:323,1,67.5,6|2,1:2|1:2,0:0:0:0:
180,246,85402,2,0,P|152:228|121:213,1,67.5,10|10,0:0|0:0,0:0:0:0:
171,118,85726,6,0,L|236:102,2,67.5,14|2|2,0:0|0:0|1:2,0:0:0:0:
295,202,86213,2,0,L|230:184,2,67.5,14|2|2,0:0|0:0|1:2,0:0:0:0:
208,290,86699,2,0,L|278:276,2,67.5,14|2|2,0:0|0:0|1:2,0:0:0:0:
282,384,87186,2,0,L|217:365,1,67.5,14|2,0:0|0:0,0:0:0:0:
139,377,87510,1,2,1:2:0:0:
128,379,87591,1,0,1:0:0:0:
117,381,87672,5,14,1:2:0:0:
42,330,87834,1,10,1:2:0:0:
13,250,87996,1,10,1:2:0:0:
41,170,88159,1,14,1:2:0:0:
