osu file format v14

[General]
AudioFilename: audio.mp3
AudioLeadIn: 0
PreviewTime: 48348
Countdown: 0
SampleSet: Soft
StackLeniency: 0.2
Mode: 0
LetterboxInBreaks: 0
WidescreenStoryboard: 1

[Editor]
Bookmarks: 2699,13077,23456,33834,44213,54591,64969,75348,85726
DistanceSpacing: 1
BeatDivisor: 4
GridSize: 32
TimelineZoom: 2.6

[Metadata]
Title:Astro Lost (Cut Ver.)
TitleUnicode:アストロスト (Cut Ver.)
Artist:Amatsuki
ArtistUnicode:天月
Creator:Guanineso
Version:hakapachi's Normal
Source:
Tags:japanese pop j-pop jpop male utaite short cut ver version それはきっと恋でした。 sore wa kitto koi deshita. it must have been love. レフティーモンスターP leftymonster logic_agent logic agent hakashii wanpachi cycopton jasontime12345 reform kujinn anfeargorm ABSOLUTE_EPIC_4 ABSOLUTE EPIC 4
BeatmapID:2467658
BeatmapSetID:1173442

[Difficulty]
HPDrainRate:3
CircleSize:3.2
OverallDifficulty:4.5
ApproachRate:6
SliderMultiplier:1
SliderTickRate:1

[Events]
//Background and Video events
0,0,"bg.jpg",0,0
//Break Periods
//Storyboard Layer 0 (Background)
//Storyboard Layer 1 (Fail)
//Storyboard Layer 2 (Pass)
//Storyboard Layer 3 (Foreground)
//Storyboard Layer 4 (Overlay)
//Storyboard Sound Samples

[TimingPoints]
105,324.324324324324,4,2,85,100,1,0
2699,-100,4,2,85,55,0,0
3023,-111.111111111111,4,2,85,55,0,0
3996,-100,4,2,85,55,0,0
7888,-100,4,2,85,95,0,0
18267,-100,4,2,85,75,0,0
44213,-100,4,2,85,55,0,0
46807,-100,4,2,85,75,0,0
49402,-100,4,2,85,95,0,1
73888,-100,4,2,85,95,0,0
75348,-100,4,2,85,85,0,0
87672,-100,4,2,85,95,0,0

[Colours]
Combo1 : 128,0,255
Combo2 : 0,0,255
Combo3 : 0,128,192
Combo4 : 0,128,255
Combo5 : 128,128,255
Combo6 : 128,128,192

[HitObjects]
79,59,2699,5,2,0:0:0:0:
169,17,3023,2,0,P|256:82|149:185,1,269.999991760254,2|2,0:0|0:0,0:0:0:0:
109,263,4321,2,0,P|53:237|12:233,2,100,2|2|2,0:0|0:0|0:0,0:0:0:0:
144,298,5132,1,2,0:0:0:0:
144,298,5294,1,2,0:0:0:0:
241,274,5618,1,2,0:0:0:0:
256,192,5780,12,0,7240,0:0:0:0:
454,66,7888,6,0,P|404:77|348:98,1,100,14|0,0:0|1:0,0:0:0:0:
320,126,8375,2,0,P|295:86|245:48,1,100,14|0,0:0|1:0,0:0:0:0:
204,56,8861,2,0,L|139:67,1,50,14|0,0:0|1:0,0:0:0:0:
54,69,9348,1,14,0:0:0:0:
54,69,9510,1,0,1:0:0:0:
18,162,9834,2,0,P|5:183|-1:207,1,50,14|0,0:0|1:0,0:0:0:0:
10,256,10159,1,10,0:0:0:0:
16,355,10483,6,0,P|62:327|124:318,1,100,6|8,1:2|0:0,0:0:0:0:
154,335,10969,2,0,P|200:363|262:372,1,100,6|8,1:2|0:0,0:0:0:0:
292,355,11456,2,0,P|298:330|298:305,1,50,6|0,1:2|1:0,0:0:0:0:
337,213,11942,1,6,1:2:0:0:
337,213,12104,1,0,1:0:0:0:
263,146,12429,2,0,L|273:82,1,50,6|8,1:2|0:0,0:0:0:0:
286,49,12753,1,2,1:2:0:0:
382,78,13077,6,0,B|424:72|447:107|448:94|441:113|466:144|528:135,1,150,10|2,3:2|1:2,0:0:0:0:
500,236,13888,1,2,1:2:0:0:
500,236,14050,2,0,P|505:267|511:297,1,50,10|2,0:0|0:2,0:0:0:0:
419,332,14537,2,0,P|421:308|421:282,1,50,2|10,1:2|0:0,0:0:0:0:
388,243,14861,1,0,1:2:0:0:
388,243,15023,2,0,P|342:258|283:273,1,100,2|10,1:2|0:0,0:0:0:0:
223,343,15672,6,0,P|154:339|122:271,1,150,2|2,1:2|1:2,0:0:0:0:
36,219,16483,1,2,1:2:0:0:
36,219,16645,2,0,P|45:185|52:148,1,50,10|2,0:0|1:2,0:0:0:0:
79,76,17132,2,0,P|71:45|66:20,2,50,6|10|10,1:2|0:0|0:0,0:0:0:0:
120,104,17618,2,0,L|188:93,1,50,6|10,1:2|0:0,0:0:0:0:
218,85,17942,2,0,P|243:106|258:132,1,50,6|10,1:2|0:0,0:0:0:0:
275,165,18267,5,6,1:2:0:0:
374,156,18591,2,8,P|393:54|396:38,2,100,10|2|10,0:0|1:2|0:0,0:0:0:0:
402,197,19402,2,0,B|434:197|452:224|442:226|447:216|458:247|498:246,1,100,2|2,1:2|1:2,0:0:0:0:
511,288,19888,1,8,0:0:0:0:
423,336,20213,2,0,P|435:360|446:398,2,50,0|2|10,1:0|1:2|0:0,0:0:0:0:
329,302,20861,5,2,1:2:0:0:
232,316,21186,1,10,0:0:0:0:
232,316,21348,2,0,P|197:291|111:343,1,150,2|10,0:0|0:0,0:0:0:0:
92,381,21996,1,0,1:0:0:0:
6,330,22321,1,0,1:0:0:0:
6,330,22483,1,8,0:0:0:0:
48,239,22807,2,0,P|73:235|96:227,2,50,2|2|10,1:2|1:2|0:0,0:0:0:0:
11,145,23456,6,0,P|64:75|88:75,1,100,2|8,1:2|0:0,0:0:0:0:
108,46,23942,1,2,0:0:0:0:
108,46,24104,2,0,P|165:40|243:30,1,100,2|8,1:2|0:0,0:0:0:0:
300,69,24753,1,2,1:2:0:0:
206,246,25402,2,0,P|208:263|219:303,2,50,2|2|10,1:2|1:2|0:0,0:0:0:0:
112,211,26050,6,0,L|98:313,1,100,2|8,1:2|0:0,0:0:0:0:
86,358,26537,1,2,0:0:0:0:
86,358,26699,2,0,P|135:375|201:363,1,100,2|8,1:2|0:0,0:0:0:0:
282,366,27348,2,0,P|301:315|295:260,1,100,2|10,1:2|0:0,0:0:0:0:
318,224,27834,2,0,L|419:209,1,100,2|2,0:0|1:2,0:0:0:0:
463,190,28321,1,8,0:0:0:0:
505,99,28645,5,4,1:2:0:0:
436,26,28969,1,10,0:0:0:0:
341,57,29294,2,0,P|286:36|234:24,1,100,2|2,1:2|0:2,0:0:0:0:
204,54,29780,2,0,P|165:111|119:110,1,100,10|2,0:0|1:2,0:0:0:0:
100,82,30267,1,8,0:0:0:0:
48,167,30591,2,0,P|10:171|-8:175,2,50,0|2|10,1:0|1:2|0:0,0:0:0:0:
113,242,31239,5,2,1:2:0:0:
209,214,31564,1,10,0:0:0:0:
209,214,31726,2,0,P|264:237|275:293,1,100,2|10,0:0|0:0,0:0:0:0:
304,314,32213,2,0,L|400:299,1,50,2|10,1:2|0:0,0:0:0:0:
434,247,32699,1,0,1:0:0:0:
434,247,32861,1,8,0:0:0:0:
437,146,33186,2,0,L|452:29,1,100,2|10,1:2|0:0,0:0:0:0:
353,25,33834,6,0,P|291:17|253:72,1,100,6|8,1:2|0:0,0:0:0:0:
230,75,34321,1,2,0:0:0:0:
230,75,34483,2,0,P|161:78|121:48,1,100,2|8,0:0|0:0,0:0:0:0:
52,8,35132,1,2,1:2:0:0:
4,149,35618,1,2,0:0:0:0:
4,149,35780,2,0,P|22:197|40:269,1,100,2|10,1:2|0:0,0:0:0:0:
82,332,36429,6,0,B|137:329|147:280|135:288|150:297|152:247|215:250,1,150,6|2,1:2|1:2,0:0:0:0:
236,215,37077,1,2,1:2:0:0:
332,247,37402,2,0,P|341:280|347:318,1,50,8|2,0:0|0:0,0:0:0:0:
377,332,37726,1,2,1:2:0:0:
468,291,38050,2,0,P|473:236|481:166,1,100,10|2,0:2|1:2,0:0:0:0:
465,142,38537,1,10,0:0:0:0:
465,142,38699,1,2,1:2:0:0:
489,45,39023,6,0,P|378:51|378:91,1,150,6|0,1:2|1:0,0:0:0:0:
359,106,39672,1,10,0:0:0:0:
282,170,39996,2,0,P|257:163|220:149,1,50,2|2,1:2|1:2,0:0:0:0:
154,94,40483,1,10,0:0:0:0:
64,137,40807,1,2,0:0:0:0:
64,137,40969,2,0,P|23:188|41:242,1,100,10|2,0:0|1:2,0:0:0:0:
58,313,41618,5,6,1:2:0:0:
150,274,41942,2,0,P|198:271|219:271,1,50,2|2,0:2|1:2,0:0:0:0:
296,295,42429,1,2,0:0:0:0:
296,295,42591,2,0,B|344:280|371:329|357:334|362:315|377:378|441:358,2,150,0|10|8,1:0|0:0|1:2,0:0:0:0:
271,201,43888,1,10,1:2:0:0:
338,127,44213,5,2,0:0:0:0:
122,126,46807,6,0,P|101:82|54:69,2,100,10|8|8,0:0|0:0|0:0,0:0:0:0:
99,170,47618,2,0,L|110:218,1,50,8|8,0:0|0:0,0:0:0:0:
95,266,47942,1,8,0:0:0:0:
95,266,48104,1,6,0:2:0:0:
489,331,49402,5,6,1:3:0:0:
427,252,49726,2,0,P|403:193|428:142,1,100,10|0,1:2|1:0,0:0:0:0:
443,121,50213,1,0,1:0:0:0:
443,121,50375,1,8,0:0:0:0:
352,78,50699,1,0,1:0:0:0:
266,129,51023,2,0,L|200:115,1,50,10|0,0:0|0:0,0:0:0:0:
168,105,51348,2,0,L|186:225,1,100,2|10,1:2|0:0,0:0:0:0:
218,239,51834,1,2,0:0:0:0:
218,239,51996,5,2,1:2:0:0:
160,319,52321,2,0,P|98:343|46:319,1,100,10|0,0:0|1:0,0:0:0:0:
27,304,52807,1,0,1:0:0:0:
27,304,52969,1,8,0:0:0:0:
51,206,53294,2,0,P|70:159|77:109,1,100,0|10,1:0|0:0,0:0:0:0:
39,18,53942,2,0,L|148:33,1,100,2|10,1:2|0:0,0:0:0:0:
185,15,54429,1,2,0:2:0:0:
185,15,54591,5,4,1:2:0:0:
261,78,54915,2,0,P|269:122|284:178,2,100,10|2|10,0:0|1:2|0:0,0:0:0:0:
355,44,55888,2,0,P|419:60|433:103,1,100,2|10,1:2|0:0,0:0:0:0:
455,131,56375,1,2,0:0:0:0:
455,131,56537,2,0,P|431:188|420:236,1,100,2|10,1:2|0:0,0:0:0:0:
462,316,57186,5,6,1:2:0:0:
372,360,57510,1,10,0:0:0:0:
372,360,57672,2,0,P|332:329|266:337,1,100,6|10,1:2|0:0,0:0:0:0:
240,353,58159,1,6,1:2:0:0:
155,299,58483,1,8,0:0:0:0:
66,344,58807,2,0,P|61:295|62:237,1,100,10|10,0:0|0:0,0:0:0:0:
102,214,59294,1,0,1:0:0:0:
102,214,59456,1,10,0:0:0:0:
33,141,59780,5,6,1:3:0:0:
91,59,60104,2,0,P|144:50|204:26,1,100,10|0,0:0|1:0,0:0:0:0:
229,7,60591,1,0,1:0:0:0:
229,7,60753,1,8,0:0:0:0:
301,76,61077,1,0,1:0:0:0:
254,165,61402,2,0,P|249:195|246:222,1,50,10|0,0:0|0:0,0:0:0:0:
214,252,61726,2,0,P|252:304|314:284,1,100,2|10,1:2|0:0,0:0:0:0:
372,260,62375,5,6,1:2:0:0:
452,318,62699,2,0,P|481:230|499:191,1,100,10|0,0:0|1:0,0:0:0:0:
509,180,63186,1,0,1:0:0:0:
509,180,63348,1,8,0:0:0:0:
465,90,63672,2,0,P|427:78|394:70,1,50,0|0,1:0|1:0,0:0:0:0:
372,52,63996,1,8,0:0:0:0:
296,118,64321,2,0,P|206:152|179:162,1,100,2|10,1:2|0:0,0:0:0:0:
154,139,64807,1,2,0:2:0:0:
154,139,64969,5,4,1:2:0:0:
59,105,65294,2,0,P|37:59|58:14,2,100,10|2|10,0:0|1:2|0:0,0:0:0:0:
75,203,66267,2,0,L|58:314,1,100,2|10,1:2|0:0,0:0:0:0:
132,370,66915,2,0,P|170:335|233:338,1,100,2|10,1:2|0:0,0:0:0:0:
261,353,67402,1,2,0:0:0:0:
261,353,67565,5,6,1:2:0:0:
360,352,67889,1,10,0:0:0:0:
360,352,68051,2,0,L|377:250,1,100,6|10,1:2|0:0,0:0:0:0:
414,220,68537,2,0,L|405:169,1,50,6|8,1:2|0:0,0:0:0:0:
440,134,68862,1,8,0:0:0:0:
382,52,69186,1,8,0:0:0:0:
289,90,69510,2,0,P|298:125|299:173,2,75,10|2|2,0:0|1:2|1:2,0:0:0:0:
243,69,70159,6,0,L|134:79,1,100,6|2,1:2|1:2,0:0:0:0:
96,94,70645,1,14,0:0:0:0:
41,177,70969,2,0,P|40:210|48:245,1,50,0|8,1:0|0:0,0:0:0:0:
47,276,71294,1,2,0:0:0:0:
47,276,71456,2,0,P|88:248|141:251,1,100,6|2,1:2|0:2,0:0:0:0:
174,282,71942,1,14,0:0:0:0:
258,335,72267,1,0,1:0:0:0:
258,335,72429,1,14,0:0:0:0:
348,289,72753,6,0,L|328:168,1,100,6|2,1:2|1:2,0:0:0:0:
365,153,73240,2,0,L|375:92,1,50,2|8,1:2|1:2,0:0:0:0:
333,72,73564,2,0,L|323:11,1,50,10|8,1:2|1:2,0:0:0:0:
275,14,73888,1,14,1:2:0:0:
154,103,74375,2,0,P|119:74|53:77,2,100,2|2|2,0:0|0:0|0:0,0:0:0:0:
142,202,75348,6,0,P|148:252|153:310,1,100,14|0,0:0|1:0,0:0:0:0:
178,344,75834,2,0,P|226:350|267:313,1,100,14|0,0:0|1:0,0:0:0:0:
306,291,76321,2,0,P|333:297|358:303,1,50,14|0,0:0|1:0,0:0:0:0:
432,364,76807,1,14,0:0:0:0:
432,364,76969,1,0,1:0:0:0:
505,296,77294,2,0,P|495:273|486:235,1,50,14|0,0:0|1:0,0:0:0:0:
442,230,77618,1,10,0:0:0:0:
455,131,77942,6,0,P|504:87|491:43,1,100,6|8,1:2|0:0,0:0:0:0:
467,20,78429,2,0,P|429:13|358:-5,1,100,6|8,1:2|0:0,0:0:0:0:
326,23,78915,2,0,P|300:31|268:44,1,50,6|0,1:2|1:0,0:0:0:0:
184,73,79402,1,6,1:2:0:0:
184,73,79564,1,0,1:0:0:0:
110,5,79888,2,0,P|81:6|43:23,1,50,6|8,1:2|0:0,0:0:0:0:
20,41,80213,1,2,1:2:0:0:
23,141,80537,6,0,B|67:128|98:177|77:188|91:164|93:225|169:213,1,150,10|2,3:2|1:2,0:0:0:0:
242,227,81348,1,2,1:2:0:0:
242,227,81510,2,0,P|248:253|251:288,1,50,10|2,0:0|1:2,0:0:0:0:
304,360,81996,1,2,1:2:0:0:
304,360,82159,2,0,P|356:346|410:337,2,100,10|2|10,0:0|1:2|0:0,0:0:0:0:
204,369,83132,6,0,P|106:354|38:338,1,150,2|2,1:2|1:2,0:0:0:0:
4,259,83942,1,2,1:2:0:0:
4,259,84104,2,0,P|20:211|25:198,1,50,10|2,0:0|1:2,0:0:0:0:
60,120,84591,2,0,P|51:88|40:55,2,50,6|10|2,1:2|0:0|1:2,0:0:0:0:
95,155,85077,1,6,1:2:0:0:
192,132,85402,2,0,L|200:82,1,50,10|10,0:0|0:0,0:0:0:0:
192,33,85726,6,0,P|259:14|300:19,1,100,14|2,0:0|1:2,0:0:0:0:
319,56,86213,2,0,L|443:69,1,100,14|2,0:0|1:2,0:0:0:0:
467,58,86699,1,14,0:0:0:0:
494,154,87023,1,2,1:2:0:0:
494,154,87186,2,0,P|500:203|475:246,1,100,14|2,0:0|1:2,0:0:0:0:
439,280,87672,2,0,L|365:267,1,50,14|10,1:2|1:2,0:0:0:0:
345,247,87996,1,10,1:2:0:0:
345,247,88159,5,14,1:2:0:0:
